osu file format v14

[General]
AudioFilename: audio.mp3
AudioLeadIn: 0
PreviewTime: 66267
Countdown: 0
SampleSet: Soft
StackLeniency: 0.7
Mode: 0
LetterboxInBreaks: 0
WidescreenStoryboard: 1

[Editor]
DistanceSpacing: 1.4
BeatDivisor: 4
GridSize: 32
TimelineZoom: 1.8

[Metadata]
Title:Ultraviolet
TitleUnicode:Ultraviolet
Artist:Fred V & Grafix
ArtistUnicode:Fred V & Grafix
Creator:Dayno
Version:Hard
Source:
Tags:mrpotato electronic liquid funk dnb drum & and 'n' bass english chelsea watts female vocalist vocals oxygen hospital records collab collaboration ultra violet
BeatmapID:2643866
BeatmapSetID:1272355

[Difficulty]
HPDrainRate:5
CircleSize:3.5
OverallDifficulty:7
ApproachRate:8
SliderMultiplier:1.2
SliderTickRate:1

[Events]
//Background and Video events
0,0,"PotatoSmile.jpg",0,0
//Break Periods
//Storyboard Layer 0 (Background)
//Storyboard Layer 1 (Fail)
//Storyboard Layer 2 (Pass)
//Storyboard Layer 3 (Foreground)
//Storyboard Layer 4 (Overlay)
//Storyboard Sound Samples

[TimingPoints]
61,344.827586206897,4,2,1,50,1,0
61,-100,4,2,1,50,0,0
21440,-100,4,2,1,60,0,0
22129,-200,4,2,1,40,0,0
24802,-200,4,2,1,5,0,0
24888,-200,4,2,1,40,0,0
41354,-200,4,2,1,5,0,0
41440,-200,4,2,1,40,0,0
44112,-200,4,2,1,5,0,0
44198,-100,4,2,1,50,0,0
55233,-83.3333333333333,4,2,2,55,0,0
60750,-76.9230769230769,4,2,2,60,0,0
63509,-76.9230769230769,4,2,3,60,0,0
66267,-71.4285714285714,4,2,3,65,0,1
84198,-76.9230769230769,4,2,1,50,0,0
85578,-76.9230769230769,4,2,3,60,0,0
88336,-71.4285714285714,4,2,3,60,0,1
104888,-71.4285714285714,4,2,1,50,0,1
105233,-200,4,2,1,50,0,0
110405,-100,4,2,1,50,0,0
150405,-100,4,2,1,45,0,0
154457,-100,4,2,1,5,0,0
154543,-200,4,2,1,45,0,0
162733,-200,4,2,1,5,0,0
162819,-200,4,2,1,45,0,0
165578,-100,4,2,1,50,0,0
171095,-76.9230769230769,4,2,2,55,0,0
173854,-76.9230769230769,4,2,3,60,0,0
176612,-71.4285714285714,4,2,3,65,0,1
194543,-76.9230769230769,4,2,1,50,0,0
195923,-76.9230769230769,4,2,3,60,0,0
198681,-71.4285714285714,4,2,3,65,0,1
215233,-66.6666666666667,4,2,1,50,0,0
215578,-100,4,2,1,50,0,0

[Colours]
Combo1 : 109,18,52
Combo2 : 200,6,74
Combo3 : 27,27,180
Combo4 : 101,65,245

[HitObjects]
66,30,61,6,0,L|59:98,1,60,0|0,3:0|0:0,0:0:0:0:
32,168,405,2,0,L|46:239,1,60,0|0,3:0|0:0,0:0:0:0:
113,273,750,1,8,0:1:0:0:
185,229,923,2,0,L|227:239,2,30,0|0|0,0:0|0:0|0:0,0:0:0:0:
120,175,1267,1,8,0:0:0:0:
189,127,1440,6,0,P|231:111|258:111,1,60,0|8,0:0|0:0,0:0:0:0:
324,140,1785,2,0,P|366:156|393:156,1,60,0|0,3:0|0:0,0:0:0:0:
440,98,2129,1,8,0:1:0:0:
183,315,2819,6,0,L|180:246,1,60,0|0,3:0|0:0,0:0:0:0:
233,189,3164,2,0,P|266:186|292:191,1,60,0|0,3:0|0:0,0:0:0:0:
362,237,3509,1,8,0:1:0:0:
442,207,3681,1,0,0:0:0:0:
442,207,3854,1,0,0:0:0:0:
405,131,4026,1,8,0:0:0:0:
438,54,4198,6,0,L|372:44,1,60,0|8,0:0|0:0,0:0:0:0:
301,79,4543,2,0,L|235:89,1,60,0|0,3:0|0:0,0:0:0:0:
158,99,4888,1,8,0:1:0:0:
484,20,5578,6,0,L|479:96,1,60,0|0,3:0|0:0,0:0:0:0:
414,133,5923,2,0,L|417:192,1,60,0|0,3:0|0:0,0:0:0:0:
456,266,6267,1,8,0:1:0:0:
396,325,6440,2,0,L|399:360,2,30,0|0|0,0:0|0:0|0:0,0:0:0:0:
330,272,6785,1,8,0:0:0:0:
255,310,6957,6,0,P|227:310|195:295,1,60,0|8,0:0|0:0,0:0:0:0:
135,240,7302,2,0,P|105:239|78:252,1,60,0|0,3:0|0:0,0:0:0:0:
5,295,7647,1,8,0:1:0:0:
36,48,8336,6,0,L|94:62,1,60,0|0,3:0|0:0,0:0:0:0:
165,107,8681,2,0,L|223:92,1,60,0|0,3:0|0:0,0:0:0:0:
288,38,9026,1,8,0:1:0:0:
350,101,9198,1,0,0:0:0:0:
350,101,9371,1,0,0:0:0:0:
308,173,9543,1,8,0:0:0:0:
378,219,9716,6,0,P|387:254|372:302,1,60,0|8,0:0|0:0,0:0:0:0:
339,349,10061,2,0,P|310:357|280:354,1,60,4|0,3:2|0:0,0:0:0:0:
211,305,10405,1,8,0:1:0:0:
140,347,10578,1,8,3:0:0:0:
140,347,10750,1,4,3:0:0:0:
268,238,11095,6,0,L|210:221,1,60,0|0,3:0|0:0,0:0:0:0:
145,167,11440,2,0,P|153:134|180:102,1,60,0|0,3:0|0:0,0:0:0:0:
233,60,11785,1,8,0:1:0:0:
306,99,11957,2,0,L|322:149,2,30,0|0|0,0:0|0:0|0:0,0:0:0:0:
367,40,12302,1,8,0:0:0:0:
444,72,12474,6,0,P|445:106|437:135,1,60,0|8,0:0|0:0,0:0:0:0:
394,202,12819,2,0,P|393:236|401:265,1,60,0|0,3:0|0:0,0:0:0:0:
445,331,13164,1,8,0:1:0:0:
297,263,13854,6,0,B|270:277|270:277|237:276,1,60,0|0,3:0|0:0,0:0:0:0:
185,213,14198,2,0,B|158:199|158:199|125:200,1,60,0|0,3:0|0:0,0:0:0:0:
45,215,14543,1,8,0:1:0:0:
79,140,14716,1,0,0:0:0:0:
79,140,14888,1,0,0:0:0:0:
39,65,15061,1,8,0:0:0:0:
115,30,15233,6,0,L|175:39,1,60,0|8,0:0|0:0,0:0:0:0:
241,90,15578,2,0,L|300:81,1,60,0|0,3:0|0:0,0:0:0:0:
383,67,15923,1,8,0:1:0:0:
451,348,16612,6,0,P|434:310|435:284,1,60,0|0,3:0|0:0,0:0:0:0:
349,293,16957,2,0,P|351:263|366:237,1,60,0|0,3:0|0:0,0:0:0:0:
431,183,17302,1,8,0:1:0:0:
354,148,17474,2,0,L|311:159,2,30,0|0|0,0:0|0:0|0:0,0:0:0:0:
420,96,17819,1,8,0:0:0:0:
348,50,17992,6,0,P|316:58|287:83,1,60,0|8,0:0|0:0,0:0:0:0:
220,113,18336,2,0,P|188:105|159:80,1,60,0|0,3:0|0:0,0:0:0:0:
111,25,18681,1,8,0:1:0:0:
14,325,19371,6,0,L|26:242,1,60,0|0,3:0|0:0,0:0:0:0:
91,216,19716,2,0,L|83:157,1,60,0|0,3:0|0:0,0:0:0:0:
29,91,20061,1,8,0:1:0:0:
104,51,20233,1,0,0:0:0:0:
104,51,20405,1,0,0:0:0:0:
166,107,20578,1,8,0:0:0:0:
241,69,20750,6,0,P|282:56|310:60,1,60,0|8,0:0|0:0,0:0:0:0:
352,121,21095,2,0,P|379:131|409:132,1,60,0|0,3:0|0:0,0:0:0:0:
490,107,21440,1,8,0:1:0:0:
391,33,22129,5,2,0:0:0:0:
283,98,22647,2,0,P|252:97|201:56,1,90,2|2,0:0|0:0,0:0:0:0:
275,16,23509,5,2,0:0:0:0:
363,105,24026,2,0,L|353:194,1,90,2|2,0:0|0:0,0:0:0:0:
342,277,24888,5,2,0:0:0:0:
190,343,25578,2,0,P|132:347|81:307,2,120,2|2|2,0:0|0:0|0:0,0:0:0:0:
168,176,27647,5,2,0:0:0:0:
88,76,28164,2,0,B|45:67|45:67|-1:77,1,90,2|2,0:0|0:0,0:0:0:0:
44,148,29026,5,2,0:0:0:0:
161,101,29543,2,0,B|206:91|206:91|249:100,1,90,2|2,0:0|0:0,0:0:0:0:
330,121,30405,5,2,0:0:0:0:
398,274,31095,2,0,L|407:155,2,120,2|2|2,0:0|0:0|0:0,0:0:0:0:
491,134,33164,5,2,0:0:0:0:
160,193,34543,5,2,0:0:0:0:
227,142,34888,2,0,L|217:79,2,60,2|2|2,0:0|0:0|0:0,0:0:0:0:
239,225,35923,5,2,0:0:0:0:
339,44,37302,5,2,0:0:0:0:
451,187,38681,5,2,0:0:0:0:
389,244,39026,2,0,L|321:235,1,60,2|2,0:0|0:0,0:0:0:0:
248,211,39716,1,2,0:0:0:0:
178,258,40061,6,0,L|58:246,1,120,2|0,0:0|0:0,0:0:0:0:
136,97,41440,5,2,0:0:0:0:
58,246,42819,5,2,0:0:0:0:
23,92,44198,5,0,3:0:0:0:
77,156,44371,1,0,3:0:0:0:
136,97,44543,2,0,L|222:110,1,60,8|2,0:0|0:0,0:0:0:0:
279,98,44888,2,0,P|268:73|266:33,1,60,0|0,0:0|3:0,0:0:0:0:
348,48,45233,2,0,P|359:75|351:140,1,90,10|0,0:2|3:0,0:0:0:0:
335,172,45578,6,0,P|329:201|343:245,1,60,0|0,3:0|3:0,0:0:0:0:
378,303,45923,1,8,0:0:0:0:
307,347,46095,1,2,0:0:0:0:
239,296,46267,2,0,L|165:310,1,60,0|0,0:0|3:0,0:0:0:0:
99,283,46612,2,0,P|106:238|96:195,1,90,10|0,0:0|3:0,0:0:0:0:
75,158,46957,6,0,L|85:96,1,60,0|0,3:0|3:0,0:0:0:0:
145,40,47302,2,0,L|204:30,1,60,8|0,0:0|0:0,0:0:0:0:
287,18,47647,2,0,P|278:66|265:83,1,60,2|0,0:0|3:0,0:0:0:0:
228,146,47992,2,0,P|237:194|275:222,1,90,10|0,0:0|3:0,0:0:0:0:
308,228,48336,6,0,L|378:215,1,60,2|0,3:2|3:0,0:0:0:0:
439,173,48681,2,0,P|450:127|469:103,1,60,10|0,0:0|0:0,0:0:0:0:
470,33,49026,2,0,P|424:44|400:63,1,60,2|0,0:0|3:0,0:0:0:0:
339,89,49371,2,0,P|305:90|235:49,1,90,10|0,0:0|3:0,0:0:0:0:
218,45,49716,6,0,P|192:31|135:31,1,60,0|0,3:0|3:0,0:0:0:0:
78,38,50061,1,8,0:0:0:0:
128,104,50233,1,2,0:0:0:0:
69,163,50405,2,0,L|58:230,1,60,0|0,0:0|3:0,0:0:0:0:
138,251,50750,2,0,L|149:340,1,90,10|0,0:0|3:0,0:0:0:0:
153,382,51095,6,0,P|189:382|219:367,1,60,0|0,3:0|3:0,0:0:0:0:
270,313,51440,1,8,0:0:0:0:
350,336,51612,2,0,L|418:322,1,60,2|0,0:0|0:0,0:0:0:0:
475,272,51957,1,0,3:0:0:0:
413,214,52129,2,0,L|313:196,1,90,8|0,0:0|3:0,0:0:0:0:
284,213,52474,6,0,L|219:223,1,60,0|0,3:0|3:0,0:0:0:0:
164,162,52819,1,8,0:0:0:0:
185,80,52992,1,0,0:0:0:0:
254,126,53164,2,0,P|273:84|270:59,1,60,2|0,0:0|3:0,0:0:0:0:
339,19,53509,2,0,P|375:46|384:95,1,90,10|0,0:0|3:0,0:0:0:0:
377,129,53854,6,0,P|340:149|327:170,1,60,2|0,3:2|3:0,0:0:0:0:
256,203,54198,2,0,P|219:183|206:162,1,60,10|0,0:0|0:0,0:0:0:0:
135,127,54543,2,0,L|125:197,1,60,2|0,0:0|3:0,0:0:0:0:
55,231,54888,2,0,L|70:332,1,90,10|0,0:0|3:0,0:0:0:0:
70,370,55233,6,0,P|94:349|216:367,1,143.999995605469,8|8,3:0|0:0,0:0:0:0:
271,281,55750,1,0,0:0:0:0:
271,281,55923,2,0,L|286:124,1,143.999995605469,8|8,3:0|0:0,0:0:0:0:
385,114,56440,1,0,0:0:0:0:
385,114,56612,6,0,L|400:271,1,143.999995605469,8|10,3:0|0:0,0:0:0:0:
406,362,57129,1,0,0:0:0:0:
406,362,57302,2,0,B|338:367|338:367|268:307,1,143.999995605469,8|8,3:0|0:0,0:0:0:0:
227,237,57819,1,0,0:0:0:0:
227,237,57992,6,0,P|187:213|157:299,1,143.999995605469,8|8,3:0|0:0,0:0:0:0:
88,366,58509,1,0,0:0:0:0:
88,366,58681,2,0,P|40:336|37:236,1,143.999995605469,8|8,3:0|0:0,0:0:0:0:
128,286,59198,1,0,0:0:0:0:
128,286,59371,6,0,L|279:320,1,143.999995605469,8|10,3:0|0:0,0:0:0:0:
373,314,59888,1,0,0:0:0:0:
373,314,60061,2,0,B|402:243|402:243|362:172,1,143.999995605469,8|10,3:0|0:0,0:0:0:0:
324,93,60578,1,0,0:0:0:0:
268,186,60750,5,8,3:0:0:0:
268,186,60923,1,0,3:0:0:0:
221,92,61095,2,0,L|118:75,1,77.9999964294435,8|0,0:1|0:0,0:0:0:0:
39,64,61440,1,8,3:0:0:0:
39,64,61612,1,0,3:0:0:0:
93,158,61785,2,0,P|101:201|77:257,1,77.9999964294435,8|0,0:1|0:0,0:0:0:0:
22,317,62129,5,8,3:0:0:0:
22,317,62302,1,0,3:0:0:0:
125,350,62474,2,0,L|209:345,1,77.9999964294435,8|0,0:1|0:0,0:0:0:0:
302,295,62819,1,8,3:0:0:0:
302,295,62992,1,0,3:0:0:0:
208,238,63164,2,0,B|171:225|171:225|132:228,1,77.9999964294435,8|0,0:1|0:0,0:0:0:0:
33,274,63509,6,0,L|41:183,1,77.9999964294435,0|0,3:0|3:0,0:0:0:0:
89,98,63854,1,8,3:1:0:0:
186,146,64026,1,0,3:0:0:0:
258,64,64198,2,0,L|342:75,1,77.9999964294435,0|0,3:0|3:0,0:0:0:0:
444,86,64543,1,8,3:1:0:0:
494,183,64716,1,0,3:0:0:0:
418,299,64888,6,0,L|427:247,3,38.9999982147218,0|0|0|0,3:0|3:0|3:0|3:0,0:0:0:0:
393,215,65233,2,0,L|386:176,3,38.9999982147218,0|0|0|0,3:0|3:0|3:0|3:0,0:0:0:0:
423,136,65578,2,0,L|429:97,3,38.9999982147218,0|0|0|0,3:0|3:0|3:0|3:0,0:0:0:0:
393,55,65923,2,0,L|386:16,3,38.9999982147218,0|0|0|0,3:0|3:0|3:0|3:0,0:0:0:0:
347,61,66267,6,0,P|296:65|249:100,1,83.9999974365235,0|0,3:0|0:0,0:0:0:0:
202,178,66612,2,0,L|89:158,1,83.9999974365235,10|0,0:1|0:0,0:0:0:0:
3,142,66957,2,0,P|0:220|80:263,1,167.999994873047,2|10,0:0|0:1,0:0:0:0:
191,256,67474,1,0,0:0:0:0:
191,256,67647,6,0,B|215:291|215:291|214:361,2,83.9999974365235,2|0|8,3:0|0:0|0:1,0:0:0:0:
119,163,68164,2,0,B|84:139|84:139|42:140,2,83.9999974365235,2|0|0,0:0|0:0|3:0,0:0:0:0:
236,155,68681,2,0,P|277:124|353:117,1,125.999996154785,10|0,0:1|0:0,0:0:0:0:
403,140,69026,6,0,L|425:232,1,83.9999974365235,0|0,3:0|0:0,0:0:0:0:
450,336,69371,2,0,P|389:322|357:292,1,83.9999974365235,10|0,0:1|0:0,0:0:0:0:
311,208,69716,2,0,L|291:289,1,83.9999974365235,2|0,0:0|3:0,0:0:0:0:
201,365,70061,2,0,P|167:338|60:325,1,125.999996154785,10|0,0:1|0:0,0:0:0:0:
29,315,70405,6,0,P|37:265|149:248,1,167.999994873047,2|8,3:0|0:1,0:0:0:0:
253,271,70923,2,0,P|332:269|363:196,1,167.999994873047,2|0,0:0|3:0,0:0:0:0:
357,78,71440,2,0,P|322:54|281:54,1,83.9999974365235,10|0,0:1|0:0,0:0:0:0:
166,78,71785,6,0,L|82:88,1,83.9999974365235,0|0,3:0|0:0,0:0:0:0:
2,174,72129,2,0,P|17:212|18:254,1,83.9999974365235,10|0,0:1|0:0,0:0:0:0:
110,328,72474,2,0,P|149:313|190:313,1,83.9999974365235,2|0,0:0|3:0,0:0:0:0:
261,218,72819,2,0,P|322:219|389:253,1,125.999996154785,10|0,0:1|0:0,0:0:0:0:
432,273,73164,6,0,L|453:355,2,83.9999974365235,2|0|8,3:0|0:0|0:1,0:0:0:0:
395,160,73681,2,0,L|416:78,2,83.9999974365235,2|0|2,0:0|0:0|3:0,0:0:0:0:
333,260,74198,2,0,B|276:251|276:251|194:276,1,125.999996154785,10|0,0:1|0:0,0:0:0:0:
155,293,74543,6,0,P|131:241|81:220,1,83.9999974365235,0|0,3:0|0:0,0:0:0:0:
1,180,74888,1,8,0:1:0:0:
87,99,75061,1,2,0:0:0:0:
199,132,75233,2,0,L|283:142,1,83.9999974365235,2|2,0:0|3:0,0:0:0:0:
399,157,75578,2,0,P|389:116|360:86,1,83.9999974365235,10|2,0:1|0:0,0:0:0:0:
254,34,75923,6,0,P|216:16|174:19,1,83.9999974365235,2|0,3:0|0:0,0:0:0:0:
118,126,76267,2,0,P|157:139|198:131,1,83.9999974365235,10|0,0:1|0:0,0:0:0:0:
311,164,76612,2,0,P|353:235|352:318,1,167.999994873047,2|10,0:0|0:1,0:0:0:0:
238,325,77129,1,0,0:0:0:0:
238,325,77216,1,0,0:0:0:0:
238,325,77302,6,0,B|237:276|237:276|205:216,1,83.9999974365235,0|0,3:0|0:0,0:0:0:0:
207,127,77647,2,0,P|167:139|133:163,1,83.9999974365235,10|0,0:1|0:0,0:0:0:0:
58,255,77992,2,0,L|52:171,1,83.9999974365235,2|0,0:0|0:0,0:0:0:0:
12,60,78336,2,0,P|78:48|137:84,1,125.999996154785,10|0,0:1|0:0,0:0:0:0:
176,108,78681,6,0,P|196:60|250:37,2,83.9999974365235,2|0|8,3:0|0:0|0:1,0:0:0:0:
172,225,79198,2,0,P|140:197|99:191,2,83.9999974365235,2|0|0,0:0|0:0|3:0,0:0:0:0:
280,274,79716,2,0,P|325:231|385:214,1,125.999996154785,10|0,0:1|0:0,0:0:0:0:
443,204,80061,6,0,L|430:120,1,83.9999974365235,0|0,3:0|0:0,0:0:0:0:
377,16,80405,2,0,P|325:0|293:6,1,83.9999974365235,10|0,0:1|0:0,0:0:0:0:
230,104,80750,2,0,P|190:118|149:113,1,83.9999974365235,2|0,0:0|3:0,0:0:0:0:
32,126,81095,2,0,P|12:162|9:204,1,83.9999974365235,10|0,0:1|0:0,0:0:0:0:
65,308,81440,6,0,P|143:301|163:225,1,167.999994873047,2|8,3:0|0:1,0:0:0:0:
149,113,81957,2,0,P|227:118|247:195,1,167.999994873047,2|0,0:0|3:0,0:0:0:0:
232,312,82474,2,0,L|365:287,1,125.999996154785,10|0,0:1|0:0,0:0:0:0:
412,272,82819,6,0,P|416:230|401:192,1,83.9999974365235,0|0,3:0|0:0,0:0:0:0:
328,98,83164,2,0,P|289:83|247:88,1,83.9999974365235,10|0,0:1|0:0,0:0:0:0:
163,170,83509,2,0,P|144:206|148:252,1,83.9999974365235,2|0,0:0|3:0,0:0:0:0:
239,327,83854,2,0,L|156:342,1,83.9999974365235,10|0,0:1|0:0,0:0:0:0:
67,279,84198,6,0,P|37:254|0:245,1,77.9999964294435,2|0,3:2|0:0,0:0:0:0:
18,141,84543,1,10,0:0:0:0:
18,141,84716,2,0,P|47:116|85:108,1,77.9999964294435,2|0,0:0|0:0,0:0:0:0:
197,96,85061,1,2,3:2:0:0:
197,96,85233,1,10,0:1:0:0:
418,114,85578,5,0,3:0:0:0:
418,114,85750,1,0,3:0:0:0:
331,181,85923,2,0,L|317:277,1,77.9999964294435,8|2,3:1|3:0,0:0:0:0:
306,369,86267,1,2,3:0:0:0:
306,369,86440,1,2,3:0:0:0:
221,299,86612,2,0,L|207:203,1,77.9999964294435,10|2,3:1|3:0,0:0:0:0:
150,129,86957,6,0,L|195:117,3,38.9999982147218,2|0|0|0,3:0|3:0|3:0|3:0,0:0:0:0:
236,145,87302,2,0,L|277:154,3,38.9999982147218,2|0|0|0,3:0|3:0|3:0|3:0,0:0:0:0:
320,125,87647,2,0,L|371:115,3,38.9999982147218,2|0|0|0,3:0|3:0|3:0|3:0,0:0:0:0:
408,141,87992,2,0,L|457:156,3,38.9999982147218,2|0|0|0,3:0|3:0|3:0|3:0,0:0:0:0:
500,171,88336,6,0,P|499:129|488:88,2,83.9999974365235,0|2|8,3:0|0:0|0:1,0:0:0:0:
453,284,88854,1,2,0:0:0:0:
453,284,88940,1,0,0:0:0:0:
453,284,89026,1,0,0:0:0:0:
382,378,89198,1,0,3:0:0:0:
382,378,89371,2,0,L|232:358,1,125.999996154785,10|0,0:1|0:0,0:0:0:0:
202,338,89716,6,0,L|105:356,1,83.9999974365235,0|0,3:0|0:0,0:0:0:0:
3,377,90061,1,8,0:1:0:0:
69,280,90233,2,0,P|79:232|75:191,1,83.9999974365235,2|0,0:0|0:0,0:0:0:0:
8,100,90578,1,0,3:0:0:0:
97,23,90750,2,0,P|138:20|179:30,1,83.9999974365235,10|0,0:1|0:0,0:0:0:0:
253,122,91095,6,0,L|245:216,2,83.9999974365235,0|2|8,3:0|0:0|0:1,0:0:0:0:
265,11,91612,1,2,0:0:0:0:
265,11,91698,1,0,0:0:0:0:
265,11,91785,1,0,0:0:0:0:
346,102,91957,1,0,3:0:0:0:
346,102,92129,2,0,P|398:112|467:66,1,125.999996154785,10|0,0:1|0:0,0:0:0:0:
500,34,92474,6,0,P|513:73|505:113,1,83.9999974365235,0|2,3:0|0:0,0:0:0:0:
463,224,92819,1,8,0:1:0:0:
494,337,92992,2,0,L|387:349,1,83.9999974365235,2|0,0:0|0:0,0:0:0:0:
293,357,93336,1,0,3:0:0:0:
208,275,93509,2,0,L|124:265,1,83.9999974365235,8|0,0:1|0:0,0:0:0:0:
29,195,93854,6,0,P|2:237|6:282,2,83.9999974365235,0|2|8,3:0|0:0|0:1,0:0:0:0:
132,133,94371,1,2,0:0:0:0:
132,133,94457,1,0,0:0:0:0:
132,133,94543,1,0,0:0:0:0:
244,184,94716,1,0,3:0:0:0:
244,184,94888,2,0,B|281:163|281:163|365:188,1,125.999996154785,10|0,0:1|0:0,0:0:0:0:
412,215,95233,6,0,L|432:118,1,83.9999974365235,0|2,3:0|0:0,0:0:0:0:
456,17,95578,1,8,0:1:0:0:
355,77,95750,2,0,P|313:78|276:58,1,83.9999974365235,2|0,0:0|0:0,0:0:0:0:
171,6,96095,1,0,3:0:0:0:
157,122,96267,2,0,P|176:159|169:213,1,83.9999974365235,10|0,0:1|0:0,0:0:0:0:
92,285,96612,6,0,L|-4:269,2,83.9999974365235,0|2|8,3:0|0:0|0:1,0:0:0:0:
216,309,97129,1,2,0:0:0:0:
216,309,97216,1,0,0:0:0:0:
216,309,97302,1,0,0:0:0:0:
325,364,97474,1,0,3:0:0:0:
325,364,97647,2,0,L|459:340,1,125.999996154785,10|0,0:1|0:0,0:0:0:0:
506,325,97992,6,0,P|505:283|484:247,1,83.9999974365235,0|2,3:0|0:0,0:0:0:0:
408,158,98336,1,8,0:1:0:0:
489,72,98509,2,0,L|408:49,1,83.9999974365235,2|0,0:0|0:0,0:0:0:0:
294,19,98854,1,0,3:0:0:0:
201,91,99026,2,0,L|125:104,3,41.9999987182618,10|0|0|0,0:1|0:0|0:0|0:0,0:0:0:0:
117,140,99371,6,0,P|64:148|34:163,2,83.9999974365235,0|0|8,3:0|0:0|0:1,0:0:0:0:
238,180,99888,1,2,0:0:0:0:
238,179,99974,1,0,0:0:0:0:
238,179,100061,1,0,0:0:0:0:
353,147,100233,1,0,3:0:0:0:
353,147,100405,2,0,B|328:175|328:175|345:275,1,125.999996154785,10|0,0:1|0:0,0:0:0:0:
353,320,100750,6,0,P|311:323|272:339,1,83.9999974365235,0|2,3:0|0:0,0:0:0:0:
162,382,101095,1,8,0:1:0:0:
56,330,101267,2,0,P|41:290|37:249,1,83.9999974365235,2|0,0:0|0:0,0:0:0:0:
84,140,101612,1,0,3:0:0:0:
5,51,101785,2,0,L|87:34,1,83.9999974365235,10|0,0:1|0:0,0:0:0:0:
168,118,102129,6,0,L|151:201,2,83.9999974365235,0|2|8,3:0|0:0|0:1,0:0:0:0:
195,8,102647,1,2,0:0:0:0:
195,8,102733,1,0,0:0:0:0:
195,8,102819,1,0,0:0:0:0:
264,110,102992,1,0,3:0:0:0:
264,110,103164,2,0,P|313:63|379:79,1,125.999996154785,8|0,0:1|0:0,0:0:0:0:
422,90,103509,6,0,P|447:122|452:164,1,83.9999974365235,0|2,3:0|0:0,0:0:0:0:
404,272,103854,1,8,0:1:0:0:
460,374,104026,2,0,L|367:361,1,83.9999974365235,2|0,0:0|0:0,0:0:0:0:
288,283,104371,1,0,3:0:0:0:
181,332,104543,2,0,P|168:292|172:250,1,83.9999974365235,10|0,0:1|0:0,0:0:0:0:
196,135,104888,5,0,3:0:0:0:
398,220,105233,2,0,L|466:247,3,60,2|2|2|2,0:0|0:0|0:0|0:0,0:0:0:0:
478,164,106612,1,2,0:0:0:0:
478,164,106785,2,0,L|441:147,1,30,2|0,0:0|0:0,0:0:0:0:
424,125,107129,1,2,0:0:0:0:
424,125,107302,2,0,L|385:134,1,30,2|0,0:0|0:0,0:0:0:0:
354,145,107647,5,0,0:0:0:0:
269,37,108164,1,2,0:0:0:0:
269,37,108336,2,0,P|258:57|256:77,1,30,2|2,0:0|0:0,0:0:0:0:
234,100,108681,2,0,P|245:120|247:140,1,30,2|2,0:0|0:0,0:0:0:0:
249,168,109026,6,0,P|218:169|179:164,3,60,2|2|2|2,0:0|0:0|0:0|0:0,0:0:0:0:
72,288,110405,6,0,P|124:308|136:329,1,60,2|0,3:2|0:0,0:0:0:0:
208,281,110750,2,0,P|189:238|192:153,1,120,8|0,0:0|0:0,0:0:0:0:
222,94,111267,1,0,3:0:0:0:
301,121,111440,2,0,L|377:104,1,60,8|0,0:0|0:0,0:0:0:0:
410,175,111785,6,0,L|468:188,1,60,2|0,3:2|0:0,0:0:0:0:
428,261,112129,2,0,B|380:251|380:251|304:308,1,120,8|0,0:0|0:0,0:0:0:0:
262,234,112647,1,0,3:0:0:0:
208,298,112819,2,0,P|163:280|142:275,1,60,8|0,0:0|0:0,0:0:0:0:
67,276,113164,6,0,P|85:231|90:210,1,60,2|0,3:2|0:0,0:0:0:0:
127,145,113509,2,0,P|118:116|106:88,2,60,8|0|0,0:0|0:0|0:0,0:0:0:0:
211,139,114026,1,0,3:0:0:0:
262,73,114198,2,0,P|274:45|282:16,1,60,8|0,0:0|0:0,0:0:0:0:
198,21,114543,6,0,P|140:33|74:1,1,120,2|8,3:2|0:0,0:0:0:0:
33,78,115061,1,0,0:0:0:0:
75,150,115233,2,0,P|129:128|187:140,1,120,2|8,0:2|0:0,0:0:0:0:
258,187,115750,1,0,0:0:0:0:
324,238,115923,6,0,L|396:217,1,60,2|0,3:2|0:0,0:0:0:0:
448,171,116267,2,0,P|459:140|458:96,2,60,8|0|0,0:0|0:0|0:0,0:0:0:0:
468,253,116785,1,0,3:0:0:0:
454,335,116957,2,0,L|382:324,1,60,8|0,0:0|0:0,0:0:0:0:
311,313,117302,6,0,L|300:241,1,60,2|0,3:2|0:0,0:0:0:0:
239,199,117647,2,0,P|194:185|171:187,1,60,8|0,0:0|0:0,0:0:0:0:
125,122,117992,1,0,0:0:0:0:
92,199,118164,1,0,3:0:0:0:
34,138,118336,2,0,L|29:66,1,60,8|0,0:0|0:0,0:0:0:0:
95,25,118681,6,0,B|132:44|132:44|226:25,1,120,2|8,3:2|0:0,0:0:0:0:
281,71,119198,1,0,0:0:0:0:
353,28,119371,2,0,P|369:60|374:88,1,60,0|0,0:0|3:0,0:0:0:0:
433,143,119716,2,0,P|417:174|412:202,1,60,8|0,0:0|0:0,0:0:0:0:
420,282,120061,6,0,P|426:318|341:333,1,120,2|8,3:2|0:0,0:0:0:0:
296,295,120578,1,0,0:0:0:0:
224,251,120750,2,0,P|169:263|165:319,1,120,2|8,0:2|0:0,0:0:0:0:
83,340,121267,1,0,0:0:0:0:
87,255,121440,6,0,P|108:218|129:198,1,60,2|0,3:2|0:0,0:0:0:0:
192,162,121785,2,0,L|256:172,2,60,8|0|0,0:0|0:0|0:0,0:0:0:0:
116,125,122302,1,0,3:0:0:0:
183,74,122474,2,0,L|242:64,1,60,8|0,0:0|0:0,0:0:0:0:
305,9,122819,6,0,B|331:42|352:49|352:49|327:75|317:106,1,120,2|8,3:2|0:0,0:0:0:0:
400,121,123336,2,0,L|388:191,1,60,0|0,0:0|0:0,0:0:0:0:
426,255,123681,1,0,3:0:0:0:
371,319,123854,2,0,P|349:294|341:256,1,60,8|0,0:0|0:0,0:0:0:0:
257,271,124198,6,0,P|268:328|238:378,1,120,2|8,3:2|0:0,0:0:0:0:
183,313,124716,2,0,B|152:297|152:297|109:292,1,60,0|0,0:0|0:0,0:0:0:0:
89,218,125061,1,0,3:0:0:0:
163,180,125233,2,0,B|187:182|187:182|218:198,1,60,8|0,0:0|0:0,0:0:0:0:
275,136,125578,6,0,B|241:112|241:112|255:22,1,120,2|8,3:2|0:0,0:0:0:0:
327,73,126095,1,0,0:0:0:0:
380,8,126267,2,0,B|414:32|414:32|400:122,1,120,2|8,0:0|0:0,0:0:0:0:
464,166,126785,1,0,0:0:0:0:
437,245,126957,6,0,P|399:227|361:217,1,60,2|0,3:2|0:0,0:0:0:0:
305,257,127302,2,0,P|295:285|281:312,2,60,8|0|0,0:0|0:0|0:0,0:0:0:0:
278,176,127819,1,0,3:0:0:0:
214,120,127992,2,0,L|151:111,1,60,8|0,0:0|0:0,0:0:0:0:
106,41,128336,6,0,L|246:24,1,120,2|8,3:2|0:0,0:0:0:0:
307,46,128854,2,0,P|324:79|327:110,1,60,0|0,0:0|0:0,0:0:0:0:
404,68,129198,1,0,3:0:0:0:
459,131,129371,2,0,P|444:156|438:186,1,60,8|0,0:0|0:0,0:0:0:0:
463,267,129716,6,0,B|423:261|423:261|389:281|389:281|343:273,1,120,2|8,3:2|0:0,0:0:0:0:
274,236,130233,2,0,L|214:247,1,60,0|0,0:0|0:0,0:0:0:0:
131,232,130578,1,0,3:0:0:0:
77,296,130750,2,0,P|59:276|45:235,1,60,8|0,0:0|0:0,0:0:0:0:
62,162,131095,6,0,P|84:108|52:60,1,120,2|8,3:2|0:0,0:0:0:0:
125,17,131612,1,0,0:0:0:0:
202,55,131785,2,0,P|179:108|211:156,1,120,2|8,0:0|0:0,0:0:0:0:
271,97,132302,1,0,0:0:0:0:
348,65,132474,6,0,P|382:50|414:46,1,60,2|2,3:2|0:0,0:0:0:0:
469,108,132819,1,8,0:0:0:0:
469,108,132992,2,0,L|447:243,1,120,2|0,0:0|3:0,0:0:0:0:
370,256,133509,2,0,P|342:244|312:240,1,60,10|0,0:0|0:0,0:0:0:0:
266,169,133854,6,0,L|206:165,1,60,0|0,3:0|0:0,0:0:0:0:
148,111,134198,1,8,0:0:0:0:
148,111,134371,2,0,B|124:149|124:149|133:240,1,120,2|0,0:0|3:0,0:0:0:0:
82,292,134888,2,0,P|108:305|138:311,1,60,10|0,0:0|0:0,0:0:0:0:
203,258,135233,6,0,L|262:262,1,60,0|0,3:0|0:0,0:0:0:0:
304,335,135578,1,8,0:0:0:0:
378,297,135750,1,2,0:0:0:0:
447,345,135923,2,0,P|460:318|464:288,1,60,2|0,0:0|3:0,0:0:0:0:
411,223,136267,2,0,P|414:193|428:166,1,60,10|0,0:0|0:0,0:0:0:0:
485,105,136612,6,0,P|464:71|441:54,1,60,2|2,3:2|0:0,0:0:0:0:
369,29,136957,2,0,P|341:17|311:15,1,60,10|2,0:0|0:0,0:0:0:0:
236,56,137302,2,0,P|207:64|183:81,1,60,2|0,0:0|3:0,0:0:0:0:
245,137,137647,2,0,P|262:161|270:189,1,60,10|0,0:0|0:0,0:0:0:0:
197,232,137992,6,0,L|128:220,1,60,0|0,3:0|0:0,0:0:0:0:
95,155,138336,1,8,0:0:0:0:
95,155,138509,2,0,P|65:189|69:271,1,120,2|0,0:0|3:0,0:0:0:0:
115,327,139026,2,0,L|197:346,1,60,10|0,0:0|0:0,0:0:0:0:
236,284,139371,6,0,L|295:277,1,60,0|2,3:0|0:0,0:0:0:0:
361,337,139716,1,8,0:0:0:0:
361,337,139888,2,0,P|428:333|463:294,1,120,2|0,0:0|3:0,0:0:0:0:
417,224,140405,2,0,L|425:160,1,60,10|0,0:0|0:0,0:0:0:0:
387,88,140750,6,0,L|321:103,1,60,0|0,3:0|0:0,0:0:0:0:
265,157,141095,1,8,0:0:0:0:
193,113,141267,1,2,0:0:0:0:
110,132,141440,2,0,P|108:102|115:73,1,60,2|0,0:0|3:0,0:0:0:0:
180,19,141785,2,0,P|209:17|238:24,1,60,10|0,0:0|0:0,0:0:0:0:
318,32,142129,6,0,P|350:65|361:88,1,60,2|2,3:2|0:0,0:0:0:0:
387,155,142474,2,0,P|366:196|347:213,1,60,8|0,0:0|0:0,0:0:0:0:
298,266,142819,2,0,L|313:337,1,60,2|0,0:0|3:0,0:0:0:0:
231,354,143164,2,0,L|173:341,1,60,10|0,0:0|0:0,0:0:0:0:
104,291,143509,6,0,P|125:193|148:176,1,120,0|8,3:0|0:0,0:0:0:0:
211,145,144026,2,0,P|270:146|319:113,1,120,2|0,0:0|3:0,0:0:0:0:
366,43,144543,2,0,L|421:65,1,60,10|0,0:0|0:0,0:0:0:0:
476,129,144888,6,0,L|421:151,1,60,0|2,3:0|0:0,0:0:0:0:
356,206,145233,2,0,P|376:276|370:332,1,120,10|0,0:0|0:0,0:0:0:0:
293,352,145750,1,0,3:0:0:0:
236,289,145923,2,0,P|207:280|177:280,1,60,10|0,0:0|0:0,0:0:0:0:
110,330,146267,6,0,P|103:278|78:199,1,120,2|8,3:2|0:0,0:0:0:0:
1,195,146785,2,0,P|28:147|112:134,1,120,0|0,0:0|3:0,0:0:0:0:
155,177,147302,2,0,P|171:152|195:134,1,60,8|0,0:0|0:0,0:0:0:0:
244,65,147647,6,0,P|265:85|279:112,1,60,0|0,3:0|0:0,0:0:0:0:
318,186,147992,2,0,P|386:161|418:113,1,120,10|0,0:0|0:0,0:0:0:0:
499,109,148509,1,0,3:0:0:0:
499,109,148681,2,0,L|484:168,1,60,10|0,0:0|0:0,0:0:0:0:
470,250,149026,6,0,P|429:251|358:306,1,120,0|8,3:0|0:0,0:0:0:0:
288,327,149543,2,0,P|263:287|179:273,1,120,0|0,0:0|3:0,0:0:0:0:
120,228,150061,2,0,L|48:219,1,60,10|0,0:0|0:0,0:0:0:0:
5,157,150405,6,0,L|121:129,1,120,0|8,3:0|0:0,0:0:0:0:
187,75,150923,2,0,L|303:103,1,120,0|0,0:0|3:0,0:0:0:0:
373,56,151440,2,0,P|386:82|386:112,1,60,10|0,0:0|0:0,0:0:0:0:
447,170,151785,6,0,P|413:192|384:278,1,120,0|0,3:0|0:0,0:0:0:0:
394,346,152302,2,0,P|337:328|300:281,1,120,0|0,0:0|0:0,0:0:0:0:
251,213,152819,2,0,L|192:207,1,60,0|0,0:0|0:0,0:0:0:0:
128,262,153164,6,0,B|105:204|105:204|124:150,1,120,0|0,0:0|0:0,0:0:0:0:
67,87,153681,2,0,B|125:63|125:63|180:83,1,120,0|0,0:0|0:0,0:0:0:0:
255,118,154198,2,0,L|314:108,1,60,0|0,0:0|0:0,0:0:0:0:
351,87,154543,6,0,L|470:100,3,120,2|2|2|2,0:0|0:0|0:0|0:0,0:0:0:0:
320,176,157302,6,0,L|200:189,3,120,2|2|2|2,0:0|0:0|0:0|0:0,0:0:0:0:
355,254,160061,6,0,P|324:293|308:374,3,120,2|2|2|2,0:0|0:0|0:0|0:0,0:0:0:0:
174,257,162819,6,0,P|186:315|221:363,3,120,2|2|2|2,0:0|0:0|0:0|0:0,0:0:0:0:
44,76,165578,5,0,3:0:0:0:
108,129,165750,1,0,3:0:0:0:
175,77,165923,2,0,L|237:92,1,60,10|0,0:0|0:0,0:0:0:0:
299,40,166267,2,0,L|361:25,1,60,2|0,0:0|3:0,0:0:0:0:
366,109,166612,2,0,L|464:133,1,90,10|0,0:0|3:0,0:0:0:0:
493,141,166957,6,0,P|470:180|474:268,1,120,2|8,3:0|0:0,0:0:0:0:
384,262,167474,2,0,P|410:314|408:374,1,120,2|0,0:0|3:0,0:0:0:0:
332,335,167992,2,0,L|228:320,1,90,10|0,0:0|3:0,0:0:0:0:
203,306,168336,6,0,L|139:319,1,60,0|0,3:0|3:0,0:0:0:0:
61,303,168681,2,0,P|40:270|42:235,1,60,10|0,0:0|0:0,0:0:0:0:
107,201,169026,2,0,P|128:168|126:133,1,60,2|0,0:0|3:0,0:0:0:0:
68,89,169371,2,0,P|90:70|157:63,1,90,10|0,0:0|3:0,0:0:0:0:
187,78,169716,6,0,B|247:99|247:99|305:77,1,120,2|8,3:0|0:0,0:0:0:0:
372,36,170233,2,0,B|424:15|424:15|484:36,1,120,2|0,0:0|3:0,0:0:0:0:
428,99,170750,2,0,B|414:125|406:160|413:202,1,90,10|0,0:0|3:0,0:0:0:0:
424,239,171095,5,8,3:0:0:0:
317,216,171267,1,0,3:0:0:0:
263,311,171440,2,0,L|186:313,1,77.9999964294435,10|0,0:1|0:0,0:0:0:0:
100,382,171785,2,0,P|72:338|68:303,1,77.9999964294435,10|0,3:0|3:0,0:0:0:0:
108,211,172129,2,0,L|110:133,1,77.9999964294435,10|0,0:1|0:0,0:0:0:0:
15,76,172474,6,0,P|32:41|66:24,1,77.9999964294435,10|0,3:0|3:0,0:0:0:0:
162,77,172819,1,10,0:1:0:0:
248,144,172992,2,0,P|289:119|300:84,1,77.9999964294435,2|8,0:0|3:0,0:0:0:0:
370,9,173336,1,2,0:0:0:0:
450,83,173509,2,0,P|421:109|407:160,1,77.9999964294435,10|0,0:1|0:0,0:0:0:0:
474,231,173854,5,0,3:0:0:0:
397,308,174026,1,0,3:0:0:0:
300,258,174198,2,0,L|286:170,1,77.9999964294435,8|2,3:1|3:0,0:0:0:0:
245,79,174543,5,2,3:0:0:0:
168,2,174715,1,2,3:0:0:0:
79,67,174888,2,0,L|65:154,1,77.9999964294435,10|2,3:1|3:0,0:0:0:0:
118,245,175233,6,0,L|155:255,3,38.9999982147218,2|0|0|0,3:0|3:0|3:0|3:0,0:0:0:0:
206,275,175578,2,0,L|243:265,3,38.9999982147218,2|0|0|0,3:0|3:0|3:0|3:0,0:0:0:0:
291,238,175923,2,0,L|328:248,3,38.9999982147218,2|0|0|0,3:0|3:0|3:0|3:0,0:0:0:0:
379,268,176267,2,0,L|416:258,3,38.9999982147218,2|0|0|0,3:0|3:0|3:0|3:0,0:0:0:0:
472,239,176612,6,0,P|489:184|483:146,1,83.9999974365235,2|0,3:0|0:0,0:0:0:0:
452,45,176957,1,8,0:1:0:0:
353,5,177129,1,0,0:0:0:0:
353,5,177216,1,0,0:0:0:0:
353,5,177302,1,0,0:0:0:0:
256,68,177474,1,0,3:0:0:0:
146,24,177647,2,0,P|106:50|76:91,1,83.9999974365235,8|0,0:1|0:0,0:0:0:0:
54,192,177992,6,0,L|221:207,1,167.999994873047,2|8,3:0|0:1,0:0:0:0:
318,283,178509,1,0,0:0:0:0:
318,283,178681,1,0,0:0:0:0:
412,213,178854,1,0,3:0:0:0:
331,128,179026,2,0,L|238:119,1,83.9999974365235,8|0,0:1|0:0,0:0:0:0:
130,135,179371,6,0,P|134:93|157:58,1,83.9999974365235,2|0,3:0|0:0,0:0:0:0:
266,13,179716,1,8,0:1:0:0:
331,128,179888,1,0,0:0:0:0:
331,128,179974,1,0,0:0:0:0:
331,128,180061,1,0,0:0:0:0:
415,46,180233,1,0,3:0:0:0:
445,159,180405,2,0,P|444:200|427:238,1,83.9999974365235,8|0,0:1|0:0,0:0:0:0:
333,309,180750,6,0,P|241:312|177:231,1,167.999994873047,2|8,3:0|0:1,0:0:0:0:
203,150,181267,1,0,0:0:0:0:
203,150,181440,1,2,0:0:0:0:
139,51,181612,1,0,3:0:0:0:
52,131,181785,2,0,P|36:169|28:211,1,83.9999974365235,8|0,0:1|0:0,0:0:0:0:
90,304,182129,6,0,P|129:290|155:258,1,83.9999974365235,2|0,3:0|0:0,0:0:0:0:
203,150,182474,1,8,0:1:0:0:
320,202,182647,1,0,0:0:0:0:
320,202,182733,1,0,0:0:0:0:
320,202,182819,1,0,0:0:0:0:
408,124,182992,1,0,3:0:0:0:
469,223,183164,2,0,L|446:320,1,83.9999974365235,8|0,0:1|0:0,0:0:0:0:
341,357,183509,6,0,P|296:366|235:263,1,167.999994873047,2|8,3:0|0:1,0:0:0:0:
320,202,184026,1,0,0:0:0:0:
320,202,184198,1,0,0:0:0:0:
237,117,184371,1,0,3:0:0:0:
303,20,184543,2,0,L|384:44,1,83.9999974365235,8|0,0:1|0:0,0:0:0:0:
472,121,184888,6,0,P|473:162|458:201,1,83.9999974365235,2|0,3:0|0:0,0:0:0:0:
383,291,185233,1,8,0:1:0:0:
290,359,185405,1,0,0:0:0:0:
290,359,185492,1,0,0:0:0:0:
290,359,185578,1,0,0:0:0:0:
188,282,185750,1,0,3:0:0:0:
99,360,185923,2,0,P|46:337|30:311,1,83.9999974365235,8|0,0:1|0:0,0:0:0:0:
8,201,186267,6,0,B|69:149|69:149|155:164,1,167.999994873047,2|8,3:0|0:1,0:0:0:0:
276,189,186785,1,0,0:0:0:0:
276,189,186957,1,2,0:0:0:0:
227,82,187129,1,0,3:0:0:0:
324,15,187302,2,0,P|372:33|408:65,1,83.9999974365235,8|0,0:1|0:0,0:0:0:0:
475,141,187647,6,0,P|435:149|398:171,1,83.9999974365235,2|0,3:0|0:0,0:0:0:0:
339,273,187992,1,8,0:1:0:0:
252,210,188164,1,0,0:0:0:0:
252,210,188250,1,0,0:0:0:0:
252,210,188336,1,0,0:0:0:0:
310,107,188509,1,0,3:0:0:0:
220,30,188681,2,0,B|179:16|179:16|139:23,1,83.9999974365235,8|0,0:1|0:0,0:0:0:0:
61,112,189026,6,0,P|96:177|168:138,1,167.999994873047,2|8,3:0|0:1,0:0:0:0:
220,30,189543,1,0,0:0:0:0:
220,30,189716,1,0,0:0:0:0:
310,107,189888,1,0,3:0:0:0:
231,195,190061,2,0,L|313:210,1,83.9999974365235,8|0,0:1|0:0,0:0:0:0:
438,226,190405,6,0,P|436:184|414:150,1,83.9999974365235,2|0,3:0|0:0,0:0:0:0:
347,52,190750,1,8,0:1:0:0:
249,113,190923,1,0,0:0:0:0:
249,113,191009,1,0,0:0:0:0:
249,113,191095,1,0,0:0:0:0:
168,27,191267,1,0,3:0:0:0:
81,107,191440,2,0,P|92:147|95:189,1,83.9999974365235,8|0,0:1|0:0,0:0:0:0:
59,301,191785,6,0,L|227:308,1,167.999994873047,2|8,3:0|0:1,0:0:0:0:
337,362,192302,1,0,0:0:0:0:
337,362,192474,1,2,0:0:0:0:
399,261,192647,1,0,3:0:0:0:
331,165,192819,2,0,L|340:81,1,83.9999974365235,8|0,0:1|0:0,0:0:0:0:
250,4,193164,6,8,P|210:17|185:51,1,83.9999974365235,2|0,3:0|0:0,0:0:0:0:
148,162,193509,1,8,0:1:0:0:
49,136,193681,1,0,0:0:0:0:
49,136,193767,1,0,0:0:0:0:
49,136,193854,1,0,0:0:0:0:
3,243,194026,1,0,3:0:0:0:
112,285,194198,2,0,L|207:262,1,83.9999974365235,8|0,0:1|0:0,0:0:0:0:
259,195,194543,6,0,L|335:210,1,77.9999964294435,2|0,3:2|0:0,0:0:0:0:
415,285,194888,2,0,L|254:329,1,155.999992858887,8|0,0:0|0:0,0:0:0:0:
158,332,195405,1,0,3:0:0:0:
158,332,195578,2,0,P|186:284|194:235,1,77.9999964294435,8|0,0:0|0:0,0:0:0:0:
148,162,195923,5,0,3:0:0:0:
217,77,196095,1,0,3:0:0:0:
322,102,196267,2,0,L|424:89,1,77.9999964294435,8|0,3:1|3:0,0:0:0:0:
507,143,196612,5,0,3:0:0:0:
438,228,196785,1,0,3:0:0:0:
333,203,196957,2,0,L|255:212,1,77.9999964294435,8|0,3:1|3:0,0:0:0:0:
330,289,197302,2,0,L|275:300,3,38.9999982147218,0|0|0|0,3:0|3:0|3:0|3:0,0:0:0:0:
239,313,197647,2,0,L|185:301,3,38.9999982147218,0|0|0|0,3:0|3:0|3:0|3:0,0:0:0:0:
159,268,197992,2,0,L|101:281,3,38.9999982147218,0|0|0|0,3:0|3:0|3:0|3:0,0:0:0:0:
78,310,198336,2,0,L|24:299,3,38.9999982147218,0|0|0|0,3:0|3:0|3:0|3:0,0:0:0:0:
9,250,198681,6,0,P|10:190|27:164,1,83.9999974365235,0|2,3:0|0:0,0:0:0:0:
89,70,199026,2,0,P|130:66|168:82,1,83.9999974365235,10|0,0:1|0:0,0:0:0:0:
233,181,199371,2,0,B|320:199|320:199|393:168,1,167.999994873047,2|8,0:0|0:1,0:0:0:0:
469,78,199888,1,0,0:0:0:0:
469,78,200061,6,0,L|439:-8,2,83.9999974365235,2|0|8,3:0|0:0|0:1,0:0:0:0:
430,189,200578,2,0,L|457:268,2,83.9999974365235,2|0|0,0:0|0:0|3:0,0:0:0:0:
315,236,201095,2,0,L|355:116,1,125.999996154785,8|0,0:1|0:0,0:0:0:0:
377,61,201440,6,0,P|331:39|287:39,1,83.9999974365235,0|0,3:0|0:0,0:0:0:0:
182,18,201785,2,0,B|164:55|164:55|162:97,1,83.9999974365235,10|0,0:1|0:0,0:0:0:0:
234,190,202129,2,0,B|253:228|253:228|256:269,1,83.9999974365235,2|0,0:0|3:0,0:0:0:0:
211,378,202474,2,0,P|175:327|115:313,1,125.999996154785,10|0,0:1|0:0,0:0:0:0:
57,300,202819,6,0,P|74:241|189:243,1,167.999994873047,2|8,3:0|0:1,0:0:0:0:
267,294,203336,2,0,P|346:293|379:220,1,167.999994873047,2|0,0:0|3:0,0:0:0:0:
438,117,203854,2,0,P|400:98|346:103,1,83.9999974365235,10|0,0:1|0:0,0:0:0:0:
261,34,204198,6,0,L|252:156,1,83.9999974365235,0|2,3:0|0:0,0:0:0:0:
230,233,204543,2,0,P|188:244|147:239,1,83.9999974365235,10|2,0:1|0:0,0:0:0:0:
36,202,204888,2,0,P|34:158|42:118,1,83.9999974365235,2|0,0:0|3:0,0:0:0:0:
75,6,205233,2,0,P|135:16|167:68,1,125.999996154785,10|0,0:1|0:0,0:0:0:0:
184,124,205578,6,0,B|222:99|222:99|260:100,2,83.9999974365235,2|0|10,3:0|0:0|0:1,0:0:0:0:
108,214,206095,2,0,B|70:189|70:189|31:189,2,83.9999974365235,2|0|2,0:0|0:0|3:0,0:0:0:0:
208,275,206612,2,0,L|332:256,1,125.999996154785,10|0,0:1|0:0,0:0:0:0:
391,246,206957,6,0,L|402:162,1,83.9999974365235,0|2,3:0|0:0,0:0:0:0:
418,45,207302,1,8,0:1:0:0:
314,100,207474,1,2,0:0:0:0:
223,24,207647,2,0,P|169:25|135:45,1,83.9999974365235,2|2,0:0|3:0,0:0:0:0:
42,99,207992,2,0,P|23:130|30:194,1,83.9999974365235,10|2,0:1|0:0,0:0:0:0:
84,277,208336,6,0,P|137:289|168:276,1,83.9999974365235,0|0,3:0|0:0,0:0:0:0:
275,315,208681,2,0,P|286:275|273:235,1,83.9999974365235,10|0,0:1|0:0,0:0:0:0:
167,184,209026,2,0,L|179:100,1,83.9999974365235,2|0,0:0|3:0,0:0:0:0:
271,27,209371,2,0,L|317:18,3,41.9999987182618,8|0|0|0,0:1|0:0|0:0|0:0,0:0:0:0:
370,6,209716,6,0,P|395:50|402:90,1,83.9999974365235,0|2,3:0|0:0,0:0:0:0:
435,195,210061,2,0,P|379:165|348:166,1,83.9999974365235,10|0,0:1|0:0,0:0:0:0:
307,269,210405,2,0,P|251:299|220:298,1,83.9999974365235,2|0,0:0|3:0,0:0:0:0:
117,270,210750,2,0,P|155:222|146:162,1,125.999996154785,10|0,0:1|0:0,0:0:0:0:
121,108,211095,6,0,L|31:90,2,83.9999974365235,2|0|8,3:0|0:0|0:1,0:0:0:0:
235,78,211612,2,0,L|279:-8,2,83.9999974365235,2|0|0,0:0|0:0|3:0,0:0:0:0:
255,194,212129,2,0,P|288:219|362:160,1,125.999996154785,10|0,0:1|0:0,0:0:0:0:
381,145,212474,6,0,P|427:162|451:201,1,83.9999974365235,0|2,3:0|0:0,0:0:0:0:
428,305,212819,2,0,P|391:334|347:338,1,83.9999974365235,10|2,0:1|0:0,0:0:0:0:
244,300,213164,2,0,P|207:277|167:276,1,83.9999974365235,2|0,0:0|3:0,0:0:0:0:
60,326,213509,2,0,L|90:189,1,125.999996154785,10|0,0:1|0:0,0:0:0:0:
92,143,213854,6,0,P|43:118|2:119,2,83.9999974365235,2|0|8,3:0|0:0|0:1,0:0:0:0:
182,219,214371,2,0,P|208:251|246:269,2,83.9999974365235,2|0|0,0:0|0:0|3:0,0:0:0:0:
206,103,214888,2,0,P|270:62|325:63,1,125.999996154785,10|0,0:1|0:0,0:0:0:0:
377,86,215233,5,0,3:0:0:0:
451,236,215578,2,0,L|377:223,1,60,2|0,0:0|0:0,0:0:0:0:
317,186,215923,2,0,L|257:193,1,60,2|0,0:0|0:0,0:0:0:0:
190,244,216267,2,0,L|124:234,1,60,2|0,0:0|0:0,0:0:0:0:
46,230,216612,6,0,P|35:201|42:157,1,60,2|0,0:0|0:0,0:0:0:0:
90,108,216957,1,2,0:0:0:0:
90,108,217129,2,0,P|94:83|82:43,1,60,2|0,0:0|0:0,0:0:0:0:
17,9,217474,1,2,0:0:0:0:
17,9,217647,1,2,0:0:0:0:
193,143,218509,5,2,0:0:0:0:
193,143,218681,2,0,L|264:155,1,60,2|2,0:0|0:0,0:0:0:0:
329,185,219026,2,0,L|402:172,1,60,2|2,0:0|0:0,0:0:0:0:
459,129,219371,6,0,P|467:152|431:252,3,120,2|2|2|2,0:0|0:0|0:0|0:0,0:0:0:0:
298,327,220750,5,2,0:0:0:0:
