osu file format v14

[General]
AudioFilename: audio.mp3
AudioLeadIn: 0
PreviewTime: 442791
Countdown: 0
SampleSet: Soft
StackLeniency: 0.4
Mode: 0
LetterboxInBreaks: 0
WidescreenStoryboard: 0

[Editor]
Bookmarks: 8394,19429,41498,63567,85636,129774,140808,162877,184946,207015,229084,251153,262187,284256,295291,306325,328394,350463,372532,400119,422187,444256,469084,488394,510463,532532,554601
DistanceSpacing: 1.7
BeatDivisor: 8
GridSize: 32
TimelineZoom: 2.14

[Metadata]
Title:Sunrise
TitleUnicode:Sunrise
Artist:Fred V & Grafix
ArtistUnicode:Fred V & Grafix
Creator:Mir
Version:Annual
Source:Forza Horizon 4
Tags:Ruth Royall drum and bass dnb microsoft studios marathon electronic english melodic vocals instrumental
BeatmapID:2733779
BeatmapSetID:1319692

[Difficulty]
HPDrainRate:5
CircleSize:4
OverallDifficulty:8.8
ApproachRate:9.3
SliderMultiplier:2.2
SliderTickRate:1

[Events]
//Background and Video events
0,0,"sunrisee.jpg",0,0
//Break Periods
2,251353,256116
//Storyboard Layer 0 (Background)
//Storyboard Layer 1 (Fail)
//Storyboard Layer 2 (Pass)
//Storyboard Layer 3 (Foreground)
//Storyboard Layer 4 (Overlay)
//Storyboard Sound Samples

[TimingPoints]
119,344.827586206897,4,2,0,40,1,0
119,-100,4,2,0,40,0,0
1498,-100,4,2,0,50,0,0
2877,-100,4,2,0,60,0,0
4256,-100,4,2,0,70,0,0
5636,-100,4,2,0,80,0,0
8394,-66.6666666666667,4,2,2,80,0,0
9429,-133.333333333333,4,2,2,80,0,0
11153,-66.6666666666667,4,2,2,80,0,0
12187,-133.333333333333,4,2,2,80,0,0
13912,-133.333333333333,4,2,2,50,0,0
16670,-133.333333333333,4,2,2,60,0,0
18739,-133.333333333333,4,2,2,70,0,0
19429,-100,4,2,1,70,0,0
40808,-100,4,2,2,70,0,0
40981,-100,4,2,1,70,0,0
62360,-100,4,2,4,70,0,0
62532,-100,4,2,1,70,0,0
63567,-83.3333333333333,4,2,1,70,0,1
84256,-133.333333333333,4,2,1,70,0,1
84601,-133.333333333333,4,2,2,70,0,1
85636,-100,4,2,1,70,0,0
129774,-66.6666666666667,4,2,1,60,0,0
130808,-133.333333333333,4,2,1,60,0,0
132532,-133.333333333333,4,2,2,60,0,0
135291,-133.333333333333,4,2,4,60,0,0
139774,-66.6666666666667,4,2,1,60,0,0
140119,-100,4,2,1,60,0,0
140808,-66.6666666666667,4,2,1,70,0,0
141153,-133.333333333333,4,2,1,70,0,0
142877,-66.6666666666667,4,2,1,70,0,0
143912,-133.333333333333,4,2,1,70,0,0
145636,-66.6666666666667,4,2,1,70,0,0
146325,-50,4,2,1,70,0,0
146670,-133.333333333333,4,2,1,70,0,0
148164,-66.6666666666667,4,2,1,70,0,0
149084,-200,4,2,1,70,0,0
149429,-66.6666666666667,4,2,1,70,0,0
152187,-133.333333333333,4,2,1,70,0,0
153567,-66.6666666666667,4,2,1,70,0,0
154946,-133.333333333333,4,2,1,70,0,0
156670,-66.6666666666667,4,2,1,70,0,0
157705,-133.333333333333,4,2,1,70,0,0
159084,-66.6666666666667,4,2,1,70,0,0
160119,-200,4,2,1,70,0,0
160463,-50,4,2,1,70,0,0
162446,-50,4,2,2,70,0,0
162877,-66.6666666666667,4,2,1,70,0,1
165981,-100,4,2,1,70,0,1
167360,-66.6666666666667,4,2,1,70,0,1
173912,-133.333333333333,4,2,1,70,0,0
175636,-66.6666666666667,4,2,1,70,0,0
177015,-133.333333333333,4,2,1,70,0,0
178739,-66.6666666666667,4,2,1,70,0,0
179774,-133.333333333333,4,2,1,70,0,0
181153,-66.6666666666667,4,2,1,70,0,0
182187,-200,4,2,1,70,0,0
183222,-400,4,2,1,70,0,0
184429,-100,4,2,2,70,0,0
184946,-66.6666666666667,4,2,1,70,0,1
185808,-100,4,2,1,70,0,1
186670,-133.333333333333,4,2,1,70,0,1
187015,-66.6666666666667,4,2,1,70,0,1
188567,-100,4,2,1,70,0,1
189429,-133.333333333333,4,2,1,70,0,1
189774,-66.6666666666667,4,2,1,70,0,1
191325,-100,4,2,1,70,0,1
192187,-66.6666666666667,4,2,1,70,0,1
193222,-200,4,2,1,70,0,0
193394,-50,4,2,1,70,0,0
195981,-66.6666666666667,4,2,1,70,0,1
196843,-100,4,2,1,70,0,1
197705,-66.6666666666667,4,2,1,70,0,1
199601,-100,4,2,1,70,0,1
200808,-66.6666666666667,4,2,1,70,0,1
204084,-133.333333333333,4,2,1,70,0,1
204256,-133.333333333333,4,2,1,70,0,0
204429,-66.6666666666667,4,2,1,70,0,0
206498,-66.6666666666667,4,2,2,70,0,0
207015,-66.6666666666667,4,2,1,70,0,0
208394,-33.3333333333333,4,2,1,70,0,0
208481,-33.3333333333333,4,2,1,5,0,0
208567,-33.3333333333333,4,2,1,70,0,0
208739,-100,4,2,1,70,0,0
209084,-66.6666666666667,4,2,1,70,0,0
211153,-33.3333333333333,4,2,1,70,0,0
211239,-33.3333333333333,4,2,1,5,0,0
211325,-33.3333333333333,4,2,1,70,0,0
211498,-100,4,2,1,70,0,0
211843,-66.6666666666667,4,2,1,70,0,0
213912,-33.3333333333333,4,2,1,70,0,0
213998,-33.3333333333333,4,2,1,5,0,0
214084,-33.3333333333333,4,2,1,70,0,0
214256,-100,4,2,1,70,0,0
214601,-66.6666666666667,4,2,1,70,0,0
216584,-33.3333333333333,4,2,1,5,0,0
216670,-33.3333333333333,4,2,1,70,0,0
217532,-33.3333333333333,4,2,2,70,0,0
218050,-66.6666666666667,4,2,1,70,0,0
219429,-33.3333333333333,4,2,1,70,0,0
219515,-33.3333333333333,4,2,1,5,0,0
219601,-33.3333333333333,4,2,1,70,0,0
219773,-100,4,2,1,70,0,0
220119,-66.6666666666667,4,2,1,70,0,0
222187,-33.3333333333333,4,2,1,70,0,0
222274,-33.3333333333333,4,2,1,5,0,0
222360,-33.3333333333333,4,2,1,70,0,0
222531,-100,4,2,1,70,0,0
222877,-66.6666666666667,4,2,1,70,0,0
224946,-33.3333333333333,4,2,1,70,0,0
225032,-33.3333333333333,4,2,1,5,0,0
225118,-33.3333333333333,4,2,1,70,0,0
225290,-100,4,2,1,70,0,0
225636,-66.6666666666667,4,2,1,70,0,0
227360,-100,4,2,1,70,0,0
228567,-100,4,2,2,70,0,0
229084,-66.6666666666667,4,2,1,70,0,0
230808,-133.333333333333,4,2,1,70,0,0
231153,-66.6666666666667,4,2,1,70,0,0
233567,-133.333333333333,4,2,1,70,0,0
233912,-66.6666666666667,4,2,1,70,0,0
237360,-200,4,2,1,70,0,0
237532,-50,4,2,1,70,0,0
238912,-100,4,2,1,70,0,0
239429,-66.6666666666667,4,2,1,70,0,0
241843,-133.333333333333,4,2,1,70,0,0
242187,-66.6666666666667,4,2,1,70,0,0
244601,-133.333333333333,4,2,1,70,0,0
244945,-66.6666666666667,4,2,1,70,0,0
245636,-133.333333333333,4,2,1,70,0,0
245981,-133.333333333333,4,2,1,50,0,0
256670,-133.333333333333,4,2,2,40,0,0
262187,-100,4,2,3,70,0,0
266670,-66.6666666666667,4,2,3,70,0,0
267705,-100,4,2,3,70,0,0
271498,-66.6666666666667,4,2,3,70,0,0
272532,-100,4,2,3,70,0,0
274946,-133.333333333333,4,2,3,70,0,0
275981,-100,4,2,3,70,0,0
282532,-66.6666666666667,4,2,3,70,0,0
283394,-133.333333333333,4,2,3,70,0,0
284256,-100,4,2,3,70,0,0
285808,-133.333333333333,4,2,3,70,0,0
287015,-100,4,2,3,70,0,0
288567,-133.333333333333,4,2,3,70,0,0
289774,-100,4,2,3,70,0,0
291325,-133.333333333333,4,2,3,70,0,0
292532,-100,4,2,3,70,0,0
293567,-66.6666666666667,4,2,3,70,0,0
294429,-133.333333333333,4,2,3,70,0,0
300808,-200,4,2,2,70,0,0
304946,-133.333333333333,4,2,2,70,0,0
306325,-83.3333333333333,4,2,1,70,0,0
327015,-83.3333333333333,4,2,2,70,0,0
328394,-83.3333333333333,4,2,1,70,0,1
344946,-200,4,2,2,70,0,0
347705,-133.333333333333,4,2,2,70,0,0
350463,-83.3333333333333,4,2,1,70,0,0
352187,-133.333333333333,4,2,1,70,0,0
353222,-83.3333333333333,4,2,1,70,0,0
354601,-133.333333333333,4,2,1,70,0,0
355981,-83.3333333333333,4,2,1,70,0,0
357360,-133.333333333333,4,2,1,70,0,0
358739,-83.3333333333333,4,2,1,70,0,0
359774,-66.6666666666667,4,2,1,70,0,0
360118,-133.333333333333,4,2,1,70,0,0
361498,-83.3333333333333,4,2,1,70,0,0
362877,-133.333333333333,4,2,1,70,0,0
364256,-83.3333333333333,4,2,1,70,0,0
365635,-133.333333333333,4,2,1,70,0,0
366239,-133.333333333333,4,2,1,5,0,0
366325,-133.333333333333,4,2,1,70,0,0
366412,-133.333333333333,4,2,1,5,0,0
366498,-133.333333333333,4,2,1,70,0,0
366584,-133.333333333333,4,2,1,5,0,0
366670,-133.333333333333,4,2,1,70,0,0
366929,-133.333333333333,4,2,1,5,0,0
367015,-83.3333333333333,4,2,1,70,0,0
368394,-133.333333333333,4,2,1,70,0,0
369774,-83.3333333333333,4,2,1,70,0,0
371153,-133.333333333333,4,2,1,70,0,0
372532,-100,4,2,3,70,0,0
381843,-66.6666666666667,4,2,3,70,0,0
382705,-133.333333333333,4,2,3,70,0,0
383567,-83.3333333333333,4,2,3,70,0,0
385119,-133.333333333333,4,2,3,70,0,0
386325,-100,4,2,3,70,0,0
387877,-133.333333333333,4,2,3,70,0,0
389084,-100,4,2,3,70,0,0
392877,-66.6666666666667,4,2,3,70,0,0
393739,-133.333333333333,4,2,3,70,0,0
394601,-200,4,2,2,70,0,0
397360,-200,4,2,2,70,0,0
398739,-100,4,2,2,70,0,0
400119,-71.4285714285714,4,2,1,85,0,1
400377,-71.4285714285714,4,2,1,5,0,1
400463,-71.4285714285714,4,2,1,85,0,1
400722,-71.4285714285714,4,2,1,5,0,1
400808,-71.4285714285714,4,2,1,85,0,1
401412,-71.4285714285714,4,2,1,5,0,1
401498,-71.4285714285714,4,2,1,85,0,1
401756,-71.4285714285714,4,2,1,5,0,1
401843,-58.8235294117647,4,2,1,85,0,1
402274,-71.4285714285714,4,2,1,5,0,1
402360,-71.4285714285714,4,2,1,85,0,1
402532,-71.4285714285714,4,2,1,85,0,1
402791,-71.4285714285714,4,2,1,5,0,1
402877,-71.4285714285714,4,2,1,85,0,1
403136,-71.4285714285714,4,2,1,5,0,1
403222,-71.4285714285714,4,2,1,85,0,1
403481,-71.4285714285714,4,2,1,5,0,1
403567,-71.4285714285714,4,2,1,85,0,1
404170,-71.4285714285714,4,2,1,5,0,1
404256,-71.4285714285714,4,2,1,85,0,1
404515,-71.4285714285714,4,2,1,5,0,1
404601,-71.4285714285714,4,2,1,85,0,1
405032,-71.4285714285714,4,2,1,5,0,1
405118,-71.4285714285714,4,2,1,85,0,1
405550,-71.4285714285714,4,2,1,5,0,1
405636,-71.4285714285714,4,2,1,85,0,1
405894,-71.4285714285714,4,2,1,5,0,1
405980,-71.4285714285714,4,2,1,85,0,1
406239,-71.4285714285714,4,2,1,5,0,1
406325,-71.4285714285714,4,2,1,85,0,1
406929,-71.4285714285714,4,2,1,5,0,1
407015,-71.4285714285714,4,2,1,85,0,1
407274,-71.4285714285714,4,2,1,5,0,1
407360,-71.4285714285714,4,2,1,85,0,1
407791,-71.4285714285714,4,2,1,5,0,1
407877,-71.4285714285714,4,2,1,85,0,1
408308,-71.4285714285714,4,2,1,5,0,1
408394,-71.4285714285714,4,2,1,85,0,1
408653,-71.4285714285714,4,2,1,5,0,1
408739,-71.4285714285714,4,2,1,85,0,1
408998,-71.4285714285714,4,2,1,5,0,1
409084,-71.4285714285714,4,2,1,85,0,1
409687,-71.4285714285714,4,2,1,5,0,1
409773,-71.4285714285714,4,2,1,85,0,1
410032,-71.4285714285714,4,2,1,5,0,1
410119,-58.8235294117647,4,2,1,85,0,1
410550,-71.4285714285714,4,2,1,5,0,1
410636,-71.4285714285714,4,2,1,85,0,1
410808,-71.4285714285714,4,2,1,85,0,1
411067,-71.4285714285714,4,2,1,5,0,1
411153,-71.4285714285714,4,2,1,85,0,1
411412,-71.4285714285714,4,2,1,5,0,1
411498,-71.4285714285714,4,2,1,85,0,1
411756,-71.4285714285714,4,2,1,5,0,1
411842,-71.4285714285714,4,2,1,85,0,1
412446,-71.4285714285714,4,2,1,5,0,1
412532,-71.4285714285714,4,2,1,85,0,1
412791,-71.4285714285714,4,2,1,5,0,1
412877,-71.4285714285714,4,2,1,85,0,1
413308,-71.4285714285714,4,2,1,5,0,1
413394,-71.4285714285714,4,2,1,85,0,1
413825,-71.4285714285714,4,2,1,5,0,1
413911,-71.4285714285714,4,2,1,85,0,1
414170,-71.4285714285714,4,2,1,5,0,1
414256,-71.4285714285714,4,2,1,85,0,1
414515,-71.4285714285714,4,2,1,5,0,1
414601,-71.4285714285714,4,2,1,85,0,1
415205,-71.4285714285714,4,2,1,5,0,1
415291,-71.4285714285714,4,2,1,85,0,1
415550,-71.4285714285714,4,2,1,5,0,1
415636,-58.8235294117647,4,2,1,85,0,1
416067,-71.4285714285714,4,2,1,5,0,1
416153,-71.4285714285714,4,2,1,85,0,1
416325,-71.4285714285714,4,2,1,85,0,1
416584,-71.4285714285714,4,2,1,5,0,1
416670,-71.4285714285714,4,2,1,85,0,1
416929,-71.4285714285714,4,2,1,5,0,1
417015,-71.4285714285714,4,2,1,85,0,1
417274,-71.4285714285714,4,2,1,5,0,1
417360,-71.4285714285714,4,2,1,85,0,1
417963,-71.4285714285714,4,2,1,5,0,1
418049,-71.4285714285714,4,2,1,85,0,1
418308,-71.4285714285714,4,2,1,5,0,1
418394,-58.8235294117647,4,2,1,85,0,1
418825,-71.4285714285714,4,2,1,5,0,1
418911,-71.4285714285714,4,2,1,85,0,1
419084,-71.4285714285714,4,2,1,85,0,1
419343,-71.4285714285714,4,2,1,5,0,1
419429,-71.4285714285714,4,2,1,85,0,1
419687,-71.4285714285714,4,2,1,5,0,1
419773,-71.4285714285714,4,2,1,85,0,1
420205,-71.4285714285714,4,2,1,5,0,1
420291,-71.4285714285714,4,2,1,85,0,1
420722,-71.4285714285714,4,2,1,5,0,1
420808,-71.4285714285714,4,2,1,85,0,1
421153,-71.4285714285714,4,2,2,65,0,1
422101,-71.4285714285714,4,2,1,80,0,0
422187,-71.4285714285714,4,2,1,80,0,1
423825,-71.4285714285714,4,2,1,5,0,1
423911,-71.4285714285714,4,2,1,85,0,1
427101,-71.4285714285714,4,2,1,5,0,1
427187,-71.4285714285714,4,2,1,85,0,1
429343,-71.4285714285714,4,2,1,5,0,1
429429,-71.4285714285714,4,2,1,85,0,1
429860,-71.4285714285714,4,2,1,5,0,1
429946,-71.4285714285714,4,2,1,85,0,1
430377,-71.4285714285714,4,2,1,5,0,1
430463,-71.4285714285714,4,2,1,85,0,1
432619,-71.4285714285714,4,2,1,5,0,1
432705,-71.4285714285714,4,2,1,85,0,1
434860,-71.4285714285714,4,2,1,5,0,1
434946,-71.4285714285714,4,2,1,85,0,1
435377,-71.4285714285714,4,2,1,5,0,1
435463,-71.4285714285714,4,2,1,85,0,1
438136,-71.4285714285714,4,2,1,5,0,1
438222,-71.4285714285714,4,2,1,85,0,1
438739,-71.4285714285714,4,2,1,80,0,0
438912,-71.4285714285714,4,2,2,80,0,0
441498,-133.333333333333,4,2,2,80,0,0
444256,-71.4285714285714,4,2,1,85,0,1
444515,-71.4285714285714,4,2,1,5,0,1
444601,-71.4285714285714,4,2,1,85,0,1
444860,-71.4285714285714,4,2,1,5,0,1
444946,-71.4285714285714,4,2,1,85,0,1
446412,-71.4285714285714,4,2,1,5,0,1
446498,-71.4285714285714,4,2,1,85,0,1
446929,-71.4285714285714,4,2,1,5,0,1
447015,-71.4285714285714,4,2,1,85,0,1
447274,-71.4285714285714,4,2,1,5,0,1
447360,-71.4285714285714,4,2,1,85,0,1
447619,-71.4285714285714,4,2,1,5,0,1
447705,-71.4285714285714,4,2,1,85,0,1
448308,-71.4285714285714,4,2,1,5,0,1
448394,-71.4285714285714,4,2,1,85,0,1
448653,-71.4285714285714,4,2,1,5,0,1
448739,-58.8235294117647,4,2,1,85,0,1
449170,-71.4285714285714,4,2,1,5,0,1
449256,-71.4285714285714,4,2,1,85,0,1
449428,-71.4285714285714,4,2,1,85,0,1
449687,-71.4285714285714,4,2,1,5,0,1
449773,-71.4285714285714,4,2,1,85,0,1
450032,-71.4285714285714,4,2,1,5,0,1
450118,-71.4285714285714,4,2,1,85,0,1
450377,-71.4285714285714,4,2,1,5,0,1
450463,-71.4285714285714,4,2,1,85,0,1
451067,-71.4285714285714,4,2,1,5,0,1
451153,-71.4285714285714,4,2,1,85,0,1
451412,-71.4285714285714,4,2,1,5,0,1
451498,-58.8235294117647,4,2,1,85,0,1
451929,-71.4285714285714,4,2,1,5,0,1
452015,-71.4285714285714,4,2,1,85,0,1
452187,-71.4285714285714,4,2,1,85,0,1
452446,-71.4285714285714,4,2,1,5,0,1
452532,-71.4285714285714,4,2,1,85,0,1
452791,-71.4285714285714,4,2,1,5,0,1
452877,-71.4285714285714,4,2,1,85,0,1
453136,-71.4285714285714,4,2,1,5,0,1
453222,-71.4285714285714,4,2,1,85,0,1
453825,-71.4285714285714,4,2,1,5,0,1
453911,-71.4285714285714,4,2,1,85,0,1
454170,-71.4285714285714,4,2,1,5,0,1
454256,-58.8235294117647,4,2,1,85,0,1
454687,-71.4285714285714,4,2,1,5,0,1
454773,-71.4285714285714,4,2,1,85,0,1
454945,-71.4285714285714,4,2,1,85,0,1
455205,-71.4285714285714,4,2,1,5,0,1
455291,-71.4285714285714,4,2,1,85,0,1
455550,-71.4285714285714,4,2,1,5,0,1
455636,-71.4285714285714,4,2,1,85,0,1
455894,-71.4285714285714,4,2,1,5,0,1
455980,-71.4285714285714,4,2,1,85,0,1
457015,-58.8235294117647,4,2,1,85,0,1
457446,-71.4285714285714,4,2,1,5,0,1
457532,-71.4285714285714,4,2,1,85,0,1
457704,-71.4285714285714,4,2,1,85,0,1
457963,-71.4285714285714,4,2,1,5,0,1
458049,-71.4285714285714,4,2,1,85,0,1
458308,-71.4285714285714,4,2,1,5,0,1
458394,-71.4285714285714,4,2,1,85,0,1
458653,-71.4285714285714,4,2,1,5,0,1
458739,-71.4285714285714,4,2,1,85,0,1
459343,-71.4285714285714,4,2,1,5,0,1
459429,-71.4285714285714,4,2,1,85,0,1
459687,-71.4285714285714,4,2,1,5,0,1
459773,-71.4285714285714,4,2,1,85,0,1
462963,-71.4285714285714,4,2,1,5,0,1
463049,-71.4285714285714,4,2,1,85,0,1
464946,-71.4285714285714,4,2,1,80,0,0
465291,-71.4285714285714,4,2,2,60,0,0
466325,-71.4285714285714,4,2,1,60,0,0
466670,-133.333333333333,4,2,2,80,0,0
469084,-71.4285714285714,4,2,5,85,0,1
476325,-58.8235294117647,4,2,5,85,0,1
476670,-71.4285714285714,4,2,5,85,0,1
482877,-100,4,2,2,80,0,0
488394,-66.6666666666667,4,2,5,85,0,1
498394,-58.8235294117647,4,2,5,85,0,1
498739,-66.6666666666667,4,2,5,85,0,1
509084,-71.4285714285714,4,2,1,80,0,0
509429,-71.4285714285714,4,2,2,60,0,0
510463,-71.4285714285714,4,2,1,85,0,1
512101,-71.4285714285714,4,2,1,5,0,1
512187,-71.4285714285714,4,2,1,85,0,1
515377,-71.4285714285714,4,2,1,5,0,1
515463,-71.4285714285714,4,2,1,85,0,1
517619,-71.4285714285714,4,2,1,5,0,1
517705,-71.4285714285714,4,2,1,85,0,1
518136,-71.4285714285714,4,2,1,5,0,1
518222,-71.4285714285714,4,2,1,85,0,1
518653,-71.4285714285714,4,2,1,5,0,1
518739,-71.4285714285714,4,2,1,85,0,1
520894,-71.4285714285714,4,2,1,5,0,1
520980,-71.4285714285714,4,2,1,85,0,1
523653,-71.4285714285714,4,2,1,5,0,1
523739,-71.4285714285714,4,2,1,85,0,1
526412,-71.4285714285714,4,2,1,5,0,1
526498,-71.4285714285714,4,2,1,85,0,1
527015,-71.4285714285714,4,2,1,80,0,0
527187,-71.4285714285714,4,2,2,60,0,0
529774,-133.333333333333,4,2,2,60,0,0
532532,-71.4285714285714,4,2,1,85,0,1
532791,-71.4285714285714,4,2,1,5,0,1
532877,-71.4285714285714,4,2,1,85,0,1
533136,-71.4285714285714,4,2,1,5,0,1
533222,-71.4285714285714,4,2,1,85,0,1
533825,-71.4285714285714,4,2,1,5,0,1
533911,-71.4285714285714,4,2,1,85,0,1
534170,-71.4285714285714,4,2,1,5,0,1
534256,-58.8235294117647,4,2,1,85,0,1
534687,-71.4285714285714,4,2,1,5,0,1
534773,-71.4285714285714,4,2,1,85,0,1
534946,-71.4285714285714,4,2,1,85,0,1
535205,-71.4285714285714,4,2,1,5,0,1
535291,-71.4285714285714,4,2,1,85,0,1
535550,-71.4285714285714,4,2,1,5,0,1
535636,-71.4285714285714,4,2,1,85,0,1
535894,-71.4285714285714,4,2,1,5,0,1
535980,-71.4285714285714,4,2,1,85,0,1
536584,-71.4285714285714,4,2,1,5,0,1
536670,-71.4285714285714,4,2,1,85,0,1
536929,-71.4285714285714,4,2,1,5,0,1
537015,-71.4285714285714,4,2,1,85,0,1
537446,-71.4285714285714,4,2,1,5,0,1
537532,-71.4285714285714,4,2,1,85,0,1
537705,-71.4285714285714,4,2,1,85,0,1
537963,-71.4285714285714,4,2,1,5,0,1
538049,-71.4285714285714,4,2,1,85,0,1
538308,-71.4285714285714,4,2,1,5,0,1
538394,-71.4285714285714,4,2,1,85,0,1
538653,-71.4285714285714,4,2,1,5,0,1
538739,-71.4285714285714,4,2,1,85,0,1
539343,-71.4285714285714,4,2,1,5,0,1
539429,-71.4285714285714,4,2,1,85,0,1
539687,-71.4285714285714,4,2,1,5,0,1
539774,-58.8235294117647,4,2,1,85,0,1
540205,-71.4285714285714,4,2,1,5,0,1
540291,-71.4285714285714,4,2,1,85,0,1
540463,-71.4285714285714,4,2,1,85,0,1
540722,-71.4285714285714,4,2,1,5,0,1
540808,-71.4285714285714,4,2,1,85,0,1
541067,-71.4285714285714,4,2,1,5,0,1
541153,-71.4285714285714,4,2,1,85,0,1
541412,-71.4285714285714,4,2,1,5,0,1
541498,-71.4285714285714,4,2,1,85,0,1
542101,-71.4285714285714,4,2,1,5,0,1
542187,-71.4285714285714,4,2,1,85,0,1
542446,-71.4285714285714,4,2,1,5,0,1
542532,-58.8235294117647,4,2,1,85,0,1
542963,-71.4285714285714,4,2,1,5,0,1
543049,-71.4285714285714,4,2,1,85,0,1
543222,-71.4285714285714,4,2,1,85,0,1
543481,-71.4285714285714,4,2,1,5,0,1
543567,-71.4285714285714,4,2,1,85,0,1
543825,-71.4285714285714,4,2,1,5,0,1
543911,-71.4285714285714,4,2,1,85,0,1
544170,-71.4285714285714,4,2,1,5,0,1
544256,-71.4285714285714,4,2,1,85,0,1
544860,-71.4285714285714,4,2,1,5,0,1
544946,-71.4285714285714,4,2,1,85,0,1
545205,-71.4285714285714,4,2,1,5,0,1
545291,-58.8235294117647,4,2,1,85,0,1
545722,-71.4285714285714,4,2,1,5,0,1
545808,-71.4285714285714,4,2,1,85,0,1
545981,-71.4285714285714,4,2,1,85,0,1
546239,-71.4285714285714,4,2,1,5,0,1
546325,-71.4285714285714,4,2,1,85,0,1
546584,-71.4285714285714,4,2,1,5,0,1
546670,-71.4285714285714,4,2,1,85,0,1
546929,-71.4285714285714,4,2,1,5,0,1
547015,-71.4285714285714,4,2,1,85,0,1
547619,-71.4285714285714,4,2,1,5,0,1
547705,-71.4285714285714,4,2,1,85,0,1
547963,-71.4285714285714,4,2,1,5,0,1
548049,-71.4285714285714,4,2,1,85,0,1
548481,-71.4285714285714,4,2,1,5,0,1
548567,-71.4285714285714,4,2,1,85,0,1
548998,-71.4285714285714,4,2,1,5,0,1
549084,-71.4285714285714,4,2,1,85,0,1
549343,-71.4285714285714,4,2,1,5,0,1
549429,-71.4285714285714,4,2,1,85,0,1
549687,-71.4285714285714,4,2,1,5,0,1
549773,-71.4285714285714,4,2,1,85,0,1
550377,-71.4285714285714,4,2,1,5,0,1
550463,-71.4285714285714,4,2,1,85,0,1
550722,-71.4285714285714,4,2,1,5,0,1
550808,-58.8235294117647,4,2,1,85,0,1
551239,-71.4285714285714,4,2,1,5,0,1
551325,-71.4285714285714,4,2,1,85,0,1
551498,-71.4285714285714,4,2,1,85,0,1
551756,-71.4285714285714,4,2,1,5,0,1
551842,-71.4285714285714,4,2,1,85,0,1
552101,-71.4285714285714,4,2,1,5,0,1
552187,-71.4285714285714,4,2,1,85,0,1
552446,-71.4285714285714,4,2,1,5,0,1
552532,-71.4285714285714,4,2,1,85,0,1
553136,-71.4285714285714,4,2,1,5,0,1
553222,-71.4285714285714,4,2,1,85,0,1
553481,-71.4285714285714,4,2,1,5,0,1
553567,-58.8235294117647,4,2,1,85,0,1
553998,-71.4285714285714,4,2,1,5,0,1
554084,-71.4285714285714,4,2,1,85,0,1
554256,-71.4285714285714,4,2,1,80,0,0
554515,-71.4285714285714,4,2,1,5,0,1
554601,-71.4285714285714,4,2,1,85,0,0
555981,-71.4285714285714,4,2,1,70,0,0
557360,-71.4285714285714,4,2,1,60,0,0
558739,-71.4285714285714,4,2,1,50,0,0
560119,-71.4285714285714,4,2,1,40,0,0
561498,-71.4285714285714,4,2,1,30,0,0
562877,-71.4285714285714,4,2,1,20,0,0
564256,-71.4285714285714,4,2,1,10,0,0
565636,-71.4285714285714,4,2,1,5,0,0

[Colours]
Combo1 : 255,255,155
Combo2 : 255,124,62
Combo3 : 255,74,74
Combo4 : 168,255,255
Combo5 : 149,221,255
Combo6 : 128,255,159
Combo7 : 190,255,125
Combo8 : 255,182,147

[HitObjects]
256,192,119,12,0,8222,0:2:0:0:
98,173,8394,22,0,B|133:139|161:137|161:137|192:168|246:165|246:165|280:101|241:61,1,247.500009441376,6|0,3:2|0:2,0:2:0:0:
242,79,8739,1,8,0:2:0:0:
465,27,8912,102,0,B|391:-1|350:52|350:52|383:126|339:198,1,247.500009441376,6|0,3:2|0:2,0:2:0:0:
342,180,9256,1,8,0:2:0:0:
383,341,9429,6,0,P|450:343|449:279,1,123.750004720688,6|0,3:2|0:2,0:2:0:0:
355,262,9774,101,8,0:2:0:0:
330,267,9860,1,8,0:2:0:0:
305,272,9946,1,8,0:2:0:0:
280,277,10032,1,8,0:2:0:0:
265,297,10119,5,2,0:3:0:0:
240,302,10205,1,2,0:3:0:0:
215,307,10291,1,2,0:3:0:0:
190,312,10377,1,2,0:3:0:0:
170,297,10463,102,8,L|152:369,2,55.0000020980836,8|8|8,0:3|0:3|0:3,0:3:0:0:
58,252,10808,2,4,L|76:324,2,55.0000020980836,4|4|4,0:3|0:3|0:3,0:3:0:0:
257,362,11153,6,0,B|279:262|279:262|217:224|217:224|240:128,1,247.500009441376,6|0,3:2|0:2,0:2:0:0:
240,129,11498,1,8,0:2:0:0:
432,124,11670,102,0,B|506:137|506:137|320:181,1,247.500009441376,6|0,3:2|0:2,0:2:0:0:
316,188,12015,1,8,0:2:0:0:
57,84,12187,6,0,B|115:-19|209:49|209:49|163:69|156:122,1,247.500009441376,6|0,3:2|0:2,0:2:0:0:
165,92,12877,101,8,0:2:0:0:
92,342,13222,1,12,0:2:0:0:
32,245,13481,5,2,0:3:0:0:
35,233,13567,1,2,0:3:0:0:
38,221,13653,1,4,0:3:0:0:
41,209,13739,1,4,0:3:0:0:
92,342,13912,102,0,P|145:331|167:287,1,82.5000031471254,2|0,3:2|0:2,0:2:0:0:
175,233,14256,2,0,P|231:235|250:345,1,165.000006294251,8|0,0:2|0:2,0:2:0:0:
262,326,14774,1,0,3:2:0:0:
339,232,14946,2,0,P|391:221|421:215,1,82.5000031471254,8|0,0:2|3:2,0:2:0:0:
471,366,15291,6,0,L|489:262,1,82.5000031471254,2|0,3:2|3:2,0:2:0:0:
353,313,15636,2,0,L|335:209,1,82.5000031471254,8|0,3:2|3:2,0:2:0:0:
473,147,15981,2,0,L|491:43,1,82.5000031471254,0|0,3:2|3:2,0:2:0:0:
355,94,16326,2,0,L|337:-10,1,82.5000031471254,8|0,3:2|3:2,3:2:0:0:
271,175,16670,101,6,3:2:0:0:
121,101,16843,1,0,3:2:0:0:
171,249,17015,1,8,3:2:0:0:
223,53,17187,1,0,3:2:0:0:
63,20,17360,5,6,3:2:0:0:
189,161,17532,1,0,3:2:0:0:
26,306,17705,1,8,3:2:0:0:
107,188,17877,1,0,3:2:0:0:
201,372,18050,101,6,3:2:0:0:
278,225,18222,1,0,3:2:0:0:
121,101,18394,1,8,3:2:0:0:
201,372,18567,1,2,3:3:0:0:
358,276,18739,5,4,3:3:0:0:
293,135,18912,1,0,3:2:0:0:
280,137,18998,1,0,3:2:0:0:
267,139,19084,1,8,0:2:0:0:
403,354,19256,1,0,3:2:0:0:
416,352,19342,1,0,3:2:0:0:
432,350,19429,102,0,B|471:336|471:336|441:175,1,165,2|0,3:3|0:2,0:2:0:0:
444,198,19774,1,10,0:2:0:0:
233,298,19946,1,2,0:2:0:0:
302,359,20119,1,2,0:2:0:0:
322,210,20291,1,0,3:2:0:0:
164,384,20463,2,0,P|147:321|118:253,1,110,8|0,0:2|0:2,0:2:0:0:
177,177,20808,5,2,0:2:0:0:
36,281,20981,1,2,3:2:0:0:
207,268,21153,1,10,0:2:0:0:
109,121,21325,1,2,0:2:0:0:
202,30,21498,2,0,P|266:26|315:19,1,110,2|0,0:2|3:2,0:2:0:0:
109,121,21843,2,0,P|45:117|-4:110,1,110,8|0,0:2|0:2,0:2:0:0:
135,259,22187,101,2,3:2:0:0:
272,154,22360,1,2,0:2:0:0:
456,200,22532,1,10,0:2:0:0:
343,269,22705,1,0,0:2:0:0:
468,213,22877,2,0,P|492:286|456:347,1,110,2|0,0:2|3:2,0:2:0:0:
327,264,23222,5,10,0:2:0:0:
495,138,23394,1,2,0:2:0:0:
387,342,23567,1,2,0:2:0:0:
335,178,23739,1,2,3:2:0:0:
243,288,23912,102,0,L|223:358,1,55,10|0,0:2|0:2,0:2:0:0:
135,259,24084,2,0,L|115:189,1,55,2|0,0:2|0:2,0:2:0:0:
48,383,24256,2,0,B|137:366|137:366|150:331,1,110,2|0,0:2|3:2,0:2:0:0:
207,195,24601,5,10,0:2:0:0:
56,296,24774,1,2,3:2:0:0:
345,375,24946,2,0,L|317:226,1,110,2|0,3:3|0:2,0:2:0:0:
148,87,25291,101,10,0:2:0:0:
422,46,25463,1,2,0:2:0:0:
266,200,25636,1,2,0:2:0:0:
328,135,25808,1,0,3:2:0:0:
254,5,25981,2,0,L|236:131,1,110,10|0,0:2|0:2,0:2:0:0:
324,266,26325,5,2,0:2:0:0:
506,178,26498,1,2,3:2:0:0:
266,200,26670,1,10,0:2:0:0:
381,325,26843,1,0,0:2:0:0:
386,204,27015,1,2,0:2:0:0:
264,323,27187,1,2,3:2:0:0:
324,266,27360,1,10,0:2:0:0:
201,263,27532,1,0,0:2:0:0:
434,384,27705,101,2,3:2:0:0:
266,200,27877,1,2,0:2:0:0:
89,384,28050,1,10,0:2:0:0:
141,202,28222,1,2,0:2:0:0:
324,266,28394,2,0,L|455:238,1,110,0|0,0:2|3:2,0:2:0:0:
142,321,28739,5,10,0:2:0:0:
199,127,28912,1,2,0:2:0:0:
28,172,29084,1,2,0:2:0:0:
122,213,29256,1,0,3:2:0:0:
168,50,29429,1,10,0:2:0:0:
21,190,29601,1,2,0:2:0:0:
193,139,29774,1,0,0:2:0:0:
74,28,29946,101,2,3:2:0:0:
143,295,30119,1,10,0:2:0:0:
183,47,30291,1,2,3:2:0:0:
294,186,30463,6,0,B|339:177|339:177|348:168|348:168|437:146,1,110,2|0,3:3|0:2,0:2:0:0:
503,345,30808,1,10,0:2:0:0:
359,259,30981,1,2,0:2:0:0:
466,233,31153,1,2,0:2:0:0:
370,368,31325,1,0,3:2:0:0:
470,219,31498,2,0,L|492:109,1,110,10|0,0:2|0:2,0:2:0:0:
271,59,31843,101,2,0:2:0:0:
397,155,32015,1,2,3:2:0:0:
253,82,32187,1,10,0:2:0:0:
168,203,32360,1,0,0:2:0:0:
95,86,32532,2,0,P|41:68|-35:58,1,110,2|0,0:2|3:2,0:2:0:0:
176,221,32877,2,0,P|230:203|306:193,1,110,8|0,0:2|0:2,0:2:0:0:
52,367,33222,5,2,3:2:0:0:
91,228,33394,1,2,0:2:0:0:
212,370,33567,1,10,0:2:0:0:
295,298,33739,1,2,0:2:0:0:
393,359,33912,2,0,P|469:341|475:308,1,110,2|0,0:2|3:2,0:2:0:0:
295,298,34256,101,10,0:2:0:0:
394,187,34429,1,2,0:2:0:0:
279,100,34601,1,2,0:2:0:0:
408,185,34774,1,0,3:2:0:0:
496,112,34946,6,0,L|514:53,1,55,10|0,0:2|0:2,0:2:0:0:
272,82,35119,2,0,L|254:23,1,55,2|0,0:2|0:2,0:2:0:0:
380,1,35291,2,0,B|409:30|409:30|374:122,1,110,2|0,0:2|3:2,0:2:0:0:
236,167,35636,101,10,0:2:0:0:
496,112,35808,1,2,3:2:0:0:
410,347,35981,2,0,P|371:337|286:307,1,110,2|0,3:3|0:2,0:2:0:0:
79,331,36325,5,10,0:2:0:0:
242,268,36498,1,2,0:2:0:0:
189,368,36670,1,2,0:2:0:0:
43,240,36843,1,2,3:2:0:0:
158,92,37015,2,0,L|169:218,1,110,10|0,0:2|0:2,0:2:0:0:
252,162,37360,101,2,0:2:0:0:
58,107,37532,1,2,3:2:0:0:
317,58,37705,1,10,0:2:0:0:
246,175,37877,1,0,0:2:0:0:
206,14,38050,1,2,0:2:0:0:
337,211,38222,1,2,3:2:0:0:
463,37,38394,1,10,0:2:0:0:
512,131,38567,1,0,0:2:0:0:
361,61,38739,6,0,B|279:81|279:81|271:130|271:130|175:158,1,220,2|0,1:2|0:2,0:2:0:0:
115,354,39256,2,0,P|42:355|85:231,1,220,2|0,1:2|0:2,0:2:0:0:
151,249,39774,101,0,1:2:0:0:
166,254,39860,1,0,1:2:0:0:
181,260,39946,1,0,1:2:0:0:
196,265,40032,1,0,1:2:0:0:
211,271,40119,1,0,3:2:0:0:
247,349,40291,1,0,1:2:0:0:
299,288,40463,6,0,P|307:268|303:219,1,55,0|0,1:2|1:2,0:2:0:0:
334,257,40636,2,0,P|325:237|288:205,1,55,0|0,1:2|1:2,0:2:0:0:
487,261,40808,101,12,1:2:0:0:
412,211,40981,1,0,1:2:0:0:
411,302,41153,1,0,1:2:0:0:
411,302,41325,1,0,1:2:0:0:
512,108,41498,6,0,P|432:121|368:130,1,110,2|0,3:3|0:2,0:2:0:0:
225,239,41843,2,0,P|279:247|333:256,1,110,10|0,0:2|0:2,0:2:0:0:
494,370,42187,2,0,P|487:287|487:227,1,110,2|0,0:2|3:2,0:2:0:0:
284,15,42532,2,0,P|291:98|291:158,1,110,10|0,0:2|0:2,0:2:0:0:
161,315,42877,102,0,P|111:323|39:338,1,110,2|0,0:2|3:2,0:2:0:0:
53,126,43222,2,0,P|106:137|161:145,1,110,10|0,0:2|0:2,0:2:0:0:
274,356,43567,2,0,P|291:279|305:228,1,110,2|0,0:2|3:2,0:2:0:0:
401,228,43912,1,8,0:2:0:0:
507,335,44084,5,2,0:2:0:0:
507,335,44170,1,2,0:2:0:0:
507,335,44256,2,0,P|411:353|357:368,1,110,2|0,3:2|0:2,0:2:0:0:
210,296,44601,101,10,0:2:0:0:
406,245,44774,1,2,0:2:0:0:
258,184,44946,1,2,0:2:0:0:
365,134,45119,1,0,3:2:0:0:
302,351,45291,5,10,0:2:0:0:
179,213,45463,1,2,0:2:0:0:
50,268,45636,2,0,P|30:329|16:382,1,110,2|0,0:2|3:2,0:2:0:0:
93,190,45981,102,0,P|92:169|88:135,1,55,10|0,0:2|0:2,0:2:0:0:
6,142,46153,2,0,P|7:163|11:197,1,55,2|0,0:2|0:2,0:2:0:0:
132,266,46325,2,0,P|200:260|226:209,1,110,2|0,0:2|3:2,0:2:0:0:
307,59,46670,1,10,0:2:0:0:
93,190,46843,1,2,3:2:0:0:
317,45,47015,6,0,L|442:77,1,110,2|0,3:3|0:2,0:2:0:0:
512,277,47360,2,0,L|405:304,1,110,10|0,0:2|0:2,0:2:0:0:
278,374,47705,2,0,P|283:321|302:249,1,110,2|0,0:2|3:2,0:2:0:0:
423,72,48050,2,0,P|428:125|447:197,1,110,10|0,0:2|0:2,0:2:0:0:
326,153,48394,102,0,P|266:139|197:122,1,110,2|0,0:2|3:2,0:2:0:0:
53,322,48739,2,0,P|106:308|160:296,1,110,10|0,0:2|0:2,0:2:0:0:
159,22,49084,2,0,P|126:86|108:129,1,110,2|0,0:2|3:2,0:2:0:0:
286,329,49429,6,0,B|292:206|203:266|221:92,1,220,10|0,0:2|3:2,0:2:0:0:
411,97,49946,2,0,P|373:143|293:141,1,110,2|8,0:2|0:2,0:2:0:0:
218,127,50291,1,0,0:2:0:0:
412,228,50463,102,0,P|471:251|530:284,1,110,2|0,0:2|3:2,0:2:0:0:
510,180,50808,1,8,0:2:0:0:
392,310,50981,1,2,0:2:0:0:
306,110,51153,5,2,0:2:0:0:
412,228,51325,1,2,3:2:0:0:
271,365,51498,1,10,0:2:0:0:
312,248,51670,1,0,0:2:0:0:
161,164,51843,101,2,0:2:0:0:
76,147,52015,1,2,3:2:0:0:
166,266,52187,5,10,0:2:0:0:
248,51,52360,1,2,3:2:0:0:
172,175,52532,102,0,P|250:162|312:150,1,110,2|0,3:3|0:2,0:2:0:0:
181,377,52877,2,0,P|126:367|72:358,1,110,10|0,0:2|0:2,0:2:0:0:
269,264,53222,2,0,P|288:321|305:401,1,110,2|0,0:2|3:2,0:2:0:0:
45,252,53567,2,0,P|58:198|75:146,1,110,10|0,0:2|0:2,0:2:0:0:
280,156,53912,6,0,P|334:165|388:174,1,110,2|0,0:2|3:2,0:2:0:0:
407,350,54256,2,0,P|352:358|298:368,1,110,10|0,0:2|0:2,0:2:0:0:
493,168,54601,2,0,P|481:238|469:299,1,110,2|0,0:2|3:2,0:2:0:0:
509,361,54946,1,8,0:2:0:0:
391,250,55119,1,2,0:2:0:0:
482,88,55291,102,0,P|456:24|309:55,1,220,2|8,3:2|0:2,0:2:0:0:
280,156,55808,1,2,0:2:0:0:
150,58,55981,2,0,P|91:44|41:34,2,110,2|0|8,0:2|3:2|0:2,0:2:0:0:
179,237,56498,5,2,0:2:0:0:
240,71,56670,1,2,0:2:0:0:
61,133,56843,1,2,3:2:0:0:
252,280,57015,102,0,P|264:248|258:216,1,55,10|0,0:2|0:2,0:2:0:0:
108,202,57187,2,0,P|96:234|102:266,1,55,2|0,0:2|0:2,0:2:0:0:
259,306,57360,2,0,P|279:243|258:183,1,110,2|0,0:2|3:2,0:2:0:0:
192,155,57705,5,10,0:2:0:0:
327,356,57877,1,2,3:2:0:0:
392,130,58050,1,2,3:0:0:0:
256,192,58222,12,0,61843,0:2:0:0:
82,237,62015,101,0,1:2:0:0:
80,220,62101,1,0,1:2:0:0:
78,203,62187,1,0,1:2:0:0:
23,299,62360,1,10,0:2:0:0:
78,190,62532,6,0,L|138:204,1,55,2|0,1:2|0:2,0:2:0:0:
158,209,62705,2,0,L|218:223,1,55,2|0,1:2|0:2,0:2:0:0:
302,366,62877,102,0,P|287:338|288:300,1,55,2|0,1:2|0:2,0:2:0:0:
273,315,63050,2,0,P|276:287|290:264,1,55,2|0,1:2|0:2,0:2:0:0:
379,299,63222,6,0,L|439:285,1,55,2|0,1:2|0:2,0:2:0:0:
459,280,63395,2,0,L|519:266,1,55,2|0,1:2|0:2,0:2:0:0:
389,384,63567,101,2,3:3:0:0:
363,218,63739,1,0,0:2:0:0:
152,241,63912,5,10,0:2:0:0:
421,142,64084,1,2,0:2:0:0:
221,15,64256,1,2,0:2:0:0:
234,324,64429,2,0,L|252:184,1,131.99999597168,2|8,3:2|0:2,0:2:0:0:
277,81,64774,102,0,B|177:103|177:103|162:142|162:142|62:165,1,197.99999395752,0|0,0:2|0:2,0:2:0:0:
90,160,65119,1,2,3:2:0:0:
325,14,65291,1,10,0:2:0:0:
152,241,65463,1,2,0:2:0:0:
381,351,65636,6,0,P|468:334|475:258,1,131.99999597168,2|0,0:2|3:2,0:2:0:0:
488,198,65981,1,8,0:2:0:0:
288,365,66153,2,0,P|275:276|246:202,1,131.99999597168,2|0,0:2|3:2,0:2:0:0:
121,13,66498,101,2,0:2:0:0:
307,171,66670,1,10,0:2:0:0:
113,327,66843,1,2,0:2:0:0:
23,211,67015,2,0,L|178:246,1,131.99999597168,2|0,0:2|3:2,0:2:0:0:
239,256,67360,1,8,0:2:0:0:
366,42,67532,6,0,B|285:57|285:57|316:222,1,197.99999395752,2|0,0:2|0:2,0:2:0:0:
312,189,67877,1,0,3:2:0:0:
193,52,68050,101,10,0:2:0:0:
403,188,68222,1,2,0:2:0:0:
239,256,68394,1,0,0:2:0:0:
289,326,68567,1,2,3:2:0:0:
200,66,68739,5,10,0:2:0:0:
476,130,68912,1,2,3:2:0:0:
228,271,69084,2,0,L|63:243,1,131.99999597168,2|0,3:3|0:2,0:2:0:0:
387,380,69429,101,10,0:2:0:0:
403,69,69601,1,2,0:2:0:0:
192,187,69774,1,2,0:2:0:0:
296,374,69946,2,0,P|311:309|337:242,1,131.99999597168,2|8,3:2|0:2,0:2:0:0:
512,126,70291,6,0,P|429:190|349:102,1,197.99999395752,0|0,0:2|0:2,0:2:0:0:
351,129,70636,1,2,3:2:0:0:
388,366,70808,1,10,0:2:0:0:
205,201,70981,1,2,0:2:0:0:
79,337,71153,1,2,0:2:0:0:
173,367,71325,102,0,P|158:302|132:235,1,131.99999597168,2|8,3:2|0:2,0:2:0:0:
312,254,71670,2,0,P|327:189|353:122,1,131.99999597168,2|0,0:2|3:2,0:2:0:0:
412,217,72015,5,2,0:2:0:0:
115,115,72187,1,10,0:2:0:0:
421,45,72360,1,2,0:2:0:0:
213,5,72532,2,0,P|210:55|327:78,1,131.99999597168,2|0,0:2|3:2,0:2:0:0:
340,38,72877,1,8,0:2:0:0:
111,204,73050,102,0,B|216:194|163:114|276:101,1,197.99999395752,2|0,0:2|0:2,0:2:0:0:
282,116,73394,1,2,3:2:0:0:
146,348,73567,5,10,0:2:0:0:
14,133,73739,1,2,0:2:0:0:
81,74,73912,1,0,0:2:0:0:
36,258,74084,101,2,3:2:0:0:
268,191,74256,1,10,0:2:0:0:
146,364,74429,1,2,3:2:0:0:
285,203,74601,2,0,P|356:213|438:231,1,131.99999597168,2|0,3:3|0:2,0:2:0:0:
500,62,74946,5,10,0:2:0:0:
324,332,75119,1,2,0:2:0:0:
252,113,75291,1,0,0:2:0:0:
493,359,75463,2,0,P|507:291|520:228,1,131.99999597168,2|8,3:2|0:2,0:2:0:0:
245,257,75808,102,0,B|317:241|317:241|336:182|336:182|420:166,1,197.99999395752,2|0,0:2|0:2,0:2:0:0:
417,170,76153,1,2,3:2:0:0:
183,174,76325,5,10,0:2:0:0:
364,351,76498,1,2,0:2:0:0:
400,257,76670,1,2,0:2:0:0:
146,284,76843,102,0,L|-2:256,1,131.99999597168,2|8,3:2|0:2,0:2:0:0:
376,85,77187,2,0,L|524:57,1,131.99999597168,2|0,0:2|3:2,0:2:0:0:
339,12,77532,1,2,0:2:0:0:
231,337,77705,5,10,0:2:0:0:
193,78,77877,1,2,0:2:0:0:
400,257,78050,1,2,0:2:0:0:
283,248,78222,1,0,3:2:0:0:
390,271,78394,1,8,0:2:0:0:
225,360,78567,102,0,P|178:280|52:236,1,197.99999395752,2|0,0:2|0:2,0:2:0:0:
70,250,78912,1,2,3:2:0:0:
300,212,79084,6,0,B|428:172|307:119|465:81,1,197.99999395752,10|0,0:2|0:2,0:2:0:0:
458,94,79429,2,0,P|385:79|399:8,1,131.99999597168,0|0,0:2|3:2,0:2:0:0:
463,0,79774,101,10,0:2:0:0:
280,135,79946,1,2,3:2:0:0:
405,374,80119,2,0,P|434:283|456:233,1,131.99999597168,2|0,3:3|0:2,0:2:0:0:
276,126,80463,5,10,0:2:0:0:
50,207,80636,1,2,0:2:0:0:
336,272,80808,1,2,0:2:0:0:
212,384,80981,2,0,P|183:293|161:243,1,131.99999597168,2|8,3:2|0:2,0:2:0:0:
0,148,81325,102,0,P|81:160|102:35,1,197.99999395752,2|0,0:2|0:2,0:2:0:0:
107,53,81670,1,2,3:2:0:0:
330,252,81843,1,10,0:2:0:0:
411,119,82015,1,2,0:2:0:0:
317,238,82187,2,0,P|338:338|350:394,1,131.99999597168,2|0,0:2|3:2,0:2:0:0:
432,295,82532,1,8,0:2:0:0:
223,218,82705,1,0,0:2:0:0:
498,26,82877,6,0,P|435:94|256:130,1,263.99999194336,2|8,3:2|0:2,0:2:0:0:
191,82,83394,1,2,0:2:0:0:
181,56,83481,1,2,0:2:0:0:
173,31,83567,1,2,0:2:0:0:
356,157,83739,1,0,3:2:0:0:
163,178,83912,2,0,P|88:167|20:151,1,131.99999597168,10|0,0:2|0:2,0:2:0:0:
219,384,84256,102,0,L|247:225,1,123.750004720688,2|0,3:2|0:2,0:2:0:0:
240,262,84601,6,0,L|291:250,3,41.2500015735627,8|0|0|0,0:2|1:2|1:2|1:2,0:2:0:0:
184,320,84946,2,0,L|144:311,3,41.2500015735627,0|0|0|0,1:2|1:2|1:2|1:2,1:2:0:0:
182,133,85291,101,0,1:2:0:0:
157,113,85377,1,0,1:2:0:0:
118,115,85463,1,0,1:2:0:0:
73,145,85550,1,0,1:2:0:0:
61,195,85636,6,0,L|252:169,1,165,2|0,3:3|0:2,0:2:0:0:
245,159,85981,1,10,0:2:0:0:
117,274,86153,1,2,0:2:0:0:
183,86,86325,1,2,0:2:0:0:
294,245,86498,1,0,3:2:0:0:
474,172,86670,2,0,L|492:53,1,110,10|0,0:2|0:2,0:2:0:0:
301,52,87015,101,0,0:2:0:0:
429,25,87187,1,2,3:2:0:0:
331,140,87360,1,10,0:2:0:0:
213,4,87532,1,2,0:2:0:0:
343,147,87705,2,0,P|356:212|363:265,1,110,2|0,0:2|3:2,0:2:0:0:
467,378,88050,2,0,P|474:323|485:269,1,110,8|0,0:2|0:2,0:2:0:0:
213,269,88394,5,2,3:2:0:0:
381,349,88567,1,2,0:2:0:0:
219,248,88739,1,10,0:2:0:0:
149,347,88912,1,2,0:2:0:0:
223,228,89084,2,0,L|211:89,1,110,2|0,0:2|3:2,0:2:0:0:
201,28,89429,101,10,0:2:0:0:
110,114,89601,1,2,0:2:0:0:
292,42,89774,1,2,0:2:0:0:
115,19,89946,1,0,3:2:0:0:
307,147,90119,6,0,L|368:131,1,55,10|0,0:2|0:2,0:2:0:0:
456,59,90291,2,0,L|402:45,1,55,2|0,0:2|0:2,0:2:0:0:
454,149,90463,2,0,B|469:203|469:203|421:248,1,110,2|0,0:2|3:2,0:2:0:0:
364,366,90808,101,10,0:2:0:0:
360,133,90981,1,2,3:2:0:0:
161,288,91153,2,0,P|91:313|11:343,1,110,2|0,3:3|0:2,0:2:0:0:
53,231,91498,5,10,0:2:0:0:
214,358,91670,1,2,0:2:0:0:
242,229,91843,1,2,0:2:0:0:
161,288,92015,1,2,3:2:0:0:
256,217,92187,2,0,P|248:145|217:129,1,110,10|0,0:2|0:2,0:2:0:0:
130,135,92532,101,2,0:2:0:0:
347,180,92705,1,2,3:2:0:0:
157,268,92877,1,10,0:2:0:0:
127,120,93050,1,0,0:2:0:0:
267,209,93222,1,2,0:2:0:0:
347,18,93394,1,2,3:2:0:0:
123,106,93567,1,8,0:2:0:0:
260,115,93739,1,2,0:2:0:0:
137,14,93912,5,2,3:2:0:0:
267,209,94084,1,2,0:2:0:0:
416,108,94256,1,10,0:2:0:0:
478,193,94429,1,2,0:2:0:0:
391,311,94601,2,0,L|372:188,1,110,2|0,0:2|3:2,0:2:0:0:
267,209,94946,101,10,0:2:0:0:
500,190,95119,1,2,0:2:0:0:
379,335,95291,1,2,0:2:0:0:
386,186,95463,1,2,3:2:0:0:
248,369,95636,1,8,0:2:0:0:
192,260,95808,1,2,0:2:0:0:
278,155,95981,6,0,L|261:238,1,55,2|0,0:2|0:2,0:2:0:0:
116,313,96153,2,0,L|99:230,1,55,2|0,3:2|0:2,0:2:0:0:
303,297,96325,101,10,0:2:0:0:
56,198,96498,1,2,3:2:0:0:
318,311,96670,6,0,B|372:299|372:299|419:325|419:325|509:304,1,165,2|0,3:3|0:2,0:2:0:0:
485,293,97015,1,10,0:2:0:0:
357,384,97187,1,2,0:2:0:0:
335,218,97360,1,2,0:2:0:0:
469,145,97532,1,2,3:2:0:0:
317,226,97705,2,0,L|197:203,1,110,10|0,0:2|0:2,0:2:0:0:
85,291,98050,101,2,0:2:0:0:
230,128,98222,1,2,3:2:0:0:
197,373,98394,1,10,0:2:0:0:
183,281,98567,1,0,0:2:0:0:
300,238,98739,2,0,P|307:319|309:350,1,110,2|0,0:2|3:2,0:2:0:0:
67,182,99084,2,0,P|70:127|75:72,1,110,10|0,0:2|0:2,0:2:0:0:
343,0,99429,5,2,3:2:0:0:
159,73,99601,1,2,0:2:0:0:
324,117,99774,1,10,0:2:0:0:
205,192,99946,1,2,0:2:0:0:
316,237,100119,2,0,P|393:263|445:283,1,110,2|0,0:2|3:2,0:2:0:0:
502,237,100463,101,10,0:2:0:0:
380,362,100636,1,2,0:2:0:0:
401,174,100808,1,2,0:2:0:0:
426,284,100981,1,0,3:2:0:0:
316,237,101153,6,0,L|244:255,1,55,10|0,0:2|0:2,0:2:0:0:
160,328,101325,2,0,L|213:341,1,55,2|0,0:2|0:2,0:2:0:0:
203,161,101498,2,0,B|155:191|155:191|178:293,1,110,2|0,0:2|3:2,0:2:0:0:
323,334,101843,101,10,0:2:0:0:
94,276,102015,1,2,3:2:0:0:
300,140,102187,2,0,B|342:113|342:113|311:-39,1,165,2|0,3:3|0:2,0:2:0:0:
307,12,102532,5,10,0:2:0:0:
430,102,102705,1,2,0:2:0:0:
243,67,102877,1,2,0:2:0:0:
459,26,103050,1,2,3:2:0:0:
403,187,103222,2,0,P|391:240|383:322,1,110,10|0,0:2|0:2,0:2:0:0:
300,140,103567,101,2,0:2:0:0:
486,208,103739,1,2,3:2:0:0:
298,244,103912,2,0,B|170:248|238:339|96:337,1,220,10|0,0:2|0:2,0:2:0:0:
60,265,104429,5,2,3:2:0:0:
230,382,104601,1,10,0:2:0:0:
229,174,104774,1,2,3:2:0:0:
256,192,104946,12,0,107015,0:2:0:0:
462,162,107187,101,0,1:2:0:0:
466,146,107274,1,0,1:2:0:0:
470,130,107360,1,0,1:2:0:0:
401,266,107532,1,0,1:2:0:0:
397,250,107619,1,0,1:2:0:0:
391,234,107705,6,0,B|323:246|323:246|324:261|324:261|214:281,1,165,2|0,3:3|0:2,0:2:0:0:
235,261,108050,1,10,0:2:0:0:
59,346,108222,1,2,0:2:0:0:
189,366,108394,1,2,0:2:0:0:
63,226,108567,1,2,3:2:0:0:
163,153,108739,2,0,L|185:41,1,110,10|0,0:2|0:2,0:2:0:0:
270,21,109084,101,2,0:2:0:0:
86,116,109256,1,2,3:2:0:0:
256,182,109429,1,10,0:2:0:0:
159,283,109601,1,0,0:2:0:0:
271,172,109774,2,0,P|340:147|400:134,1,110,2|0,0:2|3:2,0:2:0:0:
512,52,110119,2,0,P|458:38|407:18,1,110,10|0,0:2|0:2,0:2:0:0:
444,299,110463,5,2,3:2:0:0:
490,139,110636,1,2,0:2:0:0:
351,222,110808,1,10,0:2:0:0:
474,304,110981,1,2,0:2:0:0:
363,368,111153,2,0,P|299:356|236:338,1,110,2|0,0:2|3:2,0:2:0:0:
244,165,111498,101,10,0:2:0:0:
137,351,111670,1,2,0:2:0:0:
113,204,111843,1,2,0:2:0:0:
340,242,112015,1,0,3:2:0:0:
198,291,112187,6,0,L|180:202,1,55,10|0,0:2|0:2,0:2:0:0:
59,100,112360,2,0,L|48:153,1,55,2|0,0:2|0:2,0:2:0:0:
0,324,112532,2,0,B|69:313|69:313|93:252,1,110,2|0,0:2|3:2,0:2:0:0:
174,108,112877,101,10,0:2:0:0:
12,235,113050,1,2,3:2:0:0:
130,33,113222,2,0,L|275:12,1,110,2|0,3:3|0:2,0:2:0:0:
446,211,113567,5,10,0:2:0:0:
302,93,113739,1,2,0:2:0:0:
485,34,113912,1,2,0:2:0:0:
440,122,114084,1,2,3:2:0:0:
294,123,114256,2,0,P|282:177|247:344,1,220,10|0,0:2|0:2,0:2:0:0:
343,327,114774,101,2,3:2:0:0:
171,217,114946,1,10,0:2:0:0:
92,302,115119,1,2,0:2:0:0:
176,201,115291,1,0,0:2:0:0:
245,364,115463,1,2,3:2:0:0:
366,235,115636,1,10,0:2:0:0:
183,187,115808,1,2,0:2:0:0:
363,341,115981,5,2,3:2:0:0:
262,257,116153,1,2,0:2:0:0:
359,157,116325,1,10,0:2:0:0:
286,73,116498,1,2,0:2:0:0:
373,160,116670,2,0,P|450:150|508:137,1,110,2|0,0:2|3:2,0:2:0:0:
461,239,117015,101,10,0:2:0:0:
386,74,117187,1,2,0:2:0:0:
419,319,117360,1,2,0:2:0:0:
489,160,117532,1,0,3:2:0:0:
357,244,117705,1,10,0:2:0:0:
481,375,117877,1,0,0:2:0:0:
512,247,118050,6,0,L|440:261,1,55,2|0,0:2|0:2,0:2:0:0:
354,368,118222,2,0,L|282:354,1,55,2|0,3:2|0:2,0:2:0:0:
225,299,118394,101,10,0:2:0:0:
492,363,118567,1,2,3:2:0:0:
341,230,118739,6,0,L|322:43,1,165,2|0,3:3|0:2,0:2:0:0:
339,58,119084,1,10,0:2:0:0:
423,145,119256,1,2,0:2:0:0:
254,102,119429,1,2,0:2:0:0:
194,190,119601,1,0,3:2:0:0:
39,132,119774,2,0,P|31:55|22:9,1,110,10|0,0:2|0:2,0:2:0:0:
138,81,120119,101,2,0:2:0:0:
55,232,120291,1,2,3:2:0:0:
268,128,120463,1,10,0:2:0:0:
182,170,120636,1,2,0:2:0:0:
317,233,120808,2,0,P|332:303|339:353,1,110,2|0,0:2|3:2,0:2:0:0:
133,370,121153,2,0,P|141:315|153:262,1,110,8|0,0:2|0:2,0:2:0:0:
426,320,121498,5,2,3:2:0:0:
235,280,121670,1,2,0:2:0:0:
432,219,121843,1,8,0:2:0:0:
352,366,122015,1,2,0:2:0:0:
363,165,122187,2,0,P|377:101|396:50,1,110,2|0,0:2|3:2,0:2:0:0:
470,33,122532,101,10,0:2:0:0:
298,70,122705,1,2,0:2:0:0:
200,23,122877,1,2,0:2:0:0:
284,161,123050,1,0,3:2:0:0:
392,59,123222,6,0,L|377:0,1,55,10|0,0:2|0:2,0:2:0:0:
208,120,123394,2,0,L|193:179,1,55,2|0,0:2|0:2,0:2:0:0:
399,257,123567,2,0,B|390:178|390:178|345:156,1,110,2|0,0:2|3:2,0:2:0:0:
276,242,123912,1,10,0:2:0:0:
464,137,124084,1,2,3:2:0:0:
239,31,124256,102,0,B|165:45|165:45|161:55|161:55|53:74,1,165,2|0,3:3|0:2,0:2:0:0:
38,135,124601,2,0,B|115:148|115:148|119:158|119:158|193:172,1,165,8|0,0:2|0:2,0:2:0:0:
231,245,124946,5,2,0:2:0:0:
326,85,125119,1,2,3:2:0:0:
310,266,125291,2,0,P|290:343|272:393,1,110,10|0,0:2|0:2,0:2:0:0:
151,261,125636,101,2,1:2:0:0:
151,261,125808,1,0,3:2:0:0:
372,212,125981,2,0,P|449:232|499:250,1,110,10|0,0:2|0:2,0:2:0:0:
512,330,126325,5,2,1:2:0:0:
512,330,126498,1,0,3:2:0:0:
342,106,126670,2,0,P|358:158|371:211,1,110,10|0,0:2|0:2,0:2:0:0:
310,266,127015,101,2,3:2:0:0:
256,192,127187,12,0,128308,0:2:0:0:
248,276,128394,5,0,3:2:0:0:
248,276,128567,1,0,3:2:0:0:
201,201,128739,102,0,L|259:191,1,55,2|0,0:2|0:2,0:2:0:0:
205,188,128912,2,0,L|263:178,1,55,2|0,0:2|0:2,0:2:0:0:
282,349,129084,6,0,L|224:359,1,55,2|0,0:2|0:2,0:2:0:0:
278,362,129257,2,0,L|220:372,1,55,2|0,0:2|0:2,0:2:0:0:
141,319,129429,102,0,L|132:265,1,55,2|0,0:2|0:2,0:2:0:0:
344,234,129601,2,0,L|353:288,1,55,2|0,0:2|0:2,0:2:0:0:
238,268,129774,6,0,B|251:216|251:216|242:205|242:205|267:77,1,165.000006294251,2|0,3:2|0:2,0:2:0:0:
260,109,130119,1,0,0:2:0:0:
172,24,130291,102,0,B|159:76|159:76|168:87|168:87|143:215,1,165.000006294251,2|0,3:2|0:2,0:2:0:0:
150,183,130636,1,0,0:2:0:0:
58,363,130808,6,0,B|123:353|123:353|63:189|63:189|-30:200|-30:200|7:288|7:288|177:262|177:262|196:317|196:317|292:300,1,742.500028324128,2|0,3:2|0:2,0:2:0:0:
376,368,132532,101,2,3:2:0:0:
458,333,132705,1,2,3:2:0:0:
498,272,132877,1,2,3:2:0:0:
501,228,133050,1,2,3:2:0:0:
484,196,133222,1,2,3:2:0:0:
463,182,133394,1,2,3:2:0:0:
279,349,133567,5,2,3:2:0:0:
208,292,133739,1,2,3:2:0:0:
271,235,133912,101,2,3:2:0:0:
236,153,134085,1,2,3:2:0:0:
175,113,134257,1,2,3:2:0:0:
131,110,134430,1,2,3:2:0:0:
99,127,134602,1,2,3:2:0:0:
85,148,134774,1,2,3:2:0:0:
83,169,134946,1,2,3:2:0:0:
86,185,135119,1,2,3:2:0:0:
161,353,135291,5,2,3:2:0:0:
166,337,135377,1,0,3:2:0:0:
171,321,135463,1,0,3:2:0:0:
176,304,135550,1,0,3:2:0:0:
180,288,135636,2,0,L|169:237,1,41.2500015735627,10|0,0:2|3:2,0:2:0:0:
259,358,135808,101,0,3:2:0:0:
264,342,135894,1,0,3:2:0:0:
269,326,135980,1,2,3:2:0:0:
274,309,136067,1,0,3:2:0:0:
279,293,136153,1,0,3:2:0:0:
284,277,136239,1,0,3:2:0:0:
289,260,136325,2,0,L|271:200,3,41.2500015735627,10|0|0|0,0:2|3:2|3:2|3:2,0:2:0:0:
375,315,136670,5,2,3:2:0:0:
415,317,136756,1,0,3:2:0:0:
450,297,136842,1,0,3:2:0:0:
468,260,136928,1,0,3:2:0:0:
462,220,137015,2,0,L|445:171,3,41.2500015735627,10|0|0|0,0:2|3:2|3:2|3:2,0:2:0:0:
367,146,137360,101,2,3:2:0:0:
326,148,137446,1,0,3:2:0:0:
291,128,137532,1,0,3:2:0:0:
273,91,137618,1,0,3:2:0:0:
279,51,137705,2,0,L|296:1,3,41.2500015735627,10|0|0|0,0:2|3:2|3:2|3:2,0:2:0:0:
290,223,138050,5,0,3:2:0:0:
251,237,138136,1,0,3:2:0:0:
211,231,138222,1,0,3:2:0:0:
178,207,138308,1,0,3:2:0:0:
160,170,138394,1,8,3:2:0:0:
142,134,138481,1,0,3:2:0:0:
108,109,138567,1,0,3:2:0:0:
68,104,138653,1,0,3:2:0:0:
30,119,138739,2,0,P|21:147|21:177,3,41.2500015735627,0|0|0|0,3:2|3:2|3:2|3:2,0:2:0:0:
179,62,139084,2,0,P|176:41|168:22,3,41.2500015735627,8|0|0|0,0:2|3:2|3:2|3:2,0:2:0:0:
96,375,139429,102,0,L|117:246,1,123.750004720688,2|0,3:2|0:2,0:2:0:0:
115,252,139774,6,0,P|77:249|37:294,1,82.5000031471254,2|0,3:2|0:2,0:2:0:0:
39,265,139946,2,0,P|70:239|110:242,1,82.5000031471254,2|0,0:2|0:2,0:2:0:0:
236,237,140119,102,0,P|218:216|175:218,1,55,2|0,3:2|0:2,0:2:0:0:
191,204,140291,2,0,P|219:207|238:228,1,55,2|0,0:2|0:2,0:2:0:0:
310,295,140463,5,4,0:3:0:0:
316,308,140550,1,4,0:3:0:0:
317,323,140636,1,4,0:3:0:0:
512,49,140808,22,0,B|452:46|452:46|446:56|446:56|378:51|378:51|356:65,1,165.000006294251,4|0,3:2|0:2,0:2:0:0:
356,65,141153,102,0,B|349:23|349:23|297:28,1,82.5000031471254,10|0,0:2|0:2,0:2:0:0:
333,121,141412,2,0,B|371:100|371:100|350:52,1,82.5000031471254,2|0,0:2|0:2,0:2:0:0:
273,115,141670,2,0,B|304:145|304:145|343:110,1,82.5000031471254,2|8,3:2|0:2,0:2:0:0:
260,56,141929,2,0,B|240:94|240:94|285:121,1,82.5000031471254,2|0,0:2|0:2,0:2:0:0:
312,25,142187,2,0,B|269:18|269:18|257:69,1,82.5000031471254,2|0,3:2|0:2,0:2:0:0:
105,210,142532,6,0,B|25:195|25:195|32:244,1,123.750004720688,10|0,0:2|0:2,0:2:0:0:
31,237,142877,102,0,B|59:213|59:213|41:75,1,165.000006294251,2|0,0:2|3:2,0:2:0:0:
275,116,143222,2,0,B|302:140|302:140|286:310|286:310|350:342,1,247.500009441376,10|0,0:2|0:2,0:2:0:0:
322,328,143567,6,0,B|194:304|194:304|168:339,1,165.000006294251,2|0,3:2|0:2,0:2:0:0:
174,332,143912,102,0,P|119:329|100:290,1,82.5000031471254,10|0,0:2|0:2,0:2:0:0:
106,339,144170,2,0,P|81:289|105:253,1,82.5000031471254,2|0,0:2|0:2,0:2:0:0:
66,283,144429,2,0,P|96:236|139:239,1,82.5000031471254,2|8,3:2|0:2,0:2:0:0:
94,220,144687,2,0,P|149:223|168:262,1,82.5000031471254,2|0,0:2|0:2,0:2:0:0:
162,212,144946,2,0,P|186:261|162:297,1,82.5000031471254,2|0,3:2|0:2,0:2:0:0:
379,361,145291,6,0,P|437:361|455:306,1,123.750004720688,10|0,0:2|0:2,0:2:0:0:
455,306,145636,102,0,P|379:297|374:221,1,165.000006294251,2|0,0:2|3:2,0:2:0:0:
512,46,145981,2,0,B|502:128|425:119|382:71|320:110|311:170,1,247.500009441376,10|0,0:2|0:2,0:2:0:0:
146,285,146325,6,0,B|77:392|282:446|306:217|139:135,1,330,2|0,3:2|0:2,0:2:0:0:
151,116,146670,102,0,P|118:139|82:125,1,82.5000031471254,10|0,0:2|0:2,0:2:0:0:
21,92,146929,2,0,P|61:91|82:125,1,82.5000031471254,2|0,0:2|0:2,0:2:0:0:
112,186,147187,2,0,P|80:164|82:125,1,82.5000031471254,2|8,3:2|0:2,0:2:0:0:
95,56,147446,2,0,P|107:94|82:125,1,82.5000031471254,2|0,0:2|0:2,0:2:0:0:
32,173,147705,2,0,P|43:135|82:125,1,82.5000031471254,2|0,3:2|0:2,0:2:0:0:
325,257,148050,5,10,0:2:0:0:
331,245,148164,2,0,B|384:264|384:264|444:177,1,110.000004196167,2|0,0:2|0:2,0:2:0:0:
407,137,148394,2,0,B|330:106|330:106|268:212,1,165.000006294251,2|0,0:2|3:2,0:2:0:0:
314,343,148653,102,0,B|207:307|207:307|166:359,1,165.000006294251,2|0,0:2|0:2,0:2:0:0:
174,347,148912,2,0,B|141:374|141:374|169:310,1,82.5000031471254,2|0,0:2|0:2,0:2:0:0:
220,212,149084,6,0,L|231:308,1,82.5,2|0,3:2|0:2,0:2:0:0:
96,253,149429,102,0,L|203:277,1,82.5000031471254,10|0,0:2|0:2,0:2:0:0:
468,168,149601,6,0,B|485:216|455:302|345:271|334:137,1,247.500009441376,2|0,0:2|0:2,0:2:0:0:
346,64,149946,2,0,P|377:66|388:126,1,82.5000031471254,2|0,3:2|0:2,0:2:0:0:
398,51,150119,2,0,P|418:74|383:124,1,82.5000031471254,10|0,0:2|0:2,0:2:0:0:
256,177,150291,102,0,B|281:120|209:129|174:71|210:24,1,165.000006294251,2|0,0:2|3:2,0:2:0:0:
202,36,150636,6,0,P|175:18|121:19,1,82.5000031471254,2|0,0:2|0:2,0:2:0:0:
139,0,150808,2,0,P|106:6|68:45,1,82.5000031471254,2|0,0:2|0:2,0:2:0:0:
67,19,150981,2,0,P|48:46|49:100,1,82.5000031471254,2|0,0:2|0:2,0:2:0:0:
170,49,151153,102,0,B|95:27|39:71|63:124|107:131|129:103,1,165.000006294251,2|0,1:2|1:2,0:2:0:0:
165,167,151412,1,0,1:0:0:0:
172,154,151498,2,0,P|204:157|178:174,1,82.5000031471254,2|0,1:2|0:2,1:2:0:0:
106,262,151670,2,0,P|92:233|121:247,1,82.5000031471254,2|0,0:2|0:2,0:2:0:0:
320,367,151843,6,0,B|331:305|331:305|325:298|325:298|347:173,1,165.000006294251,2|0,3:2|0:2,0:2:0:0:
342,207,152187,102,0,L|449:189,1,82.5000031471254,10|0,0:2|0:2,0:2:0:0:
424,193,152446,2,0,L|317:174,1,82.5000031471254,2|0,0:2|0:2,0:2:0:0:
342,178,152705,2,0,L|448:159,1,82.5000031471254,2|8,3:2|0:2,0:2:0:0:
423,163,152964,2,0,L|316:144,1,82.5000031471254,2|0,0:2|0:2,0:2:0:0:
341,148,153222,2,0,L|447:129,1,82.5000031471254,2|0,3:2|0:2,0:2:0:0:
460,328,153567,5,10,0:2:0:0:
460,350,153682,2,0,P|390:335|402:290,1,110.000004196167,2|0,0:2|0:2,0:2:0:0:
507,152,153912,2,0,P|507:240|415:220,1,165.000006294251,2|0,0:2|3:2,0:2:0:0:
293,377,154170,102,0,B|290:307|376:327|358:222,1,165.000006294251,2|0,0:2|0:2,0:2:0:0:
359,235,154429,2,0,P|328:212|341:143,1,82.5000031471254,2|0,0:2|0:2,0:2:0:0:
416,40,154601,6,0,B|466:52|466:52|354:71,1,165.000006294251,2|0,3:2|0:2,0:2:0:0:
354,71,154946,102,0,P|321:48|285:63,1,82.5000031471254,10|0,0:2|0:2,0:2:0:0:
224,95,155205,2,0,P|264:96|285:63,1,82.5000031471254,2|0,0:2|0:2,0:2:0:0:
315,1,155463,2,0,P|283:23|285:63,1,82.5000031471254,2|8,3:2|0:2,0:2:0:0:
298,131,155722,2,0,P|310:93|285:63,1,82.5000031471254,2|0,0:2|0:2,0:2:0:0:
235,14,155981,2,0,P|246:52|285:63,1,82.5000031471254,2|0,3:2|0:2,0:2:0:0:
165,337,156325,6,0,B|79:324|79:324|111:289,1,123.750004720688,10|0,0:2|0:2,0:2:0:0:
103,296,156670,102,0,B|89:217|89:217|98:204|98:204|84:125,1,165.000006294251,2|0,0:2|3:2,0:2:0:0:
288,371,157015,2,0,B|308:258|308:258|294:238|294:238|313:131,1,247.500009441376,10|0,0:2|0:2,0:2:0:0:
512,82,157360,6,0,B|442:82|408:140|408:140|407:67|327:25,1,247.500009441376,2|0,3:2|0:2,0:2:0:0:
313,131,157705,102,0,P|264:164|236:157,1,82.5000031471254,10|0,0:2|0:2,0:2:0:0:
244,161,157963,2,0,P|199:122|199:93,1,82.5000031471254,2|0,0:2|0:2,0:2:0:0:
198,102,158222,2,0,P|186:63|152:43,1,82.5000031471254,2|8,3:2|0:2,0:2:0:0:
151,42,158480,2,0,P|110:43|82:72,1,82.5000031471254,2|0,0:2|0:2,0:2:0:0:
82,71,158739,2,0,P|74:111|97:145,1,82.5000031471254,2|0,3:2|0:2,0:2:0:0:
186,323,159084,5,10,0:2:0:0:
197,313,159199,2,0,B|223:260|223:260|179:207,1,110.000004196167,2|0,0:2|0:2,0:2:0:0:
0,238,159429,2,0,B|21:297|21:297|163:266,1,165.000006294251,2|0,0:2|3:2,0:2:0:0:
299,229,159687,102,0,P|374:278|349:355,1,165.000006294251,2|0,0:2|0:2,0:2:0:0:
362,342,159946,2,0,P|320:364|262:325,1,82.5000031471254,2|0,0:2|0:2,0:2:0:0:
413,157,160119,6,0,L|497:181,1,82.5,2|0,3:2|0:2,0:2:0:0:
507,80,160463,102,0,B|484:112|396:106|451:-17|322:25,1,220,2|0,0:2|0:2,0:2:0:0:
169,105,160722,6,0,B|109:55|185:-22|282:15|249:105,1,220,2|0,0:2|0:2,0:2:0:0:
278,193,160981,102,0,P|252:171|190:215,1,110,2|0,0:2|0:2,0:2:0:0:
206,343,161153,2,0,P|237:331|230:256,1,110,2|0,0:2|0:2,0:2:0:0:
111,205,161325,2,0,P|105:237|174:269,1,110,2|0,0:2|0:2,0:2:0:0:
430,214,161498,5,2,3:2:0:0:
441,158,161613,1,2,0:2:0:0:
452,102,161728,1,2,0:2:0:0:
405,111,161843,101,2,3:2:0:0:
393,55,161958,1,2,0:2:0:0:
382,0,162073,1,2,0:2:0:0:
335,0,162187,5,2,3:2:0:0:
173,123,162446,101,8,0:3:0:0:
156,100,162532,1,8,0:3:0:0:
130,86,162619,1,8,0:3:0:0:
99,83,162705,1,4,0:3:0:0:
23,347,162877,6,0,B|62:307|62:307|218:329,1,165.000006294251,4|0,3:2|0:2,0:2:0:0:
344,376,163222,2,0,L|326:188,1,165.000006294251,10|0,0:2|0:2,0:2:0:0:
340,200,163481,1,0,0:2:0:0:
352,189,163567,1,2,0:2:0:0:
241,253,163739,1,0,3:2:0:0:
448,308,163912,2,0,L|314:286,1,82.5000031471254,10|0,0:2|0:2,0:2:0:0:
244,129,164084,101,2,0:2:0:0:
244,129,164170,1,2,0:2:0:0:
244,129,164256,2,0,B|248:60|248:60|457:117,1,247.500009441376,2|0,3:2|0:2,0:2:0:0:
430,110,164601,2,0,B|455:149|455:149|382:157,1,82.5000031471254,10|0,0:2|0:2,0:2:0:0:
168,265,164774,5,2,0:2:0:0:
168,265,164860,1,2,0:2:0:0:
168,265,164946,2,0,B|184:196|184:196|48:215|48:215|116:308,1,247.500009441376,2|0,0:2|0:2,0:2:0:0:
81,258,165291,1,8,0:2:0:0:
268,335,165463,2,0,B|247:371|247:371|245:291,1,82.5000031471254,2|0,0:2|0:2,0:2:0:0:
512,230,165636,102,0,B|457:231|457:231|422:201|422:201|381:247|381:247|348:220|348:220|305:220,1,247.500009441376,2|0,3:2|0:2,0:2:0:0:
318,142,165981,6,0,B|349:118|349:118|329:21,1,110,10|0,0:2|0:2,0:2:0:0:
229,93,166239,2,0,B|198:69|198:69|218:-28,1,110,2|0,0:2|0:2,0:2:0:0:
88,154,166498,2,0,B|119:130|119:130|99:33,1,110,2|8,3:2|0:2,0:2:0:0:
16,203,166756,2,0,B|-15:179|-15:179|5:82,1,110,2|0,0:2|0:2,0:2:0:0:
188,177,167015,2,0,L|179:312,1,110,2|0,3:2|0:2,0:2:0:0:
180,286,167360,102,0,L|280:258,1,82.5000031471254,10|0,0:2|0:2,0:2:0:0:
504,357,167532,1,2,0:2:0:0:
504,357,167619,1,2,0:2:0:0:
504,357,167705,2,0,B|454:384|416:343|416:343|429:293|380:222,1,165.000006294251,2|0,0:2|3:2,0:2:0:0:
318,85,168050,2,0,P|313:182|421:142,1,247.500009441376,10|0,0:2|0:2,0:2:0:0:
420,147,168394,6,0,L|147:195,1,247.500009441376,2|0,3:2|0:2,0:2:0:0:
125,126,168739,2,0,P|136:33|65:20,1,165.000006294251,10|0,0:2|0:2,0:2:0:0:
73,28,168998,1,0,0:2:0:0:
65,42,169084,1,2,0:2:0:0:
234,37,169256,1,0,3:2:0:0:
43,155,169429,1,10,0:2:0:0:
172,280,169601,101,2,0:2:0:0:
172,280,169687,1,2,0:2:0:0:
172,280,169774,2,0,B|226:289|226:289|241:323|241:323|352:338,1,165.000006294251,2|0,3:2|0:2,0:2:0:0:
512,367,170119,1,10,0:2:0:0:
481,150,170291,6,0,B|447:178|447:178|457:270,1,82.5000031471254,2|0,0:2|0:2,0:2:0:0:
363,205,170463,2,0,B|358:248|358:248|430:306,1,82.5000031471254,2|0,0:2|0:2,0:2:0:0:
278,223,170636,101,0,3:2:0:0:
275,206,170722,2,0,B|270:162|270:162|342:104,1,82.5000031471254,2|8,0:2|0:2,0:2:0:0:
223,96,170894,5,0,0:2:0:0:
230,83,170980,2,0,B|258:49|258:49|350:59,1,82.5000031471254,2|0,0:2|0:2,0:2:0:0:
373,94,171153,1,0,3:2:0:0:
183,172,171325,102,0,B|84:181|143:95|-1:105,1,165.000006294251,2|8,0:2|0:2,0:2:0:0:
23,324,171670,1,2,0:2:0:0:
23,324,171756,1,2,0:2:0:0:
23,324,171843,2,0,P|22:301|140:294,1,165.000006294251,2|0,0:2|3:2,0:2:0:0:
151,346,172187,1,8,0:2:0:0:
341,184,172360,5,2,0:2:0:0:
341,184,172446,1,2,0:2:0:0:
341,184,172532,1,2,3:2:0:0:
400,384,172705,102,0,B|454:360|452:281|388:305|407:213,1,165.000006294251,2|8,0:2|0:2,0:2:0:0:
251,299,173050,6,0,P|291:291|321:264,1,82.5000031471254,2|0,0:2|0:2,0:2:0:0:
341,184,173222,2,0,B|280:186|273:143|228:162|228:162|231:188|275:223,1,165.000006294251,2|0,0:2|3:2,0:2:0:0:
403,240,173567,102,0,P|423:220|401:143,1,82.5000031471254,10|0,0:2|0:2,0:2:0:0:
112,202,173739,2,0,P|109:242|134:273,1,82.5000031471254,2|0,0:2|0:2,0:2:0:0:
143,384,173912,6,0,P|162:318|108:261,1,123.750004720688,2|0,3:2|0:2,0:2:0:0:
112,202,174256,102,0,P|70:182|81:117,1,82.5000031471254,10|0,0:2|0:2,0:2:0:0:
47,160,174515,2,0,P|43:113|105:90,1,82.5000031471254,2|0,0:2|0:2,0:2:0:0:
50,82,174774,2,0,P|88:55|139:97,1,82.5000031471254,2|8,3:2|0:2,0:2:0:0:
119,45,175032,2,0,P|161:64|150:129,1,82.5000031471254,2|0,0:2|0:2,0:2:0:0:
185,86,175291,2,0,P|188:132|126:155,1,82.5000031471254,2|0,3:2|0:2,0:2:0:0:
417,175,175636,5,10,0:2:0:0:
396,157,175751,2,0,P|393:135|453:85,1,110.000004196167,2|0,0:2|0:2,0:2:0:0:
481,232,175981,2,0,P|390:216|374:289,1,165.000006294251,2|0,0:2|3:2,0:2:0:0:
283,384,176239,102,0,B|323:298|246:307|287:211,1,165.000006294251,2|0,0:2|0:2,0:2:0:0:
281,225,176498,2,0,P|259:191|191:208,1,82.5000031471254,2|0,0:2|0:2,0:2:0:0:
12,314,176670,6,0,B|69:311|120:369|120:369|114:293|176:232,1,247.500009441376,2|0,3:2|0:2,0:2:0:0:
220,185,177015,102,0,L|204:93,1,82.5000031471254,10|0,0:2|0:2,0:2:0:0:
242,141,177274,2,0,L|295:64,1,82.5000031471254,2|0,0:2|0:2,0:2:0:0:
288,125,177532,2,0,L|379:109,1,82.5000031471254,2|8,3:2|0:2,0:2:0:0:
331,146,177791,2,0,L|407:199,1,82.5000031471254,2|0,0:2|0:2,0:2:0:0:
346,191,178050,2,0,L|361:282,1,82.5000031471254,2|0,3:2|0:2,0:2:0:0:
359,272,178394,6,0,L|258:245,1,82.5000031471254,10|0,0:2|0:2,0:2:0:0:
280,250,178739,102,0,B|200:266|200:266|193:278|193:278|122:294,1,165.000006294251,2|0,0:2|3:2,0:2:0:0:
91,27,179084,2,0,B|26:52|26:52|21:172|21:172|127:101,1,247.500009441376,10|0,0:2|0:2,0:2:0:0:
155,94,179429,6,0,B|194:96|194:96|142:129,1,82.5000031471254,2|0,3:2|0:2,0:2:0:0:
85,220,179601,2,0,L|64:114,1,82.5000031471254,2|0,0:2|0:2,0:2:0:0:
280,250,179774,102,0,P|329:217|357:224,1,82.5000031471254,10|0,0:2|0:2,0:2:0:0:
349,220,180032,2,0,P|394:259|394:288,1,82.5000031471254,2|0,0:2|0:2,0:2:0:0:
395,279,180291,2,0,P|407:318|441:338,1,82.5000031471254,2|8,3:2|0:2,0:2:0:0:
442,339,180549,2,0,P|483:338|511:309,1,82.5000031471254,2|0,0:2|0:2,0:2:0:0:
511,310,180808,2,0,P|519:270|496:236,1,82.5000031471254,2|0,3:2|0:2,0:2:0:0:
243,383,181153,5,10,0:2:0:0:
261,365,181268,2,0,B|285:319|285:319|216:261,1,110.000004196167,2|0,0:2|0:2,0:2:0:0:
86,298,181498,2,0,B|46:307|46:307|212:349,1,165.000006294251,2|0,0:2|3:2,0:2:0:0:
240,281,181756,102,0,L|224:131,1,82.5000031471254,2|8,0:2|0:2,0:2:0:0:
130,232,181929,1,0,0:2:0:0:
132,217,182015,2,0,L|148:67,1,82.5000031471254,2|0,0:2|0:2,0:2:0:0:
221,117,182187,6,0,L|121:139,1,82.5,2|0,3:2|0:2,0:2:0:0:
57,291,182532,102,0,P|51:311|19:330,1,36.6666666666667,2|0,0:2|0:2,0:2:0:0:
139,310,182762,2,0,P|149:328|139:364,1,36.6666666666667,2|0,0:2|0:2,0:2:0:0:
240,281,183050,6,0,P|253:284|265:305,1,27.5,2|0,0:2|0:2,0:2:0:0:
268,254,183222,102,0,P|280:247|303:253,1,36.6666666666667,2|0,0:2|0:2,0:2:0:0:
354,341,183567,5,2,0:2:0:0:
381,281,183682,1,2,0:2:0:0:
442,261,183797,1,2,0:2:0:0:
484,202,183912,101,2,1:2:0:0:
457,141,184027,1,2,1:2:0:0:
395,121,184142,1,2,1:2:0:0:
373,54,184256,5,2,1:2:0:0:
373,200,184429,101,0,1:2:0:0:
341,193,184515,1,0,1:2:0:0:
310,188,184601,1,0,1:2:0:0:
291,159,184687,5,8,0:3:0:0:
259,165,184773,1,8,0:3:0:0:
229,172,184859,1,8,0:3:0:0:
199,203,184946,102,0,P|109:182|82:321,1,247.500009441376,2|0,3:3|0:2,0:2:0:0:
294,384,185291,6,0,B|338:362|338:362|303:196,1,165.000006294251,10|0,0:2|0:2,0:2:0:0:
388,259,185550,2,0,B|344:237|344:237|379:71,1,165.000006294251,2|0,0:2|0:2,0:2:0:0:
473,91,185808,102,0,L|338:132,1,110,2|8,3:2|0:2,0:2:0:0:
398,65,186067,2,0,L|263:24,1,110,2|0,0:2|0:2,0:2:0:0:
269,53,186325,1,2,3:2:0:0:
7,217,186670,6,0,L|105:196,1,82.5000031471254,10|0,0:2|0:2,0:2:0:0:
103,181,186929,1,0,0:2:0:0:
117,167,187015,102,0,P|191:219|128:307,1,165.000006294251,2|0,0:2|3:2,0:2:0:0:
420,250,187360,2,0,P|303:280|240:384,1,247.500009441376,10|0,0:2|0:2,0:2:0:0:
177,281,187705,6,0,B|245:297|245:297|248:318|248:318|427:360,1,247.500009441376,2|0,3:2|0:2,0:2:0:0:
501,166,188050,102,0,P|411:122|421:56,1,165.000006294251,10|0,0:2|0:2,0:2:0:0:
381,0,188308,2,0,P|368:77|293:96,1,165.000006294251,2|0,0:2|0:2,0:2:0:0:
244,117,188567,6,0,P|222:52|250:14,1,110,2|8,3:2|0:2,0:2:0:0:
213,8,188825,2,0,P|193:57|142:74,1,110,2|0,0:2|0:2,0:2:0:0:
105,63,189084,1,2,3:2:0:0:
194,362,189429,102,0,P|209:316|213:270,1,82.5000031471254,10|0,0:2|0:2,0:2:0:0:
214,252,189687,1,0,0:2:0:0:
215,229,189774,6,0,B|145:196|97:266|97:266|144:329,1,165.000006294251,2|0,0:2|3:2,0:2:0:0:
331,384,190119,2,0,P|324:293|431:151,1,247.500009441376,10|0,0:2|0:2,0:2:0:0:
358,0,190463,102,0,B|300:-1|276:45|276:45|276:107|324:124|324:124|343:87|407:77,1,247.500009441376,2|0,3:2|0:2,0:2:0:0:
497,252,190808,6,0,P|464:164|398:169,1,165.000006294251,10|0,0:2|0:2,0:2:0:0:
386,189,191067,2,0,P|370:264|294:276,1,165.000006294251,2|0,0:2|0:2,0:2:0:0:
229,235,191325,102,0,L|257:375,1,110,2|8,3:2|0:2,0:2:0:0:
179,384,191584,2,0,L|200:276,1,110,2|0,0:2|0:2,0:2:0:0:
153,262,191843,1,2,3:2:0:0:
261,47,192187,5,10,0:2:0:0:
260,33,192302,2,0,P|161:46|159:69,1,110.000004196167,2|0,0:2|0:2,0:2:0:0:
20,67,192532,2,0,P|77:73|164:186,1,165.000006294251,2|0,0:2|3:2,0:2:0:0:
153,143,192791,102,0,P|230:178|204:95,1,165.000006294251,2|0,0:2|0:2,0:2:0:0:
243,122,193050,2,0,P|223:179|222:217,1,82.5000031471254,2|0,0:2|0:2,0:2:0:0:
316,367,193222,6,0,P|325:350|322:323,1,27.5,2|0,0:2|0:2,0:2:0:0:
480,310,193394,102,0,P|430:316|372:241,1,110,2|0,0:2|0:2,0:2:0:0:
347,18,193567,2,0,B|317:38|302:115|428:148|314:228,1,220,2|0,0:2|0:2,0:2:0:0:
383,282,193825,2,0,B|361:256|311:224|208:207|183:291,1,220,2|0,0:2|0:2,0:2:0:0:
190,273,194084,6,0,B|207:223|111:182|81:231,1,110,2|0,0:2|0:2,0:2:0:0:
44,257,194256,2,0,B|-28:365|196:387|112:299,1,220,2|0,0:2|0:2,0:2:0:0:
81,145,194515,2,0,B|153:253|-71:275|13:187,1,220,2|0,0:2|0:2,0:2:0:0:
9,190,194774,2,0,B|92:191|40:213|117:223,1,110,2|0,0:2|0:2,0:2:0:0:
192,180,194946,102,0,B|252:145|182:108|207:35,1,110,0|0,0:2|0:2,0:2:0:0:
377,34,195119,2,0,B|316:0|319:78|243:93,1,110,2|0,0:2|0:2,0:2:0:0:
33,70,195291,2,0,B|93:9|199:137|218:-2,1,220,0|0,1:2|1:2,0:2:0:0:
216,175,195550,1,2,1:2:0:0:
192,180,195636,6,0,B|131:194|183:290|233:274,1,110,0|0,1:2|1:2,0:2:0:0:
435,216,195808,2,0,B|496:230|444:326|394:310,1,110,2|0,1:2|1:2,1:2:0:0:
170,374,195981,102,0,B|332:362|189:255|400:251,1,247.500009441376,2|0,3:3|0:2,0:2:0:0:
499,131,196325,6,0,P|381:97|353:42,1,165.000006294251,10|0,0:2|0:2,0:2:0:0:
274,11,196584,2,0,P|316:108|240:87,1,165.000006294251,2|0,0:2|0:2,0:2:0:0:
267,189,196843,102,0,B|265:162|265:162|164:129,1,110,2|8,3:2|0:2,0:2:0:0:
158,61,197101,2,0,B|156:87|156:87|55:120,1,110,2|0,0:2|0:2,0:2:0:0:
41,128,197360,1,2,3:2:0:0:
364,333,197705,5,8,0:2:0:0:
351,356,197820,2,0,P|294:355|276:282,1,110.000004196167,2|0,0:2|0:2,0:2:0:0:
372,119,198050,2,0,P|372:226|334:284,1,165.000006294251,2|0,0:2|3:2,0:2:0:0:
269,313,198308,102,0,P|248:268|161:270,1,82.5000031471254,2|8,0:2|0:2,0:2:0:0:
175,190,198481,1,0,0:2:0:0:
159,190,198567,2,0,P|114:211|116:298,1,82.5000031471254,2|0,0:2|0:2,0:2:0:0:
372,119,198739,6,0,B|396:3|570:54|502:167|428:141,1,247.500009441376,2|0,3:2|0:2,0:2:0:0:
159,190,199084,102,0,P|246:135|201:56,1,165.000006294251,10|0,0:2|0:2,0:2:0:0:
271,23,199343,2,0,B|159:22|233:102|90:88,1,165.000006294251,2|0,0:2|0:2,0:2:0:0:
29,84,199601,6,0,P|84:118|55:169,1,110,2|8,3:2|0:2,0:2:0:0:
82,192,199860,2,0,P|47:247|-3:218,1,110,2|0,0:2|0:2,0:2:0:0:
47,382,200119,101,2,3:2:0:0:
66,348,200205,1,2,0:2:0:0:
95,324,200291,1,2,0:2:0:0:
131,310,200377,1,2,0:2:0:0:
169,310,200463,6,0,B|232:323|232:323|234:332|234:332|362:358,1,165,10|0,0:2|0:2,0:2:0:0:
512,318,200808,102,0,B|465:322|447:360|447:360|377:343|403:258,1,165.000006294251,2|0,0:2|3:2,0:2:0:0:
372,191,201153,2,0,B|357:140|357:140|486:196|486:196|448:255,1,247.500009441376,10|0,0:2|0:2,0:2:0:0:
457,240,201498,6,0,B|439:131|439:131|412:122|412:122|388:-1,1,247.500009441376,2|0,3:2|0:2,0:2:0:0:
318,78,201843,102,0,B|206:98|206:98|176:45,1,165.000006294251,10|0,0:2|0:2,0:2:0:0:
17,32,202101,1,0,0:2:0:0:
32,18,202187,2,0,B|92:44|92:44|62:179,1,165.000006294251,2|0,0:2|3:2,0:2:0:0:
36,298,202532,1,10,0:2:0:0:
205,172,202705,5,2,0:2:0:0:
205,172,202791,1,2,0:2:0:0:
205,172,202877,2,0,B|322:195|322:195|326:262,1,165.000006294251,2|0,3:2|0:2,0:2:0:0:
506,346,203222,2,0,B|374:319|374:319|338:360|338:360|269:347,1,247.500009441376,10|0,0:2|0:2,0:2:0:0:
162,377,203567,102,0,P|244:344|209:267,1,165.000006294251,2|0,0:2|3:2,0:2:0:0:
232,282,203825,2,0,P|188:268|138:308,1,82.5000031471254,2|8,0:2|0:2,0:2:0:0:
130,204,203998,1,0,0:2:0:0:
120,203,204084,2,0,P|78:224|71:287,1,82.5000031471254,2|0,0:2|3:2,0:2:0:0:
487,30,204429,6,0,B|439:69|449:27|376:70,1,82.5000031471254,2|0,0:2|0:2,0:2:0:0:
269,79,204601,2,0,B|231:22|286:-34|378:12|349:87|269:83|323:183,2,247.500009441376,2|2|2,0:2|0:2|0:2,0:2:0:0:
436,203,205291,2,0,B|502:188|503:110|405:78|372:151|433:205|323:238,1,247.500009441376,2|2,0:2|0:2,0:2:0:0:
320,330,205636,101,2,0:2:0:0:
274,274,205751,1,2,0:2:0:0:
203,286,205866,1,2,0:2:0:0:
171,214,205981,5,2,0:2:0:0:
100,202,206096,1,2,0:2:0:0:
54,258,206211,1,2,0:2:0:0:
40,331,206325,101,2,1:2:0:0:
171,214,206498,5,0,1:2:0:0:
177,190,206584,1,0,1:2:0:0:
183,166,206670,1,0,1:2:0:0:
158,126,206756,101,8,0:3:0:0:
164,102,206842,1,8,0:3:0:0:
170,78,206928,1,8,0:3:0:0:
155,38,207015,6,0,B|-8:11|-8:11|93:39|89:111,1,247.500009441376,6|0,3:2|0:2,0:2:0:0:
183,166,207360,102,0,B|246:143|246:143|260:152|260:152|359:120,1,165.000006294251,10|0,0:2|0:2,0:2:0:0:
337,126,207705,2,0,B|400:103|400:103|414:112|414:112|513:80,1,165.000006294251,0|0,0:2|3:2,0:2:0:0:
491,86,208050,2,0,B|445:89|414:49|414:49|465:145|409:238,1,247.500009441376,10|0,0:2|0:2,0:2:0:0:
426,201,208394,6,0,P|428:242|405:192,1,165.000006294251,2|0,3:2|0:2,0:2:0:0:
426,201,208739,102,0,P|356:217|387:282,1,165,10|0,0:2|0:2,0:2:0:0:
483,296,209084,2,0,B|371:285|452:364|308:361,1,165.000006294251,2|0,0:2|3:2,0:2:0:0:
133,214,209429,2,0,P|189:329|290:289,1,247.500009441376,10|0,0:2|0:2,0:2:0:0:
322,167,209774,6,0,B|378:125|378:125|205:163,1,247.500009441376,2|0,3:2|0:2,0:2:0:0:
133,214,210119,102,0,P|32:211|20:137,1,165.000006294251,10|0,0:2|0:2,0:2:0:0:
14,163,210463,2,0,P|87:93|148:137,1,165.000006294251,2|0,0:2|3:2,0:2:0:0:
132,115,210808,2,0,P|191:53|73:33,1,247.500009441376,10|0,0:2|0:2,0:2:0:0:
80,19,211153,6,0,P|41:63|61:8,1,165.000006294251,2|0,3:2|0:2,0:2:0:0:
80,19,211498,102,0,P|1:60|70:85,1,165,10|0,0:2|0:2,0:2:0:0:
132,115,211843,2,0,B|190:103|190:103|206:62|206:62|315:32,1,165.000006294251,2|0,0:2|3:2,0:2:0:0:
346,1,212187,2,0,B|405:17|405:17|421:58|421:58|514:93|514:93|470:20,1,247.500009441376,10|0,0:2|0:2,0:2:0:0:
361,110,212532,6,0,B|344:217|344:217|353:228|353:228|330:369,1,247.500009441376,2|0,3:2|0:2,0:2:0:0:
186,370,212877,102,0,B|181:304|181:304|45:323,1,165.000006294251,10|0,0:2|0:2,0:2:0:0:
82,317,213222,2,0,B|86:251|86:251|223:270,1,165.000006294251,2|0,0:2|3:2,0:2:0:0:
185,264,213567,2,0,B|204:134|204:134|122:122|122:122|126:73,1,247.500009441376,10|0,0:2|0:2,0:2:0:0:
124,89,213912,6,0,B|99:168|99:168|106:41,1,165.000006294251,2|0,3:2|0:2,0:2:0:0:
124,89,214256,102,0,B|128:6|128:6|102:84,1,165.000006294251,10|0,0:2|0:2,0:2:0:0:
9,193,214601,2,0,B|126:177|126:177|170:290,1,165.000006294251,2|0,0:2|3:2,0:2:0:0:
215,383,214946,2,0,B|295:333|237:222|237:222|227:289|168:309,1,247.500009441376,10|0,0:2|0:2,0:2:0:0:
211,280,215291,6,0,B|323:263|323:263|334:266|334:266|484:243,1,247.500009441376,2|0,3:2|0:2,0:2:0:0:
507,164,215636,102,0,P|421:131|424:51,1,165.000006294251,10|0,0:2|0:2,0:2:0:0:
415,67,215981,2,0,P|329:100|332:180,1,165.000006294251,2|0,0:2|3:2,0:2:0:0:
323,163,216325,2,0,P|223:123|297:9,1,247.500009441376,10|0,0:2|0:2,0:2:0:0:
263,15,216670,5,2,3:2:0:0:
202,64,216785,1,2,0:2:0:0:
125,74,216900,1,2,0:2:0:0:
62,147,217015,101,2,0:2:0:0:
139,157,217130,1,2,0:2:0:0:
201,206,217245,1,2,0:2:0:0:
218,288,217360,5,2,1:2:0:0:
414,367,217532,101,0,1:2:0:0:
418,342,217619,1,0,1:2:0:0:
423,317,217705,1,0,1:2:0:0:
472,298,217791,5,4,0:3:0:0:
468,273,217878,1,4,0:3:0:0:
463,248,217964,1,4,0:3:0:0:
491,213,218050,102,0,B|366:235|366:235|345:303|345:303|284:318,1,247.500009441376,6|0,3:2|0:2,0:2:0:0:
172,380,218394,6,0,B|161:270|161:270|69:245,1,165.000006294251,10|0,0:2|0:2,0:2:0:0:
108,255,218739,2,0,B|119:145|119:145|211:120,1,165.000006294251,2|0,0:2|3:2,0:2:0:0:
171,130,219084,2,0,B|211:225|211:225|328:195|328:195|327:136,1,247.500009441376,10|0,0:2|0:2,0:2:0:0:
327,170,219429,102,0,B|294:94|294:94|311:222,1,165.000006294251,2|0,3:2|0:2,0:2:0:0:
304,175,219774,6,0,B|337:251|337:251|320:123,1,165.000006294251,10|0,0:2|0:2,0:2:0:0:
284,309,220119,2,0,B|387:281|387:281|395:291|395:291|447:278,1,165.000006294251,2|0,0:2|3:2,0:2:0:0:
506,228,220463,2,0,B|414:253|414:253|417:351|417:351|317:377,1,247.500009441376,10|0,0:2|0:2,0:2:0:0:
393,78,220808,102,0,B|383:34|383:34|478:43|478:43|449:164,1,247.500009441376,2|0,3:2|0:2,0:2:0:0:
360,178,221153,6,0,B|237:168|237:168|234:111,1,165.000006294251,10|0,0:2|0:2,0:2:0:0:
234,126,221498,2,0,B|231:84|231:84|108:74,1,165.000006294251,2|0,0:2|3:2,0:2:0:0:
108,74,221843,2,0,B|16:66|16:66|57:166|57:166|149:172,1,247.500009441376,10|0,0:2|0:2,0:2:0:0:
103,169,222187,102,0,B|118:230|118:230|80:228|80:228|103:168,1,165.000006294251,2|0,3:2|0:2,0:2:0:0:
347,163,222532,6,0,P|269:175|255:282,1,165,10|0,0:2|0:2,0:2:0:0:
280,322,222877,2,0,P|351:312|327:244,1,165.000006294251,2|0,0:2|3:2,0:2:0:0:
54,378,223222,2,0,B|113:382|189:346|121:281|184:232|270:252,1,247.500009441376,10|0,0:2|0:2,0:2:0:0:
155,18,223567,102,0,B|49:-12|-6:75|-6:75|22:110|106:111,1,247.500009441376,2|0,3:2|0:2,0:2:0:0:
80,253,223912,6,0,B|54:167|158:192|141:75,1,165.000006294251,10|0,0:2|0:2,0:2:0:0:
142,110,224256,2,0,B|197:99|237:117|237:117|220:158|241:206,1,165.000006294251,2|0,0:2|3:2,0:2:0:0:
233,184,224601,2,0,B|295:224|350:175|350:175|303:110|371:45,1,247.500009441376,10|0,0:2|0:2,0:2:0:0:
353,64,224946,102,0,P|398:101|353:88,1,165.000006294251,2|0,3:2|0:2,0:2:0:0:
353,64,225291,6,0,P|438:73|393:132,1,165,10|0,0:2|0:2,0:2:0:0:
494,222,225636,102,0,B|386:207|386:207|383:253|342:289,1,165.000006294251,2|0,0:2|3:2,0:2:0:0:
227,323,225981,2,0,B|199:246|199:246|303:205|303:205|284:232|281:274,1,247.500009441376,10|0,0:2|0:2,0:2:0:0:
227,323,226325,6,0,L|-49:304,1,247.500009441376,2|0,3:2|0:2,0:2:0:0:
39,117,226670,2,0,P|109:155|42:242,1,165.000006294251,10|0,0:2|0:2,0:2:0:0:
92,226,227015,101,2,0:2:0:0:
103,204,227101,1,2,0:2:0:0:
117,184,227187,1,2,3:2:0:0:
135,167,227273,1,2,0:2:0:0:
154,151,227360,6,0,P|195:138|249:133,2,73.3333333333333,10|2|2,0:2|0:2|0:2,0:2:0:0:
130,67,227705,101,2,3:2:0:0:
196,94,227820,1,2,0:2:0:0:
255,58,227935,1,2,0:2:0:0:
326,96,228050,5,2,0:2:0:0:
392,69,228165,1,2,0:2:0:0:
451,105,228280,1,2,0:2:0:0:
512,52,228394,101,2,1:2:0:0:
408,167,228567,5,0,1:2:0:0:
405,183,228653,1,0,1:2:0:0:
402,199,228739,1,0,1:2:0:0:
438,229,228825,101,4,0:3:0:0:
441,245,228911,1,4,0:3:0:0:
444,261,228997,1,4,0:3:0:0:
481,295,229084,6,0,B|300:257|300:257|292:158,1,247.500009441376,2|0,3:3|0:2,0:2:0:0:
291,169,229429,101,10,0:2:0:0:
94,112,229687,1,2,0:2:0:0:
210,267,229946,1,2,3:2:0:0:
216,64,230119,1,8,0:2:0:0:
216,64,230205,1,2,0:2:0:0:
96,234,230463,1,2,3:2:0:0:
96,234,230808,6,0,B|0:257|0:257|-3:313,1,123.750004720688,10|0,0:2|0:2,0:2:0:0:
28,150,231153,102,0,B|88:161|88:161|95:210|95:210|158:228,1,165.000006294251,2|0,0:2|3:2,0:2:0:0:
338,356,231498,2,0,B|381:260|381:260|283:233|283:233|295:331,1,247.500009441376,10|0,0:2|0:2,0:2:0:0:
245,354,231843,6,0,L|296:87,1,247.500009441376,2|0,3:2|0:2,0:2:0:0:
310,32,232187,101,10,0:2:0:0:
395,125,232446,1,2,0:2:0:0:
203,163,232705,1,2,3:2:0:0:
368,263,232877,1,8,0:2:0:0:
368,263,232963,1,2,0:2:0:0:
153,354,233222,1,2,3:2:0:0:
153,354,233567,6,0,L|142:220,1,123.750004720688,10|0,0:2|0:2,0:2:0:0:
20,294,233912,102,0,P|129:269|131:181,1,165.000006294251,2|0,0:2|3:2,0:2:0:0:
230,126,234256,2,0,B|73:130|180:9|-6:16,1,247.500009441376,10|0,0:2|0:2,0:2:0:0:
228,228,234601,6,0,P|260:131|387:166,1,247.500009441376,2|0,3:2|0:2,0:2:0:0:
415,226,234946,101,10,0:2:0:0:
272,24,235205,1,2,0:2:0:0:
258,308,235463,1,2,3:2:0:0:
138,193,235636,1,8,0:2:0:0:
138,193,235722,1,2,0:2:0:0:
77,360,235981,1,2,3:2:0:0:
483,324,236325,5,10,0:2:0:0:
475,347,236440,2,0,P|430:343|402:280,1,110.000004196167,2|0,0:2|0:2,0:2:0:0:
360,170,236670,2,0,P|462:238|481:220,1,165.000006294251,2|0,0:2|3:2,0:2:0:0:
470,231,236929,102,0,P|491:187|461:133,1,82.5000031471254,2|8,0:2|0:2,0:2:0:0:
304,106,237101,1,0,0:2:0:0:
290,112,237187,2,0,P|269:156|299:210,1,82.5000031471254,2|0,0:2|0:2,0:2:0:0:
419,106,237360,6,0,L|405:63,1,27.5,2|0,3:2|0:2,0:2:0:0:
177,110,237532,102,0,B|246:59|173:47|199:-73,1,110,2|0,0:2|0:2,0:2:0:0:
121,8,237705,1,8,0:2:0:0:
48,247,237877,2,0,B|136:116|231:355|216:70|380:186,1,330,2|0,0:2|0:2,0:2:0:0:
454,200,238222,2,0,B|412:198|430:263|350:255,1,110,2|0,3:2|0:2,0:2:0:0:
286,260,238394,1,8,0:2:0:0:
385,343,238567,6,0,B|432:379|535:343|370:237|474:185,1,220,2|0,0:2|3:2,0:2:0:0:
453,199,238912,102,0,P|477:171|470:120,1,55,2|0,0:2|0:2,0:2:0:0:
459,135,239084,2,0,P|455:97|414:66,1,55,2|0,0:2|0:2,0:2:0:0:
417,85,239256,2,0,P|388:61|337:68,1,55,2|0,0:2|0:2,0:2:0:0:
434,212,239429,6,0,P|431:141|322:97,1,165,2|0,1:2|0:2,0:2:0:0:
258,122,239687,1,0,1:2:0:0:
261,104,239774,102,0,B|290:112|264:135|346:180,1,82.5000031471254,2|0,1:2|0:2,0:2:0:0:
275,247,239946,2,0,B|301:232|299:266|388:240,1,82.5000031471254,2|0,0:2|0:2,0:2:0:0:
65,371,240119,6,0,L|107:124,1,247.500009441376,0|0,3:3|0:2,0:2:0:0:
56,60,240463,101,10,0:2:0:0:
126,252,240722,1,2,0:2:0:0:
291,152,240981,1,2,3:2:0:0:
396,235,241153,1,8,0:2:0:0:
396,235,241239,1,2,0:2:0:0:
506,175,241498,1,2,3:2:0:0:
506,175,241843,6,0,L|486:47,1,123.750004720688,10|0,0:2|0:2,0:2:0:0:
419,119,242187,102,0,B|353:104|353:104|356:62|356:62|297:48,1,165.000006294251,2|0,0:2|3:2,0:2:0:0:
119,11,242532,2,0,B|108:118|108:118|210:72|210:72|175:24,1,247.500009441376,10|0,0:2|0:2,0:2:0:0:
193,49,242877,6,0,B|183:103|183:103|188:114|188:114|155:324,1,247.500009441376,2|0,3:2|0:2,0:2:0:0:
112,364,243222,101,10,0:2:0:0:
252,225,243481,1,2,0:2:0:0:
367,195,243739,1,2,3:2:0:0:
452,221,243912,1,8,0:2:0:0:
452,221,243998,1,2,0:2:0:0:
499,290,244256,1,2,3:2:0:0:
499,290,244601,6,0,B|527:326|527:326|437:296,1,123.750004720688,10|0,0:2|0:2,0:2:0:0:
375,378,244946,102,0,B|353:268|353:268|407:221,1,165.000006294251,2|0,0:2|3:2,0:2:0:0:
512,37,245291,2,0,B|411:-17|347:77|347:77|388:73|425:116,1,247.500009441376,10|0,0:2|0:2,0:2:0:0:
400,92,245636,6,0,P|391:178|346:148,1,165.000006294251,2|2,3:2|0:2,0:2:0:0:
353,161,246239,101,2,0:2:0:0:
277,153,246498,1,2,0:2:0:0:
215,197,246756,1,2,0:2:0:0:
139,181,247015,1,2,0:2:0:0:
139,181,247360,6,0,P|147:141|125:97,1,82.5000031471254,2|0,0:2|0:2,0:2:0:0:
49,111,247705,2,0,P|41:151|63:195,1,82.5000031471254,2|0,0:2|0:2,0:2:0:0:
154,167,247992,2,0,P|159:137|143:105,1,55.0000020980836,2|0,0:2|0:2,0:2:0:0:
32,138,248222,2,0,P|28:157|38:179,1,41.2500015735627,2|0,0:2|0:2,0:2:0:0:
58,299,248394,102,0,B|86:280|100:232|100:232|87:282|102:335,1,165.000006294251,2|2,0:2|0:2,0:2:0:0:
155,364,248998,5,2,0:2:0:0:
219,325,249256,1,2,0:2:0:0:
291,314,249515,1,2,0:2:0:0:
362,336,249774,1,2,0:2:0:0:
256,192,250119,12,2,251153,0:2:0:0:
92,341,256670,5,2,3:2:0:0:
140,260,256843,1,0,3:2:0:0:
82,337,257015,5,2,3:2:0:0:
150,264,257188,1,0,3:2:0:0:
73,330,257360,101,2,3:2:0:0:
158,270,257533,1,0,3:2:0:0:
66,322,257705,5,2,3:2:0:0:
165,279,257878,1,0,3:2:0:0:
39,285,258050,101,2,3:2:0:0:
192,315,258223,1,0,3:2:0:0:
45,270,258395,5,2,3:2:0:0:
186,331,258568,1,0,3:2:0:0:
55,256,258740,101,2,3:2:0:0:
176,344,258913,1,0,3:2:0:0:
69,246,259085,5,2,3:2:0:0:
163,355,259256,1,0,3:2:0:0:
113,302,259429,101,2,3:2:0:0:
147,278,259515,1,0,3:2:0:0:
184,262,259601,1,0,3:2:0:0:
225,254,259687,1,0,3:2:0:0:
266,254,259773,1,0,3:2:0:0:
306,262,259860,1,0,3:2:0:0:
344,279,259946,5,2,3:2:0:0:
348,311,260032,1,0,3:2:0:0:
365,338,260118,1,0,3:2:0:0:
394,355,260204,1,0,3:2:0:0:
427,356,260290,1,0,3:2:0:0:
456,343,260377,1,0,3:2:0:0:
477,318,260463,2,0,P|487:290|493:250,4,41.2500015735627,2|0|0|0|0,3:2|3:2|3:2|3:2|3:2,3:2:0:0:
270,361,261498,101,2,0:2:0:0:
255,278,261670,1,2,0:2:0:0:
319,196,261843,1,2,0:2:0:0:
461,165,262015,1,2,0:2:0:0:
255,278,262187,6,0,B|132:276|201:178|66:179,1,220,6|8,3:2|0:2,0:2:0:0:
30,29,262705,2,0,P|119:14|169:122,1,220,2|0,3:2|0:2,0:2:0:0:
90,383,263222,2,0,P|54:322|87:162,1,220,10|0,0:2|3:2,0:2:0:0:
73,179,263739,101,2,0:2:0:0:
158,193,263912,1,10,0:2:0:0:
226,148,264084,1,2,0:2:0:0:
158,193,264256,5,2,0:2:0:0:
311,159,264429,1,2,3:2:0:0:
210,257,264601,101,10,0:2:0:0:
288,238,264774,1,2,0:2:0:0:
387,368,264946,6,0,L|419:122,1,220,2|8,3:2|0:2,0:2:0:0:
132,218,265463,2,0,L|100:-28,1,220,2|0,3:2|0:2,0:2:0:0:
248,343,265981,2,0,L|2:311,1,220,10|0,0:2|3:2,0:2:0:0:
29,314,266670,102,0,P|51:340|45:380,1,41.2500015735627,10|0,0:2|0:2,0:2:0:0:
54,298,266756,2,0,P|68:329|51:364,1,41.2500015735627,2|0,0:2|0:2,0:2:0:0:
83,290,266843,2,0,P|89:322|64:352,1,41.2500015735627,2|0,0:2|0:2,0:2:0:0:
112,289,266929,2,0,P|108:324|76:347,1,41.2500015735627,2|0,0:2|0:2,0:2:0:0:
139,295,267015,6,0,P|127:327|90:341,4,41.2500015735627,2|0|0|0|0,0:2|0:2|0:2|0:2|0:2,3:2:0:0:
248,343,267360,102,0,L|361:324,1,82.5000031471254,10|2,0:2|0:2,0:2:0:0:
469,275,267532,1,2,0:2:0:0:
465,260,267619,1,2,0:2:0:0:
462,246,267705,6,0,B|428:85|428:85|496:36,1,220,2|8,3:2|0:2,0:2:0:0:
354,170,268222,2,0,B|287:160|287:160|269:119|269:119|140:103,1,220,2|0,3:2|0:2,0:2:0:0:
0,68,268739,2,0,B|67:58|67:58|85:17|85:17|214:1,1,220,10|0,0:2|3:2,0:2:0:0:
192,4,269256,101,2,0:2:0:0:
224,77,269429,1,10,0:2:0:0:
256,150,269601,1,2,0:2:0:0:
207,217,269774,5,2,0:2:0:0:
224,77,269946,1,2,3:2:0:0:
353,301,270119,101,10,0:2:0:0:
336,161,270291,1,2,0:2:0:0:
207,217,270463,6,0,B|51:257|51:257|42:364,1,220,2|8,3:2|0:2,0:2:0:0:
297,370,270981,2,0,B|305:297|305:297|320:289|320:289|338:140,1,220,2|0,3:2|0:2,0:2:0:0:
96,5,271498,2,0,B|101:64|101:64|246:99|246:99|284:51|284:51|367:69,1,330.000012588501,10|0,0:2|3:2,0:2:0:0:
342,63,272187,101,10,0:2:0:0:
427,47,272360,2,0,P|452:88|455:129,1,82.5000031471254,2|0,0:2|0:2,0:2:0:0:
470,148,272532,2,0,P|474:84|432:25,1,110,2|0,0:2|3:2,0:2:0:0:
358,166,272877,2,0,P|336:116|342:62,1,110,10|0,0:2|0:2,0:2:0:0:
481,352,273222,6,0,P|409:307|238:261,1,220,6|8,3:2|0:2,0:2:0:0:
47,261,273739,2,0,P|20:354|107:320,1,220,2|0,3:2|0:2,0:2:0:0:
213,142,274256,2,0,P|203:212|189:388,1,220,10|0,0:2|3:2,0:2:0:0:
190,360,274946,102,0,P|204:306|308:321,1,165.000006294251,10|0,0:2|0:2,0:2:0:0:
298,306,275463,1,2,3:2:0:0:
381,384,275636,2,0,P|390:341|408:255,1,123.750004720688,10|0,0:2|0:2,0:2:0:0:
510,248,275981,6,0,P|418:236|379:107,1,220,2|8,3:2|0:2,0:2:0:0:
266,7,276498,2,0,B|132:22|226:107|71:126,1,220,2|0,3:2|0:2,0:2:0:0:
209,349,277015,2,0,P|243:263|257:120,1,220,10|0,0:2|3:2,0:2:0:0:
174,198,277532,101,2,0:2:0:0:
274,244,277705,1,10,0:2:0:0:
359,184,277877,1,2,0:2:0:0:
174,198,278050,5,2,0:2:0:0:
166,93,278222,1,2,3:2:0:0:
85,36,278394,101,10,0:2:0:0:
47,33,278480,1,2,0:2:0:0:
18,57,278566,1,2,0:2:0:0:
15,95,278652,1,2,0:2:0:0:
39,124,278739,6,0,L|260:72,1,220,2|8,3:2|0:2,0:2:0:0:
512,248,279256,2,0,L|290:196,1,220,2|0,3:2|0:2,0:2:0:0:
178,384,279774,2,0,B|136:345|136:345|178:174,1,220,10|0,0:2|3:2,0:2:0:0:
174,187,280291,102,0,L|87:210,1,55,2|0,0:2|0:2,0:2:0:0:
46,217,280463,1,8,0:2:0:0:
177,287,280636,5,2,0:2:0:0:
198,283,280722,1,2,0:2:0:0:
219,279,280808,1,2,0:2:0:0:
240,275,280894,1,2,0:2:0:0:
273,242,280981,101,2,3:2:0:0:
294,246,281067,1,2,0:2:0:0:
330,279,281153,5,10,0:2:0:0:
351,275,281239,1,2,0:2:0:0:
372,271,281325,1,2,0:2:0:0:
393,267,281411,1,2,0:2:0:0:
415,264,281498,102,0,B|410:377|410:377|492:361|492:361|497:305,1,220,2|8,3:2|0:2,0:2:0:0:
293,135,282015,2,0,B|298:248|298:248|216:232|216:232|211:176,1,220,2|0,3:2|0:2,0:2:0:0:
489,0,282532,2,0,B|382:41|382:41|433:175|433:175|487:81,1,330.000012588501,10|0,0:2|3:2,0:2:0:0:
468,112,283222,5,10,0:2:0:0:
405,63,283394,2,0,P|391:92|388:138,1,41.2500015735627,2|0,0:2|0:2,0:2:0:0:
307,138,283567,2,0,P|296:83|306:30,1,82.5000031471254,2|0,0:2|0:2,0:2:0:0:
216,4,283912,2,0,P|205:59|209:149,1,123.750004720688,2|0,0:2|0:2,0:2:0:0:
205,126,284256,102,0,B|73:127|159:21|-18:27,1,220,6|8,3:2|0:2,0:2:0:0:
12,358,284774,2,0,P|35:272|35:129,1,220,2|0,3:2|0:2,0:2:0:0:
149,305,285291,2,0,P|195:247|349:217,1,220,10|0,0:2|3:2,0:2:0:0:
490,294,285808,6,0,P|494:353|460:382,1,82.5000031471254,2|8,0:2|0:2,0:2:0:0:
428,237,286153,2,0,P|477:204|519:218,1,82.5000031471254,2|0,0:2|0:2,0:2:0:0:
410,320,286498,2,0,P|356:293|348:250,1,82.5000031471254,2|8,3:2|0:2,0:2:0:0:
490,294,286843,1,2,0:2:0:0:
234,373,287015,102,0,P|251:283|276:143,1,220,2|8,3:2|0:2,0:2:0:0:
41,282,287532,2,0,P|24:192|-1:52,1,220,2|0,3:2|0:2,0:2:0:0:
317,33,288050,2,0,P|159:63|144:141,1,220,10|0,0:2|3:2,0:2:0:0:
144,99,288567,1,0,0:2:0:0:
280,157,288739,6,0,B|361:177|310:243|402:265,1,165.000006294251,10|0,0:2|0:2,0:2:0:0:
395,263,289256,1,0,3:2:0:0:
477,371,289429,2,0,P|489:324|505:284,1,82.5000031471254,10|0,0:2|0:2,0:2:0:0:
280,157,289774,102,0,P|195:177|35:222,1,220,2|8,3:2|0:2,0:2:0:0:
329,378,290291,2,0,P|359:285|426:181,1,220,2|0,3:2|0:2,0:2:0:0:
315,3,290808,2,0,P|389:78|492:54,1,220,10|0,0:2|3:2,0:2:0:0:
410,101,291325,2,0,P|420:140|424:188,1,82.5000031471254,2|8,0:2|0:2,0:2:0:0:
406,329,291670,5,2,0:2:0:0:
389,325,291756,1,2,0:2:0:0:
372,321,291843,1,2,0:2:0:0:
355,317,291929,1,2,0:2:0:0:
328,282,292015,101,2,3:2:0:0:
311,286,292101,1,2,0:2:0:0:
275,308,292187,5,10,0:2:0:0:
258,304,292273,1,2,0:2:0:0:
241,300,292360,1,2,0:2:0:0:
224,296,292446,1,2,0:2:0:0:
207,294,292532,102,0,P|132:357|2:281,1,220,2|8,3:2|0:2,0:2:0:0:
49,61,293050,2,0,P|89:155|103:284,1,220,2|0,3:2|0:2,0:2:0:0:
305,360,293567,2,0,P|326:261|413:28,1,330.000012588501,10|0,0:2|3:2,0:2:0:0:
404,46,294256,5,10,0:2:0:0:
485,23,294429,2,0,P|485:72|470:96,1,41.2500015735627,2|0,0:2|0:2,0:2:0:0:
333,96,294601,2,0,P|314:42|324:7,1,82.5000031471254,2|0,0:2|3:2,0:2:0:0:
478,0,294946,2,0,P|497:54|455:117,1,123.750004720688,10|0,0:2|0:2,0:2:0:0:
467,109,295291,102,0,L|480:224,1,82.5000031471254,6|0,3:2|0:2,0:2:0:0:
307,379,295808,2,0,L|320:264,1,82.5000031471254,6|0,3:2|0:2,0:2:0:0:
116,165,296325,2,0,L|129:280,1,82.5000031471254,6|0,3:2|0:2,0:2:0:0:
134,326,296670,5,2,1:2:0:0:
134,326,297015,1,10,0:2:0:0:
256,143,297187,102,0,L|260:89,1,41.2500015735627,2|0,0:2|0:2,0:2:0:0:
240,310,297360,2,0,L|236:364,1,41.2500015735627,2|0,1:2|0:2,0:2:0:0:
254,232,297532,5,10,0:2:0:0:
254,232,297705,1,2,0:2:0:0:
254,232,297877,1,2,0:2:0:0:
403,367,298050,102,0,P|381:314|390:265,1,82.5000031471254,6|0,3:2|0:2,0:2:0:0:
117,291,298567,2,0,P|138:237|179:209,1,82.5000031471254,6|0,3:2|0:2,0:2:0:0:
0,48,299084,2,0,P|52:26|102:34,1,82.5000031471254,6|0,3:2|0:2,0:2:0:0:
156,52,299429,5,2,1:2:0:0:
156,52,299774,1,10,0:2:0:0:
240,35,299946,102,0,P|239:55|236:75,1,41.2500015735627,2|0,0:2|0:2,0:2:0:0:
73,66,300119,2,0,P|73:46|77:26,1,41.2500015735627,2|0,0:2|0:2,0:2:0:0:
361,169,300463,1,8,0:2:0:0:
361,169,300636,1,0,0:2:0:0:
361,169,300808,6,0,L|373:111,3,55,2|0|0|0,3:2|3:2|3:2|3:2,3:2:0:0:
478,142,301498,2,0,L|466:88,3,55,2|0|0|0,3:2|3:2|3:2|3:2,3:2:0:0:
411,22,302187,101,2,3:2:0:0:
411,22,302360,1,0,3:2:0:0:
311,58,302532,5,2,3:2:0:0:
311,58,302705,1,0,3:2:0:0:
213,24,302877,101,2,3:2:0:0:
213,24,303050,1,0,3:2:0:0:
113,60,303222,5,2,3:2:0:0:
113,60,303394,2,0,L|122:102,1,27.5,8|0,3:2|3:2,3:2:0:0:
193,119,303567,101,0,3:2:0:0:
196,129,303653,1,0,3:2:0:0:
199,139,303739,1,0,3:2:0:0:
202,149,303825,1,0,3:2:0:0:
205,159,303912,2,0,L|194:209,1,27.5,8|0,3:2|3:2,3:2:0:0:
20,253,304084,5,0,3:2:0:0:
44,240,304170,1,0,3:2:0:0:
71,237,304256,1,0,3:2:0:0:
97,244,304342,1,0,3:2:0:0:
119,261,304428,1,0,3:2:0:0:
132,285,304515,1,0,3:2:0:0:
145,308,304601,1,0,3:2:0:0:
167,325,304687,1,0,3:2:0:0:
193,332,304773,1,0,3:2:0:0:
220,330,304859,1,0,3:2:0:0:
244,317,304946,102,0,L|236:256,1,41.2500015735627,8|0,3:2|3:2,0:2:0:0:
362,338,305119,2,0,L|356:378,1,41.2500015735627,8|0,3:2|3:2,0:2:0:0:
192,220,305291,1,8,3:3:0:0:
194,204,305377,1,8,3:3:0:0:
197,189,305463,6,0,L|205:128,1,41.2500015735627,8|0,3:2|3:2,0:2:0:0:
361,134,305636,101,2,1:3:0:0:
391,161,305722,1,2,1:3:0:0:
431,164,305808,1,2,1:3:0:0:
466,143,305894,1,2,1:3:0:0:
481,100,305980,5,4,1:3:0:0:
471,76,306066,1,4,1:3:0:0:
452,61,306152,1,4,1:3:0:0:
427,59,306238,1,4,1:3:0:0:
406,70,306325,102,0,P|354:45|259:39,1,131.99999597168,2|0,3:3|0:2,0:2:0:0:
202,75,306670,1,8,0:2:0:0:
47,63,306843,2,0,P|64:174|100:348,1,263.99999194336,2|0,0:2|3:2,0:2:0:0:
316,368,307360,2,0,P|353:314|552:260,1,263.99999194336,10|0,0:2|3:2,0:2:0:0:
362,203,307877,5,2,0:2:0:0:
221,368,308050,1,8,0:2:0:0:
120,276,308222,1,2,0:2:0:0:
120,276,308308,1,2,0:2:0:0:
120,276,308394,1,2,0:2:0:0:
332,299,308567,1,0,3:2:0:0:
229,150,308739,2,0,P|212:71|188:4,1,131.99999597168,10|0,0:2|0:2,0:2:0:0:
4,357,309084,102,0,B|166:361|84:235|276:254,1,263.99999194336,2|8,3:2|0:2,0:2:0:0:
512,332,309601,2,0,P|431:321|418:246,1,131.99999597168,2|0,0:2|0:2,0:2:0:0:
462,209,309946,1,0,3:2:0:0:
283,373,310119,2,0,P|253:290|225:239,1,131.99999597168,10|0,0:2|0:2,0:2:0:0:
143,213,310463,5,0,3:2:0:0:
333,248,310636,1,2,0:2:0:0:
386,50,310808,1,10,0:2:0:0:
386,50,310894,1,2,0:2:0:0:
386,50,310981,1,2,0:2:0:0:
256,134,311153,1,2,0:2:0:0:
338,230,311325,1,0,3:2:0:0:
249,118,311498,2,0,L|95:87,1,131.99999597168,10|0,0:2|0:2,0:2:0:0:
423,362,311843,102,0,P|451:270|482:184,1,131.99999597168,2|0,3:3|0:2,0:2:0:0:
512,157,312187,1,8,0:2:0:0:
333,248,312360,2,0,P|249:271|60:326,1,263.99999194336,2|0,0:2|3:2,0:2:0:0:
1,166,312877,2,0,P|93:190|144:206,1,131.99999597168,10|0,0:2|0:2,0:2:0:0:
200,311,313222,5,0,3:2:0:0:
318,151,313394,1,2,0:2:0:0:
414,345,313567,1,8,0:2:0:0:
309,123,313739,1,2,0:2:0:0:
309,123,313825,1,2,0:2:0:0:
309,123,313912,1,2,0:2:0:0:
138,206,314084,1,0,3:2:0:0:
368,234,314256,2,0,L|506:201,1,131.99999597168,10|0,0:2|0:2,0:2:0:0:
237,0,314601,102,0,P|218:68|253:284,1,263.99999194336,2|8,3:2|0:2,0:2:0:0:
461,326,315119,2,0,P|498:248|361:260,1,263.99999194336,2|0,0:2|3:2,0:2:0:0:
247,366,315636,2,0,B|147:349|147:349|140:287|140:287|9:262,1,263.99999194336,10|0,0:2|3:2,0:2:0:0:
244,262,316153,5,2,0:2:0:0:
51,370,316325,1,8,0:2:0:0:
91,188,316498,1,2,0:2:0:0:
138,284,316670,1,2,0:2:0:0:
138,284,316756,1,2,0:2:0:0:
138,284,316843,1,2,3:2:0:0:
253,247,317015,2,0,P|273:174|290:106,1,131.99999597168,8|2,0:2|0:2,0:2:0:0:
512,277,317360,102,0,P|405:311|251:347,1,263.99999194336,2|8,3:3|0:2,0:2:0:0:
40,224,317877,2,0,P|103:229|137:283,1,131.99999597168,2|0,0:2|0:2,0:2:0:0:
118,377,318222,1,0,3:2:0:0:
252,246,318394,2,0,P|268:182|285:118,1,131.99999597168,10|0,0:2|0:2,0:2:0:0:
388,146,318739,5,0,3:2:0:0:
152,162,318912,1,2,0:2:0:0:
362,281,319084,1,8,0:2:0:0:
401,62,319256,1,2,0:2:0:0:
401,62,319343,1,2,0:2:0:0:
401,62,319429,1,2,0:2:0:0:
281,138,319601,1,0,3:2:0:0:
374,298,319774,2,0,L|527:268,1,131.99999597168,10|0,0:2|0:2,0:2:0:0:
397,19,320119,102,0,P|336:21|236:42,1,131.99999597168,2|0,3:2|0:2,0:2:0:0:
173,87,320463,1,8,0:2:0:0:
130,358,320636,2,0,P|41:345|49:177,1,263.99999194336,2|0,0:2|3:2,0:2:0:0:
184,115,321153,2,0,P|245:117|345:138,1,131.99999597168,10|0,0:2|0:2,0:2:0:0:
386,188,321498,5,0,3:2:0:0:
110,253,321670,1,2,0:2:0:0:
278,367,321843,1,10,0:2:0:0:
278,367,321929,1,2,0:2:0:0:
278,367,322015,1,2,0:2:0:0:
194,144,322187,1,2,0:2:0:0:
264,243,322360,1,0,3:2:0:0:
99,274,322532,2,0,P|78:182|63:124,1,131.99999597168,10|0,0:2|0:2,0:2:0:0:
275,369,322877,102,0,P|351:322|538:250,1,263.99999194336,2|8,3:3|0:2,0:2:0:0:
499,71,323394,2,0,P|425:53|367:18,1,131.99999597168,2|0,0:2|0:2,0:2:0:0:
284,0,323739,1,0,3:2:0:0:
353,210,323912,2,0,P|410:178|475:164,1,131.99999597168,10|0,0:2|0:2,0:2:0:0:
319,103,324256,5,0,3:2:0:0:
257,293,324429,1,2,0:2:0:0:
257,293,324515,1,2,0:2:0:0:
257,293,324601,1,10,0:2:0:0:
103,173,324774,1,2,0:2:0:0:
238,188,324946,1,2,0:2:0:0:
145,374,325119,1,0,3:2:0:0:
244,176,325291,2,0,L|213:15,1,131.99999597168,10|0,0:2|0:2,0:2:0:0:
14,253,325636,102,0,P|104:267|157:283,1,131.99999597168,4|0,3:2|0:2,0:2:0:0:
496,333,325981,2,0,P|406:347|353:363,1,131.99999597168,10|0,0:2|0:2,0:2:0:0:
243,384,326325,2,0,P|265:298|288:225,1,131.99999597168,6|0,1:2|3:2,0:2:0:0:
499,203,326670,2,0,P|415:223|358:101,1,197.99999395752,10|0,0:2|0:2,0:2:0:0:
303,71,327015,5,0,1:2:0:0:
282,37,327101,1,0,1:2:0:0:
251,12,327187,1,0,1:2:0:0:
214,0,327273,1,0,1:2:0:0:
175,0,327359,1,4,0:3:0:0:
138,12,327446,1,4,0:3:0:0:
107,36,327532,101,0,1:2:0:0:
142,55,327618,1,0,1:2:0:0:
163,87,327704,1,0,1:2:0:0:
167,126,327790,1,0,1:2:0:0:
152,163,327876,1,4,0:3:0:0:
122,188,327963,1,4,0:3:0:0:
84,196,328049,1,4,0:3:0:0:
46,184,328135,1,4,0:3:0:0:
18,157,328221,1,4,0:3:0:0:
7,119,328307,1,4,0:3:0:0:
17,85,328394,6,0,B|124:106|124:106|129:119|129:119|283:147,1,263.99999194336,2|8,3:3|0:2,0:2:0:0:
472,163,328912,2,0,P|463:94|444:13,1,131.99999597168,2|0,0:2|0:2,0:2:0:0:
362,0,329256,1,0,3:2:0:0:
267,144,329429,2,0,P|252:208|244:273,1,131.99999597168,10|0,0:2|0:2,0:2:0:0:
327,359,329774,101,2,3:2:0:0:
125,251,329946,1,2,0:2:0:0:
125,251,330032,1,2,0:2:0:0:
125,251,330119,1,10,0:2:0:0:
351,220,330291,2,0,L|495:250,1,131.99999597168,2|0,0:2|0:2,0:2:0:0:
483,326,330636,5,2,3:2:0:0:
343,207,330808,1,10,0:2:0:0:
179,317,330981,1,2,0:2:0:0:
23,195,331153,102,0,B|180:179|86:65|281:62,1,263.99999194336,2|8,3:2|0:2,0:2:0:0:
306,352,331670,2,0,P|224:330|158:310,1,131.99999597168,2|0,0:2|0:2,0:2:0:0:
88,353,332015,1,0,3:2:0:0:
335,197,332187,2,0,P|398:178|462:161,1,131.99999597168,10|0,0:2|0:2,0:2:0:0:
390,97,332532,5,0,3:2:0:0:
247,289,332705,1,2,0:2:0:0:
239,64,332877,1,10,0:2:0:0:
239,64,332963,1,2,0:2:0:0:
239,64,333050,1,2,0:2:0:0:
335,197,333222,1,0,0:2:0:0:
196,170,333394,101,2,3:2:0:0:
342,175,333567,1,10,0:2:0:0:
397,302,333739,1,2,0:2:0:0:
192,371,333912,6,0,P|100:353|58:180,1,263.99999194336,2|8,3:3|0:2,0:2:0:0:
234,0,334429,2,0,P|265:62|256:166,1,131.99999597168,2|0,0:2|0:2,0:2:0:0:
196,170,334774,1,0,3:2:0:0:
381,287,334946,2,0,P|455:271|523:255,1,131.99999597168,10|0,0:2|0:2,0:2:0:0:
469,180,335291,101,2,3:2:0:0:
415,382,335463,1,2,0:2:0:0:
415,382,335550,1,2,0:2:0:0:
415,382,335636,1,10,0:2:0:0:
207,284,335808,2,0,B|175:259|175:259|202:139,1,131.99999597168,2|0,0:2|0:2,0:2:0:0:
431,43,336153,5,2,3:2:0:0:
329,152,336325,1,10,0:2:0:0:
195,169,336498,1,2,0:2:0:0:
28,60,336670,102,0,L|316:26,1,263.99999194336,2|8,3:2|0:2,0:2:0:0:
469,350,337187,2,0,P|373:372|324:229,1,263.99999194336,2|0,0:2|3:2,0:2:0:0:
442,149,337705,2,0,P|421:228|405:306,1,131.99999597168,10|0,0:2|0:2,0:2:0:0:
161,345,338050,5,0,3:2:0:0:
317,241,338222,1,2,0:2:0:0:
52,187,338394,1,8,0:2:0:0:
171,251,338567,1,2,0:2:0:0:
171,251,338653,1,2,0:2:0:0:
171,251,338739,1,2,0:2:0:0:
122,96,338912,101,2,3:2:0:0:
85,283,339084,1,10,0:2:0:0:
246,355,339256,1,2,0:2:0:0:
359,182,339429,6,0,P|430:154|468:316,1,263.99999194336,2|8,3:3|0:2,0:2:0:0:
260,237,339946,2,0,P|257:153|271:59,1,131.99999597168,2|0,0:2|0:2,0:2:0:0:
302,33,340291,1,0,3:2:0:0:
148,104,340463,2,0,P|69:88|19:68,1,131.99999597168,10|0,0:2|0:2,0:2:0:0:
142,219,340808,101,0,3:2:0:0:
359,182,340981,1,2,0:2:0:0:
266,368,341153,1,8,0:2:0:0:
241,158,341325,1,2,0:2:0:0:
241,158,341412,1,2,0:2:0:0:
241,158,341498,1,2,0:2:0:0:
142,219,341670,5,2,3:2:0:0:
267,263,341843,1,10,0:2:0:0:
382,336,342015,1,2,0:2:0:0:
491,270,342187,102,0,L|513:2,1,263.99999194336,2|8,3:2|0:2,0:2:0:0:
256,4,342705,2,0,P|296:85|348:94,1,131.99999597168,2|0,0:2|0:2,0:2:0:0:
411,53,343050,1,0,3:2:0:0:
395,305,343222,2,0,P|377:243|198:241,1,263.99999194336,10|0,0:2|3:2,0:2:0:0:
99,228,343739,6,0,P|91:151|72:67,1,131.99999597168,2|8,0:2|0:2,0:2:0:0:
206,230,344084,1,2,0:2:0:0:
206,230,344170,1,2,0:2:0:0:
206,230,344256,1,2,0:2:0:0:
21,295,344429,101,2,3:2:0:0:
159,355,344601,1,10,0:2:0:0:
305,335,344774,1,2,0:2:0:0:
447,312,344946,6,0,L|438:378,3,55,2|0|0|0,3:2|3:2|3:2|3:2,3:2:0:0:
356,202,345636,2,0,L|365:268,3,55,2|0|0|0,3:2|3:2|3:2|3:2,3:2:0:0:
458,182,346325,101,2,3:2:0:0:
458,182,346498,1,0,3:2:0:0:
504,91,346670,5,2,3:2:0:0:
504,91,346843,1,0,3:2:0:0:
426,17,347015,101,2,3:2:0:0:
426,17,347188,1,0,3:2:0:0:
337,78,347360,5,2,3:2:0:0:
337,78,347532,2,0,L|329:124,1,27.5,8|0,3:2|3:2,3:2:0:0:
313,202,347705,101,0,3:2:0:0:
274,215,347791,1,0,3:2:0:0:
234,207,347877,1,0,3:2:0:0:
205,179,347963,1,0,3:2:0:0:
194,140,348050,2,0,L|199:72,3,41.2500015735627,8|0|0|0,3:2|3:2|3:2|3:2,3:2:0:0:
0,108,348394,5,0,3:2:0:0:
38,121,348480,1,0,3:2:0:0:
78,113,348566,1,0,3:2:0:0:
107,85,348652,1,0,3:2:0:0:
118,46,348739,2,0,L|113:-22,3,41.2500015735627,8|0|0|0,3:2|3:2|3:2|3:2,3:2:0:0:
197,99,349084,102,0,L|261:89,1,41.2500015735627,8|0,3:2|3:2,3:2:0:0:
41,208,349256,2,0,L|0:201,1,41.2500015735627,8|0,3:2|3:2,3:2:0:0:
149,306,349429,1,4,3:3:0:0:
153,321,349515,1,4,3:3:0:0:
157,336,349601,6,0,L|169:381,1,41.2500015735627,8|0,3:2|0:2,0:2:0:0:
223,238,349774,101,2,1:3:0:0:
249,207,349860,1,2,1:3:0:0:
287,192,349946,1,2,1:3:0:0:
328,196,350032,1,2,1:3:0:0:
362,219,350118,1,4,1:3:0:0:
388,249,350205,1,4,1:3:0:0:
426,264,350291,1,4,1:3:0:0:
467,260,350377,1,4,1:3:0:0:
501,237,350463,6,0,P|514:88|419:12,1,263.99999194336,2|8,3:3|0:2,0:2:0:0:
307,112,350981,2,0,B|149:124|231:19|63:23,1,263.99999194336,2|0,0:2|3:2,0:2:0:0:
8,371,351498,2,0,P|23:296|103:120,1,263.99999194336,10|0,0:2|3:2,0:2:0:0:
99,125,352187,102,0,P|108:169|126:308,1,165.000006294251,8|0,0:2|0:2,0:2:0:0:
122,380,352705,1,0,3:2:0:0:
209,346,352877,2,0,P|222:303|236:263,1,82.5000031471254,8|0,0:2|0:2,0:2:0:0:
496,332,353222,6,0,B|417:266|405:363|324:302|324:302|344:252|308:208,1,263.99999194336,2|8,3:2|0:2,0:2:0:0:
337,64,353739,2,0,B|401:-21|510:21|510:21|449:44|442:108,1,263.99999194336,2|0,0:2|3:2,0:2:0:0:
320,226,354256,2,0,B|163:229|255:102|59:112,1,263.99999194336,10|0,0:2|3:2,0:2:0:0:
96,111,354946,102,0,P|74:41|5:66,1,165.000006294251,8|0,0:2|0:2,0:2:0:0:
24,148,355463,1,0,3:2:0:0:
79,207,355636,2,0,P|71:263|65:303,1,82.5000031471254,8|0,0:2|0:2,0:2:0:0:
218,368,355981,6,0,P|304:361|407:200,1,263.99999194336,2|8,3:2|0:2,0:2:0:0:
248,13,356498,2,0,P|367:42|510:68,1,263.99999194336,2|0,0:2|3:2,0:2:0:0:
265,253,357015,2,0,P|135:276|6:307,1,263.99999194336,10|0,0:2|3:2,0:2:0:0:
6,307,357705,102,0,P|21:257|56:132,1,165.000006294251,8|0,0:2|0:2,0:2:0:0:
18,75,358222,1,0,3:2:0:0:
51,148,358394,2,0,P|91:141|147:127,1,82.5000031471254,8|0,0:2|0:2,0:2:0:0:
512,273,358739,6,0,B|450:256|453:194|453:194|355:140|297:260,1,263.99999194336,2|8,3:2|0:2,0:2:0:0:
66,242,359256,2,0,P|74:326|231:304,1,263.99999194336,2|0,0:2|3:2,0:2:0:0:
317,224,359774,2,0,B|180:202|297:116|149:8|57:142|151:191,1,330.000012588501,10|0,0:2|3:2,0:2:0:0:
140,184,360291,1,0,0:2:0:0:
347,45,360463,102,0,P|347:26|334:-9,1,41.2500015735627,10|0,0:2|0:2,0:2:0:0:
263,18,360636,2,0,P|263:37|276:72,1,41.2500015735627,2|0,0:2|0:2,0:2:0:0:
407,108,360808,2,0,P|448:65|478:15,1,82.5000031471254,2|0,0:2|3:2,0:2:0:0:
234,134,361153,2,0,P|173:96|133:39,1,123.750004720688,10|0,0:2|0:2,0:2:0:0:
141,55,361498,6,0,P|63:52|53:219,1,263.99999194336,2|8,3:3|0:2,0:2:0:0:
211,366,362015,2,0,P|228:281|281:100,1,263.99999194336,2|0,0:2|3:2,0:2:0:0:
504,351,362532,2,0,P|513:230|395:202,1,263.99999194336,10|0,0:2|3:2,0:2:0:0:
395,202,363050,102,0,L|382:310,1,82.5000031471254,2|8,0:2|0:2,0:2:0:0:
226,269,363394,2,0,L|325:227,1,82.5000031471254,2|0,0:2|0:2,0:2:0:0:
368,382,363739,2,0,L|281:316,1,82.5000031471254,2|8,3:2|0:2,0:2:0:0:
385,284,364084,1,2,0:2:0:0:
138,384,364256,6,0,P|128:298|73:106,1,263.99999194336,2|8,3:2|0:2,0:2:0:0:
296,1,364774,2,0,B|131:11|248:113|62:129,1,263.99999194336,2|0,0:2|3:2,0:2:0:0:
244,249,365291,2,0,B|410:262|293:364|458:374,1,263.99999194336,10|0,0:2|3:2,0:2:0:0:
455,374,365981,1,8,0:2:0:0:
453,258,366153,102,0,P|466:273|474:292,1,41.2500015735627,2|0,0:2|0:2,0:2:0:0:
483,252,366325,2,0,P|481:272|474:291,1,41.2500015735627,2|0,0:2|0:2,0:2:0:0:
509,270,366498,2,0,P|493:283|474:291,1,41.2500015735627,2|0,3:2|0:2,0:2:0:0:
455,374,366670,1,8,0:2:0:0:
498,171,366843,2,0,P|517:172|509:179,1,41.2500015735627,2|0,0:2|0:2,0:2:0:0:
453,258,367015,6,0,L|157:285,1,263.99999194336,2|8,3:2|0:2,0:2:0:0:
22,53,367532,2,0,P|111:12|145:154,1,263.99999194336,2|0,0:2|3:2,0:2:0:0:
101,384,368050,2,0,P|34:222|71:122,1,263.99999194336,10|0,0:2|3:2,0:2:0:0:
57,143,368567,102,0,P|76:210|114:229,1,82.5000031471254,2|8,0:2|0:2,0:2:0:0:
160,291,368912,5,2,0:2:0:0:
162,266,368998,1,2,0:2:0:0:
171,243,369084,1,2,0:2:0:0:
185,223,369170,1,2,0:2:0:0:
204,207,369256,1,2,3:2:0:0:
227,196,369343,1,2,0:2:0:0:
250,192,369429,2,0,L|302:202,3,41.2500015735627,10|2|2|2,0:2|0:2|0:2|0:2,0:2:0:0:
246,284,369774,102,0,L|294:-2,1,263.99999194336,2|8,3:2|0:2,0:2:0:0:
512,261,370291,2,0,L|464:-25,1,263.99999194336,2|0,0:2|3:2,0:2:0:0:
512,384,370808,2,0,P|446:347|319:308,1,197.99999395752,10|0,0:2|0:2,0:2:0:0:
243,286,371153,5,0,3:2:0:0:
239,302,371239,1,0,1:2:0:0:
235,318,371325,1,0,1:2:0:0:
231,334,371412,1,0,1:2:0:0:
227,350,371498,1,0,1:2:0:0:
150,311,371670,102,0,L|93:317,1,41.2500015735627,2|0,1:2|1:2,0:2:0:0:
28,286,371843,2,0,L|153:311,1,123.750004720688,2|0,1:2|1:2,0:2:0:0:
96,226,372187,2,0,B|20:239|20:239|30:304,1,123.750004720688,2|0,1:2|1:2,0:2:0:0:
149,310,372532,6,0,L|101:76,1,220,6|8,3:2|0:2,0:2:0:0:
298,196,373050,2,0,L|429:-3,1,220,0|0,3:2|0:2,0:2:0:0:
297,364,373567,2,0,L|530:316,1,220,10|0,0:2|3:2,0:2:0:0:
512,319,374084,101,2,0:2:0:0:
440,279,374256,1,10,0:2:0:0:
361,313,374429,1,2,0:2:0:0:
512,241,374601,5,2,0:2:0:0:
372,231,374774,1,2,3:2:0:0:
436,359,374946,101,10,0:2:0:0:
440,279,375119,1,2,0:2:0:0:
297,364,375291,6,0,P|232:290|227:141,1,220,2|8,3:2|0:2,0:2:0:0:
50,210,375808,2,0,P|115:136|120:-13,1,220,2|0,3:2|0:2,0:2:0:0:
393,60,376325,2,0,B|257:70|350:162|185:177,1,220,10|0,0:2|3:2,0:0:0:0:
217,172,377015,102,0,P|223:209|239:250,1,55,10|0,0:2|0:2,0:2:0:0:
260,309,377187,5,2,0:2:0:0:
281,305,377274,1,2,0:2:0:0:
302,301,377360,1,2,0:2:0:0:
323,297,377446,1,2,0:2:0:0:
344,261,377532,101,2,3:2:0:0:
365,265,377618,1,2,0:2:0:0:
396,287,377705,5,10,0:2:0:0:
417,283,377792,1,2,0:2:0:0:
438,279,377878,1,2,0:2:0:0:
459,275,377964,1,2,0:2:0:0:
478,270,378050,102,0,B|483:329|483:329|286:365,1,220,2|8,3:2|0:2,0:2:0:0:
106,221,378567,2,0,B|101:280|101:280|298:316,1,220,2|0,3:2|0:2,0:2:0:0:
350,199,379084,2,0,B|311:134|311:134|339:312,1,220,10|0,0:2|3:2,0:2:0:0:
333,276,379601,5,2,0:2:0:0:
259,308,379774,1,10,0:2:0:0:
324,357,379946,1,2,0:2:0:0:
275,229,380119,101,2,0:2:0:0:
186,344,380291,1,2,3:2:0:0:
259,308,380463,5,10,0:2:0:0:
259,308,380636,1,2,0:2:0:0:
209,154,380808,102,0,P|119:117|24:39,1,220,2|8,3:2|0:2,0:2:0:0:
338,210,381325,2,0,P|300:120|288:-3,1,220,2|0,3:2|0:2,0:2:0:0:
404,371,381843,2,0,B|355:219|546:130|557:341|440:302,1,330.000012588501,10|0,0:2|3:2,0:2:0:0:
444,303,382532,5,8,0:2:0:0:
404,371,382705,2,0,P|364:355|349:333,1,41.2500015735627,2|0,0:2|0:2,0:2:0:0:
283,372,382877,2,0,P|266:328|285:282,1,82.5000031471254,2|0,0:2|3:2,0:2:0:0:
274,189,383222,2,0,P|301:242|274:295,1,123.750004720688,2|0,0:2|0:2,0:2:0:0:
273,295,383567,102,0,B|147:271|147:271|137:277|137:277|-10:244,1,263.99999194336,6|8,3:2|0:2,0:2:0:0:
253,69,384084,2,0,B|373:41|373:41|383:47|383:47|510:23,1,263.99999194336,2|0,3:2|0:2,0:2:0:0:
505,226,384601,2,0,B|440:278|440:278|419:154|419:154|471:132,1,263.99999194336,10|0,0:2|3:2,0:2:0:0:
471,132,385119,6,0,L|368:113,1,82.5000031471254,2|8,0:2|0:2,0:2:0:0:
330,174,385463,2,0,L|243:233,1,82.5000031471254,2|0,0:2|0:2,0:2:0:0:
259,303,385808,2,0,L|240:405,1,82.5000031471254,2|8,3:2|0:2,0:2:0:0:
338,277,386153,1,2,0:2:0:0:
154,380,386325,102,0,P|139:292|84:156,1,220,2|8,3:2|0:2,0:2:0:0:
23,26,386843,2,0,P|101:77|235:24,1,220,2|0,3:2|0:2,0:2:0:0:
349,0,387360,2,0,P|307:101|286:209,1,220,10|0,0:2|3:2,0:2:0:0:
286,209,387877,6,0,P|356:206|436:135,2,165.000006294251,0|2|2,0:2|0:2|3:2,0:2:0:0:
206,186,388739,1,10,0:2:0:0:
206,186,388912,1,2,0:2:0:0:
30,375,389084,102,0,P|54:306|92:161,1,220,2|10,3:2|0:2,0:2:0:0:
31,71,389515,1,2,0:2:0:0:
23,84,389601,2,0,B|137:90|104:17|234:22,1,220,2|0,3:2|0:2,0:2:0:0:
408,1,390119,2,0,P|385:106|295:45,1,220,10|0,0:2|3:2,0:2:0:0:
303,78,390636,6,0,L|321:202,1,110,2|8,0:2|0:2,0:2:0:0:
306,360,390981,101,2,0:2:0:0:
315,334,391067,1,2,0:2:0:0:
332,312,391153,1,2,0:2:0:0:
354,296,391239,1,2,0:2:0:0:
373,256,391325,5,2,3:2:0:0:
400,260,391411,1,2,0:2:0:0:
442,234,391498,101,10,0:2:0:0:
468,242,391584,1,2,0:2:0:0:
490,259,391670,1,2,0:2:0:0:
506,281,391756,1,2,0:2:0:0:
512,304,391843,6,0,B|420:313|420:313|420:322|420:322|279:335,1,220,2|8,3:2|0:2,0:2:0:0:
0,227,392360,2,0,B|127:189|127:189|87:233|99:298,1,220,2|0,3:2|0:2,0:2:0:0:
194,374,392877,2,0,L|263:36,1,330.000012588501,10|0,0:2|3:2,0:2:0:0:
260,50,393567,101,10,0:2:0:0:
201,0,393739,2,0,P|183:24|182:62,1,41.2500015735627,2|0,0:2|0:2,0:2:0:0:
127,97,393912,2,0,P|91:45|94:7,1,82.5000031471254,2|0,0:2|3:2,0:2:0:0:
32,147,394256,2,0,P|70:180|145:186,1,123.750004720688,10|0,0:2|0:2,0:2:0:0:
140,187,394601,6,0,L|127:259,2,55,2|0|0,3:2|3:2|3:2,3:2:0:0:
38,244,395119,2,0,L|78:304,2,55,2|0|0,3:2|3:2|3:2,3:2:0:0:
5,357,395636,2,0,L|76:370,2,55,2|0|0,3:2|3:2|3:2,3:2:0:0:
147,322,396153,1,0,3:2:0:0:
147,322,396325,102,0,L|156:394,1,55,0|0,3:2|3:2,3:2:0:0:
252,290,396670,2,0,L|243:362,1,55,0|0,3:2|3:2,3:2:0:0:
339,324,397015,2,0,L|348:396,1,55,0|0,3:2|3:2,3:2:0:0:
417,283,397360,6,0,L|451:290,3,27.5,0|0|0|0,3:2|3:2|3:2|3:2,3:2:0:0:
506,228,397705,2,0,L|513:194,3,27.5,0|0|0|0,3:2|3:2|3:2|3:2,3:2:0:0:
451,139,398050,2,0,L|417:132,3,27.5,0|0|0|0,3:2|3:2|3:2|3:2,3:2:0:0:
362,194,398394,2,0,L|355:228,3,27.5,0|0|0|0,3:2|3:2|3:2|3:2,3:2:0:0:
377,73,398739,101,0,1:2:0:0:
357,99,398825,1,0,1:2:0:0:
331,119,398911,1,2,0:3:0:0:
300,131,398997,1,2,0:3:0:0:
267,135,399083,1,8,0:3:0:0:
235,130,399170,1,8,0:3:0:0:
205,117,399256,5,0,1:2:0:0:
196,63,399342,1,0,1:2:0:0:
160,23,399428,1,2,0:3:0:0:
107,8,399514,1,2,0:3:0:0:
55,23,399600,1,2,0:3:0:0:
20,63,399687,1,2,0:3:0:0:
10,116,399773,1,4,0:3:0:0:
31,167,399859,1,4,0:3:0:0:
76,198,399945,1,4,0:3:0:0:
130,201,400031,1,4,0:3:0:0:
168,240,400119,22,0,B|258:265|258:265|269:292|269:292|389:325,1,230.99999295044,2|0,3:3|0:2,0:2:0:0:
490,371,400463,2,0,L|453:131,1,230.99999295044,10|0,0:2|0:2,0:2:0:0:
474,118,400808,1,0,0:2:0:0:
378,228,400981,1,0,3:2:0:0:
210,69,401153,102,0,B|354:39|354:39|347:123,1,230.99999295044,10|0,0:2|0:2,0:2:0:0:
347,123,401498,2,0,L|120:78,1,230.99999295044,2|0,3:2|0:2,0:2:0:0:
178,232,401843,2,0,B|341:197|341:197|356:39|356:39|500:15,1,467.500008916855,10|0,0:2|0:2,0:2:0:0:
502,49,402360,1,0,3:2:0:0:
372,334,402532,6,0,B|367:368|367:368|486:322|486:322|485:209,1,230.99999295044,10|0,0:2|0:2,0:2:0:0:
390,238,402877,2,0,B|279:259|279:259|242:91,1,230.99999295044,2|0,3:2|0:2,0:2:0:0:
226,42,403222,2,0,B|221:7|221:7|340:53|340:53|339:122,1,230.99999295044,10|0,0:2|0:2,0:2:0:0:
338,153,403567,1,0,0:2:0:0:
502,49,403739,1,0,3:2:0:0:
253,143,403912,102,0,L|-2:197,1,230.99999295044,10|0,0:2|0:2,0:2:0:0:
23,277,404256,2,0,L|248:324,1,230.99999295044,2|0,3:2|0:2,0:2:0:0:
426,253,404601,2,0,B|314:239|314:239|352:365|352:365|510:323,1,384.999988250733,10|0,0:2|0:2,0:2:0:0:
508,324,405119,1,0,3:2:0:0:
512,188,405291,2,0,B|444:175|444:175|417:123|417:123|286:97,1,230.99999295044,10|0,0:2|0:2,0:2:0:0:
224,7,405636,6,0,B|144:47|144:47|196:243,1,230.99999295044,2|0,3:3|0:2,0:2:0:0:
127,384,405981,2,0,B|225:356|225:356|228:260|228:260|177:274,1,230.99999295044,10|0,0:2|0:2,0:2:0:0:
166,277,406325,1,0,0:2:0:0:
313,373,406498,1,0,3:2:0:0:
321,93,406670,102,0,P|363:22|497:77,1,230.99999295044,10|0,0:2|0:2,0:2:0:0:
496,88,407015,2,0,B|351:85|447:-19|253:3,1,230.99999295044,2|10,3:2|0:2,0:2:0:0:
168,110,407360,2,0,B|76:129|28:-15|164:-49|247:-4|172:48|233:108|342:90,1,384.999988250733,10|0,0:2|0:2,0:2:0:0:
330,121,407877,1,0,3:2:0:0:
500,360,408050,6,0,P|463:262|318:280,1,230.99999295044,8|0,0:2|0:2,0:2:0:0:
252,244,408394,2,0,P|215:342|70:324,1,230.99999295044,2|0,3:2|0:2,0:2:0:0:
33,151,408739,2,0,P|5:228|98:175,1,230.99999295044,10|0,0:2|0:2,0:2:0:0:
108,172,409084,1,0,0:2:0:0:
234,363,409256,1,0,3:2:0:0:
335,46,409429,102,0,B|358:124|358:124|505:97,1,230.99999295044,10|0,0:2|0:2,0:2:0:0:
505,97,409774,2,0,L|235:61,1,230.99999295044,2|0,3:2|0:2,0:2:0:0:
29,135,410119,2,0,B|163:92|163:92|174:36|174:36|355:-9|355:-9|277:54,1,467.500008916855,10|0,0:2|0:2,0:2:0:0:
276,66,410636,1,0,3:2:0:0:
128,365,410808,2,0,B|47:343|47:343|100:141,1,230.99999295044,8|0,0:2|0:2,0:2:0:0:
198,287,411153,6,0,B|280:276|280:276|323:337|323:337|446:317,1,230.99999295044,2|0,3:3|0:2,0:2:0:0:
479,371,411498,2,0,P|408:300|486:166,1,230.99999295044,10|0,0:2|0:2,0:2:0:0:
473,194,411843,1,0,0:2:0:0:
288,339,412015,1,0,3:2:0:0:
116,219,412187,102,0,P|187:148|109:14,1,230.99999295044,10|0,0:2|0:2,0:2:0:0:
152,35,412532,2,0,B|289:67|227:-24|377:1,1,230.99999295044,2|0,3:2|0:2,0:2:0:0:
511,58,412877,2,0,P|458:107|293:390,1,384.999988250733,10|0,0:2|0:2,0:2:0:0:
323,384,413394,1,0,3:2:0:0:
512,382,413567,6,0,P|493:294|353:220,1,230.99999295044,10|0,0:2|0:2,0:2:0:0:
318,156,413912,2,0,P|226:181|309:236,1,230.99999295044,2|0,3:2|0:2,0:2:0:0:
296,242,414256,2,0,L|265:-3,1,230.99999295044,10|0,0:2|0:2,0:2:0:0:
236,15,414601,1,0,0:2:0:0:
388,107,414774,1,0,3:2:0:0:
252,322,414946,102,0,B|181:335|181:335|172:357|172:357|0:382,1,230.99999295044,10|0,0:2|0:2,0:2:0:0:
62,191,415291,2,0,P|117:256|15:247,1,230.99999295044,2|0,3:2|0:2,0:2:0:0:
62,191,415636,2,0,B|131:139|241:169|142:274|324:284|382:183|356:76|256:33|181:109,1,467.500008916855,10|0,0:2|0:2,0:2:0:0:
191,104,416153,1,0,3:2:0:0:
477,0,416325,2,0,B|495:124|389:93|408:215,1,230.99999295044,10|0,0:2|0:2,0:2:0:0:
512,267,416670,6,0,P|453:357|350:326,1,230.99999295044,2|0,3:3|0:2,0:2:0:0:
311,248,417015,2,0,P|252:158|149:189,1,230.99999295044,10|0,0:2|0:2,0:2:0:0:
117,269,417360,1,0,0:2:0:0:
127,108,417532,1,0,3:2:0:0:
32,375,417705,102,0,P|15:318|64:152,1,230.99999295044,10|0,0:2|0:2,0:2:0:0:
70,3,418050,2,0,P|122:82|263:76,1,230.99999295044,2|0,3:2|0:2,0:2:0:0:
476,130,418394,2,0,B|532:84|551:-8|429:-66|252:-12|455:169|232:187,1,467.500008916855,10|0,0:2|0:2,0:2:0:0:
212,190,418912,1,0,3:2:0:0:
335,357,419084,6,0,P|437:328|377:235,1,230.99999295044,10|0,0:2|0:2,0:2:0:0:
310,279,419429,2,0,P|218:310|78:364,1,230.99999295044,2|0,3:2|0:2,0:2:0:0:
2,370,419774,2,0,B|-26:220|-26:220|105:177|105:177|52:294,1,384.999988250733,10|0,0:2|0:2,0:2:0:0:
86,278,420291,1,0,3:2:0:0:
0,69,420463,2,0,L|245:118,1,230.99999295044,10|0,0:2|0:2,0:2:0:0:
244,119,420808,1,0,3:2:0:0:
454,175,421153,101,0,3:2:0:0:
454,175,421325,1,0,3:2:0:0:
368,179,421498,5,0,3:2:0:0:
385,224,421670,1,0,3:2:0:0:
278,212,421843,101,0,3:2:0:0:
342,295,422015,1,0,3:2:0:0:
346,70,422187,6,0,P|269:63|194:47,1,153.999995300293,6|0,3:2|0:2,0:2:0:0:
52,320,422532,2,0,P|127:304|203:297,1,153.999995300293,10|0,0:2|0:2,0:2:0:0:
324,331,422877,1,2,0:2:0:0:
324,331,423050,1,0,3:2:0:0:
460,202,423222,2,0,P|460:262|440:371,1,153.999995300293,10|0,0:2|0:2,0:2:0:0:
501,105,423567,102,0,P|405:112|374:257,1,230.99999295044,2|0,3:2|0:2,0:2:0:0:
376,252,423912,1,10,0:2:0:0:
442,23,424084,1,0,0:2:0:0:
249,154,424256,2,0,P|156:136|82:120,1,153.999995300293,2|0,0:2|3:2,0:2:0:0:
244,52,424601,1,8,0:2:0:0:
61,222,424774,1,2,0:2:0:0:
181,365,424946,6,0,P|274:347|348:331,1,153.999995300293,0|0,3:2|0:2,0:2:0:0:
422,324,425291,1,8,0:2:0:0:
422,324,425463,1,0,0:2:0:0:
491,156,425636,102,0,L|514:-21,1,153.999995300293,2|0,0:2|3:2,0:2:0:0:
215,89,425981,2,0,L|234:241,1,153.999995300293,8|0,0:2|0:2,0:2:0:0:
97,127,426325,5,2,3:2:0:0:
351,188,426498,1,0,0:2:0:0:
84,339,426670,2,0,B|-3:370|-39:236|75:180|209:273|131:309|169:353|279:336,1,384.999988250733,10|0,0:2|0:2,0:2:0:0:
282,323,427187,1,0,3:2:0:0:
485,260,427360,2,0,P|462:340|398:354,1,153.999995300293,10|0,0:2|0:2,0:2:0:0:
216,239,427705,102,0,P|231:138|243:33,1,153.999995300293,2|0,3:2|0:2,0:2:0:0:
500,152,428050,2,0,P|485:51|473:-54,1,153.999995300293,10|0,0:2|0:2,0:2:0:0:
327,121,428394,1,2,0:2:0:0:
327,121,428567,1,0,3:2:0:0:
60,168,428739,2,0,P|75:67|87:-38,1,153.999995300293,10|0,0:2|0:2,0:2:0:0:
256,295,429084,6,0,B|326:287|326:287|385:343|385:343|496:321,1,230.99999295044,2|0,3:2|0:2,0:2:0:0:
512,242,429429,2,0,B|382:264|382:264|377:330|377:330|186:360,1,384.999988250733,10|0,0:2|0:2,0:2:0:0:
162,367,429946,1,0,3:2:0:0:
341,157,430119,102,0,P|317:78|159:76,1,230.99999295044,10|0,0:2|0:2,0:2:0:0:
174,84,430463,1,0,3:2:0:0:
478,47,430636,2,0,B|490:127|419:100|445:225,1,153.999995300293,2|8,0:2|0:2,0:2:0:0:
439,191,431153,5,2,0:2:0:0:
382,18,431325,1,0,3:2:0:0:
248,128,431498,2,0,P|222:207|204:295,1,153.999995300293,10|0,0:2|0:2,0:2:0:0:
80,384,431843,2,0,P|54:305|36:217,1,153.999995300293,2|0,3:2|0:2,0:2:0:0:
411,329,432187,102,0,B|494:276|494:276|212:366,1,384.999988250733,10|0,0:2|0:2,0:2:0:0:
192,375,432705,1,0,3:2:0:0:
239,152,432877,2,0,L|416:185,1,153.999995300293,8|0,0:2|0:2,0:2:0:0:
21,357,433222,6,0,P|53:250|61:190,1,153.999995300293,2|0,3:2|0:2,0:2:0:0:
122,84,433567,2,0,P|154:191|162:251,1,153.999995300293,10|0,0:2|0:2,0:2:0:0:
254,212,433912,1,2,0:2:0:0:
254,212,434084,1,0,3:2:0:0:
203,35,434256,2,0,P|292:12|408:-9,1,153.999995300293,10|0,0:2|0:2,0:2:0:0:
453,313,434601,102,0,B|325:307|392:210|222:212,1,230.99999295044,2|0,3:2|0:2,0:2:0:0:
88,274,434946,2,0,B|45:337|81:417|202:396|267:287|53:258|232:107,1,384.999988250733,10|0,0:2|0:2,0:2:0:0:
214,166,435463,1,0,3:2:0:0:
479,66,435636,2,0,P|470:130|442:240,1,153.999995300293,8|2,0:2|0:2,0:2:0:0:
115,70,435981,6,0,P|212:60|285:55,1,153.999995300293,0|0,3:2|0:2,0:2:0:0:
354,59,436325,1,10,0:2:0:0:
354,59,436498,1,2,0:2:0:0:
63,188,436670,102,0,P|16:98|8:33,1,153.999995300293,2|0,0:2|3:2,0:2:0:0:
294,366,437015,2,0,P|341:276|349:211,1,153.999995300293,10|0,0:2|0:2,0:2:0:0:
14,312,437360,2,0,P|104:348|180:374,1,153.999995300293,2|0,3:2|0:2,0:2:0:0:
395,133,437705,6,0,B|270:71|279:247|111:227|99:60|235:39|256:141,1,384.999988250733,10|0,0:2|0:2,0:2:0:0:
251,124,438222,1,0,3:2:0:0:
512,152,438394,2,0,P|511:75|491:0,1,153.999995300293,10|0,0:2|0:2,0:2:0:0:
408,217,438739,101,2,3:2:0:0:
408,217,438912,1,0,3:2:0:0:
370,290,439084,5,2,3:2:0:0:
370,290,439257,1,0,3:2:0:0:
297,333,439429,101,2,3:2:0:0:
297,333,439602,1,0,3:2:0:0:
207,339,439774,5,2,3:2:0:0:
207,339,439947,1,0,3:2:0:0:
246,267,440119,101,2,3:2:0:0:
246,267,440291,1,0,3:2:0:0:
381,371,440463,5,2,3:2:0:0:
381,371,440635,1,0,3:2:0:0:
276,187,440808,101,2,3:2:0:0:
276,187,440980,1,0,3:2:0:0:
207,339,441153,5,2,3:2:0:0:
207,339,441325,1,0,3:2:0:0:
353,219,441498,102,0,L|405:211,3,41.2500015735627,0|0|0|0,3:2|3:2|3:2|3:2,3:2:0:0:
187,256,441843,2,0,L|135:248,3,41.2500015735627,0|0|0|0,3:2|3:2|3:2|3:2,3:2:0:0:
289,328,442187,2,0,L|297:380,3,41.2500015735627,8|0|0|0,3:2|3:2|3:2|3:2,3:2:0:0:
250,158,442532,2,0,L|258:106,3,41.2500015735627,0|0|0|0,3:2|3:2|3:2|3:2,3:2:0:0:
320,59,442877,6,0,L|382:46,1,41.2500015735627,8|0,0:2|3:2,0:2:0:0:
512,168,443050,1,2,1:3:0:0:
495,167,443136,1,2,1:3:0:0:
478,166,443222,1,4,1:3:0:0:
461,164,443308,1,4,1:3:0:0:
444,162,443394,2,0,L|425:97,1,41.2500015735627,8|0,0:2|1:2,1:2:0:0:
458,340,443567,101,2,0:3:0:0:
417,342,443653,1,2,0:3:0:0:
380,323,443739,1,2,0:3:0:0:
357,289,443825,1,2,0:3:0:0:
353,249,443911,1,4,0:3:0:0:
351,209,443998,1,4,0:3:0:0:
328,175,444084,1,4,0:3:0:0:
291,157,444170,1,4,0:3:0:0:
250,158,444256,6,0,P|195:246|45:203,1,230.99999295044,2|0,3:3|0:2,0:2:0:0:
138,135,444601,2,0,P|254:121|391:94,1,230.99999295044,10|0,0:2|0:2,0:2:0:0:
371,74,444946,1,0,0:2:0:0:
53,160,445119,1,0,3:2:0:0:
212,365,445291,102,0,B|309:361|242:292|398:298,1,153.999995300293,10|0,0:2|0:2,0:2:0:0:
504,34,445636,2,0,B|407:38|474:107|318:101,1,153.999995300293,2|0,3:2|0:2,0:2:0:0:
443,346,445981,2,0,B|478:274|453:209|367:177|303:217|228:165|297:11,1,384.999988250733,10|0,0:2|0:2,0:2:0:0:
302,36,446498,1,0,3:2:0:0:
489,184,446670,6,0,B|393:207|393:207|389:215|389:215|230:249,1,230.99999295044,10|0,0:2|0:2,0:2:0:0:
195,190,447015,2,0,B|54:146|54:146|117:285,1,230.99999295044,2|0,3:2|0:2,0:2:0:0:
92,225,447360,2,0,L|132:-30,1,230.99999295044,10|0,0:2|0:2,0:2:0:0:
103,15,447705,1,0,0:2:0:0:
195,101,447877,1,0,3:2:0:0:
45,309,448050,102,0,P|99:372|218:298,1,230.99999295044,10|0,0:2|0:2,0:2:0:0:
212,228,448394,2,0,P|292:177|291:272,1,230.99999295044,2|0,3:2|0:2,0:2:0:0:
291,272,448739,2,0,B|253:40|253:40|410:67|410:67|360:121,1,467.500008916855,10|0,0:2|0:2,0:2:0:0:
352,137,449256,1,0,3:2:0:0:
311,375,449429,2,0,B|456:339|323:259|512:223,1,230.99999295044,8|0,0:2|0:2,0:2:0:0:
492,348,449774,6,0,P|368:267|263:282,1,230.99999295044,2|0,3:3|0:2,0:2:0:0:
161,360,450119,2,0,P|97:295|156:144,1,230.99999295044,10|0,0:2|0:2,0:2:0:0:
153,168,450463,1,0,0:2:0:0:
15,319,450636,1,0,3:2:0:0:
244,153,450808,102,0,P|183:74|65:125,1,230.99999295044,10|0,0:2|0:2,0:2:0:0:
72,110,451153,2,0,P|176:82|326:12,1,230.99999295044,2|0,3:2|0:2,0:2:0:0:
466,2,451498,2,0,B|420:36|390:120|524:129|535:208|403:299|284:303|284:108|407:91|482:171,1,467.500008916855,10|0,0:2|0:2,0:2:0:0:
455,149,452015,1,0,3:2:0:0:
338,339,452187,6,0,P|262:253|152:228,1,230.99999295044,10|0,0:2|0:2,0:2:0:0:
73,263,452532,2,0,P|70:348|173:292,1,230.99999295044,2|0,3:2|0:2,0:2:0:0:
152,228,452877,2,0,L|117:0,1,230.99999295044,10|0,0:2|0:2,0:2:0:0:
87,12,453222,1,0,0:2:0:0:
54,158,453394,1,0,3:2:0:0:
246,254,453567,102,0,L|287:-8,1,230.99999295044,10|0,0:2|0:2,0:2:0:0:
281,25,453912,2,0,B|438:51|438:51|332:83,1,230.99999295044,2|0,3:2|0:2,0:2:0:0:
154,327,454256,2,0,B|83:301|83:301|358:243|358:243|299:337,1,467.500008916855,10|0,0:2|0:2,0:2:0:0:
289,357,454774,1,0,3:2:0:0:
422,376,454946,2,0,B|460:337|460:337|414:104,1,230.99999295044,10|0,0:2|0:2,0:2:0:0:
284,66,455291,6,0,L|579:24,1,230.99999295044,2|0,3:3|0:2,0:2:0:0:
512,123,455636,2,0,L|283:155,1,230.99999295044,10|0,0:2|0:2,0:2:0:0:
253,164,455981,1,0,0:2:0:0:
197,14,456153,1,0,3:2:0:0:
41,189,456325,102,0,P|31:102|12:26,1,153.999995300293,10|0,0:2|0:2,0:2:0:0:
342,274,456670,2,0,P|352:187|371:111,1,153.999995300293,2|0,3:2|0:2,0:2:0:0:
53,347,457015,2,0,B|-9:266|-9:266|199:308|199:308|211:338|211:338|349:362,1,467.500008916855,10|0,0:2|0:2,0:2:0:0:
366,368,457532,1,0,3:2:0:0:
230,161,457705,6,0,B|66:187|66:187|70:112,1,230.99999295044,10|0,0:2|0:2,0:2:0:0:
69,122,458050,2,0,L|332:167,1,230.99999295044,2|0,3:2|0:2,0:2:0:0:
204,283,458394,2,0,L|431:244,1,230.99999295044,10|0,0:2|0:2,0:2:0:0:
452,267,458739,1,0,0:2:0:0:
365,370,458912,1,0,3:2:0:0:
415,128,459084,102,0,B|444:47|444:47|253:2,1,230.99999295044,10|0,0:2|0:2,0:2:0:0:
165,55,459429,2,0,L|204:283,1,230.99999295044,2|0,3:2|0:2,0:2:0:0:
165,363,459774,2,0,P|54:320|-1:302,1,153.999995300293,10|0,0:2|0:2,0:2:0:0:
93,226,460119,1,0,0:2:0:0:
264,348,460291,1,0,3:2:0:0:
368,230,460463,2,0,P|479:187|534:169,1,153.999995300293,8|0,0:2|0:2,0:2:0:0:
35,160,460808,6,0,B|3:92|79:98|28:-5,1,153.999995300293,2|0,3:3|0:2,0:2:0:0:
245,257,461153,2,0,B|277:189|201:195|252:92,1,153.999995300293,10|0,0:2|0:2,0:2:0:0:
310,49,461498,1,2,0:2:0:0:
146,175,461670,1,0,3:2:0:0:
324,321,461843,102,0,P|436:356|501:367,1,153.999995300293,10|0,0:2|0:2,0:2:0:0:
152,271,462187,2,0,P|84:324|41:393,1,153.999995300293,2|0,3:2|0:2,0:2:0:0:
201,11,462532,2,0,B|308:34|308:34|306:89|306:89|451:124|451:124|500:61,1,384.999988250733,10|0,0:2|0:2,0:2:0:0:
512,46,463050,1,0,3:2:0:0:
190,122,463222,6,0,P|100:144|6:159,1,153.999995300293,10|0,0:2|0:2,0:2:0:0:
319,256,463567,2,0,P|409:278|503:293,1,153.999995300293,0|0,3:2|0:2,0:2:0:0:
219,378,463912,2,0,P|237:226|313:93,1,307.999990600586,10|0,0:2|0:2,0:2:0:0:
404,102,464429,1,0,3:2:0:0:
138,244,464601,1,10,0:2:0:0:
487,351,464946,101,2,3:2:0:0:
510,273,465291,5,0,3:2:0:0:
510,273,465463,1,0,3:2:0:0:
441,210,465636,101,0,3:2:0:0:
425,259,465808,1,0,3:2:0:0:
336,189,465981,5,0,3:2:0:0:
360,304,466153,1,0,3:2:0:0:
40,283,466325,101,0,3:2:0:0:
40,283,466670,6,0,L|137:259,1,82.5000031471254,8|0,0:2|0:2,0:2:0:0:
121,354,467015,2,0,L|40:373,1,82.5000031471254,8|0,0:2|3:2,0:2:0:0:
56,44,467532,101,8,0:2:0:0:
77,130,467705,2,0,L|88:25,1,82.5000031471254,0|0,3:2|0:2,0:2:0:0:
170,76,468050,6,0,L|262:61,1,82.5000031471254,8|0,0:2|0:2,0:2:0:0:
22,205,468394,1,8,0:2:0:0:
172,182,468567,101,8,0:3:0:0:
188,184,468653,1,8,0:3:0:0:
204,187,468739,1,8,0:3:0:0:
237,219,468825,5,4,0:3:0:0:
253,221,468911,1,4,0:3:0:0:
269,224,468997,1,4,0:3:0:0:
285,227,469084,5,4,3:2:0:0:
331,13,469256,1,2,0:2:0:0:
349,286,469429,1,8,0:2:0:0:
349,286,469601,1,2,0:2:0:0:
60,223,469774,85,2,0:2:0:0:
413,331,469946,1,2,3:2:0:0:
109,298,470119,1,8,0:2:0:0:
383,212,470291,1,2,0:2:0:0:
176,239,470463,1,0,3:2:0:0:
349,286,470636,1,2,0:2:0:0:
103,83,470808,21,8,0:2:0:0:
188,365,470981,1,2,0:2:0:0:
281,160,471153,2,0,P|293:86|306:-9,1,153.999995300293,2|2,0:2|3:2,0:2:0:0:
66,217,471498,2,0,P|54:291|41:386,1,153.999995300293,8|2,0:2|0:2,0:2:0:0:
495,259,471843,85,0,3:2:0:0:
147,197,472015,1,2,0:2:0:0:
402,270,472187,1,8,0:2:0:0:
231,241,472360,1,2,0:2:0:0:
325,222,472532,1,2,0:2:0:0:
325,222,472705,1,2,3:2:0:0:
317,9,472877,21,8,0:2:0:0:
405,290,473050,1,2,0:2:0:0:
412,14,473222,1,0,3:2:0:0:
351,213,473394,1,2,0:2:0:0:
386,131,473567,86,0,P|478:115|551:97,1,153.999995300293,8|2,0:2|0:2,0:2:0:0:
46,177,473912,1,2,0:2:0:0:
357,230,474084,1,2,3:2:0:0:
175,365,474256,2,0,P|83:349|10:331,1,153.999995300293,8|2,0:2|0:2,0:2:0:0:
371,271,474601,21,0,3:2:0:0:
149,272,474774,1,2,0:2:0:0:
268,220,474946,1,8,0:2:0:0:
268,220,475119,1,2,0:2:0:0:
82,354,475291,85,2,0:2:0:0:
154,72,475463,1,2,3:2:0:0:
258,361,475636,1,8,0:2:0:0:
187,170,475808,1,2,0:2:0:0:
378,293,475981,1,0,3:2:0:0:
268,220,476153,1,2,0:2:0:0:
511,107,476325,22,0,B|398:122|459:203|333:208,1,187.000003566742,8|2,0:2|0:2,0:2:0:0:
64,166,476670,1,2,0:2:0:0:
163,282,476843,1,2,3:2:0:0:
22,239,477015,1,8,0:2:0:0:
25,319,477187,1,2,0:2:0:0:
140,66,477360,85,0,3:2:0:0:
223,353,477532,1,2,0:2:0:0:
365,251,477705,1,8,0:2:0:0:
163,282,477877,1,2,0:2:0:0:
187,201,478050,1,2,0:2:0:0:
187,201,478222,1,2,3:2:0:0:
492,338,478394,21,8,0:2:0:0:
163,282,478567,1,2,0:2:0:0:
452,262,478739,1,0,3:2:0:0:
244,288,478912,1,2,0:2:0:0:
414,189,479084,86,0,P|434:101|452:27,1,153.999995300293,8|2,0:2|0:2,0:2:0:0:
215,10,479429,1,2,0:2:0:0:
244,288,479601,1,2,3:2:0:0:
59,254,479774,2,0,P|39:166|21:92,1,153.999995300293,8|2,0:2|0:2,0:2:0:0:
404,159,480119,21,0,3:2:0:0:
180,248,480291,1,2,0:2:0:0:
201,172,480463,1,8,0:2:0:0:
201,172,480636,1,2,0:2:0:0:
196,384,480808,85,2,0:2:0:0:
405,137,480981,1,2,3:2:0:0:
511,348,481153,1,8,0:2:0:0:
404,159,481325,1,2,0:2:0:0:
332,227,481498,1,0,3:2:0:0:
403,182,481670,1,2,0:2:0:0:
271,370,481843,21,8,0:2:0:0:
211,172,482015,1,2,0:2:0:0:
42,164,482187,2,0,P|16:268|5:345,1,153.999995300293,2|2,0:2|3:2,0:2:0:0:
206,150,482532,2,0,P|192:74|172:0,1,153.999995300293,8|2,0:2|0:2,0:2:0:0:
388,217,482877,86,0,P|468:236|524:250,1,110,0|0,3:2|3:2,3:2:0:0:
377,350,483222,2,0,P|457:331|513:317,1,110,0|0,3:2|3:2,3:2:0:0:
197,210,483567,2,0,P|277:229|333:243,1,110,0|0,3:2|3:2,3:2:0:0:
186,343,483912,2,0,P|266:324|322:310,1,110,0|0,3:2|3:2,3:2:0:0:
111,275,484256,21,0,3:2:0:0:
111,275,484429,1,0,3:2:0:0:
332,153,484601,85,0,3:2:0:0:
332,153,484774,1,0,3:2:0:0:
167,95,484946,21,0,3:2:0:0:
167,95,485119,1,0,3:2:0:0:
388,217,485291,85,0,3:2:0:0:
388,217,485464,1,0,3:2:0:0:
77,194,485636,22,0,P|81:167|98:146,3,55,0|0|0|0,3:2|3:2|3:2|3:2,3:2:0:0:
155,226,485981,2,0,P|174:199|171:161,3,55,0|0|0|0,3:2|3:2|3:2|3:2,3:2:0:0:
21,250,486325,2,0,P|5:229|2:202,3,55,0|0|0|0,3:2|3:2|3:2|3:2,3:2:0:0:
163,302,486670,2,0,P|191:299|212:283,3,55,0|0|0|0,3:2|3:2|3:2|3:2,3:2:0:0:
74,320,487015,86,0,L|50:387,1,55,8|0,1:2|1:2,1:2:0:0:
283,213,487187,21,2,1:3:0:0:
289,234,487274,1,2,1:3:0:0:
295,254,487360,1,8,1:3:0:0:
302,274,487446,1,8,1:3:0:0:
307,292,487532,2,0,L|331:359,1,55,8|0,1:2|1:2,1:2:0:0:
93,227,487705,85,8,0:3:0:0:
134,229,487791,1,8,0:3:0:0:
171,210,487877,1,8,0:3:0:0:
194,176,487963,1,8,0:3:0:0:
198,136,488049,1,4,0:3:0:0:
200,96,488136,1,4,0:3:0:0:
223,62,488222,1,4,0:3:0:0:
260,44,488308,1,4,0:3:0:0:
304,50,488394,22,0,L|515:96,1,165.000006294251,4|2,3:2|0:2,0:2:0:0:
120,144,488739,1,8,0:2:0:0:
288,212,488912,1,2,0:2:0:0:
228,353,489084,1,2,0:2:0:0:
206,261,489256,1,2,3:2:0:0:
492,237,489429,85,8,0:2:0:0:
140,327,489601,1,2,0:2:0:0:
310,204,489774,1,0,3:2:0:0:
199,135,489946,1,2,0:2:0:0:
283,29,490119,22,0,P|188:17|104:10,1,165.000006294251,8|2,0:2|0:2,0:2:0:0:
159,226,490463,1,2,0:2:0:0:
351,113,490636,1,2,3:2:0:0:
481,222,490808,2,0,P|453:323|430:402,1,165.000006294251,10|2,0:2|0:2,0:2:0:0:
265,352,491153,85,0,3:2:0:0:
137,120,491325,1,2,0:2:0:0:
129,317,491498,1,8,0:2:0:0:
159,226,491670,1,2,0:2:0:0:
8,267,491843,21,2,0:2:0:0:
389,148,492015,1,2,3:2:0:0:
80,198,492187,1,8,0:2:0:0:
317,217,492359,1,2,0:2:0:0:
159,226,492532,1,0,3:2:0:0:
238,189,492704,1,2,0:2:0:0:
424,357,492877,85,8,0:2:0:0:
341,71,493050,1,2,0:2:0:0:
159,226,493222,2,0,L|-8:271,1,165.000006294251,2|2,0:2|3:2,0:2:0:0:
147,342,493567,1,8,0:2:0:0:
44,154,493739,1,2,0:2:0:0:
458,220,493912,21,0,3:2:0:0:
178,145,494084,1,2,0:2:0:0:
387,275,494256,1,8,0:2:0:0:
248,100,494429,1,2,0:2:0:0:
306,241,494601,1,2,0:2:0:0:
324,134,494774,1,2,3:2:0:0:
236,372,494946,85,8,0:2:0:0:
153,36,495119,1,2,0:2:0:0:
83,242,495291,1,0,3:2:0:0:
96,159,495463,1,2,0:2:0:0:
198,263,495636,22,0,P|297:275|372:288,1,165.000006294251,8|2,0:2|0:2,0:2:0:0:
444,219,495981,1,2,0:2:0:0:
162,335,496153,1,2,3:2:0:0:
462,384,496325,2,0,L|443:204,1,165.000006294251,8|2,0:2|0:2,0:2:0:0:
317,47,496670,85,0,3:2:0:0:
283,220,496843,1,2,0:2:0:0:
213,99,497015,1,8,0:2:0:0:
278,144,497187,1,2,0:2:0:0:
512,170,497360,21,2,0:2:0:0:
118,244,497532,1,2,3:2:0:0:
427,314,497705,1,8,0:2:0:0:
202,231,497877,1,2,0:2:0:0:
357,125,498050,1,0,3:2:0:0:
283,220,498222,1,2,0:2:0:0:
164,18,498394,86,0,B|104:45|104:45|168:221,1,187.000003566742,8|2,0:2|0:2,0:2:0:0:
210,348,498739,1,2,0:2:0:0:
221,94,498912,1,2,3:2:0:0:
208,321,499084,1,8,0:2:0:0:
118,244,499256,1,2,0:2:0:0:
491,265,499429,21,0,3:2:0:0:
145,158,499601,1,2,0:2:0:0:
475,181,499774,1,8,0:2:0:0:
214,212,499946,1,2,0:2:0:0:
389,191,500119,1,2,0:2:0:0:
285,162,500291,1,2,3:2:0:0:
268,358,500463,85,8,0:2:0:0:
353,112,500636,1,2,0:2:0:0:
176,360,500808,1,0,3:2:0:0:
132,254,500981,1,2,0:2:0:0:
39,335,501153,22,0,P|18:234|-3:169,1,165.000006294251,8|2,0:2|0:2,0:2:0:0:
229,88,501498,1,2,0:2:0:0:
46,55,501670,1,2,3:2:0:0:
132,254,501843,2,0,P|219:227|308:203,1,165.000006294251,8|2,0:2|0:2,0:2:0:0:
511,182,502187,85,0,3:2:0:0:
156,137,502360,1,2,0:2:0:0:
379,121,502532,1,8,0:2:0:0:
290,208,502705,1,2,0:2:0:0:
461,372,502877,21,2,0:2:0:0:
306,55,503050,1,2,3:2:0:0:
212,322,503222,1,8,0:2:0:0:
298,131,503394,1,2,0:2:0:0:
342,272,503567,1,0,3:2:0:0:
290,208,503739,1,2,0:2:0:0:
461,372,503912,86,0,P|490:266|510:185,1,165.000006294251,8|2,0:2|0:2,0:2:0:0:
187,77,504256,1,2,0:2:0:0:
410,178,504429,1,2,3:2:0:0:
283,101,504601,1,8,0:2:0:0:
310,180,504774,1,2,0:2:0:0:
481,52,504946,21,0,3:2:0:0:
206,173,505119,1,2,0:2:0:0:
494,193,505291,1,8,0:2:0:0:
315,275,505463,1,2,0:2:0:0:
499,317,505636,1,2,0:2:0:0:
405,360,505808,1,2,3:2:0:0:
310,126,505981,85,8,0:2:0:0:
272,372,506153,1,2,0:2:0:0:
125,187,506325,1,0,3:2:0:0:
161,297,506498,1,2,0:2:0:0:
167,100,506670,22,0,P|86:97|32:156,1,165.000006294251,8|2,0:2|0:2,0:2:0:0:
74,267,507015,1,2,0:2:0:0:
200,24,507187,1,2,3:2:0:0:
379,314,507360,2,0,B|471:296|411:231|533:225,1,165.000006294251,8|2,0:2|0:2,0:2:0:0:
319,177,507705,85,0,3:2:0:0:
226,376,507877,1,2,0:2:0:0:
247,236,508050,1,8,0:2:0:0:
292,310,508222,1,2,0:2:0:0:
304,93,508394,21,2,0:2:0:0:
0,273,508567,1,2,3:2:0:0:
230,149,508739,1,8,0:2:0:0:
51,107,508912,1,2,0:2:0:0:
141,128,509084,1,0,3:2:0:0:
141,128,509429,85,0,3:2:0:0:
147,108,509601,1,0,3:2:0:0:
181,199,509774,21,0,3:2:0:0:
154,92,509946,1,0,3:2:0:0:
120,268,510119,85,0,3:2:0:0:
159,75,510291,1,0,3:2:0:0:
331,71,510463,6,0,P|345:166|361:245,1,153.999995300293,4|0,3:2|0:2,0:2:0:0:
43,199,510808,2,0,P|29:294|13:373,1,153.999995300293,10|0,0:2|0:2,0:2:0:0:
211,221,511153,1,2,0:2:0:0:
211,221,511326,1,0,3:2:0:0:
305,353,511498,2,0,P|404:329|471:315,1,153.999995300293,10|0,0:2|0:2,0:2:0:0:
459,114,511843,102,0,B|307:112|405:9|224:24,1,230.99999295044,2|0,3:2|0:2,0:2:0:0:
241,51,512188,1,10,0:2:0:0:
442,23,512360,1,0,0:2:0:0:
277,135,512532,2,0,P|259:228|243:302,1,153.999995300293,2|0,0:2|3:2,0:2:0:0:
159,246,512877,1,8,0:2:0:0:
361,210,513050,1,2,0:2:0:0:
45,368,513222,6,0,P|29:275|98:247,1,153.999995300293,0|0,3:2|0:2,0:2:0:0:
159,246,513567,1,10,0:2:0:0:
159,246,513739,1,2,0:2:0:0:
256,355,513912,102,0,P|351:343|437:323,1,153.999995300293,2|0,0:2|3:2,0:2:0:0:
180,125,514256,2,0,P|104:109|28:100,1,153.999995300293,10|0,0:2|0:2,0:2:0:0:
13,181,514601,5,2,3:2:0:0:
175,32,514774,1,2,0:2:0:0:
386,121,514946,2,0,B|518:40|312:-93|253:136|433:119|376:265,1,384.999988250733,10|0,0:2|0:2,0:2:0:0:
372,273,515463,1,0,3:2:0:0:
200,371,515636,2,0,P|113:343|34:326,1,153.999995300293,10|0,0:2|0:2,0:2:0:0:
448,368,515981,102,0,B|493:338|493:338|470:236,1,153.999995300293,2|0,3:2|0:2,0:2:0:0:
198,228,516325,2,0,B|153:198|153:198|176:96,1,153.999995300293,10|0,0:2|0:2,0:2:0:0:
234,30,516670,1,2,0:2:0:0:
234,30,516843,1,0,3:2:0:0:
325,145,517015,2,0,L|492:111,1,153.999995300293,10|0,0:2|0:2,0:2:0:0:
312,315,517360,6,0,B|230:307|230:307|187:359|187:359|72:341,1,230.99999295044,2|0,3:2|0:2,0:2:0:0:
61,221,517705,2,0,B|250:249|250:249|185:340|185:340|49:320,1,384.999988250733,10|0,0:2|0:2,0:2:0:0:
97,312,518222,1,0,3:2:0:0:
238,117,518394,102,0,B|156:125|156:125|113:73|113:73|-2:91,1,230.99999295044,10|0,0:2|0:2,0:2:0:0:
20,105,518739,1,0,3:2:0:0:
309,183,518912,2,0,P|338:96|285:41,1,153.999995300293,2|8,0:2|0:2,0:2:0:0:
305,51,519429,5,2,0:2:0:0:
417,173,519601,1,0,3:2:0:0:
287,309,519774,2,0,L|133:340,1,153.999995300293,10|0,0:2|0:2,0:2:0:0:
314,35,520119,2,0,L|468:66,1,153.999995300293,0|0,3:2|0:2,0:2:0:0:
373,281,520463,102,0,B|416:318|419:372|419:372|525:292|449:155|449:155|362:207,1,384.999988250733,10|0,0:2|0:2,0:2:0:0:
400,189,520981,1,0,3:2:0:0:
196,156,521153,2,0,P|179:69|166:-7,1,153.999995300293,8|0,0:2|0:2,0:2:0:0:
24,290,521498,6,0,P|115:312|164:364,1,153.999995300293,2|0,3:2|0:2,0:2:0:0:
267,251,521843,2,0,P|358:229|407:177,1,153.999995300293,10|0,0:2|0:2,0:2:0:0:
450,110,522188,1,2,0:2:0:0:
450,110,522360,1,0,3:2:0:0:
103,202,522532,102,0,P|84:94|69:25,1,153.999995300293,10|0,0:2|0:2,0:2:0:0:
316,151,522877,2,0,P|335:43|350:-26,1,153.999995300293,2|0,3:2|0:2,0:2:0:0:
245,354,523222,2,0,B|154:393|85:304|167:210|300:206|225:409|443:322,1,384.999988250733,10|0,0:2|0:2,0:2:0:0:
405,329,523739,1,0,3:2:0:0:
511,216,523912,2,0,L|321:254,1,153.999995300293,8|2,0:2|0:2,0:2:0:0:
41,70,524256,6,0,P|107:132|82:212,1,153.999995300293,2|0,3:2|0:2,0:2:0:0:
76,266,524601,1,10,0:2:0:0:
76,266,524774,1,2,0:2:0:0:
272,75,524946,102,0,P|413:55|451:44,1,153.999995300293,2|0,0:2|3:2,0:2:0:0:
338,333,525291,2,0,P|479:353|517:364,1,153.999995300293,10|0,0:2|0:2,0:2:0:0:
198,207,525636,2,0,P|184:287|164:385,1,153.999995300293,2|0,3:2|0:2,0:2:0:0:
0,132,525981,6,0,P|168:162|395:235,1,384.999988250733,10|0,0:2|0:2,0:2:0:0:
391,246,526498,1,0,3:2:0:0:
332,16,526670,2,0,P|228:38|168:56,1,153.999995300293,10|0,0:2|0:2,0:2:0:0:
493,117,527015,101,2,3:2:0:0:
493,117,527187,1,0,3:2:0:0:
486,201,527360,5,2,3:2:0:0:
486,201,527532,1,0,3:2:0:0:
479,285,527705,101,2,3:2:0:0:
479,285,527877,1,0,3:2:0:0:
472,369,528050,5,2,3:2:0:0:
472,369,528222,1,0,3:2:0:0:
236,308,528394,101,2,3:2:0:0:
236,308,528567,1,0,3:2:0:0:
400,233,528739,5,2,3:2:0:0:
400,233,528912,1,0,3:2:0:0:
173,237,529084,101,2,3:2:0:0:
173,237,529257,1,0,3:2:0:0:
337,312,529429,5,2,3:2:0:0:
337,312,529602,1,0,3:2:0:0:
229,166,529774,102,0,L|219:104,3,41.2500015735627,0|0|0|0,3:2|3:2|3:2|3:2,3:2:0:0:
324,165,530119,2,0,L|334:103,3,41.2500015735627,0|0|0|0,3:2|3:2|3:2|3:2,3:2:0:0:
145,99,530463,2,0,L|135:37,3,41.2500015735627,8|0|0|0,3:2|3:2|3:2|3:2,3:2:0:0:
391,71,530808,2,0,L|401:9,3,41.2500015735627,0|0|0|0,3:2|3:2|3:2|3:2,3:2:0:0:
458,128,531153,6,0,L|515:142,1,41.2500015735627,8|0,1:2|1:2,1:2:0:0:
379,259,531325,101,2,1:3:0:0:
395,256,531412,1,2,1:3:0:0:
411,253,531498,1,2,1:3:0:0:
427,250,531584,1,2,1:3:0:0:
443,247,531670,2,0,L|500:261,1,41.2500015735627,8|0,1:2|1:2,1:2:0:0:
412,347,531843,5,8,0:3:0:0:
372,358,531929,1,8,0:3:0:0:
331,355,532015,1,8,0:3:0:0:
294,337,532101,1,8,0:3:0:0:
266,307,532187,1,4,0:3:0:0:
251,269,532274,1,4,0:3:0:0:
251,228,532360,1,4,0:3:0:0:
265,190,532446,1,4,0:3:0:0:
298,163,532532,102,0,P|346:34|263:-1,1,230.99999295044,2|0,3:3|0:2,0:2:0:0:
131,24,532877,2,0,B|267:43|145:141|345:173,1,230.99999295044,10|0,0:2|0:2,0:2:0:0:
310,191,533222,1,0,0:2:0:0:
118,122,533394,1,0,3:2:0:0:
423,286,533567,6,0,P|462:161|478:49,1,230.99999295044,10|0,0:2|0:2,0:2:0:0:
310,191,533912,2,0,P|297:298|411:373,1,230.99999295044,2|0,3:2|0:2,0:2:0:0:
423,286,534256,2,0,B|435:182|276:120|199:224|247:323|121:369|21:273,1,467.500008916855,10|0,0:2|0:2,0:2:0:0:
41,287,534774,1,0,3:2:0:0:
75,12,534946,102,0,P|119:69|92:262,1,230.99999295044,10|0,0:2|0:2,0:2:0:0:
206,380,535291,2,0,P|191:267|249:169,1,230.99999295044,2|0,3:2|0:2,0:2:0:0:
272,83,535636,2,0,P|194:95|-9:144,1,230.99999295044,10|0,0:2|0:2,0:2:0:0:
37,158,535981,1,0,0:2:0:0:
223,7,536153,1,0,3:2:0:0:
361,145,536325,6,0,P|461:180|476:58,1,230.99999295044,10|0,0:2|0:2,0:2:0:0:
495,83,536670,2,0,P|465:217|446:350,1,230.99999295044,0|0,3:2|0:2,0:2:0:0:
288,357,537015,2,0,P|184:342|172:89,1,384.999988250733,8|0,0:2|0:2,0:2:0:0:
181,97,537532,1,0,3:2:0:0:
0,60,537705,2,0,B|146:92|66:-27|242:18,1,230.99999295044,10|0,0:2|0:2,0:2:0:0:
403,6,538050,102,0,B|296:40|296:40|276:120|276:120|326:171,1,230.99999295044,2|0,3:3|0:2,0:2:0:0:
496,235,538394,2,0,B|521:209|521:209|501:129|501:129|394:95,1,230.99999295044,10|0,0:2|0:2,0:2:0:0:
375,119,538739,1,0,0:2:0:0:
209,165,538912,1,0,3:2:0:0:
422,307,539084,6,0,B|387:259|390:202|390:202|357:243|290:263,1,230.99999295044,10|0,0:2|0:2,0:2:0:0:
182,383,539429,2,0,B|135:261|252:294|206:152,1,230.99999295044,2|0,3:2|0:2,0:2:0:0:
273,12,539774,2,0,B|143:-10|143:-10|58:36|117:176|117:176|117:98|187:81,1,467.500008916855,10|0,0:2|0:2,0:2:0:0:
204,88,540291,1,0,3:2:0:0:
183,330,540463,102,0,P|305:343|481:372,1,230.99999295044,10|0,0:2|0:2,0:2:0:0:
512,279,540808,2,0,P|421:267|387:122,1,230.99999295044,2|0,3:2|0:2,0:2:0:0:
416,67,541153,2,0,P|490:32|469:130,1,230.99999295044,10|0,0:2|0:2,0:2:0:0:
457,149,541498,1,0,0:2:0:0:
219,117,541670,1,0,3:2:0:0:
341,375,541843,6,0,P|368:247|382:102,1,230.99999295044,10|0,0:2|0:2,0:2:0:0:
284,214,542187,2,0,B|214:206|214:206|160:270|160:270|9:257,1,230.99999295044,2|0,3:2|0:2,0:2:0:0:
0,180,542532,2,0,B|92:188|92:188|140:162|140:162|222:317|222:317|268:289|268:289|422:308,1,467.500008916855,10|0,0:2|0:2,0:2:0:0:
384,303,543050,1,0,3:2:0:0:
512,11,543222,2,0,B|435:-19|363:41|363:41|410:52|435:97,1,230.99999295044,10|0,0:2|0:2,0:2:0:0:
482,147,543567,102,0,P|403:211|354:122,1,230.99999295044,2|0,3:3|0:2,0:2:0:0:
293,13,543912,2,0,B|156:12|251:130|92:132,1,230.99999295044,10|0,0:2|0:2,0:2:0:0:
92,108,544256,1,0,0:2:0:0:
219,270,544429,1,0,3:2:0:0:
39,343,544601,6,0,P|8:269|3:105,1,230.99999295044,10|0,0:2|0:2,0:2:0:0:
92,108,544946,2,0,P|123:182|128:346,1,230.99999295044,2|0,3:2|0:2,0:2:0:0:
211,376,545291,2,0,B|335:342|326:249|228:248|344:92|464:95|497:245|462:335|313:283,1,467.500008916855,10|0,0:2|0:2,0:2:0:0:
378,315,545808,1,0,3:2:0:0:
214,71,545981,102,0,B|294:50|294:50|341:94|341:94|462:61,1,230.99999295044,10|0,0:2|0:2,0:2:0:0:
512,45,546325,2,0,L|541:299,1,230.99999295044,2|0,3:2|0:2,0:2:0:0:
469,384,546670,2,0,L|442:154,1,230.99999295044,10|0,0:2|0:2,0:2:0:0:
415,160,547015,1,0,0:2:0:0:
334,353,547187,1,0,3:2:0:0:
223,106,547360,6,0,P|81:70|-8:47,1,230.99999295044,10|0,0:2|0:2,0:2:0:0:
16,202,547705,2,0,P|102:226|56:375,1,230.99999295044,2|0,3:2|0:2,0:2:0:0:
101,350,548050,2,0,B|206:364|309:286|190:212|276:130|418:149,1,384.999988250733,10|0,0:2|0:2,0:2:0:0:
398,165,548567,1,0,3:2:0:0:
506,256,548739,2,0,P|477:347|411:268,1,230.99999295044,10|0,0:2|0:2,0:2:0:0:
476,93,549084,102,0,P|402:27|242:20,1,230.99999295044,2|0,3:3|3:2,0:2:0:0:
215,77,549429,2,0,P|122:117|129:-6,1,230.99999295044,10|0,0:2|0:2,0:2:0:0:
130,8,549774,1,0,0:2:0:0:
33,165,549946,1,0,3:2:0:0:
309,110,550119,6,0,P|335:212|356:337,1,230.99999295044,10|0,0:2|0:2,0:2:0:0:
264,384,550463,2,0,B|172:366|172:366|152:333|152:333|54:316,1,230.99999295044,2|0,3:2|0:2,0:2:0:0:
3,381,550808,2,0,B|127:358|127:358|162:279|162:279|344:253|344:253|293:342,1,467.500008916855,10|0,0:2|0:2,0:2:0:0:
324,331,551325,1,0,3:2:0:0:
71,272,551498,102,0,L|39:22,1,230.99999295044,10|0,0:2|0:2,0:2:0:0:
166,181,551843,2,0,P|249:107|395:83,1,230.99999295044,2|0,3:2|0:2,0:2:0:0:
463,132,552187,2,0,P|517:51|405:10,1,230.99999295044,10|0,0:2|0:2,0:2:0:0:
405,14,552532,1,0,0:2:0:0:
503,215,552705,1,0,3:2:0:0:
290,210,552877,6,0,P|236:291|348:332,1,230.99999295044,10|0,0:2|0:2,0:2:0:0:
331,343,553222,2,0,L|56:288,1,230.99999295044,2|0,3:2|0:2,0:2:0:0:
33,78,553567,2,0,B|-4:6|-4:6|208:58|208:58|63:196,1,467.500008916855,10|0,0:2|0:2,0:2:0:0:
67,191,554084,1,0,3:2:0:0:
263,155,554256,2,0,L|489:109,1,230.99999295044,10|0,0:2|0:2,0:2:0:0:
495,131,554601,101,0,3:2:0:0:
256,192,554687,12,2,565636,0:3:0:0:
