osu file format v14

[General]
AudioFilename: audio.mp3
AudioLeadIn: 0
PreviewTime: 132426
Countdown: 0
SampleSet: Soft
StackLeniency: 0.5
Mode: 0
LetterboxInBreaks: 0
WidescreenStoryboard: 1

[Editor]
DistanceSpacing: 1.1
BeatDivisor: 4
GridSize: 4
TimelineZoom: 1

[Metadata]
Title:Ignite (feat. Amy J Pryce)
TitleUnicode:Ignite (feat. Amy J Pryce)
Artist:Fred V & Grafix
ArtistUnicode:Fred V & Grafix
Creator:Plaudible
Version:Spark
Source:
Tags:dnb drum and bass oxygen
BeatmapID:1026199
BeatmapSetID:480736

[Difficulty]
HPDrainRate:6
CircleSize:4
OverallDifficulty:8.3
ApproachRate:9.2
SliderMultiplier:1.4
SliderTickRate:1

[Events]
//Background and Video events
0,0,"BG.jpg",0,0
//Break Periods
//Storyboard Layer 0 (Background)
//Storyboard Layer 1 (Fail)
//Storyboard Layer 2 (Pass)
//Storyboard Layer 3 (Foreground)
//Storyboard Sound Samples

[TimingPoints]
56,344.827586206897,4,2,1,25,1,0
9711,-400,4,2,1,5,0,0
22124,-200,4,2,1,30,0,0
30056,-400,4,2,1,30,0,0
33159,-200,4,2,1,30,0,0
44193,-166.666666666667,4,2,1,50,0,0
58331,-133.333333333333,4,2,1,50,0,0
60400,-133.333333333333,4,2,1,50,0,0
66262,-133.333333333333,4,2,1,100,0,0
66780,-133.333333333333,4,2,1,75,0,0
77297,-133.333333333333,4,2,1,100,0,0
77556,-133.333333333333,4,2,1,75,0,0
88331,-133.333333333333,4,2,1,50,0,0
99366,-100,4,2,1,50,0,0
106262,-100,4,2,1,75,0,0
107642,-100,4,2,1,50,0,0
109366,-100,4,2,1,75,0,0
109711,-100,4,2,1,100,0,0
110400,-66.6666666666667,4,2,1,100,0,1
126952,-100,4,2,1,100,0,0
129711,-100,4,2,1,50,0,0
130400,-100,4,2,1,65,0,0
131090,-100,4,2,1,75,0,0
132124,-100,4,2,1,100,0,0
132469,-66.6666666666667,4,2,1,100,0,1
149021,-100,4,2,1,75,0,0
151780,-100,4,2,1,50,0,0
153504,-100,4,2,1,75,0,0
153849,-100,4,2,1,100,0,0
154538,-66.6666666666667,4,2,1,100,0,0
171090,-100,4,2,1,100,0,0
171607,-100,4,2,1,5,0,0
171780,-100,4,2,1,75,0,0
172124,-100,4,2,1,5,0,0
172297,-100,4,2,1,75,0,0
172642,-100,4,2,1,5,0,0
172815,-100,4,2,1,75,0,0
174366,-100,4,2,1,5,0,0
174539,-100,4,2,1,75,0,0
174883,-100,4,2,1,5,0,0
175056,-100,4,2,1,75,0,0
175400,-100,4,2,1,5,0,0
175573,-100,4,2,1,75,0,0
176607,-133.333333333333,4,2,1,50,0,0
209711,-100,4,2,1,50,0,0
215228,-100,4,2,1,50,0,0
216607,-100,4,2,1,75,0,0
217987,-100,4,2,1,50,0,0
219366,-100,4,2,1,75,0,0
220400,-100,4,2,1,100,0,0
220745,-66.6666666666667,4,2,1,100,0,1
237297,-100,4,2,1,100,0,0
240573,-100,4,2,1,50,0,0
241952,-100,4,2,1,75,0,0
242814,-66.6666666666667,4,2,1,100,0,1
259366,-133.333333333333,4,2,1,100,0,0
259711,-133.333333333333,4,2,1,50,0,0
285573,-133.333333333333,4,2,1,25,0,0
289711,-135.135135135135,4,2,1,25,0,0
291435,-136.986301369863,4,2,1,35,0,0
292469,-136.986301369863,4,2,1,25,0,0
294193,-136.986301369863,4,2,1,45,0,0
296952,-100,4,2,1,50,0,0
297642,-100,4,2,1,42,0,0
298331,-100,4,2,1,34,0,0
299021,-100,4,2,1,28,0,0
299711,-100,4,2,1,20,0,0
300400,-100,4,2,1,12,0,0
301090,-100,4,2,1,5,0,0

[Colours]
Combo1 : 255,202,228
Combo2 : 0,240,156
Combo3 : 255,128,0
Combo4 : 0,255,255

[HitObjects]
256,192,56,5,4,0:0:0:0:
256,192,142,12,0,8331,0:0:0:0:
316,188,9711,6,0,B|344:160|336:116|336:116|352:160|384:200|352:248|352:248|256:192|256:300|188:256|188:256|164:196|256:136|256:136|256:120,1,560
213,140,17987,6,0,B|146:163|149:100|81:132|81:132|109:40|190:74,1,280
428,332,22124,5,4,0:0:0:0:
260,288,22469,2,0,L|341:266,2,70,0|0|0,0:0|0:0|0:0,0:0:0:0:
152,148,23504,2,0,L|233:169,1,70,0|0,0:0|0:0,0:0:0:0:
344,44,24193,1,0,0:0:0:0:
296,224,24538,2,0,P|320:161|284:104,1,140,0|0,0:0|0:0,0:0:0:0:
283,103,26262,5,0,0:0:0:0:
283,103,27642,5,0,0:0:0:0:
283,103,28331,2,0,L|206:83,1,70,0|0,0:0|0:0,0:0:0:0:
72,196,29021,2,0,L|148:176,1,70,0|0,0:0|0:0,0:0:0:0:
280,288,29711,1,0,0:0:0:0:
116,352,30056,6,0,B|64:252|148:252|96:148,1,210,0|0,0:0|0:0,0:0:0:0:
96,149,33159,5,0,0:0:0:0:
194,294,33504,2,0,L|268:313,2,70,0|0|0,0:0|0:0|0:0,0:0:0:0:
19,307,34538,1,0,0:0:0:0:
153,195,34883,1,0,0:0:0:0:
118,366,35228,1,0,0:0:0:0:
46,206,35573,2,0,P|61:137|112:91,1,140,0|0,0:0|0:0,0:0:0:0:
110,91,37297,5,0,0:0:0:0:
110,91,38676,5,0,0:0:0:0:
253,190,39021,2,0,P|206:182|174:196,1,70
110,347,39711,1,0,0:0:0:0:
279,302,40056,2,0,L|345:283,1,70
391,114,40745,1,0,0:0:0:0:
240,203,41090,2,0,P|276:210|316:202,1,70
163,104,41780,6,0,P|127:97|87:105,1,70
87,239,42469,2,0,P|112:212|125:173,1,70
28,37,43159,2,0,P|7:102|39:162,1,140
204,208,44193,6,0,L|289:184,1,83.9999974365235,4|0,0:0|0:1,0:1:0:0:
91,95,44883,2,0,B|82:141|82:141|101:179,1,83.9999974365235,0|0,0:1|0:1,0:1:0:0:
198,129,45400,1,0,0:1:0:0:
173,26,45573,1,0,0:1:0:0:
225,229,45918,2,0,B|307:250|307:250|359:235,2,125.999996154785,0|0|0,0:1|0:1|0:1,0:1:0:0:
225,229,47642,6,0,L|144:206,1,83.9999974365235,0|0,0:1|0:1,0:1:0:0:
35,177,48159,1,0,0:0:0:0:
148,124,48331,2,0,L|93:109,1,41.9999987182618,0|0,0:1|0:1,0:1:0:0:
2,102,48676,2,0,L|94:76,1,83.9999974365235,0|0,0:1|0:1,0:1:0:0:
233,41,49193,1,0,0:1:0:0:
233,41,49366,2,0,L|217:99,1,41.9999987182618,0|0,0:1|0:1,0:1:0:0:
172,276,49711,6,0,L|197:179,1,83.9999974365235,0|0,0:1|0:1,0:1:0:0:
328,360,50400,2,0,L|302:263,1,83.9999974365235,0|0,0:1|0:1,0:1:0:0:
232,204,50918,1,0,0:1:0:0:
200,304,51090,1,0,0:1:0:0:
356,160,51435,2,0,P|336:106|366:44,2,125.999996154785,0|0|0,0:1|0:1|0:1,0:1:0:0:
228,236,53159,5,0,0:1:0:0:
228,236,53676,1,0,0:1:0:0:
228,236,53849,2,0,L|173:221,1,41.9999987182618,0|0,0:1|0:1,0:1:0:0:
332,296,54193,2,0,L|208:332,1,125.999996154785,0|0,0:1|0:1,0:1:0:0:
332,296,55228,5,0,0:1:0:0:
444,220,55573,2,0,L|418:317,1,83.9999974365235,0|0,0:1|0:1,0:1:0:0:
292,172,56262,2,0,L|318:269,1,83.9999974365235,0|0,0:1|0:1,0:1:0:0:
465,138,56952,2,0,L|439:235,1,83.9999974365235,0|0,0:1|0:1,0:1:0:0:
270,90,57642,2,0,L|296:187,1,83.9999974365235,0|0,0:1|0:1,0:1:0:0:
132,296,58331,6,0,L|104:188,1,105.000004005432,0|0,0:1|0:1,0:1:0:0:
232,48,59021,2,0,L|204:156,1,105.000004005432,0|0,0:1|0:1,0:1:0:0:
76,108,59711,1,0,0:1:0:0:
292,192,60056,1,0,0:1:0:0:
108,252,60400,1,0,0:1:0:0:
292,192,60745,2,0,L|400:160,1,105.000004005432,0|0,0:1|0:1,0:1:0:0:
147,72,61435,2,0,L|259:100,1,105.000004005432,0|0,0:1|0:1,0:1:0:0:
331,120,61952,1,0,0:1:0:0:
167,157,62124,6,0,L|220:171,1,52.5000020027161,0|0,0:1|0:1,0:1:0:0:
111,224,62469,2,0,B|223:252|223:252|263:236,1,157.500006008148,0|0,0:1|0:1,0:1:0:0:
255,92,63159,1,0,0:1:0:0:
167,157,63331,1,0,0:1:0:0:
303,164,63504,2,0,P|335:200|331:276,1,105.000004005432,0|0,0:1|0:1,0:1:0:0:
403,116,64193,6,0,P|425:69|416:18,1,105.000004005432,0|0,0:1|0:1,0:1:0:0:
303,164,64711,2,0,P|331:206|380:224,1,105.000004005432,0|0,0:1|0:1,0:1:0:0:
315,60,65228,2,0,P|263:63|199:148,1,157.500006008148,0|0,0:1|0:1,0:1:0:0:
176,260,66262,5,2,0:0:0:0:
394,207,66435,2,0,L|408:151,1,52.5000020027161,6|0,0:0|0:0,0:0:0:0:
299,74,66780,5,0,0:0:0:0:
394,207,66952,2,0,L|453:221,1,52.5000020027161,2|0,0:1|0:1,0:1:0:0:
410,114,67297,5,0,0:1:0:0:
277,209,67469,2,0,L|263:268,1,52.5000020027161,0|2,0:1|0:1,0:1:0:0:
394,207,67814,5,0,0:1:0:0:
299,74,67987,2,0,L|194:48,1,105.000004005432,0|2,0:1|0:1,0:1:0:0:
60,231,68676,2,0,L|115:246,1,52.5000020027161,0|0,0:1|0:1,0:1:0:0:
193,270,69021,5,2,0:1:0:0:
336,194,69193,2,0,P|353:161|349:123,1,52.5000020027161,0|0,0:1|0:1,0:1:0:0:
237,151,69538,5,0,0:1:0:0:
313,294,69710,2,0,P|345:311|383:307,1,52.5000020027161,2|0,0:1|0:1,0:1:0:0:
454,218,70056,5,0,0:1:0:0:
313,294,70228,2,0,P|295:326|299:364,1,52.5000020027161,0|2,0:1|0:1,0:1:0:0:
451,377,70573,5,0,0:1:0:0:
377,234,70745,2,0,P|342:213|276:213,1,105.000004005432,0|2,0:1|0:1,0:1:0:0:
79,351,71435,2,0,P|96:318|92:280,1,52.5000020027161,0|0,0:1|0:1,0:1:0:0:
81,221,71780,5,2,0:1:0:0:
177,72,71952,2,0,L|163:131,1,52.5000020027161,0|0,0:1|0:1,0:1:0:0:
102,216,72297,5,0,0:1:0:0:
278,118,72469,2,0,L|236:162,1,52.5000020027161,2|0,0:1|0:1,0:1:0:0:
126,213,72814,5,0,0:1:0:0:
335,210,72987,2,0,L|276:227,1,52.5000020027161,0|2,0:1|0:1,0:1:0:0:
152,210,73331,5,0,0:1:0:0:
335,317,73504,2,0,L|219:289,1,105.000004005432,0|2,0:1|0:1,0:1:0:0:
290,66,74193,2,0,L|276:125,1,52.5000020027161,0|0,0:1|0:1,0:1:0:0:
259,196,74538,5,2,0:1:0:0:
393,142,74711,2,0,P|410:109|406:71,1,52.5000020027161,0|0,0:1|0:1,0:1:0:0:
256,222,75056,5,0,0:1:0:0:
122,168,75228,2,0,P|105:135|109:97,1,52.5000020027161,2|0,0:1|0:1,0:1:0:0:
253,247,75573,5,0,0:1:0:0:
387,193,75746,2,0,P|404:160|400:122,1,52.5000020027161,0|2,0:1|0:1,0:1:0:0:
250,272,76090,5,0,0:1:0:0:
116,217,76263,2,0,P|99:184|162:83,1,157.500006008148,0|0,0:1|0:1,0:1:0:0:
260,60,77297,5,2,0:0:0:0:
313,278,77469,2,0,L|369:292,1,52.5000020027161,6|0,0:0|0:0,0:0:0:0:
446,183,77815,5,0,0:1:0:0:
313,278,77987,2,0,L|300:329,1,52.5000020027161,2|0,0:1|0:1,0:1:0:0:
406,294,78332,5,0,0:1:0:0:
311,161,78504,2,0,L|252:147,1,52.5000020027161,0|2,0:1|0:1,0:1:0:0:
313,278,78849,5,0,0:1:0:0:
446,183,79021,2,0,L|472:78,1,105.000004005432,0|2,0:1|0:1,0:1:0:0:
244,32,79711,2,0,L|258:91,1,52.5000020027161,0|0,0:1|0:1,0:1:0:0:
280,168,80056,5,2,0:1:0:0:
144,84,80228,2,0,P|100:84|76:96,1,52.5000020027161,0|0,0:1|0:1,0:1:0:0:
136,240,80573,5,0,0:1:0:0:
220,104,80745,2,0,P|220:60|208:36,1,52.5000020027161,2|0,0:1|0:1,0:1:0:0:
60,96,81090,5,0,0:1:0:0:
196,180,81262,2,0,P|240:180|264:168,1,52.5000020027161,0|2,0:1|0:1,0:1:0:0:
204,24,81607,5,0,0:1:0:0:
120,160,81779,2,0,P|120:204|176:264,1,105.000004005432,0|2,0:1|0:1,0:1:0:0:
392,336,82469,2,0,P|375:303|379:265,1,52.5000020027161,0|0,0:1|0:1,0:1:0:0:
400,184,82814,5,2,0:2:0:0:
252,336,83159,2,0,P|272:282|244:220,2,105.000004005432,0|2|0,0:0|0:1|0:0,0:0:0:0:
164,168,84193,1,2,0:1:0:0:
192,284,84538,1,0,0:0:0:0:
244,88,84883,1,2,0:1:0:0:
40,60,85228,2,0,L|68:178,1,105.000004005432,0|2,0:0|0:1,0:0:0:0:
288,298,85918,6,0,P|220:274|160:314,1,105.000004005432,0|2,0:0|0:1,0:0:0:0:
32,332,86607,2,0,P|86:285|82:213,1,105.000004005432,0|2,0:0|0:1,0:0:0:0:
132,96,87297,2,0,P|145:166|209:198,1,105.000004005432,0|2,0:0|0:1,0:0:0:0:
313,88,87987,1,0,0:0:0:0:
212,116,88331,6,0,L|351:78,1,105.000004005432,4|0,0:0|0:0,0:0:0:0:
472,192,89021,2,0,P|404:168|344:208,1,105.000004005432,0|0,0:0|0:0,0:0:0:0:
312,232,89538,1,0,0:0:0:0:
330,320,89711,6,0,L|209:303,1,105.000004005432
174,108,90573,1,0,0:0:0:0:
174,108,90745,2,0,L|153:181,1,52.5000020027161
60,208,91090,6,0,L|80:147,1,52.5000020027161
236,200,91435,1,0,0:0:0:0:
236,200,91780,2,0,L|222:149,1,52.5000020027161
104,88,92124,2,0,L|119:157,1,52.5000020027161
135,216,92469,5,0,0:0:0:0:
316,148,92814,2,0,L|284:32,1,105.000004005432,0|0,0:0|0:0,0:0:0:0:
184,24,93331,1,0,0:0:0:0:
184,24,93504,2,0,L|197:74,1,52.5000020027161
212,166,93849,6,0,P|185:123|197:74,1,105.000004005432
432,172,94538,2,0,L|323:200,1,105.000004005432,0|0,0:0|0:0,0:0:0:0:
264,300,95056,1,0,0:0:0:0:
332,376,95228,2,0,P|364:336|362:263,1,105.000004005432,0|0,0:0|0:0,0:0:0:0:
224,164,96090,1,0,0:0:0:0:
224,164,96262,2,0,L|237:214,1,52.5000020027161,0|0,0:0|0:0,0:0:0:0:
264,300,96607,5,0,0:0:0:0:
368,283,96780,1,0,0:0:0:0:
468,264,96952,1,0,0:0:0:0:
264,300,97297,2,0,P|212:295|171:263,1,105.000004005432,0|0,0:0|0:0,0:0:0:0:
120,168,97814,1,0,0:0:0:0:
120,168,97987,2,0,L|106:218,1,52.5000020027161
86,351,98331,2,0,P|118:323|102:215,1,157.500006008148,0|0,0:0|0:0,0:0:0:0:
52,280,99021,1,0,0:0:0:0:
52,280,99366,6,0,L|129:300,1,70,8|0,0:3|0:3,0:3:0:0:
224,328,99711,1,0,0:3:0:0:
224,328,99883,1,0,0:3:0:0:
392,288,100056,2,0,L|314:308,1,70,8|0,0:3|0:3,0:3:0:0:
262,176,100400,1,8,0:3:0:0:
360,124,100573,1,0,0:3:0:0:
360,124,100745,6,0,L|340:202,1,70,0|0,0:3|0:3,0:3:0:0:
180,276,101090,2,0,P|164:236|184:176,1,70,8|0,0:3|0:3,0:3:0:0:
360,124,101435,1,0,0:3:0:0:
340,212,101607,1,8,0:3:0:0:
248,52,101780,1,0,0:3:0:0:
268,140,101952,1,0,0:3:0:0:
156,48,102124,5,8,0:3:0:0:
156,48,102469,2,0,L|136:126,1,70,0|0,0:3|0:3,0:3:0:0:
268,140,102814,1,8,0:3:0:0:
248,52,102987,1,0,0:3:0:0:
196,184,103159,2,0,L|216:262,1,70,8|0,0:3|0:3,0:3:0:0:
312,348,103504,6,0,P|296:308|316:248,1,70,0|0,0:3|0:3,0:3:0:0:
493,312,103849,5,8,0:3:0:0:
378,299,104021,1,0,0:3:0:0:
487,229,104193,5,0,0:3:0:0:
297,281,104365,1,8,0:3:0:0:
176,132,104538,2,0,P|184:196|148:236,1,105
124,248,104883,6,0,L|89:257,7,35
176,132,105573,2,0,L|211:141,1,35,8|0,0:3|0:0,0:0:0:0:
200,216,105745,2,0,L|235:225,1,35,8|0,0:1|0:0,0:0:0:0:
292,156,105918,2,0,L|327:165,1,35,8|0,0:3|0:0,0:0:0:0:
316,240,106090,2,0,L|351:249,1,35,8|0,0:1|0:0,0:0:0:0:
404,184,106262,5,0,0:0:0:0:
424,212,106348,1,0,0:0:0:0:
432,246,106434,1,0,0:0:0:0:
427,280,106521,1,0,0:0:0:0:
408,312,106607,2,0,L|399:347,1,35,8|0,0:3|0:0,0:0:0:0:
316,240,106780,5,0,0:0:0:0:
295,211,106866,1,0,0:0:0:0:
287,177,106952,1,0,0:0:0:0:
292,143,107038,1,0,0:0:0:0:
312,112,107125,2,0,L|321:77,1,35,8|0,0:3|0:0,0:0:0:0:
370,175,107297,2,0,L|405:184,1,35
212,219,107469,2,0,L|177:228,1,35
68,340,107642,5,2,0:0:0:0:
102,344,107728,1,0,0:0:0:0:
133,330,107814,1,2,0:0:0:0:
151,301,107900,1,0,0:0:0:0:
151,266,107987,1,2,0:0:0:0:
131,237,108073,1,0,0:0:0:0:
99,224,108159,1,2,0:0:0:0:
65,230,108245,1,0,0:0:0:0:
40,254,108331,5,2,0:0:0:0:
52,217,108417,1,0,0:0:0:0:
44,179,108503,1,2,0:0:0:0:
27,143,108589,1,0,0:0:0:0:
24,104,108675,1,2,0:0:0:0:
34,66,108762,1,0,0:0:0:0:
71,56,108848,1,2,0:0:0:0:
110,49,108934,1,0,0:0:0:0:
149,41,109021,6,0,L|184:50,1,35,2|0,0:0|0:0,0:0:0:0:
264,142,109193,2,0,L|255:107,1,35,2|0,0:0|0:0,0:0:0:0:
110,49,109366,6,0,L|135:74,1,35,2|0,0:0|0:0,0:0:0:0:
168,213,109538,2,0,L|177:178,1,35,2|0,0:0|0:0,0:0:0:0:
71,56,109711,6,0,L|80:90,1,35,2|0,0:0|0:0,0:0:0:0:
57,268,109883,2,0,L|82:242,1,35,2|0,0:0|0:0,0:0:0:0:
264,142,110056,1,12,0:0:0:0:
150,300,110228,1,0,0:0:0:0:
258,63,110400,6,0,P|334:104|276:217,1,210.000008010865,2|8,0:0|0:0,0:0:0:0:
165,76,110918,1,0,0:0:0:0:
172,50,111004,1,0,0:0:0:0:
178,25,111090,1,0,0:0:0:0:
264,142,111262,1,2,0:0:0:0:
119,256,111435,2,0,L|152:134,1,105.000004005432,8|0,0:0|0:0,0:0:0:0:
178,25,111780,5,2,0:0:0:0:
212,208,111952,1,0,0:0:0:0:
337,97,112124,2,0,P|300:64|211:82,1,105.000004005432,8|0,0:0|0:0,0:0:0:0:
245,61,112383,1,0,0:0:0:0:
245,61,112469,1,0,0:0:0:0:
39,135,112642,1,2,0:0:0:0:
131,93,112814,2,0,P|138:160|75:230,1,157.500006008148,8|0,0:0|0:0,0:0:0:0:
9,256,113159,5,2,0:0:0:0:
39,135,113331,1,0,0:0:0:0:
95,336,113504,1,8,0:0:0:0:
215,304,113676,1,0,0:0:0:0:
215,304,113762,1,0,0:0:0:0:
215,304,113849,2,0,P|242:250|235:199,1,105.000004005432,0|2,0:0|0:0,0:0:0:0:
392,137,114193,2,0,L|372:242,1,105.000004005432,8|0,0:0|0:0,0:0:0:0:
352,343,114538,6,0,L|372:238,1,105.000004005432,2|0,0:0|0:0,0:0:0:0:
392,137,114883,1,8,0:0:0:0:
453,326,115056,1,0,0:0:0:0:
259,284,115228,1,0,0:0:0:0:
477,213,115400,1,2,0:0:0:0:
283,173,115573,1,8,0:0:0:0:
345,361,115745,1,2,0:0:0:0:
183,214,115918,6,0,P|107:255|165:368,1,210.000008010865,2|8,0:0|0:0,0:0:0:0:
270,224,116435,1,0,0:0:0:0:
277,198,116521,1,0,0:0:0:0:
283,173,116607,1,0,0:0:0:0:
142,52,116780,1,2,0:0:0:0:
102,244,116952,2,0,L|206:271,1,105.000004005432,8|0,0:0|0:0,0:0:0:0:
439,148,117297,5,2,0:0:0:0:
260,198,117469,1,0,0:0:0:0:
358,338,117642,2,0,L|390:231,1,105.000004005432,8|0,0:0|0:0,0:0:0:0:
388,237,117900,1,0,0:0:0:0:
388,237,117987,1,0,0:0:0:0:
203,120,118159,1,2,0:0:0:0:
173,214,118331,2,0,P|242:211|294:141,1,157.500006008148,8|0,0:0|0:0,0:0:0:0:
287,68,118676,5,2,0:0:0:0:
203,120,118849,1,0,0:0:0:0:
290,273,119021,2,0,L|397:305,1,105.000004005432,8|0,0:0|0:0,0:0:0:0:
390,303,119280,1,0,0:0:0:0:
390,303,119366,1,0,0:0:0:0:
348,198,119538,1,2,0:0:0:0:
211,251,119711,2,0,P|223:318|250:342,1,105.000004005432,8|0,0:0|0:0,0:0:0:0:
321,123,120056,5,2,0:0:0:0:
460,232,120228,1,0,0:0:0:0:
290,273,120400,1,8,0:0:0:0:
397,140,120573,1,0,0:0:0:0:
443,309,120745,1,0,0:0:0:0:
305,199,120918,1,2,0:0:0:0:
474,159,121090,1,8,0:0:0:0:
367,298,121262,1,2,0:0:0:0:
166,181,121435,5,6,0:0:0:0:
166,181,121780,2,0,P|161:252|223:290,1,105.000004005432,8|0,0:0|0:0,0:0:0:0:
180,275,122038,1,0,0:0:0:0:
180,275,122124,1,0,0:0:0:0:
327,194,122297,1,2,0:0:0:0:
162,93,122469,2,0,L|60:66,1,105.000004005432,8|0,0:0|0:0,0:0:0:0:
18,259,122814,5,2,0:0:0:0:
88,161,122987,1,0,0:0:0:0:
125,324,123159,2,0,P|186:360|247:329,1,105.000004005432,8|0,0:0|0:0,0:0:0:0:
216,354,123418,1,0,0:0:0:0:
216,354,123504,1,0,0:0:0:0:
309,210,123676,1,2,0:0:0:0:
147,63,123849,2,0,B|150:119|150:119|182:156|182:156|191:257,1,157.500006008148,8|0,0:0|0:0,0:0:0:0:
189,284,124193,5,2,0:0:0:0:
309,210,124366,1,0,0:0:0:0:
165,300,124538,2,0,L|62:272,1,105.000004005432,8|0,0:0|0:0,0:0:0:0:
63,272,124797,1,0,0:0:0:0:
63,272,124883,1,0,0:0:0:0:
238,120,125056,1,2,0:0:0:0:
309,210,125228,2,0,P|248:237|172:215,1,105.000004005432,8|0,0:0|0:0,0:0:0:0:
123,109,125573,5,2,0:0:0:0:
165,300,125745,1,0,0:0:0:0:
36,187,125918,2,0,L|10:85,1,105.000004005432,8|0,0:0|0:0,0:0:0:0:
10,85,126176,1,0,0:0:0:0:
10,85,126262,1,0,0:0:0:0:
195,219,126435,1,2,0:0:0:0:
92,344,126607,2,0,P|39:305|99:257,1,157.500006008148,8|0,0:0|0:0,0:0:0:0:
165,300,126952,5,2,0:0:0:0:
123,109,127124,1,2,0:0:0:0:
57,208,127297,6,0,L|94:353,1,140
271,235,127987,1,0,0:0:0:0:
177,61,128331,2,0,P|217:117|179:189,2,140
100,171,129366,2,0,P|176:190|205:167,1,105
217,144,129711,5,2,0:0:0:0:
355,224,129883,1,2,0:0:0:0:
225,304,130056,5,2,0:0:0:0:
448,228,130228,1,2,0:0:0:0:
269,224,130400,5,2,0:0:0:0:
399,304,130572,1,2,0:0:0:0:
176,228,130745,5,2,0:0:0:0:
407,144,130917,1,2,0:0:0:0:
195,26,131090,5,2,0:0:0:0:
161,25,131176,1,2,0:0:0:0:
132,43,131262,1,2,0:0:0:0:
117,75,131348,1,2,0:0:0:0:
123,109,131434,1,2,0:0:0:0:
147,134,131521,1,2,0:0:0:0:
180,142,131607,1,2,0:0:0:0:
212,129,131693,1,2,0:0:0:0:
233,100,131780,5,2,0:0:0:0:
240,144,131866,1,2,0:0:0:0:
247,187,131952,1,2,0:0:0:0:
254,230,132038,1,2,0:0:0:0:
261,273,132124,5,12,0:0:0:0:
68,228,132297,1,2,0:0:0:0:
261,273,132469,6,0,P|344:212|300:112,1,210.000008010865,2|8,0:0|0:0,0:0:0:0:
168,248,132987,1,0,0:0:0:0:
161,274,133073,1,0,0:0:0:0:
155,299,133159,1,0,0:0:0:0:
344,344,133331,1,2,0:0:0:0:
264,188,133504,2,0,L|144:155,1,105.000004005432,8|0,0:0|0:0,0:0:0:0:
12,256,133849,5,2,0:0:0:0:
155,299,134021,1,0,0:0:0:0:
116,92,134193,2,0,P|80:136|88:192,1,105.000004005432,8|0,0:0|0:0,0:0:0:0:
82,181,134452,1,0,0:0:0:0:
88,188,134538,1,0,0:0:0:0:
261,273,134711,1,2,0:0:0:0:
360,124,134883,2,0,P|332:152|380:272,1,157.500006008148,8|0,0:0|0:0,0:0:0:0:
424,284,135228,5,2,0:0:0:0:
240,192,135400,1,0,0:0:0:0:
424,92,135573,2,0,L|389:219,1,105.000004005432,8|0,0:0|0:0,0:0:0:0:
397,193,135831,1,0,0:0:0:0:
397,193,135918,1,0,0:0:0:0:
261,273,136090,1,2,0:0:0:0:
128,176,136262,2,0,P|60:168|20:196,1,105.000004005432,8|0,0:0|0:0,0:0:0:0:
172,248,136607,6,0,P|212:193|208:144,1,105.000004005432,2|0,0:0|0:0,0:0:0:0:
88,248,136952,2,0,P|115:310|159:331,1,105.000004005432,8|0,0:0|0:0,0:0:0:0:
144,328,137211,1,0,0:0:0:0:
144,328,137297,1,0,0:0:0:0:
351,257,137469,1,2,0:0:0:0:
213,158,137642,2,0,L|244:284,1,105.000004005432,8|2,0:0|0:0,0:0:0:0:
304,368,137987,6,0,P|376:368|412:324,1,105.000004005432,2|0,0:0|0:0,0:0:0:0:
316,184,138331,1,8,0:0:0:0:
160,264,138504,1,0,0:0:0:0:
160,264,138591,1,0,0:0:0:0:
159,263,138677,2,0,L|186:364,1,105.000004005432,0|2,0:0|0:0,0:0:0:0:
316,184,139021,2,0,P|244:184|208:228,1,105.000004005432,8|0,0:0|0:0,0:0:0:0:
52,296,139366,6,0,B|84:176,1,105.000004005432,2|0,0:0|0:0,0:0:0:0:
184,96,139711,1,8,0:0:0:0:
288,260,139883,1,0,0:0:0:0:
288,260,139969,1,0,0:0:0:0:
288,260,140056,2,0,P|352:276|396:252,1,105.000004005432,0|2,0:0|0:0,0:0:0:0:
416,92,140400,1,8,0:0:0:0:
336,184,140573,1,0,0:0:0:0:
426,103,140745,5,2,0:0:0:0:
325,172,140918,1,0,0:0:0:0:
316,56,141090,1,8,0:0:0:0:
425,122,141262,5,0,0:0:0:0:
310,162,141435,1,0,0:0:0:0:
331,47,141607,1,2,0:0:0:0:
424,140,141780,5,8,0:0:0:0:
296,152,141953,1,0,0:0:0:0:
176,164,142124,6,0,L|56:176,1,105.000004005432,2|0,0:0|0:0,0:0:0:0:
228,52,142469,1,8,0:0:0:0:
296,152,142642,1,0,0:0:0:0:
296,152,142728,1,0,0:0:0:0:
296,152,142814,2,0,P|292:220|228:264,1,105.000004005432,0|2,0:0|0:0,0:0:0:0:
60,296,143159,2,0,P|136:257|192:276,1,105.000004005432,8|2,0:0|0:0,0:0:0:0:
232,356,143504,5,6,0:0:0:0:
136,344,143676,1,0,0:0:0:0:
300,304,143849,2,0,L|412:334,1,105.000004005432,8|0,0:0|0:0,0:0:0:0:
232,356,144193,5,0,0:0:0:0:
190,227,144365,1,2,0:0:0:0:
309,199,144538,2,0,L|298:314,1,105.000004005432,8|0,0:0|0:0,0:0:0:0:
232,356,144883,5,2,0:0:0:0:
109,341,145055,1,0,0:0:0:0:
204,208,145228,2,0,L|308:198,1,105.000004005432,8|0,0:0|0:0,0:0:0:0:
460,189,145573,5,0,0:0:0:0:
426,278,145745,1,2,0:0:0:0:
308,198,145918,2,0,P|297:133|372:75,1,157.500006008148,8|0,0:0|0:0,0:0:0:0:
438,83,146262,5,2,0:0:0:0:
243,62,146435,1,0,0:0:0:0:
205,219,146607,2,0,L|317:196,1,105.000004005432,8|0,0:0|0:0,0:0:0:0:
150,131,146952,1,0,0:0:0:0:
115,336,147124,1,2,0:0:0:0:
286,300,147297,2,0,L|309:188,1,105.000004005432,8|0,0:0|0:0,0:0:0:0:
91,212,147642,5,2,0:0:0:0:
214,348,147814,1,0,0:0:0:0:
351,162,147987,2,0,P|369:232|311:206,1,157.500006008148,8|0,0:0|0:0,0:0:0:0:
286,300,148331,2,0,B|297:247|287:186|287:186|318:222,1,157.500006008148
353,343,148676,2,0,P|256:372|211:295,1,157.500006008148,8|0,0:0|0:0,0:0:0:0:
212,263,149021,5,2,0:0:0:0:
486,363,149193,1,2,0:0:0:0:
351,162,149538,5,0,0:0:0:0:
270,101,149711,2,0,L|196:106,1,70,8|0,0:3|0:0,0:0:0:0:
129,182,150056,2,0,L|203:187,1,70,8|0,0:3|0:0,0:0:0:0:
113,88,150400,5,0,0:0:0:0:
46,152,150573,1,0,0:0:0:0:
57,237,150745,2,0,L|65:315,1,70,8|0,0:3|0:0,0:0:0:0:
64,306,151090,1,0,0:0:0:0:
129,182,151262,1,8,0:3:0:0:
180,256,151435,2,0,P|124:312|92:312,1,105
64,306,151780,5,4,0:2:0:0:
41,279,151866,1,0,0:0:0:0:
33,246,151952,1,0,0:0:0:0:
41,212,152038,1,0,0:0:0:0:
64,186,152124,1,0,0:0:0:0:
97,174,152211,1,0,0:0:0:0:
131,179,152297,1,0,0:2:0:0:
159,198,152383,1,0,0:0:0:0:
175,229,152469,6,0,L|226:220,1,35,8|0,0:3|0:0,0:0:0:0:
278,167,152642,1,2,0:2:0:0:
312,172,152728,1,0,0:0:0:0:
347,177,152814,6,0,L|401:188,1,35,8|0,0:3|0:0,0:0:0:0:
477,128,152987,1,2,0:0:0:0:
493,158,153073,1,0,0:0:0:0:
499,192,153159,1,2,0:0:0:0:
492,226,153245,1,0,0:0:0:0:
474,256,153331,1,2,0:0:0:0:
447,278,153418,1,0,0:0:0:0:
413,287,153504,6,0,L|360:281,1,35,8|0,0:3|0:0,0:0:0:0:
276,241,153676,1,2,0:0:0:0:
241,245,153762,1,0,0:0:0:0:
206,249,153848,1,2,0:0:0:0:
171,253,153934,1,0,0:0:0:0:
136,258,154021,6,0,L|124:297,1,35,8|0,0:0|0:0,0:0:0:0:
49,207,154193,2,0,L|62:161,1,35,2|0,0:0|0:0,0:0:0:0:
182,111,154366,2,0,L|169:157,1,35,2|0,0:0|0:0,0:0:0:0:
83,49,154538,6,0,P|71:105|101:164,1,105.000004005432,6|0,0:0|0:0,0:0:0:0:
206,249,154883,1,8,0:0:0:0:
281,137,155056,1,0,0:0:0:0:
281,137,155228,2,0,P|225:125|166:155,1,105.000004005432,0|2,0:0|0:0,0:0:0:0:
81,248,155573,1,8,0:0:0:0:
208,334,155745,1,0,0:0:0:0:
208,334,155918,6,0,L|349:316,1,105.000004005432,2|0,0:0|0:0,0:0:0:0:
337,192,156262,2,0,P|305:272|408:344,1,210.000008010865,8|0,0:0|0:0,0:0:0:0:
457,197,156780,1,2,0:0:0:0:
362,99,156952,2,0,L|238:83,1,105.000004005432,8|0,0:0|0:0,0:0:0:0:
85,46,157297,6,0,P|111:96|97:161,1,105.000004005432,2|0,0:0|0:0,0:0:0:0:
32,225,157642,1,8,0:0:0:0:
159,270,157814,1,0,0:0:0:0:
159,270,157987,2,0,L|283:254,1,105.000004005432,0|2,0:0|0:0,0:0:0:0:
319,129,158331,1,8,0:0:0:0:
228,75,158504,1,0,0:0:0:0:
228,75,158676,6,0,P|213:143|242:202,1,105.000004005432,2|0,0:0|0:0,0:0:0:0:
317,281,159021,2,0,P|257:202|163:230,1,210.000008010865,8|0,0:0|0:0,0:0:0:0:
113,335,159538,1,2,0:0:0:0:
230,282,159711,1,8,0:0:0:0:
78,224,159883,1,2,0:0:0:0:
289,382,160056,6,0,L|322:262,1,105.000004005432,2|0,0:0|0:0,0:0:0:0:
231,132,160400,1,8,0:0:0:0:
78,224,160573,1,0,0:0:0:0:
78,224,160745,2,0,P|143:257|189:248,1,105.000004005432,0|2,0:0|0:0,0:0:0:0:
276,205,161090,1,8,0:0:0:0:
127,64,161262,1,0,0:0:0:0:
127,64,161435,6,0,L|146:171,1,105.000004005432,2|0,0:0|0:0,0:0:0:0:
231,274,161780,2,0,P|171:195|77:223,1,210.000008010865,8|0,0:0|0:0,0:0:0:0:
39,341,162297,1,2,0:0:0:0:
147,272,162469,2,0,L|129:160,1,105.000004005432,8|0,0:0|0:0,0:0:0:0:
29,36,162814,6,0,P|87:75|135:72,1,105.000004005432,2|0,0:0|0:0,0:0:0:0:
222,37,163159,1,8,0:0:0:0:
312,196,163331,1,0,0:0:0:0:
312,196,163504,2,0,L|296:63,1,105.000004005432,0|2,0:0|0:0,0:0:0:0:
120,135,163849,1,8,0:0:0:0:
193,271,164021,1,0,0:0:0:0:
193,271,164193,6,0,L|209:138,1,105.000004005432,2|0,0:0|0:0,0:0:0:0:
348,36,164538,2,0,B|340:117|340:117|299:162|299:162|289:259,1,210.000008010865,8|0,0:0|0:0,0:0:0:0:
385,197,165056,1,2,0:0:0:0:
251,68,165228,1,8,0:0:0:0:
398,210,165400,1,0,0:0:0:0:
293,303,165573,6,0,P|246:293|209:233,1,105.000004005432,2|0,0:0|0:0,0:0:0:0:
304,146,165918,1,8,0:0:0:0:
418,229,166090,1,0,0:0:0:0:
418,229,166262,2,0,L|389:334,1,105.000004005432,0|2,0:0|0:0,0:0:0:0:
287,230,166607,1,8,0:0:0:0:
176,319,166780,1,0,0:0:0:0:
176,319,166952,6,0,P|100:300|86:259,1,105.000004005432,2|0,0:0|0:0,0:0:0:0:
128,145,167297,2,0,P|134:214|6:254,1,210.000008010865,8|0,0:0|0:0,0:0:0:0:
7,129,167814,1,2,0:0:0:0:
7,129,167986,2,0,L|35:23,1,105.000004005432,8|0,0:0|0:0,0:0:0:0:
223,169,168331,6,0,P|179:141|127:144,1,105.000004005432,2|0,0:0|0:0,0:0:0:0:
20,262,168676,1,8,0:0:0:0:
229,353,168849,1,0,0:0:0:0:
229,353,169021,2,0,L|258:242,1,105.000004005432,0|2,0:0|0:0,0:0:0:0:
239,117,169366,1,8,0:0:0:0:
86,202,169538,1,0,0:0:0:0:
86,202,169711,6,0,P|131:227|182:225,1,105.000004005432,2|0,0:0|0:0,0:0:0:0:
239,117,170056,2,0,P|197:185|302:254,1,210.000008010865,8|0,0:0|0:0,0:0:0:0:
397,166,170573,1,2,0:0:0:0:
291,25,170745,2,0,L|123:55,1,157.500006008148,8|0,0:0|0:0,0:0:0:0:
56,67,171090,5,2,0:0:0:0:
275,186,171262,2,0,P|240:159|140:195,1,140,2|0,0:0|0:0,0:0:0:0:
122,338,171780,2,0,B|141:291|115:252|115:252|140:266|176:256,1,140
76,183,172297,2,0,P|35:238|57:307,1,140
76,183,172814,2,0,P|117:128|23:133,1,210
52,302,173504,1,0,0:0:0:0:
56,320,173849,5,2,0:0:0:0:
290,292,174021,2,0,L|434:274,1,140,2|0,0:0|0:0,0:0:0:0:
234,230,174538,2,0,P|209:290|242:357,1,140
229,105,175056,2,0,P|258:166|233:229,1,140
445,181,175573,2,0,P|403:170|463:268,1,280
409,234,176607,5,4,0:0:0:0:
234,107,176952,2,0,L|256:227,2,105.000004005432
114,251,177987,2,0,L|167:361,1,105.000004005432
338,324,178676,1,0,0:0:0:0:
181,159,179021,2,0,P|209:223|331:206,1,210.000008010865
216,334,180056,5,0,0:0:0:0:
258,70,180573,1,0,0:0:0:0:
396,296,181090,1,0,0:0:0:0:
181,159,181607,1,0,0:0:0:0:
396,296,182124,6,0,L|368:180,1,105.000004005432
177,50,182814,2,0,P|161:94|185:150,1,105.000004005432
289,212,183331,1,0,0:0:0:0:
289,212,183504,6,0,L|317:328,1,105.000004005432
169,285,184193,1,0,0:0:0:0:
207,126,184538,2,0,L|193:185,1,52.5000020027161
169,285,184883,5,0,0:0:0:0:
169,285,185573,1,0,0:0:0:0:
263,68,186090,1,0,0:0:0:0:
340,289,186607,1,0,0:0:0:0:
263,68,187124,1,0,0:0:0:0:
169,285,187642,5,0,0:0:0:0:
337,191,187987,2,0,P|321:243|340:289,2,105.000004005432
506,146,189021,2,0,P|457:164|408:148,1,105.000004005432
262,18,189711,1,0,0:0:0:0:
262,18,190056,2,0,P|301:50|307:67,1,52.5000020027161
339,117,190400,5,0,0:0:0:0:
339,288,190745,1,0,0:0:0:0:
145,306,191090,2,0,L|85:313,2,52.5000020027161
259,294,191607,1,0,0:0:0:0:
174,47,192124,2,0,L|194:210,1,157.500006008148
193,203,193159,5,0,0:0:0:0:
389,326,193504,2,0,L|287:297,2,105.000004005432,0|0|0,0:0|0:0|0:0,0:0:0:0:
372,224,194366,1,0,0:0:0:0:
372,224,194539,2,0,L|346:112,1,105.000004005432,0|0,0:0|0:0,0:0:0:0:
168,212,195228,2,0,P|121:225|101:221,1,52.5000020027161
33,158,195573,2,0,P|70:135|141:158,1,105.000004005432
191,279,196262,6,0,L|200:404,1,105.000004005432
266,172,196952,2,0,L|336:275,1,105.000004005432
145,308,197642,2,0,P|80:233|141:157,1,210.000008010865
236,284,198676,70,0,B|284:353|284:353|300:264|300:264|375:221|375:221|299:184|299:184|281:101|281:101|226:167|226:167|139:157|139:157|185:231|185:231|144:308|144:308|211:292,1,840.000032043458,4|0,0:0|2:0,0:0:0:0:
99,232,201607,2,0,L|47:236,1,52.5000020027161
342,153,202469,2,0,P|306:123|249:129,1,105.000004005432
99,232,203159,2,0,P|135:262|192:256,1,105.000004005432
346,159,203676,1,0,0:0:0:0:
346,159,203849,2,0,L|360:235,1,52.5000020027161
500,300,204193,6,0,L|391:271,1,105.000004005432
150,203,204883,1,0,0:0:0:0:
323,252,205228,1,0,0:0:0:0:
152,112,205573,6,0,L|260:140,1,105.000004005432
502,209,206263,1,0,0:0:0:0:
329,160,206608,1,0,0:0:0:0:
150,203,206952,6,0,L|166:272,1,52.5000020027161
179,330,207297,1,0,0:0:0:0:
132,127,207642,1,0,0:0:0:0:
179,330,207987,1,0,0:0:0:0:
359,181,208331,5,0,0:0:0:0:
156,228,208676,1,0,0:0:0:0:
156,228,209366,1,0,0:0:0:0:
429,186,209711,6,0,L|351:162,1,70,8|0,0:3|0:3,0:3:0:0:
257,138,210056,1,0,0:3:0:0:
257,138,210228,1,0,0:3:0:0:
89,178,210400,2,0,L|167:157,1,70,8|0,0:3|0:3,0:3:0:0:
182,62,210745,1,8,0:3:0:0:
231,236,210918,1,0,0:3:0:0:
231,236,211090,6,0,L|136:265,1,70,0|0,0:3|0:3,0:3:0:0:
106,357,211435,2,0,L|201:328,1,70,8|0,0:3|0:3,0:3:0:0:
330,335,211780,1,0,0:3:0:0:
231,236,211952,1,8,0:3:0:0:
366,200,212124,1,0,0:3:0:0:
252,314,212297,1,0,0:3:0:0:
210,156,212469,5,8,0:3:0:0:
210,156,212814,2,0,L|109:145,1,70,0|0,0:3|0:3,0:3:0:0:
48,279,213159,1,8,0:3:0:0:
145,267,213331,1,0,0:3:0:0:
210,156,213504,2,0,L|221:55,1,70,8|0,0:3|0:3,0:3:0:0:
69,30,213849,6,0,L|80:131,1,70,0|0,0:3|0:3,0:3:0:0:
48,279,214193,5,8,0:3:0:0:
23,181,214366,1,0,0:3:0:0:
199,192,214538,5,0,0:3:0:0:
48,279,214711,1,8,0:3:0:0:
226,307,214883,2,0,P|260:274|341:278,1,105
358,291,215228,6,0,L|423:301,7,35
276,197,215918,6,0,L|282:232,1,35,8|0,0:3|0:0,0:0:0:0:
349,139,216090,2,0,L|355:174,1,35
255,85,216262,2,0,L|261:120,1,35,8|0,0:3|0:0,0:0:0:0:
328,27,216434,2,0,L|334:62,1,35
178,29,216607,5,0,0:0:0:0:
158,57,216693,1,0,0:0:0:0:
150,91,216779,1,0,0:0:0:0:
155,125,216865,1,0,0:0:0:0:
174,157,216952,2,0,L|183:192,1,35,8|0,0:3|0:0,0:0:0:0:
269,232,217124,5,0,0:0:0:0:
289,204,217210,1,0,0:0:0:0:
297,170,217296,1,0,0:0:0:0:
292,136,217382,1,0,0:0:0:0:
273,104,217469,2,0,L|264:69,1,35,8|0,0:3|0:0,0:0:0:0:
174,157,217642,2,0,L|207:165,1,35
392,188,217814,2,0,L|383:155,1,35
269,232,217987,5,2,0:0:0:0:
246,252,218073,1,0,0:0:0:0:
236,280,218159,1,2,0:0:0:0:
241,310,218245,1,0,0:0:0:0:
259,334,218331,1,2,0:0:0:0:
287,346,218418,1,0,0:0:0:0:
317,343,218504,1,2,0:0:0:0:
342,326,218590,1,0,0:0:0:0:
356,288,218676,5,2,0:0:0:0:
316,286,218762,1,0,0:0:0:0:
276,283,218848,1,2,0:0:0:0:
236,280,218934,1,0,0:0:0:0:
196,278,219020,1,2,0:0:0:0:
156,275,219107,1,0,0:0:0:0:
116,272,219193,1,2,0:0:0:0:
76,269,219279,1,0,0:0:0:0:
40,264,219366,6,0,L|49:229,1,35,2|0,0:0|0:0,0:0:0:0:
16,104,219538,2,0,L|32:136,1,35,2|0,0:0|0:0,0:0:0:0:
76,269,219711,6,0,L|88:233,1,35,2|0,0:0|0:0,0:0:0:0:
92,76,219883,2,0,L|108:108,1,35,2|0,0:0|0:0,0:0:0:0:
116,272,220056,6,0,L|125:237,1,35,2|0,0:0|0:0,0:0:0:0:
172,52,220228,2,0,L|188:84,1,35,2|0,0:0|0:0,0:0:0:0:
316,288,220400,1,12,0:0:0:0:
332,112,220573,1,0,0:0:0:0:
236,280,220745,6,0,P|264:352|392:324,1,210.000008010865,2|8,0:0|0:0,0:0:0:0:
208,200,221262,1,0,0:0:0:0:
182,207,221348,1,0,0:0:0:0:
157,213,221434,1,0,0:0:0:0:
128,344,221607,1,2,0:0:0:0:
316,288,221780,2,0,L|287:179,1,105.000004005432,8|0,0:0|0:0,0:0:0:0:
252,44,222124,5,2,0:0:0:0:
208,200,222297,1,0,0:0:0:0:
372,164,222469,2,0,L|480:135,1,105.000004005432,8|0,0:0|0:0,0:0:0:0:
473,136,222728,1,0,0:0:0:0:
473,136,222814,1,0,0:0:0:0:
376,36,222987,1,2,0:0:0:0:
296,204,223159,2,0,P|376:248|452:192,1,157.500006008148,8|0,0:0|0:0,0:0:0:0:
480,144,223504,5,2,0:0:0:0:
332,324,223676,1,0,0:0:0:0:
372,164,223849,2,0,L|400:55,1,105.000004005432,8|0,0:0|0:0,0:0:0:0:
399,62,224107,1,0,0:0:0:0:
399,62,224193,1,0,0:0:0:0:
440,213,224366,1,2,0:0:0:0:
288,128,224538,2,0,P|228:168|208:224,1,105.000004005432,8|0,0:0|0:0,0:0:0:0:
168,360,224883,6,0,L|135:240,1,105.000004005432,2|0,0:0|0:0,0:0:0:0:
100,70,225228,1,8,0:0:0:0:
67,244,225400,1,0,0:0:0:0:
172,83,225573,1,0,0:0:0:0:
26,184,225745,1,2,0:0:0:0:
213,144,225918,1,8,0:0:0:0:
39,111,226090,1,2,0:0:0:0:
200,216,226262,6,0,P|260:200|236:76,1,210.000008010865,2|8,0:0|0:0,0:0:0:0:
90,98,226780,1,0,0:0:0:0:
64,105,226866,1,0,0:0:0:0:
39,111,226952,1,0,0:0:0:0:
140,258,227124,1,2,0:0:0:0:
272,180,227297,2,0,L|243:71,1,105.000004005432,8|0,0:0|0:0,0:0:0:0:
39,111,227642,5,2,0:0:0:0:
140,258,227814,1,0,0:0:0:0:
272,180,227987,2,0,P|220:140|164:152,1,105.000004005432,8|0,0:0|0:0,0:0:0:0:
183,142,228245,1,0,0:0:0:0:
183,142,228331,1,0,0:0:0:0:
64,328,228504,1,2,0:0:0:0:
220,305,228676,2,0,P|280:248|252:157,1,157.500006008148,8|0,0:0|0:0,0:0:0:0:
188,148,229021,6,0,L|296:176,1,105.000004005432,2|0,0:0|0:0,0:0:0:0:
448,212,229366,1,8,0:0:0:0:
380,80,229538,1,0,0:0:0:0:
354,73,229624,1,0,0:0:0:0:
329,67,229710,1,0,0:0:0:0:
356,232,229883,1,2,0:0:0:0:
456,108,230056,2,0,P|456:48|420:8,1,105.000004005432,8|0,0:0|0:0,0:0:0:0:
176,31,230400,5,2,0:0:0:0:
315,140,230572,1,0,0:0:0:0:
145,181,230744,1,8,0:0:0:0:
252,48,230917,1,0,0:0:0:0:
298,217,231089,1,0,0:0:0:0:
160,107,231262,1,2,0:0:0:0:
329,67,231434,1,8,0:0:0:0:
222,206,231607,1,2,0:0:0:0:
48,88,231779,5,6,0:0:0:0:
48,88,232124,2,0,L|87:234,1,105.000004005432,8|0,0:0|0:0,0:0:0:0:
75,189,232383,1,0,0:0:0:0:
75,189,232469,1,0,0:0:0:0:
222,206,232642,1,2,0:0:0:0:
308,104,232814,2,0,P|212:72|184:88,1,105.000004005432,8|0,0:0|0:0,0:0:0:0:
80,196,233159,5,2,0:0:0:0:
140,320,233331,1,0,0:0:0:0:
323,233,233504,2,0,L|195:198,1,105.000004005432,8|0,0:0|0:0,0:0:0:0:
221,205,233762,1,0,0:0:0:0:
221,205,233849,1,0,0:0:0:0:
68,276,234021,1,2,0:0:0:0:
212,124,234193,2,0,P|140:184|168:268,1,157.500006008148,8|0,0:0|0:0,0:0:0:0:
172,312,234538,5,2,0:0:0:0:
228,212,234711,1,0,0:0:0:0:
32,88,234883,2,0,L|62:200,1,105.000004005432,8|0,0:0|0:0,0:0:0:0:
60,190,235142,1,0,0:0:0:0:
60,190,235228,1,0,0:0:0:0:
228,212,235400,1,2,0:0:0:0:
188,48,235573,2,0,P|164:96|196:180,1,105.000004005432,8|0,0:0|0:0,0:0:0:0:
292,268,235918,6,0,L|408:244,2,105.000004005432,2|0|8,0:0|0:0|0:0,0:0:0:0:
152,304,236435,1,0,0:0:0:0:
126,310,236521,1,0,0:0:0:0:
100,316,236607,1,0,0:0:0:0:
304,188,236780,1,2,0:0:0:0:
240,24,236952,2,0,P|244:96|168:152,1,157.500006008148,8|0,0:0|0:0,0:0:0:0:
100,160,237297,6,0,L|4:172,1,70,2|0,0:0|0:0,0:0:0:0:
132,56,237642,1,8,0:0:0:0:
188,156,237814,1,0,0:0:0:0:
188,156,237987,2,0,P|176:208|152:232,1,70,0|2,0:0|0:0,0:0:0:0:
28,264,238331,2,0,P|79:248|111:257,1,70,8|0,0:0|0:0,0:0:0:0:
204,352,238676,6,0,P|164:315|156:282,1,70,2|0,0:0|0:0,0:0:0:0:
188,156,239021,1,8,0:0:0:0:
296,260,239193,1,0,0:0:0:0:
296,260,239366,2,0,L|207:236,1,70,0|2,0:0|0:0,0:0:0:0:
87,184,239711,2,0,L|199:152,1,105,8|0,0:0|0:0,0:0:0:0:
260,132,240056,5,2,0:0:0:0:
204,352,240228,1,2,0:0:0:0:
260,132,240573,6,0,L|272:84,1,35
232,232,240745,2,0,L|220:280,5,35
336,148,241262,6,0,L|348:100,1,35
308,248,241434,2,0,L|296:296,5,35
408,164,241952,6,0,L|420:116,1,35
384,268,242124,1,0,0:0:0:0:
379,284,242211,1,0,0:0:0:0:
375,301,242297,1,2,0:0:0:0:
436,52,242469,1,12,0:0:0:0:
480,236,242642,1,2,0:0:0:0:
304,176,242814,6,0,B|234:157|234:157|174:166|174:166|85:142,1,210.000008010865,2|8,0:0|0:0,0:0:0:0:
28,232,243331,1,0,0:0:0:0:
22,257,243417,1,0,0:0:0:0:
16,283,243503,1,0,0:0:0:0:
224,248,243676,1,2,0:0:0:0:
176,80,243849,2,0,L|72:56,1,105.000004005432,8|0,0:0|0:0,0:0:0:0:
124,260,244193,5,2,0:0:0:0:
76,152,244366,1,0,0:0:0:0:
272,68,244538,2,0,L|244:172,1,105.000004005432,8|0,0:0|0:0,0:0:0:0:
244,169,244797,1,0,0:0:0:0:
244,169,244883,1,0,0:0:0:0:
176,80,245056,1,2,0:0:0:0:
368,60,245228,2,0,L|320:244,1,157.500006008148,8|0,0:0|0:0,0:0:0:0:
272,280,245573,6,0,P|200:276|176:256,1,105.000004005432,2|0,0:0|0:0,0:0:0:0:
328,212,245918,1,8,0:0:0:0:
444,316,246090,1,0,0:0:0:0:
444,316,246176,1,0,0:0:0:0:
444,316,246262,2,0,L|416:211,1,105.000004005432,0|2,0:0|0:0,0:0:0:0:
244,204,246607,1,8,0:0:0:0:
336,64,246780,1,0,0:0:0:0:
232,220,246952,6,0,P|168:236|116:200,1,105.000004005432,2|0,0:0|0:0,0:0:0:0:
256,104,247297,1,8,0:0:0:0:
280,288,247469,1,0,0:0:0:0:
184,152,247642,1,0,0:0:0:0:
376,136,247814,1,2,0:0:0:0:
232,220,247987,1,8,0:0:0:0:
336,64,248159,1,0,0:0:0:0:
383,286,248331,6,0,P|439:226|372:135,1,210.000008010865,2|8,0:0|0:0,0:0:0:0:
280,288,248849,1,0,0:0:0:0:
273,314,248935,1,0,0:0:0:0:
267,339,249021,1,0,0:0:0:0:
200,196,249193,1,2,0:0:0:0:
328,104,249366,2,0,L|300:216,1,105.000004005432,8|0,0:0|0:0,0:0:0:0:
176,288,249711,5,2,0:0:0:0:
76,256,249883,1,0,0:0:0:0:
225,94,250056,2,0,L|197:206,1,105.000004005432,8|0,0:0|0:0,0:0:0:0:
199,195,250314,1,0,0:0:0:0:
199,195,250400,1,0,0:0:0:0:
20,192,250573,1,2,0:0:0:0:
128,68,250745,2,0,L|316:56,1,157.500006008148,8|0,0:0|0:0,0:0:0:0:
368,52,251090,5,2,0:0:0:0:
416,176,251262,1,0,0:0:0:0:
296,260,251435,2,0,P|288:204|320:156,1,105.000004005432,8|0,0:0|0:0,0:0:0:0:
310,163,251693,1,0,0:0:0:0:
310,163,251780,1,0,0:0:0:0:
452,296,251952,1,2,0:0:0:0:
272,352,252124,2,0,L|156:320,1,105.000004005432,8|0,0:0|0:0,0:0:0:0:
24,280,252469,5,2,0:0:0:0:
56,152,252642,1,0,0:0:0:0:
240,260,252814,1,8,0:0:0:0:
112,228,252987,1,0,0:0:0:0:
224,48,253159,1,0,0:0:0:0:
192,176,253332,1,2,0:0:0:0:
8,68,253504,1,8,0:0:0:0:
136,100,253677,1,0,0:0:0:0:
284,136,253849,5,6,0:0:0:0:
284,136,254193,2,0,L|252:260,1,105.000004005432,8|0,0:0|0:0,0:0:0:0:
257,237,254452,1,0,0:0:0:0:
257,237,254538,1,0,0:0:0:0:
392,200,254711,1,2,0:0:0:0:
304,48,254883,2,0,P|240:60|200:128,1,105.000004005432,8|0,0:0|0:0,0:0:0:0:
136,232,255228,6,0,L|168:356,1,105.000004005432,2|0,0:0|0:0,0:0:0:0:
264,244,255573,1,8,0:0:0:0:
208,112,255745,1,0,0:0:0:0:
208,112,255832,1,0,0:0:0:0:
208,112,255918,2,0,L|92:92,1,105.000004005432,0|2,0:0|0:0,0:0:0:0:
264,244,256262,2,0,L|380:264,1,105.000004005432,8|0,0:0|0:0,0:0:0:0:
492,284,256607,5,2,0:0:0:0:
468,124,256780,1,0,0:0:0:0:
288,76,256952,2,0,P|300:144|360:180,1,105.000004005432,8|0,0:0|0:0,0:0:0:0:
324,167,257211,1,0,0:0:0:0:
324,167,257297,1,0,0:0:0:0:
368,28,257469,1,2,0:0:0:0:
204,144,257642,2,0,L|234:256,1,105.000004005432,8|0,0:0|0:0,0:0:0:0:
376,352,257987,6,0,P|368:288|396:240,2,105.000004005432,2|0|8,0:0|0:0|0:0,0:0:0:0:
492,232,258504,1,0,0:0:0:0:
280,316,258676,1,0,0:0:0:0:
448,308,258849,1,2,0:0:0:0:
364,189,259021,1,8,0:0:0:0:
376,352,259193,1,0,0:0:0:0:
272,224,259366,5,2,0:0:0:0:
492,232,259538,1,2,0:0:0:0:
272,224,259711,6,0,L|268:120,2,105.000004005432
140,176,260745,1,0,0:0:0:0:
352,252,261090,1,0,0:0:0:0:
192,328,261435,1,0,0:0:0:0:
272,136,261780,2,0,L|308:28,1,105.000004005432
420,200,262469,6,0,L|384:92,1,105.000004005432
238,235,263159,2,0,L|274:127,1,105.000004005432
412,316,263849,2,0,P|368:276|356:376,1,210.000008010865
412,204,264883,5,4,0:0:0:0:
270,242,265055,2,0,P|277:217|291:194,1,52.5000020027161
344,116,265400,5,0,0:0:0:0:
269,242,265572,2,0,P|256:219|251:193,1,52.5000020027161
231,100,265918,5,0,0:0:0:0:
269,241,266090,2,0,P|244:235|222:221,1,52.5000020027161
144,166,266435,5,0,0:0:0:0:
228,312,266608,2,0,P|259:320|350:246,1,157.500006008148
380,120,267297,2,0,P|376:140|388:188,1,52.5000020027161
436,244,267642,5,0,0:0:0:0:
502,116,267814,2,0,P|508:142|504:168,1,52.5000020027161
436,268,268159,5,0,0:0:0:0:
369,140,268331,2,0,P|363:166|368:192,1,52.5000020027161
437,295,268676,5,0,0:0:0:0:
503,167,268848,2,0,P|509:193|504:219,1,52.5000020027161
437,319,269193,5,0,0:0:0:0:
368,192,269366,2,0,B|361:219|369:245|369:245|347:222|303:222,1,105.000004005432
252,112,269883,1,0,0:0:0:0:
356,64,270056,2,0,L|348:128,1,52.5000020027161
232,200,270400,5,0,0:0:0:0:
113,108,270573,2,0,P|139:112|160:128,1,52.5000020027161
248,208,270918,5,0,0:0:0:0:
98,226,271091,2,0,P|120:211|146:208,1,52.5000020027161
264,220,271435,5,0,0:0:0:0:
171,338,271608,2,0,P|175:312|191:292,1,52.5000020027161
280,232,271952,5,0,0:0:0:0:
287,334,272125,2,0,P|320:372|336:296,1,157.500006008148
200,312,272814,2,0,L|212:372,1,52.5000020027161
280,232,273159,5,0,0:0:0:0:
192,156,273331,2,0,L|141:169,1,52.5000020027161
296,228,273676,5,0,0:0:0:0:
372,140,273848,2,0,L|358:89,1,52.5000020027161
312,224,274193,5,0,0:0:0:0:
400,300,274365,2,0,L|450:285,1,52.5000020027161
332,220,274711,5,0,0:0:0:0:
184,344,274883,2,0,P|256:368|296:304,1,157.500006008148
256,44,275918,5,0,0:0:0:0:
132,124,276090,2,0,L|144:192,1,52.5000020027161
24,96,276435,5,0,0:0:0:0:
141,175,276607,2,0,L|129:243,1,52.5000020027161
255,146,276952,5,0,0:0:0:0:
131,226,277124,2,0,L|143:294,1,52.5000020027161
23,198,277469,5,0,0:0:0:0:
140,277,277641,2,0,P|96:332|64:276,1,157.500006008148
224,288,278331,2,0,L|212:360,1,52.5000020027161
296,224,278676,5,0,0:0:0:0:
163,127,278849,2,0,P|189:130|212:144,1,52.5000020027161
312,228,279193,5,0,0:0:0:0:
285,66,279366,2,0,P|302:86|309:112,1,52.5000020027161
328,236,279711,5,0,0:0:0:0:
423,102,279884,2,0,P|420:128|407:151,1,52.5000020027161
344,244,280228,5,0,0:0:0:0:
491,244,280401,2,0,B|462:251|446:271|446:271|454:243|447:219,2,105.000004005432
196,268,281435,5,0,0:0:0:0:
96,164,281607,2,0,L|107:215,1,52.5000020027161
196,248,281952,5,0,0:0:0:0:
296,144,282124,2,0,L|284:195,1,52.5000020027161
196,228,282469,5,0,0:0:0:0:
99,103,282641,2,0,L|110:154,1,52.5000020027161
196,208,282986,5,0,0:0:0:0:
296,144,283158,2,0,B|272:44|272:44|256:96,1,157.500006008148
336,212,283849,2,0,P|364:184|376:152,1,52.5000020027161
256,216,284193,6,0,P|284:276|376:284,1,157.500006008148
326,160,284883,2,0,L|338:228,1,52.5000020027161
448,324,285228,2,0,L|460:256,1,52.5000020027161
333,92,285918,2,0,P|297:88|337:152,1,157.500006008148
96,272,286952,5,0,0:0:0:0:
147,178,287124,2,0,P|140:126|104:89,1,105.000004005432
48,171,287642,2,0,P|96:190|147:178,1,105.000004005432
104,89,288159,2,0,P|63:121|48:170,1,105.000004005432
147,179,288676,2,0,B|152:124|105:89|105:89|51:106|47:182,1,210.000008010865
320,232,289711,5,0,0:0:0:0:
264,164,289883,2,0,P|296:148|376:164,1,103.600002529297
303,75,290400,2,0,P|298:125|258:169,1,103.600002529297
361,154,290917,2,0,P|320:122|303:73,1,103.600002529297
264,164,291435,2,0,B|311:129|360:154|360:154|304:127|303:72,1,204.400005614014
96,100,292469,5,0,0:0:0:0:
77,195,292642,2,0,L|56:306,1,102.200002807007
154,261,293159,2,0,L|68:187,1,102.200002807007
58,295,293677,2,0,L|164:257,1,102.200002807007
77,195,294193,2,0,B|58:295|58:295|164:257,1,204.400005614014
351,197,295228,5,0,0:0:0:0:
240,182,295400,2,0,L|272:288,1,102.200002807007
142,211,295918,2,0,L|240:182,1,102.200002807007
171,308,296435,2,0,L|142:211,1,102.200002807007
269,279,296952,1,4,0:0:0:0:
256,192,297038,12,4,301090,0:0:0:0:
