osu file format v14

[General]
AudioFilename: audio.ogg
AudioLeadIn: 0
PreviewTime: 92500
Countdown: 0
SampleSet: Soft
StackLeniency: 0.7
Mode: 3
LetterboxInBreaks: 0
SpecialStyle: 0
WidescreenStoryboard: 0

[Editor]
Bookmarks: 462,7080,26717,33239,66134,79661,86045,112565,137040,151819,158230
DistanceSpacing: 0.8
BeatDivisor: 4
GridSize: 32
TimelineZoom: 2.799999

[Metadata]
Title:This Fffire
TitleUnicode:This Fffire
Artist:Franz Ferdinand
ArtistUnicode:Franz Ferdinand
Creator:DannyPX
Version:Out of control
Source:Cyberpunk: Edgerunners
Tags:dumpstreams speed Alex Kapranos Nick McCarthy Domino Recording Company Post-Punk Revival Rich Costey Re-record Indie Rock Cyberpunk 2077 english anime opening op This Fire Burnout 3 Takedown
BeatmapID:3839684
BeatmapSetID:1866619

[Difficulty]
HPDrainRate:8.3
CircleSize:4
OverallDifficulty:8
ApproachRate:5
SliderMultiplier:1.4
SliderTickRate:1

[Events]
//Background and Video events
0,0,"bg.jpg",0,0
//Break Periods
//Storyboard Layer 0 (Background)
//Storyboard Layer 1 (Fail)
//Storyboard Layer 2 (Pass)
//Storyboard Layer 3 (Foreground)
//Storyboard Layer 4 (Overlay)
//Storyboard Sound Samples

[TimingPoints]
462,424.028269,4,2,1,40,1,0
462,-95.2380952380952,4,2,1,40,0,0
886,413.793103,4,2,1,40,1,0
886,-98.0392156862745,4,2,1,40,0,0
1300,410.958904,4,2,1,40,1,0
1300,-99.009900990099,4,2,1,40,0,0
1711,416.666667,4,2,1,40,1,0
1711,-97.0873786407767,4,2,1,40,0,0
2127,413.793103,4,2,1,40,1,0
2127,-98.0392156862745,4,2,1,40,0,0
2541,416.666667,4,2,1,40,1,0
2541,-97.0873786407767,4,2,1,40,0,0
2958,419.58042,4,2,1,40,1,0
2958,-97.0873786407767,4,2,1,40,0,0
3797,410.958904,4,2,1,40,1,0
3797,-99.009900990099,4,2,1,40,0,0
4208,419.58042,4,2,1,40,1,0
4208,-97.0873786407767,4,2,1,40,0,0
4628,410.958904,4,2,1,40,1,0
4628,-99.009900990099,4,2,1,40,0,0
5039,405.405405,4,2,1,40,1,0
5039,-100,4,2,1,40,0,0
5445,405.405405,4,2,1,40,1,0
5445,-100,4,2,1,40,0,0
6255,410.958904,4,2,1,40,1,0
6255,-99.009900990099,4,2,1,40,0,0
6666,413.793103,4,2,1,40,1,0
6666,-98.0392156862745,4,2,1,40,0,0
7080,422.535211,4,2,1,50,1,0
7080,-96.1538461538461,4,2,1,50,0,0
7502,405.405405,4,2,1,50,1,0
7502,-100,4,2,1,50,0,0
7907,410.958904,4,2,1,50,1,0
7907,-99.009900990099,4,2,1,50,0,0
8318,405.405405,4,2,1,50,1,0
8318,-100,4,2,1,50,0,0
8723,405.405405,4,2,1,50,1,0
8723,-100,4,2,1,50,0,0
9535,408.163265,4,2,1,50,1,0
9535,-99.009900990099,4,2,1,50,0,0
9943,405.405405,4,2,1,50,1,0
9943,-100,4,2,1,50,0,0
10348,405.405405,4,2,1,50,1,0
10348,-100,4,2,1,50,0,0
11970,408.163265,4,2,1,50,1,0
11970,-99.009900990099,4,2,1,50,0,0
12378,413.793103,4,2,1,50,1,0
12378,-98.0392156862745,4,2,1,50,0,0
12791,413.793103,4,2,1,50,1,0
12791,-98.0392156862745,4,2,1,50,0,0
13206,416.666667,4,2,1,50,1,0
13206,-97.0873786407767,4,2,1,50,0,0
13622,410.958904,4,2,1,50,1,0
13622,-99.009900990099,4,2,1,50,0,0
14033,408.163265,4,2,1,50,1,0
14033,-99.009900990099,4,2,1,50,0,0
14441,408.163265,4,2,1,50,1,0
14441,-99.009900990099,4,2,1,50,0,0
15258,405.405405,4,2,1,50,1,0
15258,-100,4,2,1,50,0,0
15663,416.666667,4,2,1,50,1,0
15663,-97.0873786407767,4,2,1,50,0,0
16080,413.793103,4,2,1,50,1,0
16080,-98.0392156862745,4,2,1,50,0,0
16494,410.958904,4,2,1,50,1,0
16494,-99.009900990099,4,2,1,50,0,0
16905,405.405405,4,2,1,50,1,0
16905,-100,4,2,1,50,0,0
17715,410.958904,4,2,1,50,1,0
17715,-99.009900990099,4,2,1,50,0,0
18126,413.793103,4,2,1,50,1,0
18126,-98.0392156862745,4,2,1,50,0,0
18540,408.163265,4,2,1,50,1,0
18540,-99.009900990099,4,2,1,50,0,0
18948,402.684564,4,2,1,50,1,0
18948,-101.010101010101,4,2,1,50,0,0
19351,410.958904,4,2,1,50,1,0
19351,-99.009900990099,4,2,1,50,0,0
19762,405.405405,4,2,1,50,1,0
19762,-100,4,2,1,50,0,0
20167,402.684564,4,2,1,50,1,0
20167,-101.010101010101,4,2,1,50,0,0
20570,416.666667,4,2,1,50,1,0
20570,-97.0873786407767,4,2,1,50,0,0
20987,410.958904,4,2,1,50,1,0
20987,-99.009900990099,4,2,1,50,0,0
21398,400,4,2,1,50,1,0
21398,-101.010101010101,4,2,1,50,0,0
21798,419.58042,4,2,1,50,1,0
21798,-97.0873786407767,4,2,1,50,0,0
22217,408.163265,4,2,1,50,1,0
22217,-99.009900990099,4,2,1,50,0,0
22625,419.58042,4,2,1,50,1,0
22625,-97.0873786407767,4,2,1,50,0,0
23045,400,4,2,1,50,1,0
23045,-101.010101010101,4,2,1,50,0,0
23445,413.793103,4,2,1,50,1,0
23445,-98.0392156862745,4,2,1,50,0,0
23859,402.684564,4,2,1,50,1,0
23859,-101.010101010101,4,2,1,50,0,0
24261,402.684564,4,2,1,50,1,0
24261,-101.010101010101,4,2,1,50,0,0
24664,416.666667,4,2,1,50,1,0
24664,-97.0873786407767,4,2,1,50,0,0
25081,402.684564,4,2,1,50,1,0
25081,-101.010101010101,4,2,1,50,0,0
25483,410.958904,4,2,1,50,1,0
25483,-99.009900990099,4,2,1,50,0,0
25894,402.684564,4,2,1,50,1,0
25894,-101.010101010101,4,2,1,50,0,0
26297,419.58042,4,2,1,50,1,0
26297,-97.0873786407767,4,2,1,50,0,0
26717,382.165605,4,2,1,60,1,0
26717,-106.382978723404,4,2,1,60,0,0
27099,408.163265,4,2,1,60,1,0
27099,-99.009900990099,4,2,1,60,0,0
27507,408.163265,4,2,1,60,1,0
27507,-99.009900990099,4,2,1,60,0,0
27915,425.531915,4,2,1,60,1,0
27915,-95.2380952380952,4,2,1,60,0,0
28341,419.58042,4,2,1,60,1,0
28341,-97.0873786407767,4,2,1,60,0,0
28760,400,4,2,1,60,1,0
28760,-101.010101010101,4,2,1,60,0,0
29160,416.666667,4,2,1,60,1,0
29160,-97.0873786407767,4,2,1,60,0,0
29577,405.405405,4,2,1,60,1,0
29577,-100,4,2,1,60,0,0
29982,405.405405,4,2,1,60,1,0
29982,-100,4,2,1,60,0,0
30388,394.736842,4,2,1,60,1,0
30388,-103.092783505155,4,2,1,60,0,0
30782,413.793103,4,2,1,60,1,0
30782,-98.0392156862745,4,2,1,60,0,0
31196,428.571429,4,2,1,60,1,0
31196,-94.3396226415094,4,2,1,60,0,0
31625,408.163265,4,2,1,60,1,0
31625,-99.009900990099,4,2,1,60,0,0
32033,410.958904,4,2,1,60,1,0
32033,-99.009900990099,4,2,1,60,0,0
32444,405.405405,4,2,1,60,1,0
32444,-100,4,2,1,60,0,0
32849,389.61039,4,2,1,70,1,0
32849,-104.166666666667,4,2,1,70,0,0
33239,434.782609,4,2,1,70,1,0
33239,-93.4579439252336,4,2,1,70,0,0
33674,428.571429,4,2,1,70,1,0
33674,-94.3396226415094,4,2,1,70,0,0
34102,425.531915,4,2,1,70,1,0
34102,-95.2380952380952,4,2,1,70,0,0
34528,405.405405,4,2,1,70,1,0
34528,-100,4,2,1,70,0,0
34933,410.958904,4,2,1,70,1,0
34933,-99.009900990099,4,2,1,70,0,0
35344,422.535211,4,2,1,70,1,0
35344,-96.1538461538461,4,2,1,70,0,0
35767,416.666667,4,2,1,70,1,0
35767,-97.0873786407767,4,2,1,70,0,0
36600,425.531915,4,2,1,70,1,0
36600,-95.2380952380952,4,2,1,70,0,0
37451,422.535211,4,2,1,70,1,0
37451,-96.1538461538461,4,2,1,70,0,0
38296,422.535211,4,2,1,70,1,0
38296,-96.1538461538461,4,2,1,70,0,0
38719,408.163265,4,2,1,70,1,0
38719,-99.009900990099,4,2,1,70,0,0
39127,408.163265,4,2,1,70,1,0
39127,-99.009900990099,4,2,1,70,0,0
39535,413.793103,4,2,1,70,1,0
39535,-98.0392156862745,4,2,1,70,0,0
39949,405.405405,4,2,1,70,1,0
39949,-100,4,2,1,70,0,0
40354,413.793103,4,2,1,70,1,0
40354,-98.0392156862745,4,2,1,70,0,0
41182,405.405405,4,2,1,70,1,0
41182,-100,4,2,1,70,0,0
41587,416.666667,4,2,1,70,1,0
41587,-97.0873786407767,4,2,1,70,0,0
42004,408.163265,4,2,1,70,1,0
42004,-99.009900990099,4,2,1,70,0,0
42820,400,4,2,1,70,1,0
42820,-101.010101010101,4,2,1,70,0,0
43220,422.535211,4,2,1,70,1,0
43220,-96.1538461538461,4,2,1,70,0,0
43643,410.958904,4,2,1,70,1,0
43643,-99.009900990099,4,2,1,70,0,0
44054,419.58042,4,2,1,70,1,0
44054,-97.0873786407767,4,2,1,70,0,0
44473,416.666667,4,2,1,70,1,0
44473,-97.0873786407767,4,2,1,70,0,0
44890,402.684564,4,2,1,70,1,0
44890,-101.010101010101,4,2,1,70,0,0
45293,413.793103,4,2,1,70,1,0
45293,-98.0392156862745,4,2,1,70,0,0
45707,384.615385,4,2,1,70,1,0
45707,-105.263157894737,4,2,1,70,0,0
46091,397.350993,4,2,1,70,1,0
46091,-102.040816326531,4,2,1,70,0,0
46488,425.531915,4,2,1,70,1,0
46488,-95.2380952380952,4,2,1,70,0,0
46914,394.736842,4,2,1,70,1,0
46914,-103.092783505155,4,2,1,70,0,0
47309,431.654676,4,2,1,70,1,0
47309,-94.3396226415094,4,2,1,70,0,0
47740,405.405405,4,2,1,70,1,0
47740,-100,4,2,1,70,0,0
48146,419.58042,4,2,1,70,1,0
48146,-97.0873786407767,4,2,1,70,0,0
48565,410.958904,4,2,1,70,1,0
48565,-99.009900990099,4,2,1,70,0,0
48976,405.405405,4,2,1,70,1,0
48976,-100,4,2,1,70,0,0
49382,382.165605,4,2,1,70,1,0
49382,-106.382978723404,4,2,1,70,0,0
49764,431.654676,4,2,1,70,1,0
49764,-94.3396226415094,4,2,1,70,0,0
50196,416.666667,4,2,1,70,1,0
50196,-97.0873786407767,4,2,1,70,0,0
50612,410.958904,4,2,1,70,1,0
50612,-99.009900990099,4,2,1,70,0,0
51022,410.958904,4,2,1,70,1,0
51022,-99.009900990099,4,2,1,70,0,0
51434,422.535211,4,2,1,70,1,0
51434,-96.1538461538461,4,2,1,70,0,0
51857,408.163265,4,2,1,70,1,0
51857,-99.009900990099,4,2,1,70,0,0
52265,387.096774,4,2,1,70,1,0
52265,-105.263157894737,4,2,1,70,0,0
52652,410.958904,4,2,1,70,1,0
52652,-99.009900990099,4,2,1,70,0,0
53063,422.535211,4,2,1,70,1,0
53063,-96.1538461538461,4,2,1,70,0,0
53485,408.163265,4,2,1,70,1,0
53485,-99.009900990099,4,2,1,70,0,0
53894,425.531915,4,2,1,70,1,0
53894,-95.2380952380952,4,2,1,70,0,0
54319,422.535211,4,2,1,70,1,0
54319,-96.1538461538461,4,2,1,70,0,0
54742,416.666667,4,2,1,70,1,0
54742,-97.0873786407767,4,2,1,70,0,0
55158,402.684564,4,2,1,70,1,0
55158,-101.010101010101,4,2,1,70,0,0
55560,402.684564,4,2,1,70,1,0
55560,-101.010101010101,4,2,1,70,0,0
55964,397.350993,4,2,1,70,1,0
55964,-102.040816326531,4,2,1,70,0,0
56361,416.666667,4,2,1,70,1,0
56361,-97.0873786407767,4,2,1,70,0,0
56778,397.350993,4,2,1,70,1,0
56778,-102.040816326531,4,2,1,70,0,0
57175,405.405405,4,2,1,70,1,0
57175,-100,4,2,1,70,0,0
57580,422.535211,4,2,1,70,1,0
57580,-96.1538461538461,4,2,1,70,0,0
58003,410.958904,4,2,1,70,1,0
58003,-99.009900990099,4,2,1,70,0,0
58825,400,4,2,1,70,1,0
58825,-101.010101010101,4,2,1,70,0,0
59225,394.736842,4,2,1,70,1,0
59225,-103.092783505155,4,2,1,70,0,0
59620,400,4,2,1,70,1,0
59620,-101.010101010101,4,2,1,70,0,0
60820,410.958904,4,2,1,70,1,0
60820,-99.009900990099,4,2,1,70,0,0
61231,422.535211,4,2,1,70,1,0
61231,-96.1538461538461,4,2,1,70,0,0
61653,408.163265,4,2,1,70,1,0
61653,-99.009900990099,4,2,1,70,0,0
62061,408.163265,4,2,1,70,1,0
62061,-99.009900990099,4,2,1,70,0,0
62469,410.958904,4,2,1,70,1,0
62469,-99.009900990099,4,2,1,70,0,0
62879,410.958904,4,2,1,70,1,0
62879,-99.009900990099,4,2,1,70,0,0
63291,397.350993,4,2,1,70,1,0
63291,-102.040816326531,4,2,1,70,0,0
63689,422.535211,4,2,1,70,1,0
63689,-96.1538461538461,4,2,1,70,0,0
64111,402.684564,4,2,1,70,1,0
64111,-101.010101010101,4,2,1,70,0,0
64514,413.793103,4,2,1,70,1,0
64514,-98.0392156862745,4,2,1,70,0,0
64928,392.156863,4,2,1,70,1,0
64928,-103.092783505155,4,2,1,70,0,0
65320,419.58042,4,2,1,70,1,0
65320,-97.0873786407767,4,2,1,70,0,0
65740,394.736842,4,2,1,70,1,0
65740,-103.092783505155,4,2,1,70,0,0
66134,425.531915,4,2,1,50,1,0
66134,-95.2380952380952,4,2,1,50,0,0
66560,419.58042,4,2,1,50,1,0
66560,-97.0873786407767,4,2,1,50,0,0
66979,425.531915,4,2,1,50,1,0
66979,-95.2380952380952,4,2,1,50,0,0
67830,428.571429,4,2,1,50,1,0
67830,-94.3396226415094,4,2,1,50,0,0
68259,422.535211,4,2,1,50,1,0
68259,-96.1538461538461,4,2,1,50,0,0
68682,416.666667,4,2,1,50,1,0
68682,-97.0873786407767,4,2,1,50,0,0
69098,422.535211,4,2,1,50,1,0
69098,-96.1538461538461,4,2,1,50,0,0
69520,422.535211,4,2,1,50,1,0
69520,-96.1538461538461,4,2,1,50,0,0
69943,419.58042,4,2,1,50,1,0
69943,-97.0873786407767,4,2,1,50,0,0
70363,422.535211,4,2,1,50,1,0
70363,-96.1538461538461,4,2,1,50,0,0
70785,425.531915,4,2,1,50,1,0
70785,-95.2380952380952,4,2,1,50,0,0
71210,425.531915,4,2,1,50,1,0
71210,-95.2380952380952,4,2,1,50,0,0
71636,428.571429,4,2,1,50,1,0
71636,-94.3396226415094,4,2,1,50,0,0
72064,428.571429,4,2,1,50,1,0
72064,-94.3396226415094,4,2,1,50,0,0
72494,408.163265,4,2,1,50,1,0
72494,-99.009900990099,4,2,1,50,0,0
72902,434.782609,4,2,1,50,1,0
72902,-93.4579439252336,4,2,1,50,0,0
73337,422.535211,4,2,1,50,1,0
73337,-96.1538461538461,4,2,1,50,0,0
73759,419.58042,4,2,1,50,1,0
73759,-97.0873786407767,4,2,1,50,0,0
74179,422.535211,4,2,1,50,1,0
74179,-96.1538461538461,4,2,1,50,0,0
74601,428.571429,4,2,1,50,1,0
74601,-94.3396226415094,4,2,1,50,0,0
75030,419.58042,4,2,1,50,1,0
75030,-97.0873786407767,4,2,1,50,0,0
75449,416.666667,4,2,1,50,1,0
75449,-97.0873786407767,4,2,1,50,0,0
75865,416.666667,4,2,1,50,1,0
75865,-97.0873786407767,4,2,1,50,0,0
76283,419.58042,4,2,1,50,1,0
76283,-97.0873786407767,4,2,1,50,0,0
76702,431.654676,4,2,1,50,1,0
76702,-94.3396226415094,4,2,1,50,0,0
77134,416.666667,4,2,1,50,1,0
77134,-97.0873786407767,4,2,1,50,0,0
77551,410.958904,4,2,1,50,1,0
77551,-99.009900990099,4,2,1,50,0,0
77962,425.531915,4,2,1,50,1,0
77962,-95.2380952380952,4,2,1,50,0,0
78387,422.535211,4,2,1,50,1,0
78387,-96.1538461538461,4,2,1,50,0,0
78810,419.58042,4,2,1,50,1,0
78810,-97.0873786407767,4,2,1,50,0,0
79229,431.654676,4,2,1,50,1,0
79229,-94.3396226415094,4,2,1,50,0,0
79661,405.405405,4,2,1,60,1,0
79661,-100,4,2,1,60,0,0
80066,408.163265,4,2,1,60,1,0
80066,-99.009900990099,4,2,1,60,0,0
80474,416.666667,4,2,1,60,1,0
80474,-97.0873786407767,4,2,1,60,0,0
80891,425.531915,4,2,1,60,1,0
80891,-95.2380952380952,4,2,1,60,0,0
81317,416.666667,4,2,1,60,1,0
81317,-97.0873786407767,4,2,1,60,0,0
81733,397.350993,4,2,1,60,1,0
81733,-102.040816326531,4,2,1,60,0,0
82131,410.958904,4,2,1,60,1,0
82131,-99.009900990099,4,2,1,60,0,0
82542,408.163265,4,2,1,60,1,0
82542,-99.009900990099,4,2,1,60,0,0
82950,416.666667,4,2,1,60,1,0
82950,-97.0873786407767,4,2,1,60,0,0
83366,425.531915,4,2,1,60,1,0
83366,-95.2380952380952,4,2,1,60,0,0
83792,413.793103,4,2,1,60,1,0
83792,-98.0392156862745,4,2,1,60,0,0
84205,413.793103,4,2,1,60,1,0
84205,-98.0392156862745,4,2,1,60,0,0
84620,400,4,2,1,60,1,0
84620,-101.010101010101,4,2,1,60,0,0
85020,402.684564,4,2,1,60,1,0
85020,-101.010101010101,4,2,1,60,0,0
85422,416.666667,4,2,1,60,1,0
85422,-97.0873786407767,4,2,1,60,0,0
85839,413.793103,4,2,1,70,1,0
85839,-98.0392156862745,4,2,1,70,0,0
86253,422.535211,4,2,1,70,1,0
86253,-96.1538461538461,4,2,1,70,0,0
87520,416.666667,4,2,1,70,1,0
87520,-97.0873786407767,4,2,1,70,0,0
87937,410.958904,4,2,1,70,1,0
87937,-99.009900990099,4,2,1,70,0,0
88348,408.163265,4,2,1,70,1,0
88348,-99.009900990099,4,2,1,70,0,0
88756,410.958904,4,2,1,70,1,0
88756,-99.009900990099,4,2,1,70,0,0
89578,437.956204,4,2,1,70,1,0
89578,-92.5925925925926,4,2,1,70,0,0
90016,405.405405,4,2,1,70,1,0
90016,-100,4,2,1,70,0,0
90421,425.531915,4,2,1,70,1,0
90421,-95.2380952380952,4,2,1,70,0,0
90847,402.684564,4,2,1,70,1,0
90847,-101.010101010101,4,2,1,70,0,0
91250,416.666667,4,2,1,70,1,0
91250,-97.0873786407767,4,2,1,70,0,0
91666,419.58042,4,2,1,70,1,0
91666,-97.0873786407767,4,2,1,70,0,0
92086,413.793103,4,2,1,70,1,0
92086,-98.0392156862745,4,2,1,70,0,0
92500,384.615385,4,2,1,70,1,0
92500,-105.263157894737,4,2,1,70,0,0
92884,419.58042,4,2,1,70,1,0
92884,-97.0873786407767,4,2,1,70,0,0
93304,413.793103,4,2,1,70,1,0
93304,-98.0392156862745,4,2,1,70,0,0
93718,408.163265,4,2,1,70,1,0
93718,-99.009900990099,4,2,1,70,0,0
94534,425.531915,4,2,1,70,1,0
94534,-95.2380952380952,4,2,1,70,0,0
94959,410.958904,4,2,1,70,1,0
94959,-99.009900990099,4,2,1,70,0,0
95370,394.736842,4,2,1,70,1,0
95370,-103.092783505155,4,2,1,70,0,0
96160,425.531915,4,2,1,70,1,0
96160,-95.2380952380952,4,2,1,70,0,0
96585,402.684564,4,2,1,70,1,0
96585,-101.010101010101,4,2,1,70,0,0
96988,413.793103,4,2,1,70,1,0
96988,-98.0392156862745,4,2,1,70,0,0
97402,405.405405,4,2,1,70,1,0
97402,-100,4,2,1,70,0,0
97807,422.535211,4,2,1,70,1,0
97807,-96.1538461538461,4,2,1,70,0,0
98230,416.666667,4,2,1,70,1,0
98230,-97.0873786407767,4,2,1,70,0,0
98647,394.736842,4,2,1,70,1,0
98647,-103.092783505155,4,2,1,70,0,0
99041,405.405405,4,2,1,70,1,0
99041,-100,4,2,1,70,0,0
99447,416.666667,4,2,1,70,1,0
99447,-97.0873786407767,4,2,1,70,0,0
99863,392.156863,4,2,1,70,1,0
99863,-103.092783505155,4,2,1,70,0,0
100255,431.654676,4,2,1,70,1,0
100255,-94.3396226415094,4,2,1,70,0,0
100687,416.666667,4,2,1,70,1,0
100687,-97.0873786407767,4,2,1,70,0,0
101104,410.958904,4,2,1,70,1,0
101104,-99.009900990099,4,2,1,70,0,0
101515,413.793103,4,2,1,70,1,0
101515,-98.0392156862745,4,2,1,70,0,0
101929,387.096774,4,2,1,70,1,0
101929,-105.263157894737,4,2,1,70,0,0
102316,394.736842,4,2,1,70,1,0
102316,-103.092783505155,4,2,1,70,0,0
102710,425.531915,4,2,1,70,1,0
102710,-95.2380952380952,4,2,1,70,0,0
103136,397.350993,4,2,1,70,1,0
103136,-102.040816326531,4,2,1,70,0,0
103533,419.58042,4,2,1,70,1,0
103533,-97.0873786407767,4,2,1,70,0,0
103953,408.163265,4,2,1,70,1,0
103953,-99.009900990099,4,2,1,70,0,0
104361,413.793103,4,2,1,70,1,0
104361,-98.0392156862745,4,2,1,70,0,0
104775,405.405405,4,2,1,70,1,0
104775,-100,4,2,1,70,0,0
105180,413.793103,4,2,1,70,1,0
105180,-98.0392156862745,4,2,1,70,0,0
105594,400,4,2,1,70,1,0
105594,-101.010101010101,4,2,1,70,0,0
105994,413.793103,4,2,1,70,1,0
105994,-98.0392156862745,4,2,1,70,0,0
106408,408.163265,4,2,1,70,1,0
106408,-99.009900990099,4,2,1,70,0,0
106816,422.535211,4,2,1,70,1,0
106816,-96.1538461538461,4,2,1,70,0,0
107238,410.958904,4,2,1,70,1,0
107238,-99.009900990099,4,2,1,70,0,0
107649,419.58042,4,2,1,70,1,0
107649,-97.0873786407767,4,2,1,70,0,0
108069,413.793103,4,2,1,70,1,0
108069,-98.0392156862745,4,2,1,70,0,0
108483,405.405405,4,2,1,70,1,0
108483,-100,4,2,1,70,0,0
108888,394.736842,4,2,1,70,1,0
108888,-103.092783505155,4,2,1,70,0,0
109283,413.793103,4,2,1,70,1,0
109283,-98.0392156862745,4,2,1,70,0,0
109697,397.350993,4,2,1,70,1,0
109697,-102.040816326531,4,2,1,70,0,0
110094,428.571429,4,2,1,70,1,0
110094,-94.3396226415094,4,2,1,70,0,0
110523,389.61039,4,2,1,70,1,0
110523,-104.166666666667,4,2,1,70,0,0
110912,405.405405,4,2,1,70,1,0
110912,-100,4,2,1,70,0,0
111318,419.58042,4,2,1,70,1,0
111318,-97.0873786407767,4,2,1,70,0,0
111737,416.666667,4,2,1,70,1,0
111737,-97.0873786407767,4,2,1,70,0,0
112154,410.958904,4,2,1,70,1,0
112154,-99.009900990099,4,2,1,70,0,0
112565,416.666667,4,2,1,60,1,0
112565,-97.0873786407767,4,2,1,60,0,0
112982,410.958904,4,2,1,60,1,0
112982,-99.009900990099,4,2,1,60,0,0
113393,419.58042,4,2,1,60,1,0
113393,-97.0873786407767,4,2,1,60,0,0
113812,413.793103,4,2,1,60,1,0
113812,-98.0392156862745,4,2,1,60,0,0
114226,416.666667,4,2,1,60,1,0
114226,-97.0873786407767,4,2,1,60,0,0
114643,408.163265,4,2,1,60,1,0
114643,-99.009900990099,4,2,1,60,0,0
115051,408.163265,4,2,1,60,1,0
115051,-99.009900990099,4,2,1,60,0,0
115459,402.684564,4,2,1,60,1,0
115459,-101.010101010101,4,2,1,60,0,0
115862,422.535211,4,2,1,60,1,0
115862,-96.1538461538461,4,2,1,60,0,0
116284,402.684564,4,2,1,60,1,0
116284,-101.010101010101,4,2,1,60,0,0
116687,413.793103,4,2,1,60,1,0
116687,-98.0392156862745,4,2,1,60,0,0
117101,408.163265,4,2,1,60,1,0
117101,-99.009900990099,4,2,1,60,0,0
117509,416.666667,4,2,1,60,1,0
117509,-97.0873786407767,4,2,1,60,0,0
117925,419.58042,4,2,1,60,1,0
117925,-97.0873786407767,4,2,1,60,0,0
118345,405.405405,4,2,1,60,1,0
118345,-100,4,2,1,60,0,0
118750,382.165605,4,2,1,60,1,0
118750,-106.382978723404,4,2,1,60,0,0
119133,425.531915,4,2,1,60,1,0
119133,-95.2380952380952,4,2,1,60,0,0
119558,416.666667,4,2,1,60,1,0
119558,-97.0873786407767,4,2,1,60,0,0
119975,408.163265,4,2,1,60,1,0
119975,-99.009900990099,4,2,1,60,0,0
120791,408.163265,4,2,1,60,1,0
120791,-99.009900990099,4,2,1,60,0,0
121199,410.958904,4,2,1,60,1,0
121199,-99.009900990099,4,2,1,60,0,0
121610,405.405405,4,2,1,60,1,0
121610,-100,4,2,1,60,0,0
122016,397.350993,4,2,1,60,1,0
122016,-102.040816326531,4,2,1,60,0,0
122413,419.58042,4,2,1,60,1,0
122413,-97.0873786407767,4,2,1,60,0,0
122833,405.405405,4,2,1,60,1,0
122833,-100,4,2,1,60,0,0
123238,413.793103,4,2,1,60,1,0
123238,-98.0392156862745,4,2,1,60,0,0
123652,410.958904,4,2,1,60,1,0
123652,-99.009900990099,4,2,1,60,0,0
124063,405.405405,4,2,1,60,1,0
124063,-100,4,2,1,60,0,0
124468,397.350993,4,2,1,60,1,0
124468,-102.040816326531,4,2,1,60,0,0
124865,408.163265,4,2,1,60,1,0
124865,-99.009900990099,4,2,1,60,0,0
125274,402.684564,4,2,1,60,1,0
125274,-101.010101010101,4,2,1,60,0,0
125676,416.666667,4,2,1,60,1,0
125676,-97.0873786407767,4,2,1,60,0,0
126093,402.684564,4,2,1,60,1,0
126093,-101.010101010101,4,2,1,60,0,0
126496,410.958904,4,2,1,60,1,0
126496,-99.009900990099,4,2,1,60,0,0
126907,392.156863,4,2,1,60,1,0
126907,-103.092783505155,4,2,1,60,0,0
127299,408.163265,4,2,1,60,1,0
127299,-99.009900990099,4,2,1,60,0,0
127707,405.405405,4,2,1,60,1,0
127707,-100,4,2,1,60,0,0
128112,402.684564,4,2,1,60,1,0
128112,-101.010101010101,4,2,1,60,0,0
128515,400,4,2,1,60,1,0
128515,-101.010101010101,4,2,1,60,0,0
128915,419.58042,4,2,1,60,1,0
128915,-97.0873786407767,4,2,1,60,0,0
129335,400,4,2,1,60,1,0
129335,-101.010101010101,4,2,1,60,0,0
129735,413.793103,4,2,1,60,1,0
129735,-98.0392156862745,4,2,1,60,0,0
130148,402.684564,4,2,1,60,1,0
130148,-101.010101010101,4,2,1,60,0,0
130550,402.684564,4,2,1,60,1,0
130550,-101.010101010101,4,2,1,60,0,0
131759,394.736842,4,2,1,60,1,0
131759,-103.092783505155,4,2,1,60,0,0
132154,405.405405,4,2,1,60,1,0
132154,-100,4,2,1,60,0,0
132965,397.350993,4,2,1,60,1,0
132965,-102.040816326531,4,2,1,60,0,0
133362,413.793103,4,2,1,60,1,0
133362,-98.0392156862745,4,2,1,60,0,0
133776,405.405405,4,2,1,60,1,0
133776,-100,4,2,1,60,0,0
134181,410.958904,4,2,1,60,1,0
134181,-99.009900990099,4,2,1,60,0,0
134591,410.958904,4,2,1,60,1,0
134591,-99.009900990099,4,2,1,60,0,0
135003,389.61039,4,2,1,60,1,0
135003,-104.166666666667,4,2,1,60,0,0
135393,405.405405,4,2,1,60,1,0
135393,-100,4,2,1,60,0,0
135798,416.666667,4,2,1,60,1,0
135798,-97.0873786407767,4,2,1,60,0,0
136215,419.58042,4,2,1,60,1,0
136215,-97.0873786407767,4,2,1,60,0,0
136634,405.405405,4,2,1,60,1,0
136634,-100,4,2,1,60,0,0
137040,422.535211,4,2,1,50,1,0
137040,-96.1538461538461,4,2,1,50,0,0
137885,425.531915,4,2,1,50,1,0
137885,-95.2380952380952,4,2,1,50,0,0
138736,437.956204,4,2,1,50,1,0
138736,-92.5925925925926,4,2,1,50,0,0
139174,413.793103,4,2,1,50,1,0
139174,-98.0392156862745,4,2,1,50,0,0
139588,428.571429,4,2,1,50,1,0
139588,-94.3396226415094,4,2,1,50,0,0
140016,410.958904,4,2,1,50,1,0
140016,-99.009900990099,4,2,1,50,0,0
140427,416.666667,4,2,1,50,1,0
140427,-97.0873786407767,4,2,1,50,0,0
140844,397.350993,4,2,1,50,1,0
140844,-102.040816326531,4,2,1,50,0,0
141241,405.405405,4,2,1,50,1,0
141241,-100,4,2,1,50,0,0
141647,389.61039,4,2,1,50,1,0
141647,-104.166666666667,4,2,1,50,0,0
142036,402.684564,4,2,1,50,1,0
142036,-101.010101010101,4,2,1,50,0,0
142439,408.163265,4,2,1,50,1,0
142439,-99.009900990099,4,2,1,50,0,0
142847,416.666667,4,2,1,50,1,0
142847,-97.0873786407767,4,2,1,50,0,0
143680,408.163265,4,2,1,50,1,0
143680,-99.009900990099,4,2,1,50,0,0
144905,394.736842,4,2,1,50,1,0
144905,-103.092783505155,4,2,1,50,0,0
145300,419.58042,4,2,1,50,1,0
145300,-97.0873786407767,4,2,1,50,0,0
145719,402.684564,4,2,1,50,1,0
145719,-101.010101010101,4,2,1,50,0,0
146122,410.958904,4,2,1,50,1,0
146122,-99.009900990099,4,2,1,50,0,0
146533,422.535211,4,2,1,50,1,0
146533,-96.1538461538461,4,2,1,50,0,0
146955,413.793103,4,2,1,50,1,0
146955,-98.0392156862745,4,2,1,50,0,0
147369,405.405405,4,2,1,50,1,0
147369,-100,4,2,1,50,0,0
147775,402.684564,4,2,1,50,1,0
147775,-101.010101010101,4,2,1,50,0,0
148580,402.684564,4,2,1,50,1,0
148580,-101.010101010101,4,2,1,50,0,0
148983,413.793103,4,2,1,50,1,0
148983,-98.0392156862745,4,2,1,50,0,0
149396,410.958904,4,2,1,50,1,0
149396,-99.009900990099,4,2,1,50,0,0
149807,413.793103,4,2,1,50,1,0
149807,-98.0392156862745,4,2,1,50,0,0
150221,405.405405,4,2,1,50,1,0
150221,-100,4,2,1,50,0,0
150627,419.58042,4,2,1,50,1,0
150627,-97.0873786407767,4,2,1,50,0,0
151046,400,4,2,1,50,1,0
151046,-101.010101010101,4,2,1,50,0,0
151446,372.670807,4,2,1,50,1,0
151446,-108.695652173913,4,2,1,50,0,0
151819,389.61039,4,2,1,60,1,0
151819,-104.166666666667,4,2,1,60,0,0
152209,402.684564,4,2,1,60,1,0
152209,-101.010101010101,4,2,1,60,0,0
152611,402.684564,4,2,1,60,1,0
152611,-101.010101010101,4,2,1,60,0,0
153417,400,4,2,1,60,1,0
153417,-101.010101010101,4,2,1,60,0,0
153817,397.350993,4,2,1,60,1,0
153817,-102.040816326531,4,2,1,60,0,0
154214,408.163265,4,2,1,60,1,0
154214,-99.009900990099,4,2,1,60,0,0
154622,397.350993,4,2,1,60,1,0
154622,-102.040816326531,4,2,1,60,0,0
155019,402.684564,4,2,1,60,1,0
155019,-101.010101010101,4,2,1,60,0,0
155422,405.405405,4,2,1,60,1,0
155422,-100,4,2,1,60,0,0
155827,405.405405,4,2,1,60,1,0
155827,-100,4,2,1,60,0,0
156233,400,4,2,1,60,1,0
156233,-101.010101010101,4,2,1,60,0,0
156633,394.736842,4,2,1,60,1,0
156633,-103.092783505155,4,2,1,60,0,0
157028,405.405405,4,2,1,60,1,0
157028,-100,4,2,1,60,0,0
157433,397.350993,4,2,1,60,1,0
157433,-102.040816326531,4,2,1,60,0,0
157830,400,4,2,1,60,1,0
157830,-101.010101010101,4,2,1,60,0,0
158230,422.535211,4,2,1,60,1,0
158230,-96.1538461538461,4,2,1,70,0,0
158653,402.684564,4,2,1,70,1,0
158653,-101.010101010101,4,2,1,70,0,0
159056,413.793103,4,2,1,70,1,0
159056,-98.0392156862745,4,2,1,70,0,0
159469,408.163265,4,2,1,70,1,0
159469,-99.009900990099,4,2,1,70,0,0
159878,410.958904,4,2,1,70,1,0
159878,-99.009900990099,4,2,1,70,0,0
160289,397.350993,4,2,1,70,1,0
160289,-102.040816326531,4,2,1,70,0,0
160686,413.793103,4,2,1,70,1,0
160686,-98.0392156862745,4,2,1,70,0,0
161100,410.958904,4,2,1,70,1,0
161100,-99.009900990099,4,2,1,70,0,0
161511,419.58042,4,2,1,70,1,0
161511,-97.0873786407767,4,2,1,70,0,0
162769,405.405405,4,2,1,70,1,0
162769,-100,4,2,1,70,0,0
163175,419.58042,4,2,1,70,1,0
163175,-97.0873786407767,4,2,1,70,0,0
163594,413.793103,4,2,1,70,1,0
163594,-98.0392156862745,4,2,1,70,0,0
164008,402.684564,4,2,1,70,1,0
164008,-101.010101010101,4,2,1,70,0,0
164814,413.793103,4,2,1,70,1,0
164814,-98.0392156862745,4,2,1,70,0,0
165227,410.958904,4,2,1,70,1,0
165227,-99.009900990099,4,2,1,70,0,0
165638,428.571429,4,2,1,70,1,0
165638,-94.3396226415094,4,2,1,70,0,0
166067,402.684564,4,2,1,70,1,0
166067,-101.010101010101,4,2,1,70,0,0
166470,410.958904,4,2,1,70,1,0
166470,-99.009900990099,4,2,1,70,0,0
167291,392.156863,4,2,1,70,1,0
167291,-103.092783505155,4,2,1,70,0,0
167684,405.405405,4,2,1,70,1,0
167684,-100,4,2,1,70,0,0
168089,416.666667,4,2,1,70,1,0
168089,-97.0873786407767,4,2,1,70,0,0
168922,408.163265,4,2,1,70,1,0
168922,-99.009900990099,4,2,1,70,0,0
169331,405.405405,4,2,1,70,1,0
169331,-100,4,2,1,70,0,0
169736,408.163265,4,2,1,70,1,0
169736,-99.009900990099,4,2,1,70,0,0
170144,422.535211,4,2,1,70,1,0
170144,-96.1538461538461,4,2,1,70,0,0
170567,389.61039,4,2,1,70,1,0
170567,-104.166666666667,4,2,1,70,0,0
170956,392.156863,4,2,1,70,1,0
170956,-103.092783505155,4,2,1,70,0,0
171348,410.958904,4,2,1,70,1,0
171348,-99.009900990099,4,2,1,70,0,0
172170,419.58042,4,2,1,70,1,0
172170,-97.0873786407767,4,2,1,70,0,0
172590,410.958904,4,2,1,70,1,0
172590,-99.009900990099,4,2,1,70,0,0
173001,405.405405,4,2,1,70,1,0
173001,-100,4,2,1,70,0,0
173406,416.666667,4,2,1,70,1,0
173406,-97.0873786407767,4,2,1,70,0,0
173823,400,4,2,1,70,1,0
173823,-101.010101010101,4,2,1,70,0,0
174223,397.350993,4,2,1,70,1,0
174223,-102.040816326531,4,2,1,70,0,0
174620,405.405405,4,2,1,70,1,0
174620,-100,4,2,1,70,0,0
175431,410.958904,4,2,1,70,1,0
175431,-99.009900990099,4,2,1,70,0,0
176253,402.684564,4,2,1,70,1,0
176253,-101.010101010101,4,2,1,70,0,0
176656,405.405405,4,2,1,70,1,0
176656,-100,4,2,1,70,0,0
177061,408.163265,4,2,1,70,1,0
177061,-99.009900990099,4,2,1,70,0,0
177469,397.350993,4,2,1,70,1,0
177469,-102.040816326531,4,2,1,70,0,0
177867,402.684564,4,2,1,70,1,0
177867,-101.010101010101,4,2,1,70,0,0
178269,394.736842,4,2,1,70,1,0
178269,-103.092783505155,4,2,1,70,0,0
178664,425.531915,4,2,1,70,1,0
178664,-95.2380952380952,4,2,1,70,0,0
179090,408.163265,4,2,1,70,1,0
179090,-99.009900990099,4,2,1,70,0,0
179498,405.405405,4,2,1,70,1,0
179498,-100,4,2,1,70,0,0
180309,419.58042,4,2,1,70,1,0
180309,-97.0873786407767,4,2,1,70,0,0
180728,384.615385,4,2,1,70,1,0
180728,-105.263157894737,4,2,1,70,0,0
181113,416.666667,4,2,1,70,1,0
181113,-97.0873786407767,4,2,1,70,0,0
181529,405.405405,4,2,1,70,1,0
181529,-100,4,2,1,70,0,0
181935,402.684564,4,2,1,70,1,0
181935,-101.010101010101,4,2,1,70,0,0
182337,400,4,2,1,70,1,0
182337,-101.010101010101,4,2,1,70,0,0
182737,410.958904,4,2,1,70,1,0
182737,-99.009900990099,4,2,1,70,0,0
183148,405.405405,4,2,1,70,1,0
183148,-100,4,2,1,70,0,0
183554,416.666667,4,2,1,70,1,0
183554,-97.0873786407767,4,2,1,70,0,0
183971,408.163265,4,2,1,70,1,0
183971,-99.009900990099,4,2,1,70,0,0
184379,408.163265,4,2,1,70,1,0
184379,-99.009900990099,4,2,1,70,0,0
184787,413.793103,4,2,1,70,1,0
184787,-98.0392156862745,4,2,1,70,0,0
185201,400,4,2,1,70,1,0
185201,-101.010101010101,4,2,1,70,0,0
185601,392.156863,4,2,1,70,1,0
185601,-103.092783505155,4,2,1,70,0,0
185993,428.571429,4,2,1,70,1,0
185993,-94.3396226415094,4,2,1,70,0,0
186421,410.958904,4,2,1,70,1,0
186421,-99.009900990099,4,2,1,70,0,0
186832,405.405405,4,2,1,70,1,0
186832,-100,4,2,1,70,0,0
187238,400,4,2,1,70,1,0
187238,-101.010101010101,4,2,1,70,0,0
187638,410.958904,4,2,1,70,1,0
187638,-99.009900990099,4,2,1,70,0,0
188049,413.793103,4,2,1,70,1,0
188049,-98.0392156862745,4,2,1,70,0,0
188462,408.163265,4,2,1,70,1,0
188462,-99.009900990099,4,2,1,70,0,0
188871,413.793103,4,2,1,70,1,0
188871,-98.0392156862745,4,2,1,70,0,0
189284,397.350993,4,2,1,70,1,0
189284,-102.040816326531,4,2,1,70,0,0
189682,419.58042,4,2,1,70,1,0
189682,-97.0873786407767,4,2,1,70,0,0
190101,400,4,2,1,70,1,0
190101,-101.010101010101,4,2,1,70,0,0
190901,410.958904,4,2,1,70,1,0
190901,-99.009900990099,4,2,1,70,0,0
191723,422.535211,4,2,1,70,1,0
191723,-96.1538461538461,4,2,1,70,0,0
192146,416.666667,4,2,1,70,1,0
192146,-97.0873786407767,4,2,1,70,0,0
192562,425.531915,4,2,1,70,1,0
192562,-95.2380952380952,4,2,1,70,0,0
192988,405.405405,4,2,1,70,1,0
192988,-100,4,2,1,70,0,0
193393,425.531915,4,2,1,70,1,0
193393,-95.2380952380952,4,2,1,70,0,0
193819,408.163265,4,2,1,70,1,0
193819,-99.009900990099,4,2,1,70,0,0
194227,422.535211,4,2,1,70,1,0
194227,-96.1538461538461,4,2,1,70,0,0
194650,416.666667,4,2,1,70,1,0
194650,-97.0873786407767,4,2,1,70,0,0
195066,419.58042,4,2,1,70,1,0
195066,-97.0873786407767,4,2,1,70,0,0
195905,413.793103,4,2,1,70,1,0
195905,-98.0392156862745,4,2,1,70,0,0
196319,416.666667,4,2,1,70,1,0
196319,-97.0873786407767,4,2,1,70,0,0
196736,419.58042,4,2,1,70,1,0
196736,-97.0873786407767,4,2,1,70,0,0
197156,416.666667,4,2,1,70,1,0
197156,-97.0873786407767,4,2,1,70,0,0
197572,413.793103,4,2,1,70,1,0
197572,-98.0392156862745,4,2,1,70,0,0
197986,422.535211,4,2,1,70,1,0
197986,-96.1538461538461,4,2,1,70,0,0
198409,413.793103,4,2,1,70,1,0
198409,-98.0392156862745,4,2,1,70,0,0
199236,416.666667,4,2,1,70,1,0
199236,-97.0873786407767,4,2,1,70,0,0
199653,419.58042,4,2,1,70,1,0
199653,-97.0873786407767,4,2,1,70,0,0
200072,408.163265,4,2,1,70,1,0
200072,-99.009900990099,4,2,1,70,0,0
200481,405.405405,4,2,1,70,1,0
200481,-100,4,2,1,70,0,0
200886,431.654676,4,2,1,70,1,0
200886,-94.3396226415094,4,2,1,70,0,0
201318,394.736842,4,2,1,70,1,0
201318,-103.092783505155,4,2,1,70,0,0
201712,425.531915,4,2,1,70,1,0
201712,-95.2380952380952,4,2,1,70,0,0
202138,405.405405,4,2,1,70,1,0
202138,-100,4,2,1,70,0,0
202543,408.163265,4,2,1,70,1,0
202543,-99.009900990099,4,2,1,70,0,0
202951,413.793103,4,2,1,70,1,0
202951,-98.0392156862745,4,2,1,70,0,0
203365,428.571429,4,2,1,70,1,0
203365,-94.3396226415094,4,2,1,70,0,0
203794,487.804878,4,2,1,70,1,0
203794,-83.3333333333333,4,2,1,70,0,0

[HitObjects]
64,192,462,5,0,0:0:0:0:
192,192,462,1,0,0:0:0:0:
320,192,674,1,0,0:0:0:0:
64,192,886,1,0,0:0:0:0:
192,192,886,1,0,0:0:0:0:
320,192,1092,1,0,0:0:0:0:
192,192,1300,1,0,0:0:0:0:
64,192,1300,1,0,0:0:0:0:
320,192,1505,1,0,0:0:0:0:
64,192,1711,1,0,0:0:0:0:
192,192,1711,1,0,0:0:0:0:
320,192,1919,1,0,0:0:0:0:
192,192,2127,1,0,0:0:0:0:
64,192,2127,1,0,0:0:0:0:
320,192,2333,1,0,0:0:0:0:
192,192,2541,1,0,0:0:0:0:
64,192,2541,1,0,0:0:0:0:
320,192,2749,1,0,0:0:0:0:
64,192,2958,1,0,0:0:0:0:
192,192,2958,1,0,0:0:0:0:
320,192,3167,1,0,0:0:0:0:
192,192,3377,1,0,0:0:0:0:
64,192,3377,1,0,0:0:0:0:
320,192,3587,1,0,0:0:0:0:
64,192,3797,1,0,0:0:0:0:
192,192,3797,1,0,0:0:0:0:
192,192,4002,1,0,0:0:0:0:
320,192,4002,1,0,0:0:0:0:
64,192,4208,1,0,0:0:0:0:
448,192,4208,1,0,0:0:0:0:
320,192,4417,1,0,0:0:0:0:
64,192,4628,1,0,0:0:0:0:
192,192,4628,1,0,0:0:0:0:
192,192,4833,1,0,0:0:0:0:
448,192,4833,1,0,0:0:0:0:
64,192,5039,1,0,0:0:0:0:
320,192,5039,1,0,0:0:0:0:
448,192,5241,1,0,0:0:0:0:
192,192,5445,1,0,0:0:0:0:
320,192,5445,1,0,0:0:0:0:
448,192,5647,1,0,0:0:0:0:
192,192,5647,1,0,0:0:0:0:
64,192,5850,1,0,0:0:0:0:
320,192,5850,1,0,0:0:0:0:
448,192,6053,1,0,0:0:0:0:
192,192,6255,1,0,0:0:0:0:
320,192,6255,1,0,0:0:0:0:
320,192,6460,1,0,0:0:0:0:
448,192,6460,1,0,0:0:0:0:
64,192,6666,1,0,0:0:0:0:
192,192,6666,1,0,0:0:0:0:
192,192,6872,1,0,0:0:0:0:
320,192,6872,1,0,0:0:0:0:
64,192,7079,1,0,0:0:0:0:
192,192,7132,1,0,0:0:0:0:
64,192,7291,1,0,0:0:0:0:
192,192,7344,1,0,0:0:0:0:
320,192,7502,1,0,0:0:0:0:
448,192,7502,1,0,0:0:0:0:
192,192,7704,1,0,0:0:0:0:
64,192,7907,1,0,0:0:0:0:
320,192,7958,1,0,0:0:0:0:
64,192,8112,1,0,0:0:0:0:
320,192,8163,1,0,0:0:0:0:
192,192,8318,1,0,0:0:0:0:
448,192,8318,1,0,0:0:0:0:
64,192,8520,1,0,0:0:0:0:
192,192,8723,1,0,0:0:0:0:
320,192,8773,1,0,0:0:0:0:
192,192,8925,1,0,0:0:0:0:
320,192,8976,1,0,0:0:0:0:
64,192,9128,1,0,0:0:0:0:
448,192,9128,1,0,0:0:0:0:
320,192,9331,1,0,0:0:0:0:
192,192,9535,1,0,0:0:0:0:
448,192,9586,1,0,0:0:0:0:
192,192,9739,1,0,0:0:0:0:
448,192,9790,1,0,0:0:0:0:
320,192,9943,1,0,0:0:0:0:
64,192,9943,1,0,0:0:0:0:
192,192,10044,1,0,0:0:0:0:
320,192,10145,1,0,0:0:0:0:
448,192,10247,1,0,0:0:0:0:
64,192,10348,1,0,0:0:0:0:
192,192,10398,1,0,0:0:0:0:
64,192,10550,1,0,0:0:0:0:
192,192,10601,1,0,0:0:0:0:
320,192,10753,1,0,0:0:0:0:
448,192,10753,1,0,0:0:0:0:
192,192,10956,1,0,0:0:0:0:
64,192,11158,1,0,0:0:0:0:
320,192,11209,1,0,0:0:0:0:
64,192,11361,1,0,0:0:0:0:
320,192,11412,1,0,0:0:0:0:
192,192,11564,1,0,0:0:0:0:
448,192,11564,1,0,0:0:0:0:
64,192,11766,1,0,0:0:0:0:
192,192,11970,1,0,0:0:0:0:
320,192,12021,1,0,0:0:0:0:
192,192,12174,1,0,0:0:0:0:
320,192,12225,1,0,0:0:0:0:
448,192,12378,1,0,0:0:0:0:
64,192,12378,1,0,0:0:0:0:
320,192,12584,1,0,0:0:0:0:
192,192,12791,1,0,0:0:0:0:
448,192,12842,1,0,0:0:0:0:
192,192,12997,1,0,0:0:0:0:
448,192,13049,1,0,0:0:0:0:
320,192,13206,1,0,0:0:0:0:
64,192,13206,1,0,0:0:0:0:
192,192,13310,1,0,0:0:0:0:
320,192,13414,1,0,0:0:0:0:
448,192,13518,1,0,0:0:0:0:
64,192,13622,1,0,0:0:0:0:
192,192,13622,1,0,0:0:0:0:
320,192,13673,1,0,0:0:0:0:
448,192,13724,1,0,0:0:0:0:
64,192,13776,1,0,0:0:0:0:
192,192,13827,1,0,0:0:0:0:
320,192,13878,1,0,0:0:0:0:
64,192,13930,1,0,0:0:0:0:
192,192,13981,1,0,0:0:0:0:
448,192,14033,1,0,0:0:0:0:
64,192,14084,1,0,0:0:0:0:
320,192,14135,1,0,0:0:0:0:
448,192,14186,1,0,0:0:0:0:
192,192,14237,1,0,0:0:0:0:
320,192,14288,1,0,0:0:0:0:
448,192,14339,1,0,0:0:0:0:
64,192,14390,1,0,0:0:0:0:
192,192,14441,1,0,0:0:0:0:
320,192,14441,1,0,0:0:0:0:
448,192,14499,1,0,0:0:0:0:
64,192,14557,1,0,0:0:0:0:
320,192,14615,1,0,0:0:0:0:
192,192,14674,1,0,0:0:0:0:
64,192,14732,1,0,0:0:0:0:
448,192,14790,1,0,0:0:0:0:
320,192,14849,1,0,0:0:0:0:
64,192,14907,1,0,0:0:0:0:
448,192,14965,1,0,0:0:0:0:
192,192,15024,1,0,0:0:0:0:
64,192,15082,1,0,0:0:0:0:
320,192,15140,1,0,0:0:0:0:
192,192,15199,1,0,0:0:0:0:
64,192,15258,1,0,0:0:0:0:
448,192,15258,1,0,0:0:0:0:
320,192,15315,1,0,0:0:0:0:
192,192,15393,1,0,0:0:0:0:
320,192,15460,1,0,0:0:0:0:
192,192,15528,1,0,0:0:0:0:
320,192,15595,1,0,0:0:0:0:
64,192,15663,1,0,0:0:0:0:
448,192,15663,1,0,0:0:0:0:
320,192,15767,1,0,0:0:0:0:
192,192,15871,1,0,0:0:0:0:
320,192,15940,1,0,0:0:0:0:
448,192,16010,1,0,0:0:0:0:
64,192,16079,1,0,0:0:0:0:
192,192,16080,1,0,0:0:0:0:
320,192,16148,1,0,0:0:0:0:
448,192,16217,1,0,0:0:0:0:
64,192,16286,1,0,0:0:0:0:
448,192,16355,1,0,0:0:0:0:
320,192,16424,1,0,0:0:0:0:
192,192,16494,1,0,0:0:0:0:
64,192,16562,1,0,0:0:0:0:
192,192,16630,1,0,0:0:0:0:
320,192,16699,1,0,0:0:0:0:
448,192,16699,1,0,0:0:0:0:
192,192,16802,1,0,0:0:0:0:
64,192,16905,1,0,0:0:0:0:
448,192,16905,1,0,0:0:0:0:
320,192,16972,1,0,0:0:0:0:
192,192,17040,1,0,0:0:0:0:
64,192,17107,1,0,0:0:0:0:
448,192,17175,1,0,0:0:0:0:
320,192,17242,1,0,0:0:0:0:
192,192,17310,1,0,0:0:0:0:
64,192,17377,1,0,0:0:0:0:
64,192,17513,1,0,0:0:0:0:
448,192,17513,1,0,0:0:0:0:
320,192,17563,1,0,0:0:0:0:
64,192,17715,1,0,0:0:0:0:
448,192,17715,1,0,0:0:0:0:
320,192,17773,1,0,0:0:0:0:
192,192,17832,1,0,0:0:0:0:
448,192,17891,1,0,0:0:0:0:
320,192,17949,1,0,0:0:0:0:
64,192,18008,1,0,0:0:0:0:
192,192,18067,1,0,0:0:0:0:
320,192,18125,1,0,0:0:0:0:
448,192,18185,1,0,0:0:0:0:
64,192,18244,1,0,0:0:0:0:
192,192,18303,1,0,0:0:0:0:
320,192,18362,1,0,0:0:0:0:
64,192,18421,1,0,0:0:0:0:
192,192,18480,1,0,0:0:0:0:
448,192,18539,1,0,0:0:0:0:
320,192,18591,1,0,0:0:0:0:
448,192,18744,1,0,0:0:0:0:
320,192,18795,1,0,0:0:0:0:
192,192,18948,1,0,0:0:0:0:
64,192,18948,1,0,0:0:0:0:
448,192,19149,1,0,0:0:0:0:
320,192,19351,1,0,0:0:0:0:
64,192,19402,1,0,0:0:0:0:
320,192,19556,1,0,0:0:0:0:
64,192,19607,1,0,0:0:0:0:
320,192,19762,1,0,0:0:0:0:
192,192,19762,1,0,0:0:0:0:
192,192,19964,1,0,0:0:0:0:
448,192,19964,1,0,0:0:0:0:
448,192,20167,1,0,0:0:0:0:
320,192,20167,1,0,0:0:0:0:
192,192,20217,1,0,0:0:0:0:
64,192,20267,1,0,0:0:0:0:
448,192,20318,1,0,0:0:0:0:
320,192,20368,1,0,0:0:0:0:
192,192,20418,1,0,0:0:0:0:
448,192,20469,1,0,0:0:0:0:
320,192,20519,1,0,0:0:0:0:
64,192,20569,1,0,0:0:0:0:
448,192,20622,1,0,0:0:0:0:
192,192,20674,1,0,0:0:0:0:
64,192,20726,1,0,0:0:0:0:
320,192,20778,1,0,0:0:0:0:
192,192,20830,1,0,0:0:0:0:
64,192,20882,1,0,0:0:0:0:
448,192,20934,1,0,0:0:0:0:
320,192,20986,1,0,0:0:0:0:
192,192,20987,1,0,0:0:0:0:
64,192,21045,1,0,0:0:0:0:
448,192,21104,1,0,0:0:0:0:
192,192,21163,1,0,0:0:0:0:
320,192,21221,1,0,0:0:0:0:
448,192,21280,1,0,0:0:0:0:
64,192,21339,1,0,0:0:0:0:
192,192,21397,1,0,0:0:0:0:
448,192,21455,1,0,0:0:0:0:
64,192,21512,1,0,0:0:0:0:
320,192,21569,1,0,0:0:0:0:
448,192,21626,1,0,0:0:0:0:
192,192,21683,1,0,0:0:0:0:
320,192,21740,1,0,0:0:0:0:
448,192,21798,1,0,0:0:0:0:
64,192,21798,1,0,0:0:0:0:
192,192,21867,1,0,0:0:0:0:
320,192,21937,1,0,0:0:0:0:
192,192,22007,1,0,0:0:0:0:
320,192,22077,1,0,0:0:0:0:
192,192,22147,1,0,0:0:0:0:
64,192,22217,1,0,0:0:0:0:
448,192,22217,1,0,0:0:0:0:
320,192,22268,1,0,0:0:0:0:
448,192,22421,1,0,0:0:0:0:
64,192,22421,1,0,0:0:0:0:
320,192,22472,1,0,0:0:0:0:
192,192,22557,1,0,0:0:0:0:
64,192,22625,1,0,0:0:0:0:
448,192,22625,1,0,0:0:0:0:
192,192,22694,1,0,0:0:0:0:
320,192,22764,1,0,0:0:0:0:
448,192,22834,1,0,0:0:0:0:
320,192,22904,1,0,0:0:0:0:
192,192,22974,1,0,0:0:0:0:
64,192,23045,1,0,0:0:0:0:
448,192,23045,1,0,0:0:0:0:
320,192,23111,1,0,0:0:0:0:
192,192,23178,1,0,0:0:0:0:
64,192,23245,1,0,0:0:0:0:
192,192,23345,1,0,0:0:0:0:
64,192,23445,1,0,0:0:0:0:
320,192,23445,1,0,0:0:0:0:
448,192,23513,1,0,0:0:0:0:
192,192,23582,1,0,0:0:0:0:
320,192,23651,1,0,0:0:0:0:
448,192,23720,1,0,0:0:0:0:
448,192,23859,1,0,0:0:0:0:
64,192,23859,1,0,0:0:0:0:
320,192,23926,1,0,0:0:0:0:
192,192,23993,1,0,0:0:0:0:
64,192,24060,1,0,0:0:0:0:
320,192,24127,1,0,0:0:0:0:
448,192,24194,1,0,0:0:0:0:
64,192,24261,1,0,0:0:0:0:
192,192,24261,1,0,0:0:0:0:
320,192,24328,1,0,0:0:0:0:
448,192,24395,1,0,0:0:0:0:
64,192,24462,1,0,0:0:0:0:
192,192,24529,1,0,0:0:0:0:
320,192,24596,1,0,0:0:0:0:
448,192,24664,1,0,0:0:0:0:
64,192,24664,1,0,0:0:0:0:
192,192,24733,1,0,0:0:0:0:
320,192,24802,1,0,0:0:0:0:
192,192,24872,1,0,0:0:0:0:
320,192,24941,1,0,0:0:0:0:
192,192,25011,1,0,0:0:0:0:
64,192,25081,1,0,0:0:0:0:
320,192,25131,1,0,0:0:0:0:
64,192,25282,1,0,0:0:0:0:
320,192,25332,1,0,0:0:0:0:
192,192,25483,1,0,0:0:0:0:
448,192,25483,1,0,0:0:0:0:
320,192,25688,1,0,0:0:0:0:
192,192,25894,1,0,0:0:0:0:
448,192,25944,1,0,0:0:0:0:
192,192,26095,1,0,0:0:0:0:
448,192,26145,1,0,0:0:0:0:
320,192,26297,1,0,0:0:0:0:
64,192,26297,1,0,0:0:0:0:
192,192,26506,1,0,0:0:0:0:
320,192,26717,1,0,0:0:0:0:
448,192,26717,1,0,0:0:0:0:
192,192,26759,1,0,0:0:0:0:
64,192,26801,1,0,0:0:0:0:
448,192,26844,1,0,0:0:0:0:
320,192,26886,1,0,0:0:0:0:
192,192,26929,1,0,0:0:0:0:
448,192,26971,1,0,0:0:0:0:
320,192,27014,1,0,0:0:0:0:
64,192,27056,1,0,0:0:0:0:
192,192,27099,1,0,0:0:0:0:
448,192,27099,1,0,0:0:0:0:
320,192,27144,1,0,0:0:0:0:
64,192,27189,1,0,0:0:0:0:
192,192,27235,1,0,0:0:0:0:
448,192,27280,1,0,0:0:0:0:
320,192,27325,1,0,0:0:0:0:
192,192,27371,1,0,0:0:0:0:
64,192,27416,1,0,0:0:0:0:
320,192,27461,1,0,0:0:0:0:
192,192,27507,1,0,0:0:0:0:
448,192,27507,1,0,0:0:0:0:
64,192,27552,1,0,0:0:0:0:
320,192,27597,1,0,0:0:0:0:
192,192,27643,1,0,0:0:0:0:
448,192,27688,1,0,0:0:0:0:
64,192,27733,1,0,0:0:0:0:
192,192,27779,1,0,0:0:0:0:
320,192,27824,1,0,0:0:0:0:
448,192,27869,1,0,0:0:0:0:
192,192,27915,1,0,0:0:0:0:
64,192,27915,1,0,0:0:0:0:
320,192,27962,1,0,0:0:0:0:
448,192,28009,1,0,0:0:0:0:
64,192,28056,1,0,0:0:0:0:
320,192,28104,1,0,0:0:0:0:
192,192,28151,1,0,0:0:0:0:
448,192,28198,1,0,0:0:0:0:
64,192,28245,1,0,0:0:0:0:
192,192,28293,1,0,0:0:0:0:
320,192,28340,1,0,0:0:0:0:
448,192,28341,1,0,0:0:0:0:
64,192,28393,1,0,0:0:0:0:
192,192,28445,1,0,0:0:0:0:
448,192,28498,1,0,0:0:0:0:
320,192,28550,1,0,0:0:0:0:
192,192,28603,1,0,0:0:0:0:
64,192,28655,1,0,0:0:0:0:
448,192,28708,1,0,0:0:0:0:
320,192,28760,1,0,0:0:0:0:
192,192,28760,1,0,0:0:0:0:
64,192,28826,1,0,0:0:0:0:
448,192,28893,1,0,0:0:0:0:
64,192,28960,1,0,0:0:0:0:
448,192,29026,1,0,0:0:0:0:
320,192,29093,1,0,0:0:0:0:
64,192,29160,1,0,0:0:0:0:
192,192,29160,1,0,0:0:0:0:
320,192,29229,1,0,0:0:0:0:
448,192,29298,1,0,0:0:0:0:
320,192,29368,1,0,0:0:0:0:
192,192,29420,1,0,0:0:0:0:
64,192,29472,1,0,0:0:0:0:
192,192,29577,1,0,0:0:0:0:
64,192,29577,1,0,0:0:0:0:
320,192,29627,1,0,0:0:0:0:
448,192,29678,1,0,0:0:0:0:
448,192,29779,1,0,0:0:0:0:
64,192,29982,1,0,0:0:0:0:
448,192,29982,1,0,0:0:0:0:
192,192,30032,1,0,0:0:0:0:
320,192,30083,1,0,0:0:0:0:
448,192,30134,1,0,0:0:0:0:
192,192,30184,1,0,0:0:0:0:
320,192,30235,1,0,0:0:0:0:
64,192,30286,1,0,0:0:0:0:
192,192,30336,1,0,0:0:0:0:
448,192,30387,1,0,0:0:0:0:
320,192,30388,1,0,0:0:0:0:
192,192,30453,1,0,0:0:0:0:
64,192,30519,1,0,0:0:0:0:
192,192,30585,1,0,0:0:0:0:
320,192,30651,1,0,0:0:0:0:
320,192,30782,1,0,0:0:0:0:
192,192,30782,1,0,0:0:0:0:
64,192,30833,1,0,0:0:0:0:
448,192,30885,1,0,0:0:0:0:
320,192,30937,1,0,0:0:0:0:
192,192,30988,1,0,0:0:0:0:
448,192,31040,1,0,0:0:0:0:
320,192,31092,1,0,0:0:0:0:
64,192,31144,1,0,0:0:0:0:
192,192,31196,1,0,0:0:0:0:
448,192,31196,1,0,0:0:0:0:
320,192,31267,1,0,0:0:0:0:
192,192,31338,1,0,0:0:0:0:
320,192,31410,1,0,0:0:0:0:
192,192,31481,1,0,0:0:0:0:
320,192,31553,1,0,0:0:0:0:
64,192,31624,1,0,0:0:0:0:
448,192,31676,1,0,0:0:0:0:
64,192,31829,1,0,0:0:0:0:
448,192,31880,1,0,0:0:0:0:
192,192,32033,1,0,0:0:0:0:
320,192,32033,1,0,0:0:0:0:
64,192,32238,1,0,0:0:0:0:
448,192,32444,1,0,0:0:0:0:
320,192,32444,1,0,0:0:0:0:
192,192,32511,1,0,0:0:0:0:
64,192,32579,1,0,0:0:0:0:
192,192,32646,1,0,0:0:0:0:
320,192,32714,1,0,0:0:0:0:
64,192,32849,1,0,0:0:0:0:
192,192,32849,1,0,0:0:0:0:
320,192,32913,1,0,0:0:0:0:
448,192,32978,1,0,0:0:0:0:
192,192,33043,1,0,0:0:0:0:
64,192,33043,1,0,0:0:0:0:
320,192,33141,1,0,0:0:0:0:
448,192,33141,1,0,0:0:0:0:
192,192,33239,1,0,0:0:0:0:
64,192,33239,1,0,0:0:0:0:
320,192,33287,1,0,0:0:0:0:
448,192,33335,1,0,0:0:0:0:
192,192,33383,1,0,0:0:0:0:
320,192,33432,1,0,0:0:0:0:
64,192,33480,1,0,0:0:0:0:
192,192,33528,1,0,0:0:0:0:
320,192,33577,1,0,0:0:0:0:
448,192,33625,1,0,0:0:0:0:
64,192,33673,1,0,0:0:0:0:
192,192,33674,1,0,0:0:0:0:
320,192,33721,1,0,0:0:0:0:
448,192,33769,1,0,0:0:0:0:
192,192,33816,1,0,0:0:0:0:
64,192,33864,1,0,0:0:0:0:
448,192,33912,1,0,0:0:0:0:
320,192,33959,1,0,0:0:0:0:
64,192,34007,1,0,0:0:0:0:
192,192,34054,1,0,0:0:0:0:
320,192,34102,1,0,0:0:0:0:
448,192,34102,1,0,0:0:0:0:
64,192,34149,1,0,0:0:0:0:
192,192,34196,1,0,0:0:0:0:
320,192,34243,1,0,0:0:0:0:
64,192,34291,1,0,0:0:0:0:
448,192,34338,1,0,0:0:0:0:
320,192,34385,1,0,0:0:0:0:
192,192,34432,1,0,0:0:0:0:
64,192,34480,1,0,0:0:0:0:
320,192,34528,1,0,0:0:0:0:
448,192,34528,1,0,0:0:0:0:
192,192,34573,1,0,0:0:0:0:
64,192,34618,1,0,0:0:0:0:
320,192,34663,1,0,0:0:0:0:
448,192,34708,1,0,0:0:0:0:
192,192,34753,1,0,0:0:0:0:
320,192,34798,1,0,0:0:0:0:
448,192,34843,1,0,0:0:0:0:
192,192,34888,1,0,0:0:0:0:
64,192,34933,1,0,0:0:0:0:
320,192,34933,1,0,0:0:0:0:
448,192,34978,1,0,0:0:0:0:
192,192,35024,1,0,0:0:0:0:
320,192,35069,1,0,0:0:0:0:
64,192,35115,1,0,0:0:0:0:
448,192,35161,1,0,0:0:0:0:
320,192,35206,1,0,0:0:0:0:
192,192,35252,1,0,0:0:0:0:
64,192,35298,1,0,0:0:0:0:
320,192,35343,1,0,0:0:0:0:
448,192,35343,1,0,0:0:0:0:
192,192,35390,1,0,0:0:0:0:
64,192,35437,1,0,0:0:0:0:
320,192,35484,1,0,0:0:0:0:
192,192,35531,1,0,0:0:0:0:
448,192,35578,1,0,0:0:0:0:
320,192,35625,1,0,0:0:0:0:
192,192,35672,1,0,0:0:0:0:
448,192,35719,1,0,0:0:0:0:
64,192,35766,1,0,0:0:0:0:
320,192,35766,1,0,0:0:0:0:
192,192,35813,1,0,0:0:0:0:
448,192,35859,1,0,0:0:0:0:
64,192,35905,1,0,0:0:0:0:
192,192,35952,1,0,0:0:0:0:
320,192,35998,1,0,0:0:0:0:
448,192,36044,1,0,0:0:0:0:
64,192,36091,1,0,0:0:0:0:
320,192,36137,1,0,0:0:0:0:
192,192,36183,1,0,0:0:0:0:
448,192,36183,1,0,0:0:0:0:
64,192,36235,1,0,0:0:0:0:
320,192,36287,1,0,0:0:0:0:
192,192,36339,1,0,0:0:0:0:
448,192,36392,1,0,0:0:0:0:
64,192,36444,1,0,0:0:0:0:
192,192,36496,1,0,0:0:0:0:
448,192,36548,1,0,0:0:0:0:
320,192,36600,1,0,0:0:0:0:
64,192,36600,1,0,0:0:0:0:
192,192,36653,1,0,0:0:0:0:
448,192,36706,1,0,0:0:0:0:
64,192,36759,1,0,0:0:0:0:
192,192,36812,1,0,0:0:0:0:
448,192,36865,1,0,0:0:0:0:
320,192,36919,1,0,0:0:0:0:
64,192,36972,1,0,0:0:0:0:
448,192,37025,1,0,0:0:0:0:
192,192,37025,1,0,0:0:0:0:
320,192,37078,1,0,0:0:0:0:
64,192,37131,1,0,0:0:0:0:
448,192,37185,1,0,0:0:0:0:
192,192,37238,1,0,0:0:0:0:
320,192,37291,1,0,0:0:0:0:
448,192,37344,1,0,0:0:0:0:
192,192,37397,1,0,0:0:0:0:
64,192,37451,1,0,0:0:0:0:
320,192,37451,1,0,0:0:0:0:
448,192,37503,1,0,0:0:0:0:
192,192,37556,1,0,0:0:0:0:
320,192,37609,1,0,0:0:0:0:
64,192,37662,1,0,0:0:0:0:
192,192,37715,1,0,0:0:0:0:
448,192,37767,1,0,0:0:0:0:
320,192,37820,1,0,0:0:0:0:
192,192,37873,1,0,0:0:0:0:
64,192,37873,1,0,0:0:0:0:
448,192,37926,1,0,0:0:0:0:
320,192,37979,1,0,0:0:0:0:
64,192,38031,1,0,0:0:0:0:
448,192,38084,1,0,0:0:0:0:
192,192,38137,1,0,0:0:0:0:
320,192,38190,1,0,0:0:0:0:
64,192,38243,1,0,0:0:0:0:
192,192,38296,1,0,0:0:0:0:
448,192,38296,1,0,0:0:0:0:
320,192,38348,1,0,0:0:0:0:
64,192,38401,1,0,0:0:0:0:
192,192,38454,1,0,0:0:0:0:
448,192,38507,1,0,0:0:0:0:
320,192,38560,1,0,0:0:0:0:
192,192,38612,1,0,0:0:0:0:
64,192,38665,1,0,0:0:0:0:
320,192,38719,1,0,0:0:0:0:
448,192,38719,1,0,0:0:0:0:
192,192,38787,1,0,0:0:0:0:
64,192,38855,1,0,0:0:0:0:
320,192,38923,1,0,0:0:0:0:
192,192,38991,1,0,0:0:0:0:
448,192,39059,1,0,0:0:0:0:
320,192,39127,1,0,0:0:0:0:
64,192,39127,1,0,0:0:0:0:
192,192,39195,1,0,0:0:0:0:
320,192,39263,1,0,0:0:0:0:
448,192,39331,1,0,0:0:0:0:
64,192,39399,1,0,0:0:0:0:
192,192,39467,1,0,0:0:0:0:
320,192,39535,1,0,0:0:0:0:
448,192,39535,1,0,0:0:0:0:
192,192,39638,1,0,0:0:0:0:
64,192,39638,1,0,0:0:0:0:
320,192,39741,1,0,0:0:0:0:
448,192,39741,1,0,0:0:0:0:
64,192,39845,1,0,0:0:0:0:
192,192,39845,1,0,0:0:0:0:
320,192,39948,1,0,0:0:0:0:
448,192,39948,1,0,0:0:0:0:
320,192,40151,1,0,0:0:0:0:
192,192,40151,1,0,0:0:0:0:
64,192,40253,1,0,0:0:0:0:
192,192,40354,1,0,0:0:0:0:
320,192,40354,1,0,0:0:0:0:
64,192,40560,1,0,0:0:0:0:
192,192,40664,1,0,0:0:0:0:
320,192,40767,1,0,0:0:0:0:
448,192,40767,1,0,0:0:0:0:
64,192,40819,1,0,0:0:0:0:
320,192,40871,1,0,0:0:0:0:
192,192,40940,1,0,0:0:0:0:
320,192,41009,1,0,0:0:0:0:
448,192,41078,1,0,0:0:0:0:
320,192,41181,1,0,0:0:0:0:
192,192,41181,1,0,0:0:0:0:
64,192,41283,1,0,0:0:0:0:
320,192,41384,1,0,0:0:0:0:
192,192,41486,1,0,0:0:0:0:
320,192,41587,1,0,0:0:0:0:
448,192,41587,1,0,0:0:0:0:
192,192,41656,1,0,0:0:0:0:
64,192,41725,1,0,0:0:0:0:
192,192,41795,1,0,0:0:0:0:
448,192,41795,1,0,0:0:0:0:
320,192,41864,1,0,0:0:0:0:
64,192,41934,1,0,0:0:0:0:
192,192,42003,1,0,0:0:0:0:
448,192,42004,1,0,0:0:0:0:
64,192,42208,1,0,0:0:0:0:
192,192,42208,1,0,0:0:0:0:
448,192,42276,1,0,0:0:0:0:
320,192,42344,1,0,0:0:0:0:
192,192,42412,1,0,0:0:0:0:
64,192,42412,1,0,0:0:0:0:
320,192,42480,1,0,0:0:0:0:
448,192,42548,1,0,0:0:0:0:
320,192,42616,1,0,0:0:0:0:
64,192,42718,1,0,0:0:0:0:
192,192,42718,1,0,0:0:0:0:
320,192,42820,1,0,0:0:0:0:
448,192,42820,1,0,0:0:0:0:
192,192,42920,1,0,0:0:0:0:
64,192,42920,1,0,0:0:0:0:
320,192,43020,1,0,0:0:0:0:
448,192,43020,1,0,0:0:0:0:
192,192,43120,1,0,0:0:0:0:
64,192,43120,1,0,0:0:0:0:
320,192,43220,1,0,0:0:0:0:
448,192,43220,1,0,0:0:0:0:
192,192,43272,1,0,0:0:0:0:
64,192,43325,1,0,0:0:0:0:
320,192,43378,1,0,0:0:0:0:
192,192,43431,1,0,0:0:0:0:
448,192,43484,1,0,0:0:0:0:
320,192,43536,1,0,0:0:0:0:
64,192,43642,1,0,0:0:0:0:
192,192,43643,1,0,0:0:0:0:
320,192,43694,1,0,0:0:0:0:
64,192,43848,1,0,0:0:0:0:
192,192,43951,1,0,0:0:0:0:
448,192,44053,1,0,0:0:0:0:
64,192,44054,1,0,0:0:0:0:
320,192,44106,1,0,0:0:0:0:
64,192,44263,1,0,0:0:0:0:
448,192,44263,1,0,0:0:0:0:
320,192,44316,1,0,0:0:0:0:
192,192,44473,1,0,0:0:0:0:
320,192,44473,1,0,0:0:0:0:
192,192,44681,1,0,0:0:0:0:
64,192,44681,1,0,0:0:0:0:
320,192,44733,1,0,0:0:0:0:
448,192,44785,1,0,0:0:0:0:
192,192,44837,1,0,0:0:0:0:
320,192,44890,1,0,0:0:0:0:
64,192,44940,1,0,0:0:0:0:
192,192,44990,1,0,0:0:0:0:
448,192,45041,1,0,0:0:0:0:
64,192,45091,1,0,0:0:0:0:
320,192,45158,1,0,0:0:0:0:
192,192,45225,1,0,0:0:0:0:
320,192,45292,1,0,0:0:0:0:
448,192,45293,1,0,0:0:0:0:
64,192,45344,1,0,0:0:0:0:
448,192,45499,1,0,0:0:0:0:
320,192,45603,1,0,0:0:0:0:
448,192,45707,1,0,0:0:0:0:
64,192,45707,1,0,0:0:0:0:
192,192,45755,1,0,0:0:0:0:
64,192,45899,1,0,0:0:0:0:
448,192,45899,1,0,0:0:0:0:
192,192,45947,1,0,0:0:0:0:
320,192,45995,1,0,0:0:0:0:
448,192,46043,1,0,0:0:0:0:
64,192,46091,1,0,0:0:0:0:
192,192,46091,1,0,0:0:0:0:
320,192,46190,1,0,0:0:0:0:
448,192,46190,1,0,0:0:0:0:
192,192,46289,1,0,0:0:0:0:
64,192,46289,1,0,0:0:0:0:
320,192,46389,1,0,0:0:0:0:
448,192,46389,1,0,0:0:0:0:
192,192,46488,1,0,0:0:0:0:
64,192,46488,1,0,0:0:0:0:
320,192,46541,1,0,0:0:0:0:
64,192,46700,1,0,0:0:0:0:
192,192,46700,1,0,0:0:0:0:
320,192,46753,1,0,0:0:0:0:
192,192,46914,1,0,0:0:0:0:
448,192,46914,1,0,0:0:0:0:
320,192,46963,1,0,0:0:0:0:
448,192,47111,1,0,0:0:0:0:
320,192,47210,1,0,0:0:0:0:
64,192,47309,1,0,0:0:0:0:
192,192,47309,1,0,0:0:0:0:
448,192,47362,1,0,0:0:0:0:
192,192,47416,1,0,0:0:0:0:
320,192,47488,1,0,0:0:0:0:
192,192,47560,1,0,0:0:0:0:
64,192,47632,1,0,0:0:0:0:
192,192,47740,1,0,0:0:0:0:
320,192,47740,1,0,0:0:0:0:
448,192,47841,1,0,0:0:0:0:
192,192,47942,1,0,0:0:0:0:
320,192,48044,1,0,0:0:0:0:
192,192,48146,1,0,0:0:0:0:
64,192,48146,1,0,0:0:0:0:
320,192,48215,1,0,0:0:0:0:
448,192,48285,1,0,0:0:0:0:
320,192,48355,1,0,0:0:0:0:
64,192,48355,1,0,0:0:0:0:
192,192,48425,1,0,0:0:0:0:
448,192,48495,1,0,0:0:0:0:
64,192,48565,1,0,0:0:0:0:
320,192,48565,1,0,0:0:0:0:
448,192,48770,1,0,0:0:0:0:
320,192,48770,1,0,0:0:0:0:
64,192,48838,1,0,0:0:0:0:
192,192,48907,1,0,0:0:0:0:
448,192,48976,1,0,0:0:0:0:
320,192,48976,1,0,0:0:0:0:
192,192,49043,1,0,0:0:0:0:
64,192,49111,1,0,0:0:0:0:
448,192,49280,1,0,0:0:0:0:
320,192,49280,1,0,0:0:0:0:
192,192,49382,1,0,0:0:0:0:
64,192,49382,1,0,0:0:0:0:
320,192,49477,1,0,0:0:0:0:
448,192,49477,1,0,0:0:0:0:
192,192,49573,1,0,0:0:0:0:
64,192,49573,1,0,0:0:0:0:
320,192,49668,1,0,0:0:0:0:
448,192,49668,1,0,0:0:0:0:
192,192,49764,1,0,0:0:0:0:
64,192,49764,1,0,0:0:0:0:
320,192,49817,1,0,0:0:0:0:
448,192,49871,1,0,0:0:0:0:
192,192,49925,1,0,0:0:0:0:
320,192,49979,1,0,0:0:0:0:
64,192,50033,1,0,0:0:0:0:
192,192,50087,1,0,0:0:0:0:
320,192,50196,1,0,0:0:0:0:
448,192,50196,1,0,0:0:0:0:
192,192,50248,1,0,0:0:0:0:
448,192,50404,1,0,0:0:0:0:
320,192,50508,1,0,0:0:0:0:
64,192,50612,1,0,0:0:0:0:
448,192,50612,1,0,0:0:0:0:
192,192,50663,1,0,0:0:0:0:
448,192,50817,1,0,0:0:0:0:
64,192,50817,1,0,0:0:0:0:
192,192,50868,1,0,0:0:0:0:
320,192,51022,1,0,0:0:0:0:
192,192,51022,1,0,0:0:0:0:
320,192,51227,1,0,0:0:0:0:
448,192,51227,1,0,0:0:0:0:
192,192,51278,1,0,0:0:0:0:
64,192,51330,1,0,0:0:0:0:
320,192,51381,1,0,0:0:0:0:
192,192,51434,1,0,0:0:0:0:
448,192,51486,1,0,0:0:0:0:
320,192,51539,1,0,0:0:0:0:
64,192,51592,1,0,0:0:0:0:
448,192,51645,1,0,0:0:0:0:
64,192,51715,1,0,0:0:0:0:
320,192,51786,1,0,0:0:0:0:
64,192,51856,1,0,0:0:0:0:
192,192,51856,1,0,0:0:0:0:
448,192,51908,1,0,0:0:0:0:
64,192,52061,1,0,0:0:0:0:
192,192,52163,1,0,0:0:0:0:
64,192,52265,1,0,0:0:0:0:
448,192,52265,1,0,0:0:0:0:
320,192,52313,1,0,0:0:0:0:
448,192,52458,1,0,0:0:0:0:
64,192,52458,1,0,0:0:0:0:
320,192,52506,1,0,0:0:0:0:
192,192,52555,1,0,0:0:0:0:
64,192,52603,1,0,0:0:0:0:
448,192,52652,1,0,0:0:0:0:
320,192,52652,1,0,0:0:0:0:
192,192,52754,1,0,0:0:0:0:
64,192,52754,1,0,0:0:0:0:
320,192,52857,1,0,0:0:0:0:
448,192,52857,1,0,0:0:0:0:
192,192,52960,1,0,0:0:0:0:
64,192,52960,1,0,0:0:0:0:
320,192,53062,1,0,0:0:0:0:
448,192,53062,1,0,0:0:0:0:
192,192,53115,1,0,0:0:0:0:
320,192,53274,1,0,0:0:0:0:
448,192,53274,1,0,0:0:0:0:
192,192,53327,1,0,0:0:0:0:
448,192,53485,1,0,0:0:0:0:
64,192,53485,1,0,0:0:0:0:
320,192,53536,1,0,0:0:0:0:
448,192,53689,1,0,0:0:0:0:
320,192,53791,1,0,0:0:0:0:
64,192,53894,1,0,0:0:0:0:
192,192,53894,1,0,0:0:0:0:
448,192,53947,1,0,0:0:0:0:
192,192,54000,1,0,0:0:0:0:
320,192,54071,1,0,0:0:0:0:
192,192,54142,1,0,0:0:0:0:
64,192,54213,1,0,0:0:0:0:
192,192,54319,1,0,0:0:0:0:
320,192,54319,1,0,0:0:0:0:
448,192,54424,1,0,0:0:0:0:
192,192,54530,1,0,0:0:0:0:
320,192,54635,1,0,0:0:0:0:
192,192,54742,1,0,0:0:0:0:
64,192,54742,1,0,0:0:0:0:
320,192,54811,1,0,0:0:0:0:
64,192,54880,1,0,0:0:0:0:
192,192,54950,1,0,0:0:0:0:
448,192,54950,1,0,0:0:0:0:
320,192,55019,1,0,0:0:0:0:
64,192,55089,1,0,0:0:0:0:
320,192,55158,1,0,0:0:0:0:
448,192,55158,1,0,0:0:0:0:
192,192,55359,1,0,0:0:0:0:
64,192,55359,1,0,0:0:0:0:
448,192,55409,1,0,0:0:0:0:
320,192,55460,1,0,0:0:0:0:
192,192,55510,1,0,0:0:0:0:
448,192,55560,1,0,0:0:0:0:
320,192,55610,1,0,0:0:0:0:
64,192,55660,1,0,0:0:0:0:
192,192,55711,1,0,0:0:0:0:
320,192,55761,1,0,0:0:0:0:
448,192,55811,1,0,0:0:0:0:
64,192,55862,1,0,0:0:0:0:
192,192,55912,1,0,0:0:0:0:
320,192,55964,1,0,0:0:0:0:
448,192,55964,1,0,0:0:0:0:
192,192,56063,1,0,0:0:0:0:
64,192,56063,1,0,0:0:0:0:
320,192,56162,1,0,0:0:0:0:
448,192,56162,1,0,0:0:0:0:
192,192,56262,1,0,0:0:0:0:
64,192,56262,1,0,0:0:0:0:
448,192,56361,1,0,0:0:0:0:
320,192,56361,1,0,0:0:0:0:
192,192,56413,1,0,0:0:0:0:
320,192,56569,1,0,0:0:0:0:
448,192,56569,1,0,0:0:0:0:
192,192,56621,1,0,0:0:0:0:
320,192,56777,1,0,0:0:0:0:
64,192,56778,1,0,0:0:0:0:
192,192,56827,1,0,0:0:0:0:
64,192,56976,1,0,0:0:0:0:
192,192,57076,1,0,0:0:0:0:
320,192,57175,1,0,0:0:0:0:
448,192,57175,1,0,0:0:0:0:
64,192,57225,1,0,0:0:0:0:
320,192,57276,1,0,0:0:0:0:
192,192,57343,1,0,0:0:0:0:
320,192,57411,1,0,0:0:0:0:
448,192,57479,1,0,0:0:0:0:
320,192,57580,1,0,0:0:0:0:
192,192,57580,1,0,0:0:0:0:
64,192,57685,1,0,0:0:0:0:
320,192,57791,1,0,0:0:0:0:
192,192,57896,1,0,0:0:0:0:
320,192,58002,1,0,0:0:0:0:
448,192,58002,1,0,0:0:0:0:
64,192,58071,1,0,0:0:0:0:
320,192,58139,1,0,0:0:0:0:
192,192,58208,1,0,0:0:0:0:
448,192,58208,1,0,0:0:0:0:
64,192,58276,1,0,0:0:0:0:
320,192,58345,1,0,0:0:0:0:
192,192,58413,1,0,0:0:0:0:
64,192,58413,1,0,0:0:0:0:
320,192,58619,1,0,0:0:0:0:
448,192,58619,1,0,0:0:0:0:
192,192,58670,1,0,0:0:0:0:
64,192,58722,1,0,0:0:0:0:
320,192,58773,1,0,0:0:0:0:
192,192,58824,1,0,0:0:0:0:
448,192,58875,1,0,0:0:0:0:
64,192,58925,1,0,0:0:0:0:
192,192,58975,1,0,0:0:0:0:
448,192,59025,1,0,0:0:0:0:
320,192,59075,1,0,0:0:0:0:
192,192,59125,1,0,0:0:0:0:
64,192,59175,1,0,0:0:0:0:
320,192,59225,1,0,0:0:0:0:
448,192,59225,1,0,0:0:0:0:
320,192,59422,1,0,0:0:0:0:
448,192,59422,1,0,0:0:0:0:
192,192,59521,1,0,0:0:0:0:
64,192,59521,1,0,0:0:0:0:
320,192,59619,1,0,0:0:0:0:
448,192,59619,1,0,0:0:0:0:
64,192,59820,1,0,0:0:0:0:
192,192,59820,1,0,0:0:0:0:
320,192,59870,1,0,0:0:0:0:
64,192,60020,1,0,0:0:0:0:
448,192,60020,1,0,0:0:0:0:
320,192,60070,1,0,0:0:0:0:
448,192,60220,1,0,0:0:0:0:
320,192,60320,1,0,0:0:0:0:
64,192,60420,1,0,0:0:0:0:
192,192,60420,1,0,0:0:0:0:
448,192,60470,1,0,0:0:0:0:
192,192,60520,1,0,0:0:0:0:
320,192,60586,1,0,0:0:0:0:
192,192,60653,1,0,0:0:0:0:
64,192,60720,1,0,0:0:0:0:
192,192,60820,1,0,0:0:0:0:
320,192,60820,1,0,0:0:0:0:
448,192,60922,1,0,0:0:0:0:
192,192,61025,1,0,0:0:0:0:
320,192,61128,1,0,0:0:0:0:
64,192,61231,1,0,0:0:0:0:
192,192,61231,1,0,0:0:0:0:
448,192,61301,1,0,0:0:0:0:
192,192,61371,1,0,0:0:0:0:
64,192,61442,1,0,0:0:0:0:
320,192,61442,1,0,0:0:0:0:
448,192,61512,1,0,0:0:0:0:
192,192,61583,1,0,0:0:0:0:
320,192,61653,1,0,0:0:0:0:
448,192,61653,1,0,0:0:0:0:
64,192,61857,1,0,0:0:0:0:
192,192,61857,1,0,0:0:0:0:
448,192,61908,1,0,0:0:0:0:
320,192,61959,1,0,0:0:0:0:
192,192,62010,1,0,0:0:0:0:
448,192,62061,1,0,0:0:0:0:
320,192,62112,1,0,0:0:0:0:
64,192,62163,1,0,0:0:0:0:
192,192,62214,1,0,0:0:0:0:
320,192,62265,1,0,0:0:0:0:
448,192,62316,1,0,0:0:0:0:
64,192,62367,1,0,0:0:0:0:
192,192,62418,1,0,0:0:0:0:
320,192,62469,1,0,0:0:0:0:
448,192,62469,1,0,0:0:0:0:
64,192,62571,1,0,0:0:0:0:
320,192,62674,1,0,0:0:0:0:
448,192,62674,1,0,0:0:0:0:
64,192,62777,1,0,0:0:0:0:
192,192,62777,1,0,0:0:0:0:
320,192,62879,1,0,0:0:0:0:
448,192,62879,1,0,0:0:0:0:
192,192,62937,1,0,0:0:0:0:
64,192,62996,1,0,0:0:0:0:
320,192,63055,1,0,0:0:0:0:
192,192,63113,1,0,0:0:0:0:
448,192,63172,1,0,0:0:0:0:
320,192,63231,1,0,0:0:0:0:
192,192,63291,1,0,0:0:0:0:
320,192,63347,1,0,0:0:0:0:
64,192,63404,1,0,0:0:0:0:
192,192,63461,1,0,0:0:0:0:
320,192,63518,1,0,0:0:0:0:
64,192,63574,1,0,0:0:0:0:
448,192,63631,1,0,0:0:0:0:
320,192,63688,1,0,0:0:0:0:
192,192,63689,1,0,0:0:0:0:
64,192,63741,1,0,0:0:0:0:
192,192,63900,1,0,0:0:0:0:
320,192,63900,1,0,0:0:0:0:
64,192,63953,1,0,0:0:0:0:
192,192,64111,1,0,0:0:0:0:
448,192,64111,1,0,0:0:0:0:
320,192,64161,1,0,0:0:0:0:
64,192,64312,1,0,0:0:0:0:
192,192,64514,1,0,0:0:0:0:
320,192,64514,1,0,0:0:0:0:
448,192,64565,1,0,0:0:0:0:
192,192,64720,1,0,0:0:0:0:
320,192,64720,1,0,0:0:0:0:
448,192,64772,1,0,0:0:0:0:
64,192,64928,1,0,0:0:0:0:
320,192,64928,1,0,0:0:0:0:
192,192,64977,1,0,0:0:0:0:
448,192,65124,1,0,0:0:0:0:
64,192,65320,1,0,0:0:0:0:
192,192,65320,1,0,0:0:0:0:
320,192,65372,1,0,0:0:0:0:
64,192,65529,1,0,0:0:0:0:
192,192,65529,1,0,0:0:0:0:
320,192,65582,1,0,0:0:0:0:
64,192,65739,1,0,0:0:0:0:
448,192,65740,1,0,0:0:0:0:
192,192,65789,1,0,0:0:0:0:
448,192,65937,1,0,0:0:0:0:
320,192,65937,1,0,0:0:0:0:
192,192,66036,1,0,0:0:0:0:
64,192,66036,1,0,0:0:0:0:
320,192,66134,1,0,0:0:0:0:
448,192,66134,1,0,0:0:0:0:
192,192,66187,1,0,0:0:0:0:
64,192,66240,1,0,0:0:0:0:
448,192,66293,1,0,0:0:0:0:
320,192,66346,1,0,0:0:0:0:
64,192,66399,1,0,0:0:0:0:
448,192,66453,1,0,0:0:0:0:
192,192,66506,1,0,0:0:0:0:
64,192,66560,1,0,0:0:0:0:
320,192,66612,1,0,0:0:0:0:
192,192,66664,1,0,0:0:0:0:
64,192,66717,1,0,0:0:0:0:
320,192,66769,1,0,0:0:0:0:
192,192,66822,1,0,0:0:0:0:
448,192,66874,1,0,0:0:0:0:
320,192,66927,1,0,0:0:0:0:
64,192,66979,1,0,0:0:0:0:
192,192,66979,1,0,0:0:0:0:
448,192,67039,1,0,0:0:0:0:
192,192,67100,1,0,0:0:0:0:
64,192,67161,1,0,0:0:0:0:
320,192,67222,1,0,0:0:0:0:
448,192,67282,1,0,0:0:0:0:
192,192,67343,1,0,0:0:0:0:
320,192,67404,1,0,0:0:0:0:
448,192,67465,1,0,0:0:0:0:
192,192,67526,1,0,0:0:0:0:
320,192,67586,1,0,0:0:0:0:
64,192,67647,1,0,0:0:0:0:
192,192,67708,1,0,0:0:0:0:
448,192,67769,1,0,0:0:0:0:
320,192,67830,1,0,0:0:0:0:
64,192,67830,1,0,0:0:0:0:
192,192,67937,1,0,0:0:0:0:
320,192,68044,1,0,0:0:0:0:
448,192,68044,1,0,0:0:0:0:
192,192,68151,1,0,0:0:0:0:
320,192,68259,1,0,0:0:0:0:
64,192,68259,1,0,0:0:0:0:
448,192,68329,1,0,0:0:0:0:
320,192,68399,1,0,0:0:0:0:
192,192,68470,1,0,0:0:0:0:
64,192,68540,1,0,0:0:0:0:
448,192,68682,1,0,0:0:0:0:
320,192,68682,1,0,0:0:0:0:
192,192,68751,1,0,0:0:0:0:
64,192,68820,1,0,0:0:0:0:
448,192,68890,1,0,0:0:0:0:
64,192,68959,1,0,0:0:0:0:
192,192,69029,1,0,0:0:0:0:
320,192,69098,1,0,0:0:0:0:
448,192,69168,1,0,0:0:0:0:
320,192,69238,1,0,0:0:0:0:
64,192,69309,1,0,0:0:0:0:
192,192,69309,1,0,0:0:0:0:
320,192,69414,1,0,0:0:0:0:
64,192,69520,1,0,0:0:0:0:
448,192,69520,1,0,0:0:0:0:
192,192,69590,1,0,0:0:0:0:
320,192,69660,1,0,0:0:0:0:
448,192,69731,1,0,0:0:0:0:
64,192,69801,1,0,0:0:0:0:
192,192,69872,1,0,0:0:0:0:
320,192,69943,1,0,0:0:0:0:
448,192,70012,1,0,0:0:0:0:
448,192,70152,1,0,0:0:0:0:
64,192,70152,1,0,0:0:0:0:
192,192,70205,1,0,0:0:0:0:
448,192,70362,1,0,0:0:0:0:
64,192,70363,1,0,0:0:0:0:
192,192,70423,1,0,0:0:0:0:
320,192,70483,1,0,0:0:0:0:
64,192,70544,1,0,0:0:0:0:
192,192,70604,1,0,0:0:0:0:
448,192,70664,1,0,0:0:0:0:
320,192,70725,1,0,0:0:0:0:
192,192,70785,1,0,0:0:0:0:
64,192,70855,1,0,0:0:0:0:
448,192,70926,1,0,0:0:0:0:
320,192,70997,1,0,0:0:0:0:
192,192,71068,1,0,0:0:0:0:
64,192,71210,1,0,0:0:0:0:
320,192,71210,1,0,0:0:0:0:
192,192,71263,1,0,0:0:0:0:
64,192,71422,1,0,0:0:0:0:
192,192,71475,1,0,0:0:0:0:
320,192,71636,1,0,0:0:0:0:
448,192,71636,1,0,0:0:0:0:
64,192,71850,1,0,0:0:0:0:
192,192,72064,1,0,0:0:0:0:
448,192,72117,1,0,0:0:0:0:
192,192,72278,1,0,0:0:0:0:
448,192,72331,1,0,0:0:0:0:
192,192,72494,1,0,0:0:0:0:
320,192,72545,1,0,0:0:0:0:
320,192,72698,1,0,0:0:0:0:
64,192,72698,1,0,0:0:0:0:
64,192,72902,1,0,0:0:0:0:
192,192,72902,1,0,0:0:0:0:
320,192,72956,1,0,0:0:0:0:
448,192,73010,1,0,0:0:0:0:
64,192,73065,1,0,0:0:0:0:
192,192,73119,1,0,0:0:0:0:
320,192,73173,1,0,0:0:0:0:
64,192,73228,1,0,0:0:0:0:
192,192,73282,1,0,0:0:0:0:
448,192,73337,1,0,0:0:0:0:
64,192,73389,1,0,0:0:0:0:
320,192,73442,1,0,0:0:0:0:
448,192,73495,1,0,0:0:0:0:
192,192,73548,1,0,0:0:0:0:
320,192,73601,1,0,0:0:0:0:
448,192,73653,1,0,0:0:0:0:
64,192,73706,1,0,0:0:0:0:
192,192,73759,1,0,0:0:0:0:
320,192,73759,1,0,0:0:0:0:
448,192,73818,1,0,0:0:0:0:
64,192,73878,1,0,0:0:0:0:
320,192,73938,1,0,0:0:0:0:
192,192,73998,1,0,0:0:0:0:
64,192,74058,1,0,0:0:0:0:
448,192,74118,1,0,0:0:0:0:
320,192,74179,1,0,0:0:0:0:
64,192,74239,1,0,0:0:0:0:
448,192,74299,1,0,0:0:0:0:
192,192,74360,1,0,0:0:0:0:
64,192,74420,1,0,0:0:0:0:
320,192,74480,1,0,0:0:0:0:
192,192,74541,1,0,0:0:0:0:
64,192,74601,1,0,0:0:0:0:
448,192,74601,1,0,0:0:0:0:
320,192,74654,1,0,0:0:0:0:
448,192,74815,1,0,0:0:0:0:
320,192,74868,1,0,0:0:0:0:
64,192,75030,1,0,0:0:0:0:
192,192,75030,1,0,0:0:0:0:
64,192,75239,1,0,0:0:0:0:
448,192,75239,1,0,0:0:0:0:
192,192,75292,1,0,0:0:0:0:
448,192,75449,1,0,0:0:0:0:
64,192,75449,1,0,0:0:0:0:
320,192,75518,1,0,0:0:0:0:
192,192,75587,1,0,0:0:0:0:
64,192,75657,1,0,0:0:0:0:
192,192,75726,1,0,0:0:0:0:
320,192,75796,1,0,0:0:0:0:
448,192,75865,1,0,0:0:0:0:
64,192,75865,1,0,0:0:0:0:
192,192,75934,1,0,0:0:0:0:
320,192,76003,1,0,0:0:0:0:
448,192,76073,1,0,0:0:0:0:
64,192,76073,1,0,0:0:0:0:
320,192,76177,1,0,0:0:0:0:
448,192,76283,1,0,0:0:0:0:
192,192,76283,1,0,0:0:0:0:
64,192,76352,1,0,0:0:0:0:
320,192,76422,1,0,0:0:0:0:
192,192,76492,1,0,0:0:0:0:
64,192,76562,1,0,0:0:0:0:
320,192,76632,1,0,0:0:0:0:
64,192,76702,1,0,0:0:0:0:
448,192,76702,1,0,0:0:0:0:
192,192,76773,1,0,0:0:0:0:
320,192,76845,1,0,0:0:0:0:
448,192,76917,1,0,0:0:0:0:
192,192,76989,1,0,0:0:0:0:
64,192,77061,1,0,0:0:0:0:
448,192,77133,1,0,0:0:0:0:
320,192,77133,1,0,0:0:0:0:
192,192,77203,1,0,0:0:0:0:
64,192,77272,1,0,0:0:0:0:
448,192,77342,1,0,0:0:0:0:
320,192,77411,1,0,0:0:0:0:
192,192,77481,1,0,0:0:0:0:
64,192,77550,1,0,0:0:0:0:
448,192,77550,1,0,0:0:0:0:
320,192,77619,1,0,0:0:0:0:
192,192,77687,1,0,0:0:0:0:
320,192,77756,1,0,0:0:0:0:
192,192,77824,1,0,0:0:0:0:
320,192,77893,1,0,0:0:0:0:
448,192,77962,1,0,0:0:0:0:
192,192,78015,1,0,0:0:0:0:
448,192,78174,1,0,0:0:0:0:
192,192,78227,1,0,0:0:0:0:
64,192,78387,1,0,0:0:0:0:
320,192,78387,1,0,0:0:0:0:
192,192,78598,1,0,0:0:0:0:
320,192,78809,1,0,0:0:0:0:
64,192,78862,1,0,0:0:0:0:
320,192,79019,1,0,0:0:0:0:
64,192,79072,1,0,0:0:0:0:
192,192,79229,1,0,0:0:0:0:
448,192,79229,1,0,0:0:0:0:
320,192,79444,1,0,0:0:0:0:
64,192,79660,1,0,0:0:0:0:
192,192,79660,1,0,0:0:0:0:
320,192,79706,1,0,0:0:0:0:
448,192,79751,1,0,0:0:0:0:
64,192,79796,1,0,0:0:0:0:
192,192,79841,1,0,0:0:0:0:
448,192,79886,1,0,0:0:0:0:
320,192,79931,1,0,0:0:0:0:
64,192,79976,1,0,0:0:0:0:
448,192,80021,1,0,0:0:0:0:
192,192,80066,1,0,0:0:0:0:
320,192,80066,1,0,0:0:0:0:
64,192,80111,1,0,0:0:0:0:
448,192,80156,1,0,0:0:0:0:
192,192,80202,1,0,0:0:0:0:
320,192,80247,1,0,0:0:0:0:
448,192,80292,1,0,0:0:0:0:
64,192,80338,1,0,0:0:0:0:
192,192,80383,1,0,0:0:0:0:
448,192,80428,1,0,0:0:0:0:
320,192,80474,1,0,0:0:0:0:
64,192,80474,1,0,0:0:0:0:
192,192,80520,1,0,0:0:0:0:
448,192,80566,1,0,0:0:0:0:
320,192,80612,1,0,0:0:0:0:
64,192,80659,1,0,0:0:0:0:
192,192,80705,1,0,0:0:0:0:
320,192,80751,1,0,0:0:0:0:
448,192,80798,1,0,0:0:0:0:
64,192,80844,1,0,0:0:0:0:
192,192,80890,1,0,0:0:0:0:
320,192,80890,1,0,0:0:0:0:
448,192,80938,1,0,0:0:0:0:
64,192,80985,1,0,0:0:0:0:
192,192,81032,1,0,0:0:0:0:
448,192,81080,1,0,0:0:0:0:
64,192,81127,1,0,0:0:0:0:
320,192,81174,1,0,0:0:0:0:
192,192,81221,1,0,0:0:0:0:
64,192,81269,1,0,0:0:0:0:
448,192,81316,1,0,0:0:0:0:
320,192,81317,1,0,0:0:0:0:
192,192,81369,1,0,0:0:0:0:
64,192,81421,1,0,0:0:0:0:
448,192,81473,1,0,0:0:0:0:
192,192,81525,1,0,0:0:0:0:
320,192,81577,1,0,0:0:0:0:
448,192,81629,1,0,0:0:0:0:
64,192,81681,1,0,0:0:0:0:
320,192,81733,1,0,0:0:0:0:
192,192,81733,1,0,0:0:0:0:
448,192,81799,1,0,0:0:0:0:
64,192,81865,1,0,0:0:0:0:
448,192,81931,1,0,0:0:0:0:
64,192,81997,1,0,0:0:0:0:
192,192,82064,1,0,0:0:0:0:
448,192,82130,1,0,0:0:0:0:
320,192,82130,1,0,0:0:0:0:
192,192,82199,1,0,0:0:0:0:
64,192,82267,1,0,0:0:0:0:
192,192,82336,1,0,0:0:0:0:
320,192,82387,1,0,0:0:0:0:
448,192,82439,1,0,0:0:0:0:
320,192,82541,1,0,0:0:0:0:
448,192,82541,1,0,0:0:0:0:
192,192,82593,1,0,0:0:0:0:
64,192,82644,1,0,0:0:0:0:
320,192,82746,1,0,0:0:0:0:
448,192,82950,1,0,0:0:0:0:
64,192,82950,1,0,0:0:0:0:
320,192,83002,1,0,0:0:0:0:
192,192,83054,1,0,0:0:0:0:
64,192,83106,1,0,0:0:0:0:
320,192,83158,1,0,0:0:0:0:
192,192,83210,1,0,0:0:0:0:
448,192,83262,1,0,0:0:0:0:
320,192,83314,1,0,0:0:0:0:
64,192,83366,1,0,0:0:0:0:
192,192,83366,1,0,0:0:0:0:
320,192,83436,1,0,0:0:0:0:
448,192,83507,1,0,0:0:0:0:
320,192,83578,1,0,0:0:0:0:
192,192,83631,1,0,0:0:0:0:
192,192,83791,1,0,0:0:0:0:
320,192,83791,1,0,0:0:0:0:
448,192,83843,1,0,0:0:0:0:
64,192,83895,1,0,0:0:0:0:
192,192,83947,1,0,0:0:0:0:
320,192,83998,1,0,0:0:0:0:
64,192,84050,1,0,0:0:0:0:
192,192,84102,1,0,0:0:0:0:
448,192,84154,1,0,0:0:0:0:
320,192,84205,1,0,0:0:0:0:
64,192,84205,1,0,0:0:0:0:
192,192,84273,1,0,0:0:0:0:
320,192,84342,1,0,0:0:0:0:
192,192,84411,1,0,0:0:0:0:
320,192,84480,1,0,0:0:0:0:
192,192,84549,1,0,0:0:0:0:
448,192,84620,1,0,0:0:0:0:
64,192,84670,1,0,0:0:0:0:
448,192,84820,1,0,0:0:0:0:
64,192,84870,1,0,0:0:0:0:
320,192,85020,1,0,0:0:0:0:
192,192,85020,1,0,0:0:0:0:
448,192,85221,1,0,0:0:0:0:
64,192,85422,1,0,0:0:0:0:
192,192,85422,1,0,0:0:0:0:
320,192,85491,1,0,0:0:0:0:
448,192,85560,1,0,0:0:0:0:
320,192,85630,1,0,0:0:0:0:
192,192,85699,1,0,0:0:0:0:
448,192,85838,1,0,0:0:0:0:
320,192,85838,1,0,0:0:0:0:
192,192,85907,1,0,0:0:0:0:
64,192,85976,1,0,0:0:0:0:
320,192,86045,1,0,0:0:0:0:
448,192,86045,1,0,0:0:0:0:
64,192,86149,1,0,0:0:0:0:
192,192,86149,1,0,0:0:0:0:
448,192,86253,1,0,0:0:0:0:
320,192,86253,1,0,0:0:0:0:
192,192,86299,1,0,0:0:0:0:
64,192,86346,1,0,0:0:0:0:
320,192,86393,1,0,0:0:0:0:
192,192,86440,1,0,0:0:0:0:
448,192,86487,1,0,0:0:0:0:
320,192,86534,1,0,0:0:0:0:
192,192,86581,1,0,0:0:0:0:
64,192,86628,1,0,0:0:0:0:
448,192,86675,1,0,0:0:0:0:
320,192,86675,1,0,0:0:0:0:
192,192,86722,1,0,0:0:0:0:
64,192,86769,1,0,0:0:0:0:
320,192,86816,1,0,0:0:0:0:
448,192,86863,1,0,0:0:0:0:
64,192,86910,1,0,0:0:0:0:
192,192,86957,1,0,0:0:0:0:
448,192,87004,1,0,0:0:0:0:
320,192,87051,1,0,0:0:0:0:
64,192,87098,1,0,0:0:0:0:
192,192,87098,1,0,0:0:0:0:
448,192,87145,1,0,0:0:0:0:
320,192,87191,1,0,0:0:0:0:
192,192,87238,1,0,0:0:0:0:
448,192,87285,1,0,0:0:0:0:
64,192,87332,1,0,0:0:0:0:
192,192,87379,1,0,0:0:0:0:
320,192,87426,1,0,0:0:0:0:
448,192,87473,1,0,0:0:0:0:
192,192,87520,1,0,0:0:0:0:
64,192,87520,1,0,0:0:0:0:
320,192,87566,1,0,0:0:0:0:
448,192,87612,1,0,0:0:0:0:
192,192,87658,1,0,0:0:0:0:
64,192,87705,1,0,0:0:0:0:
320,192,87751,1,0,0:0:0:0:
192,192,87797,1,0,0:0:0:0:
64,192,87844,1,0,0:0:0:0:
320,192,87890,1,0,0:0:0:0:
448,192,87936,1,0,0:0:0:0:
192,192,87936,1,0,0:0:0:0:
64,192,87982,1,0,0:0:0:0:
320,192,88028,1,0,0:0:0:0:
192,192,88073,1,0,0:0:0:0:
448,192,88119,1,0,0:0:0:0:
64,192,88165,1,0,0:0:0:0:
192,192,88210,1,0,0:0:0:0:
320,192,88256,1,0,0:0:0:0:
448,192,88302,1,0,0:0:0:0:
192,192,88347,1,0,0:0:0:0:
64,192,88347,1,0,0:0:0:0:
320,192,88393,1,0,0:0:0:0:
448,192,88438,1,0,0:0:0:0:
192,192,88484,1,0,0:0:0:0:
320,192,88529,1,0,0:0:0:0:
64,192,88574,1,0,0:0:0:0:
192,192,88620,1,0,0:0:0:0:
320,192,88665,1,0,0:0:0:0:
64,192,88710,1,0,0:0:0:0:
192,192,88756,1,0,0:0:0:0:
448,192,88756,1,0,0:0:0:0:
320,192,88801,1,0,0:0:0:0:
64,192,88847,1,0,0:0:0:0:
448,192,88892,1,0,0:0:0:0:
320,192,88938,1,0,0:0:0:0:
192,192,88984,1,0,0:0:0:0:
64,192,89029,1,0,0:0:0:0:
448,192,89075,1,0,0:0:0:0:
320,192,89121,1,0,0:0:0:0:
192,192,89166,1,0,0:0:0:0:
448,192,89212,1,0,0:0:0:0:
64,192,89212,1,0,0:0:0:0:
320,192,89258,1,0,0:0:0:0:
192,192,89303,1,0,0:0:0:0:
448,192,89349,1,0,0:0:0:0:
64,192,89395,1,0,0:0:0:0:
320,192,89440,1,0,0:0:0:0:
192,192,89486,1,0,0:0:0:0:
448,192,89532,1,0,0:0:0:0:
320,192,89577,1,0,0:0:0:0:
64,192,89577,1,0,0:0:0:0:
192,192,89632,1,0,0:0:0:0:
448,192,89687,1,0,0:0:0:0:
64,192,89742,1,0,0:0:0:0:
192,192,89796,1,0,0:0:0:0:
448,192,89851,1,0,0:0:0:0:
320,192,89906,1,0,0:0:0:0:
64,192,89961,1,0,0:0:0:0:
192,192,90016,1,0,0:0:0:0:
448,192,90016,1,0,0:0:0:0:
320,192,90066,1,0,0:0:0:0:
64,192,90117,1,0,0:0:0:0:
448,192,90168,1,0,0:0:0:0:
192,192,90218,1,0,0:0:0:0:
320,192,90269,1,0,0:0:0:0:
448,192,90320,1,0,0:0:0:0:
192,192,90370,1,0,0:0:0:0:
320,192,90421,1,0,0:0:0:0:
64,192,90421,1,0,0:0:0:0:
448,192,90474,1,0,0:0:0:0:
192,192,90527,1,0,0:0:0:0:
320,192,90580,1,0,0:0:0:0:
64,192,90633,1,0,0:0:0:0:
192,192,90686,1,0,0:0:0:0:
448,192,90740,1,0,0:0:0:0:
320,192,90793,1,0,0:0:0:0:
192,192,90846,1,0,0:0:0:0:
64,192,90846,1,0,0:0:0:0:
448,192,90897,1,0,0:0:0:0:
320,192,90947,1,0,0:0:0:0:
64,192,90998,1,0,0:0:0:0:
448,192,91048,1,0,0:0:0:0:
192,192,91098,1,0,0:0:0:0:
320,192,91149,1,0,0:0:0:0:
64,192,91199,1,0,0:0:0:0:
192,192,91249,1,0,0:0:0:0:
448,192,91249,1,0,0:0:0:0:
320,192,91302,1,0,0:0:0:0:
64,192,91354,1,0,0:0:0:0:
192,192,91406,1,0,0:0:0:0:
448,192,91458,1,0,0:0:0:0:
320,192,91510,1,0,0:0:0:0:
192,192,91562,1,0,0:0:0:0:
64,192,91614,1,0,0:0:0:0:
320,192,91666,1,0,0:0:0:0:
448,192,91666,1,0,0:0:0:0:
192,192,91735,1,0,0:0:0:0:
64,192,91805,1,0,0:0:0:0:
320,192,91875,1,0,0:0:0:0:
192,192,91945,1,0,0:0:0:0:
448,192,92015,1,0,0:0:0:0:
320,192,92086,1,0,0:0:0:0:
64,192,92086,1,0,0:0:0:0:
192,192,92154,1,0,0:0:0:0:
320,192,92223,1,0,0:0:0:0:
448,192,92292,1,0,0:0:0:0:
64,192,92361,1,0,0:0:0:0:
192,192,92430,1,0,0:0:0:0:
320,192,92499,1,0,0:0:0:0:
448,192,92499,1,0,0:0:0:0:
192,192,92596,1,0,0:0:0:0:
64,192,92596,1,0,0:0:0:0:
320,192,92692,1,0,0:0:0:0:
448,192,92692,1,0,0:0:0:0:
64,192,92788,1,0,0:0:0:0:
192,192,92788,1,0,0:0:0:0:
320,192,92884,1,0,0:0:0:0:
448,192,92884,1,0,0:0:0:0:
192,192,93093,1,0,0:0:0:0:
320,192,93093,1,0,0:0:0:0:
448,192,93198,1,0,0:0:0:0:
320,192,93303,1,0,0:0:0:0:
192,192,93303,1,0,0:0:0:0:
448,192,93510,1,0,0:0:0:0:
320,192,93614,1,0,0:0:0:0:
192,192,93717,1,0,0:0:0:0:
64,192,93717,1,0,0:0:0:0:
448,192,93769,1,0,0:0:0:0:
192,192,93820,1,0,0:0:0:0:
320,192,93888,1,0,0:0:0:0:
64,192,93956,1,0,0:0:0:0:
192,192,94024,1,0,0:0:0:0:
320,192,94126,1,0,0:0:0:0:
64,192,94126,1,0,0:0:0:0:
448,192,94228,1,0,0:0:0:0:
192,192,94330,1,0,0:0:0:0:
320,192,94432,1,0,0:0:0:0:
192,192,94534,1,0,0:0:0:0:
64,192,94534,1,0,0:0:0:0:
320,192,94604,1,0,0:0:0:0:
448,192,94675,1,0,0:0:0:0:
320,192,94746,1,0,0:0:0:0:
64,192,94746,1,0,0:0:0:0:
192,192,94817,1,0,0:0:0:0:
448,192,94888,1,0,0:0:0:0:
320,192,94959,1,0,0:0:0:0:
64,192,94959,1,0,0:0:0:0:
448,192,95164,1,0,0:0:0:0:
320,192,95164,1,0,0:0:0:0:
64,192,95232,1,0,0:0:0:0:
192,192,95301,1,0,0:0:0:0:
320,192,95369,1,0,0:0:0:0:
448,192,95369,1,0,0:0:0:0:
192,192,95435,1,0,0:0:0:0:
64,192,95501,1,0,0:0:0:0:
192,192,95567,1,0,0:0:0:0:
448,192,95633,1,0,0:0:0:0:
320,192,95633,1,0,0:0:0:0:
192,192,95764,1,0,0:0:0:0:
64,192,95764,1,0,0:0:0:0:
320,192,95863,1,0,0:0:0:0:
448,192,95863,1,0,0:0:0:0:
192,192,95962,1,0,0:0:0:0:
64,192,95962,1,0,0:0:0:0:
320,192,96060,1,0,0:0:0:0:
448,192,96060,1,0,0:0:0:0:
192,192,96160,1,0,0:0:0:0:
64,192,96160,1,0,0:0:0:0:
320,192,96213,1,0,0:0:0:0:
448,192,96266,1,0,0:0:0:0:
192,192,96319,1,0,0:0:0:0:
320,192,96372,1,0,0:0:0:0:
64,192,96425,1,0,0:0:0:0:
192,192,96479,1,0,0:0:0:0:
320,192,96585,1,0,0:0:0:0:
448,192,96585,1,0,0:0:0:0:
192,192,96635,1,0,0:0:0:0:
448,192,96786,1,0,0:0:0:0:
320,192,96887,1,0,0:0:0:0:
64,192,96987,1,0,0:0:0:0:
448,192,96987,1,0,0:0:0:0:
192,192,97039,1,0,0:0:0:0:
448,192,97194,1,0,0:0:0:0:
64,192,97194,1,0,0:0:0:0:
192,192,97246,1,0,0:0:0:0:
192,192,97402,1,0,0:0:0:0:
320,192,97402,1,0,0:0:0:0:
320,192,97604,1,0,0:0:0:0:
448,192,97604,1,0,0:0:0:0:
192,192,97655,1,0,0:0:0:0:
64,192,97706,1,0,0:0:0:0:
320,192,97756,1,0,0:0:0:0:
192,192,97807,1,0,0:0:0:0:
448,192,97859,1,0,0:0:0:0:
320,192,97912,1,0,0:0:0:0:
64,192,97965,1,0,0:0:0:0:
448,192,98018,1,0,0:0:0:0:
192,192,98088,1,0,0:0:0:0:
320,192,98159,1,0,0:0:0:0:
192,192,98230,1,0,0:0:0:0:
64,192,98230,1,0,0:0:0:0:
448,192,98282,1,0,0:0:0:0:
64,192,98438,1,0,0:0:0:0:
192,192,98542,1,0,0:0:0:0:
64,192,98646,1,0,0:0:0:0:
448,192,98646,1,0,0:0:0:0:
320,192,98696,1,0,0:0:0:0:
448,192,98844,1,0,0:0:0:0:
64,192,98844,1,0,0:0:0:0:
320,192,98893,1,0,0:0:0:0:
192,192,98943,1,0,0:0:0:0:
64,192,98992,1,0,0:0:0:0:
320,192,99041,1,0,0:0:0:0:
448,192,99041,1,0,0:0:0:0:
192,192,99142,1,0,0:0:0:0:
64,192,99142,1,0,0:0:0:0:
320,192,99243,1,0,0:0:0:0:
448,192,99243,1,0,0:0:0:0:
192,192,99345,1,0,0:0:0:0:
64,192,99345,1,0,0:0:0:0:
320,192,99447,1,0,0:0:0:0:
448,192,99447,1,0,0:0:0:0:
192,192,99499,1,0,0:0:0:0:
448,192,99655,1,0,0:0:0:0:
320,192,99655,1,0,0:0:0:0:
192,192,99707,1,0,0:0:0:0:
320,192,99863,1,0,0:0:0:0:
64,192,99863,1,0,0:0:0:0:
192,192,99912,1,0,0:0:0:0:
64,192,100059,1,0,0:0:0:0:
192,192,100157,1,0,0:0:0:0:
320,192,100255,1,0,0:0:0:0:
448,192,100255,1,0,0:0:0:0:
64,192,100308,1,0,0:0:0:0:
320,192,100362,1,0,0:0:0:0:
192,192,100434,1,0,0:0:0:0:
448,192,100506,1,0,0:0:0:0:
320,192,100578,1,0,0:0:0:0:
192,192,100686,1,0,0:0:0:0:
448,192,100687,1,0,0:0:0:0:
64,192,100791,1,0,0:0:0:0:
320,192,100895,1,0,0:0:0:0:
192,192,100999,1,0,0:0:0:0:
320,192,101103,1,0,0:0:0:0:
448,192,101103,1,0,0:0:0:0:
192,192,101172,1,0,0:0:0:0:
64,192,101240,1,0,0:0:0:0:
192,192,101309,1,0,0:0:0:0:
448,192,101309,1,0,0:0:0:0:
320,192,101377,1,0,0:0:0:0:
64,192,101446,1,0,0:0:0:0:
448,192,101514,1,0,0:0:0:0:
192,192,101514,1,0,0:0:0:0:
64,192,101721,1,0,0:0:0:0:
192,192,101721,1,0,0:0:0:0:
448,192,101790,1,0,0:0:0:0:
320,192,101859,1,0,0:0:0:0:
64,192,101928,1,0,0:0:0:0:
192,192,101928,1,0,0:0:0:0:
320,192,101993,1,0,0:0:0:0:
448,192,102058,1,0,0:0:0:0:
64,192,102219,1,0,0:0:0:0:
192,192,102219,1,0,0:0:0:0:
320,192,102316,1,0,0:0:0:0:
448,192,102316,1,0,0:0:0:0:
192,192,102414,1,0,0:0:0:0:
64,192,102414,1,0,0:0:0:0:
320,192,102513,1,0,0:0:0:0:
448,192,102513,1,0,0:0:0:0:
192,192,102612,1,0,0:0:0:0:
64,192,102612,1,0,0:0:0:0:
320,192,102710,1,0,0:0:0:0:
448,192,102710,1,0,0:0:0:0:
192,192,102763,1,0,0:0:0:0:
64,192,102816,1,0,0:0:0:0:
320,192,102869,1,0,0:0:0:0:
192,192,102922,1,0,0:0:0:0:
448,192,102975,1,0,0:0:0:0:
320,192,103029,1,0,0:0:0:0:
192,192,103135,1,0,0:0:0:0:
64,192,103135,1,0,0:0:0:0:
320,192,103185,1,0,0:0:0:0:
64,192,103334,1,0,0:0:0:0:
192,192,103434,1,0,0:0:0:0:
448,192,103533,1,0,0:0:0:0:
64,192,103533,1,0,0:0:0:0:
320,192,103585,1,0,0:0:0:0:
64,192,103742,1,0,0:0:0:0:
448,192,103742,1,0,0:0:0:0:
320,192,103795,1,0,0:0:0:0:
192,192,103952,1,0,0:0:0:0:
320,192,103952,1,0,0:0:0:0:
192,192,104157,1,0,0:0:0:0:
64,192,104157,1,0,0:0:0:0:
320,192,104208,1,0,0:0:0:0:
448,192,104259,1,0,0:0:0:0:
192,192,104310,1,0,0:0:0:0:
320,192,104361,1,0,0:0:0:0:
64,192,104412,1,0,0:0:0:0:
192,192,104464,1,0,0:0:0:0:
448,192,104516,1,0,0:0:0:0:
64,192,104567,1,0,0:0:0:0:
448,192,104636,1,0,0:0:0:0:
192,192,104705,1,0,0:0:0:0:
448,192,104774,1,0,0:0:0:0:
320,192,104774,1,0,0:0:0:0:
64,192,104825,1,0,0:0:0:0:
448,192,104977,1,0,0:0:0:0:
320,192,105079,1,0,0:0:0:0:
448,192,105180,1,0,0:0:0:0:
64,192,105180,1,0,0:0:0:0:
192,192,105231,1,0,0:0:0:0:
64,192,105386,1,0,0:0:0:0:
448,192,105386,1,0,0:0:0:0:
192,192,105438,1,0,0:0:0:0:
320,192,105490,1,0,0:0:0:0:
448,192,105542,1,0,0:0:0:0:
192,192,105593,1,0,0:0:0:0:
64,192,105594,1,0,0:0:0:0:
320,192,105694,1,0,0:0:0:0:
448,192,105694,1,0,0:0:0:0:
192,192,105794,1,0,0:0:0:0:
64,192,105794,1,0,0:0:0:0:
320,192,105894,1,0,0:0:0:0:
448,192,105894,1,0,0:0:0:0:
192,192,105994,1,0,0:0:0:0:
64,192,105994,1,0,0:0:0:0:
320,192,106045,1,0,0:0:0:0:
448,192,106200,1,0,0:0:0:0:
320,192,106304,1,0,0:0:0:0:
64,192,106407,1,0,0:0:0:0:
448,192,106408,1,0,0:0:0:0:
192,192,106459,1,0,0:0:0:0:
64,192,106612,1,0,0:0:0:0:
192,192,106714,1,0,0:0:0:0:
448,192,106816,1,0,0:0:0:0:
320,192,106816,1,0,0:0:0:0:
64,192,106868,1,0,0:0:0:0:
320,192,106921,1,0,0:0:0:0:
192,192,106992,1,0,0:0:0:0:
320,192,107062,1,0,0:0:0:0:
448,192,107132,1,0,0:0:0:0:
320,192,107238,1,0,0:0:0:0:
192,192,107238,1,0,0:0:0:0:
64,192,107340,1,0,0:0:0:0:
320,192,107443,1,0,0:0:0:0:
192,192,107546,1,0,0:0:0:0:
320,192,107649,1,0,0:0:0:0:
448,192,107649,1,0,0:0:0:0:
192,192,107718,1,0,0:0:0:0:
448,192,107788,1,0,0:0:0:0:
320,192,107858,1,0,0:0:0:0:
64,192,107858,1,0,0:0:0:0:
192,192,107928,1,0,0:0:0:0:
448,192,107998,1,0,0:0:0:0:
192,192,108069,1,0,0:0:0:0:
64,192,108069,1,0,0:0:0:0:
320,192,108275,1,0,0:0:0:0:
448,192,108275,1,0,0:0:0:0:
64,192,108327,1,0,0:0:0:0:
192,192,108379,1,0,0:0:0:0:
320,192,108431,1,0,0:0:0:0:
64,192,108483,1,0,0:0:0:0:
192,192,108533,1,0,0:0:0:0:
448,192,108584,1,0,0:0:0:0:
320,192,108635,1,0,0:0:0:0:
192,192,108685,1,0,0:0:0:0:
64,192,108736,1,0,0:0:0:0:
448,192,108787,1,0,0:0:0:0:
320,192,108837,1,0,0:0:0:0:
192,192,108888,1,0,0:0:0:0:
64,192,108888,1,0,0:0:0:0:
320,192,108986,1,0,0:0:0:0:
448,192,108986,1,0,0:0:0:0:
192,192,109085,1,0,0:0:0:0:
64,192,109085,1,0,0:0:0:0:
320,192,109184,1,0,0:0:0:0:
448,192,109184,1,0,0:0:0:0:
64,192,109283,1,0,0:0:0:0:
192,192,109283,1,0,0:0:0:0:
320,192,109342,1,0,0:0:0:0:
448,192,109401,1,0,0:0:0:0:
192,192,109460,1,0,0:0:0:0:
320,192,109519,1,0,0:0:0:0:
64,192,109578,1,0,0:0:0:0:
192,192,109637,1,0,0:0:0:0:
448,192,109697,1,0,0:0:0:0:
64,192,109753,1,0,0:0:0:0:
320,192,109810,1,0,0:0:0:0:
192,192,109867,1,0,0:0:0:0:
64,192,109924,1,0,0:0:0:0:
448,192,109980,1,0,0:0:0:0:
320,192,110037,1,0,0:0:0:0:
64,192,110094,1,0,0:0:0:0:
448,192,110165,1,0,0:0:0:0:
192,192,110236,1,0,0:0:0:0:
320,192,110308,1,0,0:0:0:0:
192,192,110379,1,0,0:0:0:0:
64,192,110451,1,0,0:0:0:0:
320,192,110523,1,0,0:0:0:0:
448,192,110523,1,0,0:0:0:0:
64,192,110717,1,0,0:0:0:0:
192,192,110815,1,0,0:0:0:0:
64,192,110912,1,0,0:0:0:0:
320,192,110912,1,0,0:0:0:0:
448,192,110979,1,0,0:0:0:0:
64,192,111047,1,0,0:0:0:0:
320,192,111114,1,0,0:0:0:0:
192,192,111114,1,0,0:0:0:0:
448,192,111182,1,0,0:0:0:0:
64,192,111249,1,0,0:0:0:0:
320,192,111317,1,0,0:0:0:0:
448,192,111317,1,0,0:0:0:0:
448,192,111527,1,0,0:0:0:0:
320,192,111527,1,0,0:0:0:0:
192,192,111580,1,0,0:0:0:0:
64,192,111632,1,0,0:0:0:0:
448,192,111685,1,0,0:0:0:0:
320,192,111737,1,0,0:0:0:0:
64,192,111737,1,0,0:0:0:0:
192,192,111789,1,0,0:0:0:0:
448,192,111841,1,0,0:0:0:0:
320,192,111893,1,0,0:0:0:0:
64,192,111945,1,0,0:0:0:0:
448,192,112014,1,0,0:0:0:0:
192,192,112084,1,0,0:0:0:0:
64,192,112154,1,0,0:0:0:0:
320,192,112154,1,0,0:0:0:0:
320,192,112359,1,0,0:0:0:0:
448,192,112359,1,0,0:0:0:0:
192,192,112462,1,0,0:0:0:0:
64,192,112462,1,0,0:0:0:0:
320,192,112564,1,0,0:0:0:0:
448,192,112565,1,0,0:0:0:0:
192,192,112624,1,0,0:0:0:0:
64,192,112684,1,0,0:0:0:0:
448,192,112743,1,0,0:0:0:0:
192,192,112803,1,0,0:0:0:0:
320,192,112862,1,0,0:0:0:0:
448,192,112922,1,0,0:0:0:0:
64,192,112981,1,0,0:0:0:0:
192,192,112982,1,0,0:0:0:0:
320,192,113040,1,0,0:0:0:0:
448,192,113099,1,0,0:0:0:0:
192,192,113158,1,0,0:0:0:0:
320,192,113216,1,0,0:0:0:0:
64,192,113275,1,0,0:0:0:0:
192,192,113334,1,0,0:0:0:0:
320,192,113392,1,0,0:0:0:0:
448,192,113393,1,0,0:0:0:0:
64,192,113452,1,0,0:0:0:0:
192,192,113512,1,0,0:0:0:0:
448,192,113572,1,0,0:0:0:0:
64,192,113632,1,0,0:0:0:0:
320,192,113692,1,0,0:0:0:0:
192,192,113752,1,0,0:0:0:0:
320,192,113812,1,0,0:0:0:0:
64,192,113812,1,0,0:0:0:0:
448,192,113871,1,0,0:0:0:0:
192,192,113930,1,0,0:0:0:0:
320,192,113989,1,0,0:0:0:0:
64,192,114048,1,0,0:0:0:0:
448,192,114107,1,0,0:0:0:0:
192,192,114166,1,0,0:0:0:0:
320,192,114225,1,0,0:0:0:0:
448,192,114225,1,0,0:0:0:0:
64,192,114285,1,0,0:0:0:0:
192,192,114345,1,0,0:0:0:0:
448,192,114404,1,0,0:0:0:0:
320,192,114464,1,0,0:0:0:0:
64,192,114523,1,0,0:0:0:0:
448,192,114583,1,0,0:0:0:0:
320,192,114642,1,0,0:0:0:0:
64,192,114642,1,0,0:0:0:0:
192,192,114701,1,0,0:0:0:0:
448,192,114759,1,0,0:0:0:0:
192,192,114817,1,0,0:0:0:0:
64,192,114876,1,0,0:0:0:0:
448,192,114934,1,0,0:0:0:0:
64,192,114992,1,0,0:0:0:0:
320,192,115051,1,0,0:0:0:0:
448,192,115051,1,0,0:0:0:0:
192,192,115119,1,0,0:0:0:0:
64,192,115187,1,0,0:0:0:0:
320,192,115255,1,0,0:0:0:0:
192,192,115323,1,0,0:0:0:0:
64,192,115391,1,0,0:0:0:0:
320,192,115459,1,0,0:0:0:0:
448,192,115459,1,0,0:0:0:0:
192,192,115526,1,0,0:0:0:0:
320,192,115593,1,0,0:0:0:0:
448,192,115660,1,0,0:0:0:0:
320,192,115727,1,0,0:0:0:0:
64,192,115794,1,0,0:0:0:0:
192,192,115862,1,0,0:0:0:0:
448,192,115862,1,0,0:0:0:0:
320,192,115932,1,0,0:0:0:0:
192,192,116002,1,0,0:0:0:0:
64,192,116073,1,0,0:0:0:0:
448,192,116143,1,0,0:0:0:0:
320,192,116214,1,0,0:0:0:0:
64,192,116284,1,0,0:0:0:0:
192,192,116284,1,0,0:0:0:0:
320,192,116351,1,0,0:0:0:0:
448,192,116418,1,0,0:0:0:0:
64,192,116485,1,0,0:0:0:0:
192,192,116485,1,0,0:0:0:0:
64,192,116687,1,0,0:0:0:0:
192,192,116687,1,0,0:0:0:0:
320,192,116769,1,0,0:0:0:0:
192,192,116852,1,0,0:0:0:0:
448,192,116935,1,0,0:0:0:0:
64,192,117018,1,0,0:0:0:0:
448,192,117100,1,0,0:0:0:0:
192,192,117101,1,0,0:0:0:0:
320,192,117182,1,0,0:0:0:0:
64,192,117264,1,0,0:0:0:0:
320,192,117345,1,0,0:0:0:0:
64,192,117427,1,0,0:0:0:0:
192,192,117509,1,0,0:0:0:0:
448,192,117509,1,0,0:0:0:0:
320,192,117561,1,0,0:0:0:0:
448,192,117717,1,0,0:0:0:0:
320,192,117769,1,0,0:0:0:0:
192,192,117925,1,0,0:0:0:0:
448,192,117925,1,0,0:0:0:0:
64,192,118134,1,0,0:0:0:0:
448,192,118345,1,0,0:0:0:0:
64,192,118345,1,0,0:0:0:0:
192,192,118395,1,0,0:0:0:0:
320,192,118547,1,0,0:0:0:0:
448,192,118649,1,0,0:0:0:0:
320,192,118750,1,0,0:0:0:0:
64,192,118750,1,0,0:0:0:0:
320,192,118941,1,0,0:0:0:0:
448,192,118941,1,0,0:0:0:0:
192,192,119036,1,0,0:0:0:0:
64,192,119036,1,0,0:0:0:0:
320,192,119133,1,0,0:0:0:0:
448,192,119133,1,0,0:0:0:0:
192,192,119203,1,0,0:0:0:0:
64,192,119274,1,0,0:0:0:0:
320,192,119345,1,0,0:0:0:0:
192,192,119416,1,0,0:0:0:0:
448,192,119487,1,0,0:0:0:0:
320,192,119558,1,0,0:0:0:0:
64,192,119558,1,0,0:0:0:0:
192,192,119627,1,0,0:0:0:0:
448,192,119696,1,0,0:0:0:0:
320,192,119766,1,0,0:0:0:0:
64,192,119835,1,0,0:0:0:0:
192,192,119905,1,0,0:0:0:0:
320,192,119974,1,0,0:0:0:0:
448,192,119975,1,0,0:0:0:0:
64,192,120043,1,0,0:0:0:0:
192,192,120111,1,0,0:0:0:0:
448,192,120179,1,0,0:0:0:0:
64,192,120247,1,0,0:0:0:0:
320,192,120315,1,0,0:0:0:0:
192,192,120383,1,0,0:0:0:0:
448,192,120383,1,0,0:0:0:0:
64,192,120451,1,0,0:0:0:0:
320,192,120519,1,0,0:0:0:0:
192,192,120587,1,0,0:0:0:0:
320,192,120655,1,0,0:0:0:0:
448,192,120723,1,0,0:0:0:0:
64,192,120791,1,0,0:0:0:0:
192,192,120791,1,0,0:0:0:0:
320,192,120859,1,0,0:0:0:0:
448,192,120927,1,0,0:0:0:0:
64,192,120995,1,0,0:0:0:0:
192,192,121063,1,0,0:0:0:0:
448,192,121131,1,0,0:0:0:0:
64,192,121199,1,0,0:0:0:0:
320,192,121199,1,0,0:0:0:0:
448,192,121404,1,0,0:0:0:0:
320,192,121507,1,0,0:0:0:0:
64,192,121609,1,0,0:0:0:0:
448,192,121609,1,0,0:0:0:0:
192,192,121677,1,0,0:0:0:0:
320,192,121745,1,0,0:0:0:0:
192,192,121812,1,0,0:0:0:0:
448,192,121812,1,0,0:0:0:0:
64,192,121880,1,0,0:0:0:0:
448,192,121947,1,0,0:0:0:0:
192,192,122015,1,0,0:0:0:0:
64,192,122015,1,0,0:0:0:0:
320,192,122082,1,0,0:0:0:0:
448,192,122148,1,0,0:0:0:0:
320,192,122214,1,0,0:0:0:0:
64,192,122413,1,0,0:0:0:0:
192,192,122413,1,0,0:0:0:0:
320,192,122496,1,0,0:0:0:0:
448,192,122580,1,0,0:0:0:0:
64,192,122664,1,0,0:0:0:0:
192,192,122748,1,0,0:0:0:0:
320,192,122832,1,0,0:0:0:0:
448,192,122833,1,0,0:0:0:0:
320,192,123035,1,0,0:0:0:0:
64,192,123238,1,0,0:0:0:0:
192,192,123238,1,0,0:0:0:0:
320,192,123320,1,0,0:0:0:0:
448,192,123403,1,0,0:0:0:0:
192,192,123486,1,0,0:0:0:0:
320,192,123569,1,0,0:0:0:0:
192,192,123651,1,0,0:0:0:0:
64,192,123651,1,0,0:0:0:0:
448,192,123734,1,0,0:0:0:0:
64,192,123816,1,0,0:0:0:0:
320,192,123898,1,0,0:0:0:0:
192,192,123980,1,0,0:0:0:0:
320,192,124062,1,0,0:0:0:0:
448,192,124063,1,0,0:0:0:0:
64,192,124113,1,0,0:0:0:0:
320,192,124265,1,0,0:0:0:0:
64,192,124316,1,0,0:0:0:0:
448,192,124468,1,0,0:0:0:0:
192,192,124468,1,0,0:0:0:0:
320,192,124666,1,0,0:0:0:0:
192,192,124865,1,0,0:0:0:0:
320,192,124916,1,0,0:0:0:0:
64,192,125069,1,0,0:0:0:0:
64,192,125274,1,0,0:0:0:0:
192,192,125274,1,0,0:0:0:0:
64,192,125475,1,0,0:0:0:0:
192,192,125475,1,0,0:0:0:0:
320,192,125576,1,0,0:0:0:0:
448,192,125576,1,0,0:0:0:0:
192,192,125676,1,0,0:0:0:0:
64,192,125676,1,0,0:0:0:0:
320,192,125722,1,0,0:0:0:0:
448,192,125768,1,0,0:0:0:0:
64,192,125814,1,0,0:0:0:0:
192,192,125861,1,0,0:0:0:0:
320,192,125907,1,0,0:0:0:0:
64,192,125953,1,0,0:0:0:0:
192,192,126000,1,0,0:0:0:0:
448,192,126046,1,0,0:0:0:0:
320,192,126092,1,0,0:0:0:0:
64,192,126092,1,0,0:0:0:0:
192,192,126137,1,0,0:0:0:0:
448,192,126182,1,0,0:0:0:0:
320,192,126227,1,0,0:0:0:0:
192,192,126271,1,0,0:0:0:0:
64,192,126316,1,0,0:0:0:0:
448,192,126361,1,0,0:0:0:0:
320,192,126406,1,0,0:0:0:0:
64,192,126450,1,0,0:0:0:0:
192,192,126495,1,0,0:0:0:0:
448,192,126495,1,0,0:0:0:0:
320,192,126541,1,0,0:0:0:0:
64,192,126587,1,0,0:0:0:0:
192,192,126632,1,0,0:0:0:0:
320,192,126678,1,0,0:0:0:0:
64,192,126724,1,0,0:0:0:0:
192,192,126769,1,0,0:0:0:0:
448,192,126815,1,0,0:0:0:0:
320,192,126861,1,0,0:0:0:0:
192,192,126907,1,0,0:0:0:0:
64,192,126907,1,0,0:0:0:0:
448,192,126956,1,0,0:0:0:0:
320,192,127005,1,0,0:0:0:0:
64,192,127054,1,0,0:0:0:0:
448,192,127103,1,0,0:0:0:0:
192,192,127152,1,0,0:0:0:0:
320,192,127201,1,0,0:0:0:0:
448,192,127250,1,0,0:0:0:0:
64,192,127299,1,0,0:0:0:0:
192,192,127299,1,0,0:0:0:0:
320,192,127350,1,0,0:0:0:0:
448,192,127401,1,0,0:0:0:0:
64,192,127452,1,0,0:0:0:0:
320,192,127503,1,0,0:0:0:0:
192,192,127554,1,0,0:0:0:0:
64,192,127605,1,0,0:0:0:0:
320,192,127656,1,0,0:0:0:0:
192,192,127707,1,0,0:0:0:0:
448,192,127707,1,0,0:0:0:0:
64,192,127757,1,0,0:0:0:0:
320,192,127808,1,0,0:0:0:0:
192,192,127859,1,0,0:0:0:0:
448,192,127909,1,0,0:0:0:0:
320,192,127960,1,0,0:0:0:0:
64,192,128011,1,0,0:0:0:0:
192,192,128061,1,0,0:0:0:0:
320,192,128112,1,0,0:0:0:0:
448,192,128112,1,0,0:0:0:0:
192,192,128179,1,0,0:0:0:0:
64,192,128246,1,0,0:0:0:0:
192,192,128313,1,0,0:0:0:0:
320,192,128380,1,0,0:0:0:0:
448,192,128447,1,0,0:0:0:0:
192,192,128514,1,0,0:0:0:0:
64,192,128515,1,0,0:0:0:0:
320,192,128581,1,0,0:0:0:0:
448,192,128648,1,0,0:0:0:0:
192,192,128715,1,0,0:0:0:0:
64,192,128715,1,0,0:0:0:0:
320,192,128815,1,0,0:0:0:0:
448,192,128815,1,0,0:0:0:0:
192,192,128915,1,0,0:0:0:0:
64,192,128915,1,0,0:0:0:0:
320,192,128961,1,0,0:0:0:0:
448,192,129008,1,0,0:0:0:0:
64,192,129054,1,0,0:0:0:0:
192,192,129101,1,0,0:0:0:0:
448,192,129148,1,0,0:0:0:0:
320,192,129194,1,0,0:0:0:0:
192,192,129241,1,0,0:0:0:0:
64,192,129287,1,0,0:0:0:0:
448,192,129334,1,0,0:0:0:0:
320,192,129335,1,0,0:0:0:0:
192,192,129379,1,0,0:0:0:0:
64,192,129423,1,0,0:0:0:0:
448,192,129468,1,0,0:0:0:0:
320,192,129512,1,0,0:0:0:0:
64,192,129557,1,0,0:0:0:0:
448,192,129601,1,0,0:0:0:0:
320,192,129646,1,0,0:0:0:0:
64,192,129690,1,0,0:0:0:0:
192,192,129735,1,0,0:0:0:0:
448,192,129735,1,0,0:0:0:0:
320,192,129780,1,0,0:0:0:0:
64,192,129826,1,0,0:0:0:0:
448,192,129872,1,0,0:0:0:0:
192,192,129918,1,0,0:0:0:0:
320,192,129964,1,0,0:0:0:0:
448,192,130010,1,0,0:0:0:0:
64,192,130056,1,0,0:0:0:0:
192,192,130102,1,0,0:0:0:0:
320,192,130148,1,0,0:0:0:0:
448,192,130148,1,0,0:0:0:0:
64,192,130198,1,0,0:0:0:0:
192,192,130248,1,0,0:0:0:0:
448,192,130299,1,0,0:0:0:0:
64,192,130349,1,0,0:0:0:0:
320,192,130399,1,0,0:0:0:0:
448,192,130450,1,0,0:0:0:0:
192,192,130500,1,0,0:0:0:0:
320,192,130550,1,0,0:0:0:0:
64,192,130550,1,0,0:0:0:0:
448,192,130600,1,0,0:0:0:0:
192,192,130650,1,0,0:0:0:0:
320,192,130701,1,0,0:0:0:0:
64,192,130751,1,0,0:0:0:0:
448,192,130801,1,0,0:0:0:0:
192,192,130852,1,0,0:0:0:0:
64,192,130902,1,0,0:0:0:0:
320,192,130952,1,0,0:0:0:0:
448,192,130952,1,0,0:0:0:0:
192,192,131003,1,0,0:0:0:0:
64,192,131053,1,0,0:0:0:0:
320,192,131103,1,0,0:0:0:0:
192,192,131154,1,0,0:0:0:0:
64,192,131204,1,0,0:0:0:0:
448,192,131254,1,0,0:0:0:0:
320,192,131305,1,0,0:0:0:0:
64,192,131355,1,0,0:0:0:0:
192,192,131355,1,0,0:0:0:0:
320,192,131422,1,0,0:0:0:0:
448,192,131489,1,0,0:0:0:0:
320,192,131556,1,0,0:0:0:0:
192,192,131623,1,0,0:0:0:0:
64,192,131690,1,0,0:0:0:0:
320,192,131759,1,0,0:0:0:0:
448,192,131759,1,0,0:0:0:0:
192,192,131824,1,0,0:0:0:0:
64,192,131890,1,0,0:0:0:0:
320,192,131956,1,0,0:0:0:0:
448,192,131956,1,0,0:0:0:0:
192,192,132055,1,0,0:0:0:0:
64,192,132055,1,0,0:0:0:0:
320,192,132153,1,0,0:0:0:0:
448,192,132153,1,0,0:0:0:0:
192,192,132204,1,0,0:0:0:0:
64,192,132255,1,0,0:0:0:0:
320,192,132306,1,0,0:0:0:0:
192,192,132356,1,0,0:0:0:0:
448,192,132407,1,0,0:0:0:0:
64,192,132458,1,0,0:0:0:0:
320,192,132508,1,0,0:0:0:0:
192,192,132559,1,0,0:0:0:0:
448,192,132559,1,0,0:0:0:0:
64,192,132610,1,0,0:0:0:0:
320,192,132660,1,0,0:0:0:0:
192,192,132711,1,0,0:0:0:0:
448,192,132762,1,0,0:0:0:0:
64,192,132812,1,0,0:0:0:0:
192,192,132863,1,0,0:0:0:0:
448,192,132914,1,0,0:0:0:0:
320,192,132965,1,0,0:0:0:0:
64,192,132965,1,0,0:0:0:0:
192,192,133014,1,0,0:0:0:0:
448,192,133064,1,0,0:0:0:0:
320,192,133114,1,0,0:0:0:0:
64,192,133163,1,0,0:0:0:0:
192,192,133213,1,0,0:0:0:0:
320,192,133263,1,0,0:0:0:0:
448,192,133312,1,0,0:0:0:0:
64,192,133362,1,0,0:0:0:0:
192,192,133362,1,0,0:0:0:0:
320,192,133421,1,0,0:0:0:0:
448,192,133480,1,0,0:0:0:0:
192,192,133539,1,0,0:0:0:0:
320,192,133598,1,0,0:0:0:0:
64,192,133657,1,0,0:0:0:0:
448,192,133716,1,0,0:0:0:0:
64,192,133775,1,0,0:0:0:0:
320,192,133775,1,0,0:0:0:0:
192,192,133833,1,0,0:0:0:0:
320,192,133891,1,0,0:0:0:0:
448,192,133949,1,0,0:0:0:0:
192,192,134007,1,0,0:0:0:0:
320,192,134065,1,0,0:0:0:0:
64,192,134123,1,0,0:0:0:0:
192,192,134181,1,0,0:0:0:0:
448,192,134181,1,0,0:0:0:0:
320,192,134249,1,0,0:0:0:0:
192,192,134317,1,0,0:0:0:0:
448,192,134386,1,0,0:0:0:0:
64,192,134386,1,0,0:0:0:0:
320,192,134454,1,0,0:0:0:0:
448,192,134523,1,0,0:0:0:0:
192,192,134591,1,0,0:0:0:0:
64,192,134591,1,0,0:0:0:0:
320,192,134659,1,0,0:0:0:0:
448,192,134727,1,0,0:0:0:0:
320,192,134796,1,0,0:0:0:0:
192,192,134864,1,0,0:0:0:0:
64,192,134933,1,0,0:0:0:0:
320,192,135003,1,0,0:0:0:0:
448,192,135003,1,0,0:0:0:0:
192,192,135100,1,0,0:0:0:0:
64,192,135100,1,0,0:0:0:0:
320,192,135197,1,0,0:0:0:0:
448,192,135197,1,0,0:0:0:0:
192,192,135295,1,0,0:0:0:0:
64,192,135295,1,0,0:0:0:0:
320,192,135392,1,0,0:0:0:0:
448,192,135393,1,0,0:0:0:0:
192,192,135494,1,0,0:0:0:0:
320,192,135595,1,0,0:0:0:0:
448,192,135595,1,0,0:0:0:0:
64,192,135697,1,0,0:0:0:0:
192,192,135798,1,0,0:0:0:0:
320,192,135798,1,0,0:0:0:0:
448,192,135902,1,0,0:0:0:0:
192,192,136006,1,0,0:0:0:0:
64,192,136006,1,0,0:0:0:0:
320,192,136110,1,0,0:0:0:0:
192,192,136214,1,0,0:0:0:0:
64,192,136215,1,0,0:0:0:0:
448,192,136319,1,0,0:0:0:0:
320,192,136424,1,0,0:0:0:0:
192,192,136424,1,0,0:0:0:0:
64,192,136529,1,0,0:0:0:0:
320,192,136634,1,0,0:0:0:0:
448,192,136634,1,0,0:0:0:0:
192,192,136735,1,0,0:0:0:0:
64,192,136836,1,0,0:0:0:0:
448,192,136836,1,0,0:0:0:0:
320,192,136938,1,0,0:0:0:0:
64,192,137040,1,0,0:0:0:0:
448,192,137040,1,0,0:0:0:0:
192,192,137092,1,0,0:0:0:0:
320,192,137462,1,0,0:0:0:0:
448,192,137462,1,0,0:0:0:0:
320,192,137885,1,0,0:0:0:0:
448,192,137885,1,0,0:0:0:0:
448,192,138310,1,0,0:0:0:0:
320,192,138310,1,0,0:0:0:0:
448,192,138736,1,0,0:0:0:0:
64,192,138736,1,0,0:0:0:0:
192,192,138790,1,0,0:0:0:0:
64,192,138954,1,0,0:0:0:0:
192,192,139009,1,0,0:0:0:0:
448,192,139174,1,0,0:0:0:0:
64,192,139174,1,0,0:0:0:0:
320,192,139225,1,0,0:0:0:0:
192,192,139277,1,0,0:0:0:0:
64,192,139329,1,0,0:0:0:0:
448,192,139587,1,0,0:0:0:0:
64,192,139587,1,0,0:0:0:0:
192,192,139641,1,0,0:0:0:0:
320,192,139695,1,0,0:0:0:0:
448,192,139748,1,0,0:0:0:0:
64,192,139802,1,0,0:0:0:0:
192,192,139855,1,0,0:0:0:0:
320,192,140016,1,0,0:0:0:0:
448,192,140016,1,0,0:0:0:0:
64,192,140426,1,0,0:0:0:0:
448,192,140427,1,0,0:0:0:0:
320,192,140479,1,0,0:0:0:0:
64,192,140635,1,0,0:0:0:0:
320,192,140687,1,0,0:0:0:0:
192,192,140843,1,0,0:0:0:0:
448,192,140844,1,0,0:0:0:0:
448,192,141042,1,0,0:0:0:0:
320,192,141092,1,0,0:0:0:0:
192,192,141142,1,0,0:0:0:0:
64,192,141191,1,0,0:0:0:0:
448,192,141241,1,0,0:0:0:0:
320,192,141241,1,0,0:0:0:0:
192,192,141291,1,0,0:0:0:0:
320,192,141443,1,0,0:0:0:0:
192,192,141494,1,0,0:0:0:0:
448,192,141646,1,0,0:0:0:0:
64,192,141646,1,0,0:0:0:0:
64,192,141841,1,0,0:0:0:0:
192,192,141841,1,0,0:0:0:0:
320,192,141939,1,0,0:0:0:0:
448,192,141939,1,0,0:0:0:0:
192,192,142036,1,0,0:0:0:0:
64,192,142036,1,0,0:0:0:0:
64,192,142237,1,0,0:0:0:0:
192,192,142287,1,0,0:0:0:0:
64,192,142439,1,0,0:0:0:0:
448,192,142439,1,0,0:0:0:0:
192,192,142490,1,0,0:0:0:0:
320,192,142541,1,0,0:0:0:0:
448,192,142592,1,0,0:0:0:0:
64,192,142847,1,0,0:0:0:0:
448,192,142847,1,0,0:0:0:0:
192,192,142899,1,0,0:0:0:0:
448,192,143055,1,0,0:0:0:0:
192,192,143107,1,0,0:0:0:0:
320,192,143263,1,0,0:0:0:0:
64,192,143263,1,0,0:0:0:0:
448,192,143472,1,0,0:0:0:0:
320,192,143524,1,0,0:0:0:0:
192,192,143576,1,0,0:0:0:0:
64,192,143628,1,0,0:0:0:0:
448,192,143680,1,0,0:0:0:0:
320,192,143680,1,0,0:0:0:0:
192,192,143731,1,0,0:0:0:0:
320,192,143884,1,0,0:0:0:0:
192,192,143935,1,0,0:0:0:0:
448,192,144088,1,0,0:0:0:0:
64,192,144088,1,0,0:0:0:0:
64,192,144292,1,0,0:0:0:0:
192,192,144343,1,0,0:0:0:0:
320,192,144394,1,0,0:0:0:0:
448,192,144445,1,0,0:0:0:0:
192,192,144496,1,0,0:0:0:0:
64,192,144496,1,0,0:0:0:0:
320,192,144547,1,0,0:0:0:0:
192,192,144700,1,0,0:0:0:0:
320,192,144751,1,0,0:0:0:0:
448,192,144904,1,0,0:0:0:0:
192,192,144904,1,0,0:0:0:0:
192,192,145102,1,0,0:0:0:0:
320,192,145102,1,0,0:0:0:0:
64,192,145300,1,0,0:0:0:0:
320,192,145300,1,0,0:0:0:0:
448,192,145352,1,0,0:0:0:0:
192,192,145509,1,0,0:0:0:0:
320,192,145509,1,0,0:0:0:0:
448,192,145562,1,0,0:0:0:0:
64,192,145719,1,0,0:0:0:0:
448,192,145719,1,0,0:0:0:0:
192,192,145786,1,0,0:0:0:0:
320,192,145853,1,0,0:0:0:0:
448,192,145920,1,0,0:0:0:0:
64,192,145920,1,0,0:0:0:0:
448,192,146121,1,0,0:0:0:0:
320,192,146122,1,0,0:0:0:0:
192,192,146190,1,0,0:0:0:0:
64,192,146258,1,0,0:0:0:0:
448,192,146327,1,0,0:0:0:0:
320,192,146327,1,0,0:0:0:0:
192,192,146395,1,0,0:0:0:0:
64,192,146464,1,0,0:0:0:0:
320,192,146533,1,0,0:0:0:0:
448,192,146533,1,0,0:0:0:0:
320,192,146744,1,0,0:0:0:0:
64,192,146744,1,0,0:0:0:0:
192,192,146797,1,0,0:0:0:0:
64,192,146955,1,0,0:0:0:0:
192,192,146955,1,0,0:0:0:0:
320,192,147023,1,0,0:0:0:0:
448,192,147092,1,0,0:0:0:0:
64,192,147161,1,0,0:0:0:0:
192,192,147161,1,0,0:0:0:0:
320,192,147230,1,0,0:0:0:0:
448,192,147299,1,0,0:0:0:0:
192,192,147369,1,0,0:0:0:0:
64,192,147369,1,0,0:0:0:0:
448,192,147571,1,0,0:0:0:0:
64,192,147571,1,0,0:0:0:0:
320,192,147639,1,0,0:0:0:0:
192,192,147706,1,0,0:0:0:0:
64,192,147775,1,0,0:0:0:0:
448,192,147775,1,0,0:0:0:0:
320,192,147842,1,0,0:0:0:0:
192,192,147909,1,0,0:0:0:0:
320,192,147976,1,0,0:0:0:0:
448,192,147976,1,0,0:0:0:0:
64,192,148043,1,0,0:0:0:0:
192,192,148177,1,0,0:0:0:0:
448,192,148177,1,0,0:0:0:0:
320,192,148244,1,0,0:0:0:0:
448,192,148379,1,0,0:0:0:0:
192,192,148379,1,0,0:0:0:0:
64,192,148446,1,0,0:0:0:0:
192,192,148580,1,0,0:0:0:0:
320,192,148630,1,0,0:0:0:0:
192,192,148781,1,0,0:0:0:0:
320,192,148831,1,0,0:0:0:0:
448,192,148983,1,0,0:0:0:0:
64,192,148983,1,0,0:0:0:0:
320,192,149051,1,0,0:0:0:0:
192,192,149120,1,0,0:0:0:0:
64,192,149189,1,0,0:0:0:0:
448,192,149189,1,0,0:0:0:0:
64,192,149396,1,0,0:0:0:0:
192,192,149396,1,0,0:0:0:0:
320,192,149464,1,0,0:0:0:0:
448,192,149532,1,0,0:0:0:0:
64,192,149601,1,0,0:0:0:0:
192,192,149601,1,0,0:0:0:0:
320,192,149669,1,0,0:0:0:0:
448,192,149738,1,0,0:0:0:0:
192,192,149807,1,0,0:0:0:0:
64,192,149807,1,0,0:0:0:0:
192,192,150013,1,0,0:0:0:0:
448,192,150013,1,0,0:0:0:0:
320,192,150065,1,0,0:0:0:0:
448,192,150220,1,0,0:0:0:0:
320,192,150220,1,0,0:0:0:0:
192,192,150288,1,0,0:0:0:0:
64,192,150356,1,0,0:0:0:0:
448,192,150423,1,0,0:0:0:0:
320,192,150423,1,0,0:0:0:0:
192,192,150491,1,0,0:0:0:0:
64,192,150558,1,0,0:0:0:0:
320,192,150627,1,0,0:0:0:0:
448,192,150627,1,0,0:0:0:0:
64,192,150836,1,0,0:0:0:0:
448,192,150836,1,0,0:0:0:0:
192,192,150906,1,0,0:0:0:0:
320,192,150976,1,0,0:0:0:0:
448,192,151046,1,0,0:0:0:0:
64,192,151046,1,0,0:0:0:0:
192,192,151112,1,0,0:0:0:0:
320,192,151179,1,0,0:0:0:0:
64,192,151246,1,0,0:0:0:0:
192,192,151246,1,0,0:0:0:0:
448,192,151312,1,0,0:0:0:0:
320,192,151446,1,0,0:0:0:0:
64,192,151446,1,0,0:0:0:0:
192,192,151508,1,0,0:0:0:0:
320,192,151632,1,0,0:0:0:0:
448,192,151632,1,0,0:0:0:0:
64,192,151725,1,0,0:0:0:0:
320,192,151818,1,0,0:0:0:0:
448,192,151819,1,0,0:0:0:0:
192,192,151819,1,0,0:0:0:0:
64,192,152013,1,0,0:0:0:0:
192,192,152013,1,0,0:0:0:0:
320,192,152111,1,0,0:0:0:0:
192,192,152208,1,0,0:0:0:0:
64,192,152208,1,0,0:0:0:0:
320,192,152276,1,0,0:0:0:0:
448,192,152343,1,0,0:0:0:0:
192,192,152410,1,0,0:0:0:0:
64,192,152410,1,0,0:0:0:0:
448,192,152511,1,0,0:0:0:0:
192,192,152611,1,0,0:0:0:0:
64,192,152611,1,0,0:0:0:0:
320,192,152711,1,0,0:0:0:0:
448,192,152711,1,0,0:0:0:0:
64,192,152812,1,0,0:0:0:0:
192,192,152812,1,0,0:0:0:0:
448,192,152913,1,0,0:0:0:0:
64,192,153013,1,0,0:0:0:0:
192,192,153013,1,0,0:0:0:0:
448,192,153215,1,0,0:0:0:0:
320,192,153215,1,0,0:0:0:0:
192,192,153315,1,0,0:0:0:0:
320,192,153417,1,0,0:0:0:0:
448,192,153417,1,0,0:0:0:0:
192,192,153467,1,0,0:0:0:0:
64,192,153517,1,0,0:0:0:0:
64,192,153617,1,0,0:0:0:0:
192,192,153617,1,0,0:0:0:0:
320,192,153667,1,0,0:0:0:0:
448,192,153717,1,0,0:0:0:0:
64,192,153817,1,0,0:0:0:0:
192,192,153817,1,0,0:0:0:0:
448,192,154015,1,0,0:0:0:0:
320,192,154015,1,0,0:0:0:0:
64,192,154115,1,0,0:0:0:0:
320,192,154214,1,0,0:0:0:0:
448,192,154214,1,0,0:0:0:0:
192,192,154316,1,0,0:0:0:0:
64,192,154316,1,0,0:0:0:0:
320,192,154418,1,0,0:0:0:0:
448,192,154418,1,0,0:0:0:0:
64,192,154520,1,0,0:0:0:0:
320,192,154622,1,0,0:0:0:0:
448,192,154622,1,0,0:0:0:0:
192,192,154671,1,0,0:0:0:0:
64,192,154721,1,0,0:0:0:0:
64,192,154820,1,0,0:0:0:0:
192,192,154820,1,0,0:0:0:0:
320,192,154870,1,0,0:0:0:0:
448,192,154920,1,0,0:0:0:0:
192,192,155019,1,0,0:0:0:0:
64,192,155019,1,0,0:0:0:0:
320,192,155220,1,0,0:0:0:0:
448,192,155220,1,0,0:0:0:0:
64,192,155321,1,0,0:0:0:0:
320,192,155421,1,0,0:0:0:0:
448,192,155422,1,0,0:0:0:0:
192,192,155472,1,0,0:0:0:0:
64,192,155523,1,0,0:0:0:0:
64,192,155624,1,0,0:0:0:0:
192,192,155624,1,0,0:0:0:0:
320,192,155726,1,0,0:0:0:0:
192,192,155827,1,0,0:0:0:0:
64,192,155827,1,0,0:0:0:0:
320,192,155928,1,0,0:0:0:0:
448,192,155928,1,0,0:0:0:0:
64,192,156029,1,0,0:0:0:0:
192,192,156029,1,0,0:0:0:0:
448,192,156131,1,0,0:0:0:0:
192,192,156233,1,0,0:0:0:0:
64,192,156233,1,0,0:0:0:0:
320,192,156433,1,0,0:0:0:0:
448,192,156433,1,0,0:0:0:0:
192,192,156533,1,0,0:0:0:0:
320,192,156633,1,0,0:0:0:0:
448,192,156633,1,0,0:0:0:0:
192,192,156682,1,0,0:0:0:0:
64,192,156731,1,0,0:0:0:0:
64,192,156830,1,0,0:0:0:0:
192,192,156830,1,0,0:0:0:0:
320,192,156879,1,0,0:0:0:0:
448,192,156929,1,0,0:0:0:0:
192,192,157028,1,0,0:0:0:0:
64,192,157028,1,0,0:0:0:0:
320,192,157230,1,0,0:0:0:0:
448,192,157230,1,0,0:0:0:0:
192,192,157332,1,0,0:0:0:0:
320,192,157433,1,0,0:0:0:0:
448,192,157433,1,0,0:0:0:0:
64,192,157532,1,0,0:0:0:0:
192,192,157532,1,0,0:0:0:0:
320,192,157631,1,0,0:0:0:0:
448,192,157631,1,0,0:0:0:0:
64,192,157731,1,0,0:0:0:0:
320,192,157830,1,0,0:0:0:0:
448,192,157830,1,0,0:0:0:0:
192,192,157880,1,0,0:0:0:0:
64,192,157930,1,0,0:0:0:0:
192,192,158030,1,0,0:0:0:0:
64,192,158030,1,0,0:0:0:0:
320,192,158130,1,0,0:0:0:0:
448,192,158130,1,0,0:0:0:0:
192,192,158230,1,0,0:0:0:0:
64,192,158230,1,0,0:0:0:0:
320,192,158282,1,0,0:0:0:0:
448,192,158335,1,0,0:0:0:0:
192,192,158388,1,0,0:0:0:0:
320,192,158441,1,0,0:0:0:0:
64,192,158494,1,0,0:0:0:0:
448,192,158546,1,0,0:0:0:0:
192,192,158599,1,0,0:0:0:0:
320,192,158652,1,0,0:0:0:0:
64,192,158653,1,0,0:0:0:0:
448,192,158703,1,0,0:0:0:0:
192,192,158753,1,0,0:0:0:0:
64,192,158804,1,0,0:0:0:0:
448,192,158854,1,0,0:0:0:0:
192,192,158904,1,0,0:0:0:0:
320,192,158955,1,0,0:0:0:0:
64,192,159005,1,0,0:0:0:0:
448,192,159055,1,0,0:0:0:0:
192,192,159056,1,0,0:0:0:0:
320,192,159107,1,0,0:0:0:0:
64,192,159159,1,0,0:0:0:0:
448,192,159211,1,0,0:0:0:0:
192,192,159262,1,0,0:0:0:0:
320,192,159314,1,0,0:0:0:0:
448,192,159366,1,0,0:0:0:0:
192,192,159418,1,0,0:0:0:0:
64,192,159469,1,0,0:0:0:0:
320,192,159469,1,0,0:0:0:0:
448,192,159520,1,0,0:0:0:0:
192,192,159571,1,0,0:0:0:0:
320,192,159622,1,0,0:0:0:0:
64,192,159673,1,0,0:0:0:0:
192,192,159724,1,0,0:0:0:0:
448,192,159775,1,0,0:0:0:0:
320,192,159826,1,0,0:0:0:0:
192,192,159878,1,0,0:0:0:0:
64,192,159878,1,0,0:0:0:0:
448,192,159929,1,0,0:0:0:0:
320,192,159980,1,0,0:0:0:0:
64,192,160032,1,0,0:0:0:0:
448,192,160083,1,0,0:0:0:0:
192,192,160134,1,0,0:0:0:0:
320,192,160186,1,0,0:0:0:0:
448,192,160237,1,0,0:0:0:0:
192,192,160288,1,0,0:0:0:0:
64,192,160289,1,0,0:0:0:0:
320,192,160338,1,0,0:0:0:0:
448,192,160388,1,0,0:0:0:0:
192,192,160438,1,0,0:0:0:0:
320,192,160487,1,0,0:0:0:0:
64,192,160537,1,0,0:0:0:0:
448,192,160587,1,0,0:0:0:0:
192,192,160636,1,0,0:0:0:0:
320,192,160686,1,0,0:0:0:0:
64,192,160686,1,0,0:0:0:0:
448,192,160737,1,0,0:0:0:0:
192,192,160789,1,0,0:0:0:0:
64,192,160841,1,0,0:0:0:0:
320,192,160892,1,0,0:0:0:0:
192,192,160944,1,0,0:0:0:0:
448,192,160996,1,0,0:0:0:0:
320,192,161048,1,0,0:0:0:0:
192,192,161099,1,0,0:0:0:0:
64,192,161099,1,0,0:0:0:0:
448,192,161151,1,0,0:0:0:0:
320,192,161202,1,0,0:0:0:0:
64,192,161254,1,0,0:0:0:0:
448,192,161305,1,0,0:0:0:0:
192,192,161356,1,0,0:0:0:0:
64,192,161408,1,0,0:0:0:0:
320,192,161459,1,0,0:0:0:0:
192,192,161511,1,0,0:0:0:0:
448,192,161511,1,0,0:0:0:0:
64,192,161580,1,0,0:0:0:0:
448,192,161650,1,0,0:0:0:0:
192,192,161720,1,0,0:0:0:0:
320,192,161790,1,0,0:0:0:0:
64,192,161860,1,0,0:0:0:0:
320,192,161930,1,0,0:0:0:0:
448,192,161930,1,0,0:0:0:0:
192,192,162000,1,0,0:0:0:0:
448,192,162070,1,0,0:0:0:0:
64,192,162140,1,0,0:0:0:0:
448,192,162210,1,0,0:0:0:0:
320,192,162280,1,0,0:0:0:0:
192,192,162350,1,0,0:0:0:0:
64,192,162350,1,0,0:0:0:0:
448,192,162420,1,0,0:0:0:0:
64,192,162490,1,0,0:0:0:0:
320,192,162559,1,0,0:0:0:0:
64,192,162629,1,0,0:0:0:0:
448,192,162699,1,0,0:0:0:0:
192,192,162769,1,0,0:0:0:0:
320,192,162769,1,0,0:0:0:0:
64,192,162836,1,0,0:0:0:0:
320,192,162904,1,0,0:0:0:0:
192,192,162971,1,0,0:0:0:0:
448,192,163039,1,0,0:0:0:0:
192,192,163106,1,0,0:0:0:0:
320,192,163175,1,0,0:0:0:0:
448,192,163175,1,0,0:0:0:0:
64,192,163244,1,0,0:0:0:0:
320,192,163314,1,0,0:0:0:0:
192,192,163384,1,0,0:0:0:0:
448,192,163454,1,0,0:0:0:0:
192,192,163524,1,0,0:0:0:0:
64,192,163594,1,0,0:0:0:0:
320,192,163594,1,0,0:0:0:0:
448,192,163662,1,0,0:0:0:0:
64,192,163731,1,0,0:0:0:0:
320,192,163800,1,0,0:0:0:0:
192,192,163869,1,0,0:0:0:0:
448,192,163938,1,0,0:0:0:0:
192,192,164007,1,0,0:0:0:0:
64,192,164008,1,0,0:0:0:0:
320,192,164075,1,0,0:0:0:0:
448,192,164142,1,0,0:0:0:0:
64,192,164209,1,0,0:0:0:0:
320,192,164276,1,0,0:0:0:0:
192,192,164343,1,0,0:0:0:0:
448,192,164410,1,0,0:0:0:0:
320,192,164410,1,0,0:0:0:0:
64,192,164477,1,0,0:0:0:0:
448,192,164544,1,0,0:0:0:0:
192,192,164612,1,0,0:0:0:0:
64,192,164612,1,0,0:0:0:0:
320,192,164712,1,0,0:0:0:0:
448,192,164712,1,0,0:0:0:0:
192,192,164813,1,0,0:0:0:0:
64,192,164813,1,0,0:0:0:0:
192,192,165020,1,0,0:0:0:0:
320,192,165020,1,0,0:0:0:0:
448,192,165124,1,0,0:0:0:0:
320,192,165227,1,0,0:0:0:0:
192,192,165227,1,0,0:0:0:0:
448,192,165432,1,0,0:0:0:0:
320,192,165535,1,0,0:0:0:0:
192,192,165638,1,0,0:0:0:0:
64,192,165638,1,0,0:0:0:0:
448,192,165691,1,0,0:0:0:0:
192,192,165745,1,0,0:0:0:0:
320,192,165816,1,0,0:0:0:0:
192,192,165888,1,0,0:0:0:0:
64,192,165959,1,0,0:0:0:0:
192,192,166066,1,0,0:0:0:0:
320,192,166066,1,0,0:0:0:0:
448,192,166167,1,0,0:0:0:0:
192,192,166268,1,0,0:0:0:0:
320,192,166369,1,0,0:0:0:0:
192,192,166469,1,0,0:0:0:0:
64,192,166469,1,0,0:0:0:0:
320,192,166538,1,0,0:0:0:0:
448,192,166606,1,0,0:0:0:0:
320,192,166675,1,0,0:0:0:0:
64,192,166675,1,0,0:0:0:0:
192,192,166743,1,0,0:0:0:0:
448,192,166812,1,0,0:0:0:0:
320,192,166880,1,0,0:0:0:0:
64,192,166880,1,0,0:0:0:0:
448,192,167086,1,0,0:0:0:0:
320,192,167086,1,0,0:0:0:0:
64,192,167154,1,0,0:0:0:0:
192,192,167223,1,0,0:0:0:0:
320,192,167291,1,0,0:0:0:0:
448,192,167291,1,0,0:0:0:0:
192,192,167356,1,0,0:0:0:0:
64,192,167421,1,0,0:0:0:0:
192,192,167487,1,0,0:0:0:0:
320,192,167552,1,0,0:0:0:0:
448,192,167617,1,0,0:0:0:0:
192,192,167684,1,0,0:0:0:0:
64,192,167684,1,0,0:0:0:0:
320,192,167785,1,0,0:0:0:0:
448,192,167785,1,0,0:0:0:0:
192,192,167886,1,0,0:0:0:0:
64,192,167886,1,0,0:0:0:0:
320,192,167988,1,0,0:0:0:0:
448,192,167988,1,0,0:0:0:0:
192,192,168089,1,0,0:0:0:0:
64,192,168089,1,0,0:0:0:0:
320,192,168141,1,0,0:0:0:0:
448,192,168193,1,0,0:0:0:0:
192,192,168245,1,0,0:0:0:0:
320,192,168297,1,0,0:0:0:0:
64,192,168349,1,0,0:0:0:0:
192,192,168401,1,0,0:0:0:0:
448,192,168505,1,0,0:0:0:0:
320,192,168505,1,0,0:0:0:0:
192,192,168557,1,0,0:0:0:0:
448,192,168714,1,0,0:0:0:0:
320,192,168818,1,0,0:0:0:0:
64,192,168922,1,0,0:0:0:0:
448,192,168922,1,0,0:0:0:0:
192,192,168973,1,0,0:0:0:0:
448,192,169126,1,0,0:0:0:0:
64,192,169126,1,0,0:0:0:0:
192,192,169177,1,0,0:0:0:0:
320,192,169330,1,0,0:0:0:0:
192,192,169330,1,0,0:0:0:0:
320,192,169533,1,0,0:0:0:0:
448,192,169533,1,0,0:0:0:0:
192,192,169584,1,0,0:0:0:0:
64,192,169635,1,0,0:0:0:0:
320,192,169685,1,0,0:0:0:0:
192,192,169736,1,0,0:0:0:0:
448,192,169787,1,0,0:0:0:0:
320,192,169838,1,0,0:0:0:0:
64,192,169889,1,0,0:0:0:0:
448,192,169940,1,0,0:0:0:0:
192,192,170008,1,0,0:0:0:0:
320,192,170076,1,0,0:0:0:0:
192,192,170144,1,0,0:0:0:0:
64,192,170144,1,0,0:0:0:0:
448,192,170196,1,0,0:0:0:0:
64,192,170355,1,0,0:0:0:0:
192,192,170460,1,0,0:0:0:0:
64,192,170566,1,0,0:0:0:0:
448,192,170566,1,0,0:0:0:0:
320,192,170615,1,0,0:0:0:0:
448,192,170761,1,0,0:0:0:0:
64,192,170761,1,0,0:0:0:0:
320,192,170810,1,0,0:0:0:0:
192,192,170859,1,0,0:0:0:0:
64,192,170907,1,0,0:0:0:0:
448,192,170956,1,0,0:0:0:0:
320,192,170956,1,0,0:0:0:0:
192,192,171054,1,0,0:0:0:0:
64,192,171054,1,0,0:0:0:0:
320,192,171152,1,0,0:0:0:0:
448,192,171152,1,0,0:0:0:0:
192,192,171250,1,0,0:0:0:0:
64,192,171250,1,0,0:0:0:0:
320,192,171348,1,0,0:0:0:0:
448,192,171348,1,0,0:0:0:0:
192,192,171399,1,0,0:0:0:0:
448,192,171553,1,0,0:0:0:0:
320,192,171553,1,0,0:0:0:0:
192,192,171604,1,0,0:0:0:0:
320,192,171758,1,0,0:0:0:0:
64,192,171758,1,0,0:0:0:0:
192,192,171810,1,0,0:0:0:0:
64,192,171964,1,0,0:0:0:0:
192,192,172067,1,0,0:0:0:0:
448,192,172169,1,0,0:0:0:0:
320,192,172169,1,0,0:0:0:0:
64,192,172222,1,0,0:0:0:0:
320,192,172274,1,0,0:0:0:0:
192,192,172344,1,0,0:0:0:0:
320,192,172414,1,0,0:0:0:0:
448,192,172484,1,0,0:0:0:0:
320,192,172590,1,0,0:0:0:0:
192,192,172590,1,0,0:0:0:0:
64,192,172692,1,0,0:0:0:0:
320,192,172795,1,0,0:0:0:0:
192,192,172898,1,0,0:0:0:0:
320,192,173000,1,0,0:0:0:0:
448,192,173000,1,0,0:0:0:0:
192,192,173068,1,0,0:0:0:0:
64,192,173136,1,0,0:0:0:0:
192,192,173203,1,0,0:0:0:0:
448,192,173203,1,0,0:0:0:0:
320,192,173271,1,0,0:0:0:0:
64,192,173338,1,0,0:0:0:0:
448,192,173406,1,0,0:0:0:0:
192,192,173406,1,0,0:0:0:0:
64,192,173614,1,0,0:0:0:0:
192,192,173614,1,0,0:0:0:0:
448,192,173683,1,0,0:0:0:0:
320,192,173753,1,0,0:0:0:0:
64,192,173822,1,0,0:0:0:0:
192,192,173822,1,0,0:0:0:0:
320,192,173889,1,0,0:0:0:0:
448,192,173956,1,0,0:0:0:0:
64,192,174123,1,0,0:0:0:0:
192,192,174123,1,0,0:0:0:0:
320,192,174223,1,0,0:0:0:0:
448,192,174223,1,0,0:0:0:0:
192,192,174322,1,0,0:0:0:0:
64,192,174322,1,0,0:0:0:0:
320,192,174421,1,0,0:0:0:0:
448,192,174421,1,0,0:0:0:0:
192,192,174521,1,0,0:0:0:0:
64,192,174521,1,0,0:0:0:0:
320,192,174620,1,0,0:0:0:0:
448,192,174620,1,0,0:0:0:0:
192,192,174670,1,0,0:0:0:0:
64,192,174721,1,0,0:0:0:0:
320,192,174772,1,0,0:0:0:0:
192,192,174822,1,0,0:0:0:0:
448,192,174873,1,0,0:0:0:0:
320,192,174924,1,0,0:0:0:0:
64,192,175025,1,0,0:0:0:0:
192,192,175025,1,0,0:0:0:0:
320,192,175076,1,0,0:0:0:0:
64,192,175228,1,0,0:0:0:0:
192,192,175329,1,0,0:0:0:0:
448,192,175431,1,0,0:0:0:0:
64,192,175431,1,0,0:0:0:0:
320,192,175482,1,0,0:0:0:0:
64,192,175636,1,0,0:0:0:0:
448,192,175636,1,0,0:0:0:0:
320,192,175687,1,0,0:0:0:0:
192,192,175841,1,0,0:0:0:0:
320,192,175841,1,0,0:0:0:0:
192,192,176047,1,0,0:0:0:0:
64,192,176047,1,0,0:0:0:0:
320,192,176098,1,0,0:0:0:0:
448,192,176150,1,0,0:0:0:0:
192,192,176201,1,0,0:0:0:0:
320,192,176253,1,0,0:0:0:0:
64,192,176303,1,0,0:0:0:0:
192,192,176353,1,0,0:0:0:0:
448,192,176404,1,0,0:0:0:0:
64,192,176454,1,0,0:0:0:0:
448,192,176521,1,0,0:0:0:0:
192,192,176588,1,0,0:0:0:0:
448,192,176656,1,0,0:0:0:0:
320,192,176656,1,0,0:0:0:0:
64,192,176706,1,0,0:0:0:0:
448,192,176858,1,0,0:0:0:0:
320,192,176960,1,0,0:0:0:0:
448,192,177061,1,0,0:0:0:0:
64,192,177061,1,0,0:0:0:0:
192,192,177112,1,0,0:0:0:0:
64,192,177265,1,0,0:0:0:0:
448,192,177265,1,0,0:0:0:0:
192,192,177316,1,0,0:0:0:0:
320,192,177367,1,0,0:0:0:0:
448,192,177418,1,0,0:0:0:0:
64,192,177469,1,0,0:0:0:0:
192,192,177469,1,0,0:0:0:0:
320,192,177568,1,0,0:0:0:0:
448,192,177568,1,0,0:0:0:0:
64,192,177667,1,0,0:0:0:0:
192,192,177667,1,0,0:0:0:0:
320,192,177767,1,0,0:0:0:0:
448,192,177767,1,0,0:0:0:0:
192,192,177866,1,0,0:0:0:0:
64,192,177866,1,0,0:0:0:0:
320,192,177917,1,0,0:0:0:0:
192,192,178068,1,0,0:0:0:0:
64,192,178068,1,0,0:0:0:0:
320,192,178118,1,0,0:0:0:0:
64,192,178269,1,0,0:0:0:0:
448,192,178269,1,0,0:0:0:0:
192,192,178318,1,0,0:0:0:0:
64,192,178466,1,0,0:0:0:0:
192,192,178565,1,0,0:0:0:0:
448,192,178664,1,0,0:0:0:0:
320,192,178664,1,0,0:0:0:0:
64,192,178717,1,0,0:0:0:0:
320,192,178770,1,0,0:0:0:0:
192,192,178841,1,0,0:0:0:0:
320,192,178912,1,0,0:0:0:0:
448,192,178983,1,0,0:0:0:0:
320,192,179090,1,0,0:0:0:0:
192,192,179090,1,0,0:0:0:0:
64,192,179192,1,0,0:0:0:0:
320,192,179294,1,0,0:0:0:0:
192,192,179396,1,0,0:0:0:0:
320,192,179498,1,0,0:0:0:0:
448,192,179498,1,0,0:0:0:0:
192,192,179565,1,0,0:0:0:0:
448,192,179633,1,0,0:0:0:0:
320,192,179700,1,0,0:0:0:0:
64,192,179700,1,0,0:0:0:0:
192,192,179768,1,0,0:0:0:0:
448,192,179835,1,0,0:0:0:0:
64,192,179903,1,0,0:0:0:0:
192,192,179903,1,0,0:0:0:0:
320,192,180106,1,0,0:0:0:0:
448,192,180106,1,0,0:0:0:0:
64,192,180156,1,0,0:0:0:0:
192,192,180207,1,0,0:0:0:0:
320,192,180258,1,0,0:0:0:0:
64,192,180309,1,0,0:0:0:0:
192,192,180361,1,0,0:0:0:0:
448,192,180413,1,0,0:0:0:0:
320,192,180466,1,0,0:0:0:0:
192,192,180518,1,0,0:0:0:0:
64,192,180571,1,0,0:0:0:0:
448,192,180623,1,0,0:0:0:0:
320,192,180676,1,0,0:0:0:0:
192,192,180728,1,0,0:0:0:0:
64,192,180728,1,0,0:0:0:0:
448,192,180824,1,0,0:0:0:0:
320,192,180824,1,0,0:0:0:0:
192,192,180920,1,0,0:0:0:0:
64,192,180920,1,0,0:0:0:0:
320,192,181016,1,0,0:0:0:0:
448,192,181016,1,0,0:0:0:0:
192,192,181113,1,0,0:0:0:0:
64,192,181113,1,0,0:0:0:0:
320,192,181165,1,0,0:0:0:0:
448,192,181217,1,0,0:0:0:0:
192,192,181269,1,0,0:0:0:0:
320,192,181321,1,0,0:0:0:0:
64,192,181373,1,0,0:0:0:0:
192,192,181425,1,0,0:0:0:0:
448,192,181529,1,0,0:0:0:0:
320,192,181529,1,0,0:0:0:0:
192,192,181579,1,0,0:0:0:0:
448,192,181731,1,0,0:0:0:0:
320,192,181833,1,0,0:0:0:0:
64,192,181934,1,0,0:0:0:0:
448,192,181935,1,0,0:0:0:0:
192,192,181985,1,0,0:0:0:0:
448,192,182136,1,0,0:0:0:0:
64,192,182136,1,0,0:0:0:0:
192,192,182186,1,0,0:0:0:0:
320,192,182337,1,0,0:0:0:0:
192,192,182337,1,0,0:0:0:0:
320,192,182537,1,0,0:0:0:0:
448,192,182537,1,0,0:0:0:0:
192,192,182587,1,0,0:0:0:0:
64,192,182637,1,0,0:0:0:0:
320,192,182687,1,0,0:0:0:0:
192,192,182737,1,0,0:0:0:0:
448,192,182788,1,0,0:0:0:0:
320,192,182839,1,0,0:0:0:0:
64,192,182891,1,0,0:0:0:0:
448,192,182942,1,0,0:0:0:0:
192,192,183010,1,0,0:0:0:0:
320,192,183079,1,0,0:0:0:0:
192,192,183148,1,0,0:0:0:0:
64,192,183148,1,0,0:0:0:0:
448,192,183249,1,0,0:0:0:0:
64,192,183350,1,0,0:0:0:0:
192,192,183452,1,0,0:0:0:0:
64,192,183553,1,0,0:0:0:0:
448,192,183554,1,0,0:0:0:0:
320,192,183606,1,0,0:0:0:0:
448,192,183762,1,0,0:0:0:0:
64,192,183762,1,0,0:0:0:0:
320,192,183814,1,0,0:0:0:0:
192,192,183866,1,0,0:0:0:0:
64,192,183918,1,0,0:0:0:0:
320,192,183971,1,0,0:0:0:0:
448,192,183971,1,0,0:0:0:0:
192,192,184073,1,0,0:0:0:0:
64,192,184073,1,0,0:0:0:0:
320,192,184175,1,0,0:0:0:0:
448,192,184175,1,0,0:0:0:0:
192,192,184277,1,0,0:0:0:0:
64,192,184277,1,0,0:0:0:0:
320,192,184379,1,0,0:0:0:0:
448,192,184379,1,0,0:0:0:0:
192,192,184430,1,0,0:0:0:0:
320,192,184583,1,0,0:0:0:0:
448,192,184583,1,0,0:0:0:0:
192,192,184634,1,0,0:0:0:0:
320,192,184787,1,0,0:0:0:0:
64,192,184787,1,0,0:0:0:0:
192,192,184838,1,0,0:0:0:0:
64,192,184993,1,0,0:0:0:0:
192,192,185097,1,0,0:0:0:0:
320,192,185201,1,0,0:0:0:0:
448,192,185201,1,0,0:0:0:0:
64,192,185251,1,0,0:0:0:0:
320,192,185301,1,0,0:0:0:0:
192,192,185367,1,0,0:0:0:0:
320,192,185434,1,0,0:0:0:0:
448,192,185501,1,0,0:0:0:0:
192,192,185601,1,0,0:0:0:0:
320,192,185601,1,0,0:0:0:0:
64,192,185699,1,0,0:0:0:0:
320,192,185797,1,0,0:0:0:0:
192,192,185895,1,0,0:0:0:0:
320,192,185993,1,0,0:0:0:0:
448,192,185993,1,0,0:0:0:0:
192,192,186064,1,0,0:0:0:0:
64,192,186135,1,0,0:0:0:0:
192,192,186207,1,0,0:0:0:0:
448,192,186207,1,0,0:0:0:0:
320,192,186278,1,0,0:0:0:0:
64,192,186350,1,0,0:0:0:0:
448,192,186421,1,0,0:0:0:0:
192,192,186421,1,0,0:0:0:0:
64,192,186626,1,0,0:0:0:0:
192,192,186626,1,0,0:0:0:0:
448,192,186694,1,0,0:0:0:0:
320,192,186763,1,0,0:0:0:0:
64,192,186832,1,0,0:0:0:0:
192,192,186832,1,0,0:0:0:0:
320,192,186899,1,0,0:0:0:0:
448,192,186967,1,0,0:0:0:0:
64,192,187136,1,0,0:0:0:0:
192,192,187136,1,0,0:0:0:0:
320,192,187238,1,0,0:0:0:0:
448,192,187238,1,0,0:0:0:0:
192,192,187338,1,0,0:0:0:0:
64,192,187338,1,0,0:0:0:0:
320,192,187438,1,0,0:0:0:0:
448,192,187438,1,0,0:0:0:0:
64,192,187538,1,0,0:0:0:0:
192,192,187538,1,0,0:0:0:0:
448,192,187638,1,0,0:0:0:0:
320,192,187638,1,0,0:0:0:0:
192,192,187689,1,0,0:0:0:0:
64,192,187740,1,0,0:0:0:0:
64,192,187843,1,0,0:0:0:0:
192,192,187843,1,0,0:0:0:0:
320,192,187911,1,0,0:0:0:0:
448,192,187980,1,0,0:0:0:0:
192,192,188049,1,0,0:0:0:0:
448,192,188255,1,0,0:0:0:0:
64,192,188255,1,0,0:0:0:0:
320,192,188307,1,0,0:0:0:0:
64,192,188462,1,0,0:0:0:0:
192,192,188462,1,0,0:0:0:0:
320,192,188513,1,0,0:0:0:0:
448,192,188564,1,0,0:0:0:0:
448,192,188666,1,0,0:0:0:0:
320,192,188666,1,0,0:0:0:0:
192,192,188734,1,0,0:0:0:0:
64,192,188802,1,0,0:0:0:0:
320,192,188870,1,0,0:0:0:0:
448,192,189077,1,0,0:0:0:0:
64,192,189077,1,0,0:0:0:0:
192,192,189129,1,0,0:0:0:0:
320,192,189284,1,0,0:0:0:0:
448,192,189284,1,0,0:0:0:0:
192,192,189333,1,0,0:0:0:0:
64,192,189383,1,0,0:0:0:0:
64,192,189482,1,0,0:0:0:0:
192,192,189482,1,0,0:0:0:0:
320,192,189548,1,0,0:0:0:0:
448,192,189615,1,0,0:0:0:0:
64,192,189682,1,0,0:0:0:0:
192,192,189891,1,0,0:0:0:0:
448,192,189891,1,0,0:0:0:0:
320,192,189944,1,0,0:0:0:0:
64,192,190101,1,0,0:0:0:0:
192,192,190101,1,0,0:0:0:0:
320,192,190151,1,0,0:0:0:0:
448,192,190201,1,0,0:0:0:0:
448,192,190301,1,0,0:0:0:0:
320,192,190301,1,0,0:0:0:0:
64,192,190367,1,0,0:0:0:0:
192,192,190434,1,0,0:0:0:0:
448,192,190501,1,0,0:0:0:0:
64,192,190501,1,0,0:0:0:0:
320,192,190551,1,0,0:0:0:0:
192,192,190601,1,0,0:0:0:0:
64,192,190651,1,0,0:0:0:0:
448,192,190701,1,0,0:0:0:0:
320,192,190701,1,0,0:0:0:0:
192,192,190801,1,0,0:0:0:0:
64,192,190801,1,0,0:0:0:0:
320,192,190901,1,0,0:0:0:0:
448,192,190901,1,0,0:0:0:0:
192,192,190952,1,0,0:0:0:0:
64,192,191003,1,0,0:0:0:0:
320,192,191055,1,0,0:0:0:0:
192,192,191106,1,0,0:0:0:0:
448,192,191157,1,0,0:0:0:0:
320,192,191209,1,0,0:0:0:0:
64,192,191260,1,0,0:0:0:0:
192,192,191311,1,0,0:0:0:0:
448,192,191311,1,0,0:0:0:0:
320,192,191363,1,0,0:0:0:0:
64,192,191414,1,0,0:0:0:0:
192,192,191466,1,0,0:0:0:0:
320,192,191517,1,0,0:0:0:0:
448,192,191568,1,0,0:0:0:0:
64,192,191620,1,0,0:0:0:0:
192,192,191671,1,0,0:0:0:0:
320,192,191723,1,0,0:0:0:0:
448,192,191723,1,0,0:0:0:0:
64,192,191775,1,0,0:0:0:0:
192,192,191828,1,0,0:0:0:0:
448,192,191881,1,0,0:0:0:0:
64,192,191934,1,0,0:0:0:0:
320,192,191987,1,0,0:0:0:0:
192,192,192039,1,0,0:0:0:0:
64,192,192092,1,0,0:0:0:0:
320,192,192146,1,0,0:0:0:0:
448,192,192146,1,0,0:0:0:0:
192,192,192198,1,0,0:0:0:0:
64,192,192250,1,0,0:0:0:0:
320,192,192302,1,0,0:0:0:0:
192,192,192354,1,0,0:0:0:0:
448,192,192406,1,0,0:0:0:0:
320,192,192458,1,0,0:0:0:0:
64,192,192510,1,0,0:0:0:0:
192,192,192562,1,0,0:0:0:0:
448,192,192562,1,0,0:0:0:0:
320,192,192615,1,0,0:0:0:0:
64,192,192668,1,0,0:0:0:0:
448,192,192721,1,0,0:0:0:0:
320,192,192774,1,0,0:0:0:0:
64,192,192827,1,0,0:0:0:0:
448,192,192881,1,0,0:0:0:0:
192,192,192934,1,0,0:0:0:0:
320,192,192987,1,0,0:0:0:0:
64,192,192987,1,0,0:0:0:0:
448,192,193038,1,0,0:0:0:0:
192,192,193089,1,0,0:0:0:0:
320,192,193140,1,0,0:0:0:0:
64,192,193190,1,0,0:0:0:0:
448,192,193241,1,0,0:0:0:0:
192,192,193292,1,0,0:0:0:0:
64,192,193342,1,0,0:0:0:0:
448,192,193393,1,0,0:0:0:0:
320,192,193393,1,0,0:0:0:0:
192,192,193446,1,0,0:0:0:0:
64,192,193499,1,0,0:0:0:0:
448,192,193552,1,0,0:0:0:0:
192,192,193605,1,0,0:0:0:0:
320,192,193658,1,0,0:0:0:0:
448,192,193712,1,0,0:0:0:0:
192,192,193765,1,0,0:0:0:0:
64,192,193818,1,0,0:0:0:0:
320,192,193819,1,0,0:0:0:0:
448,192,193870,1,0,0:0:0:0:
192,192,193921,1,0,0:0:0:0:
64,192,193972,1,0,0:0:0:0:
320,192,194023,1,0,0:0:0:0:
192,192,194074,1,0,0:0:0:0:
448,192,194125,1,0,0:0:0:0:
320,192,194176,1,0,0:0:0:0:
192,192,194227,1,0,0:0:0:0:
64,192,194227,1,0,0:0:0:0:
448,192,194279,1,0,0:0:0:0:
320,192,194332,1,0,0:0:0:0:
192,192,194385,1,0,0:0:0:0:
64,192,194438,1,0,0:0:0:0:
320,192,194491,1,0,0:0:0:0:
192,192,194543,1,0,0:0:0:0:
448,192,194596,1,0,0:0:0:0:
320,192,194649,1,0,0:0:0:0:
64,192,194650,1,0,0:0:0:0:
192,192,194702,1,0,0:0:0:0:
448,192,194754,1,0,0:0:0:0:
64,192,194806,1,0,0:0:0:0:
192,192,194858,1,0,0:0:0:0:
448,192,194910,1,0,0:0:0:0:
320,192,194962,1,0,0:0:0:0:
64,192,195014,1,0,0:0:0:0:
192,192,195066,1,0,0:0:0:0:
448,192,195066,1,0,0:0:0:0:
320,192,195118,1,0,0:0:0:0:
64,192,195170,1,0,0:0:0:0:
448,192,195223,1,0,0:0:0:0:
192,192,195275,1,0,0:0:0:0:
320,192,195328,1,0,0:0:0:0:
64,192,195380,1,0,0:0:0:0:
192,192,195433,1,0,0:0:0:0:
320,192,195485,1,0,0:0:0:0:
448,192,195485,1,0,0:0:0:0:
64,192,195538,1,0,0:0:0:0:
192,192,195590,1,0,0:0:0:0:
448,192,195642,1,0,0:0:0:0:
320,192,195695,1,0,0:0:0:0:
192,192,195747,1,0,0:0:0:0:
448,192,195800,1,0,0:0:0:0:
320,192,195852,1,0,0:0:0:0:
64,192,195905,1,0,0:0:0:0:
192,192,195905,1,0,0:0:0:0:
448,192,195956,1,0,0:0:0:0:
320,192,196008,1,0,0:0:0:0:
192,192,196060,1,0,0:0:0:0:
64,192,196111,1,0,0:0:0:0:
448,192,196163,1,0,0:0:0:0:
192,192,196215,1,0,0:0:0:0:
64,192,196267,1,0,0:0:0:0:
320,192,196318,1,0,0:0:0:0:
448,192,196319,1,0,0:0:0:0:
192,192,196371,1,0,0:0:0:0:
64,192,196423,1,0,0:0:0:0:
320,192,196475,1,0,0:0:0:0:
192,192,196527,1,0,0:0:0:0:
448,192,196579,1,0,0:0:0:0:
320,192,196631,1,0,0:0:0:0:
64,192,196683,1,0,0:0:0:0:
192,192,196736,1,0,0:0:0:0:
448,192,196736,1,0,0:0:0:0:
320,192,196788,1,0,0:0:0:0:
64,192,196840,1,0,0:0:0:0:
192,192,196893,1,0,0:0:0:0:
448,192,196945,1,0,0:0:0:0:
64,192,196998,1,0,0:0:0:0:
192,192,197050,1,0,0:0:0:0:
448,192,197103,1,0,0:0:0:0:
320,192,197156,1,0,0:0:0:0:
64,192,197156,1,0,0:0:0:0:
192,192,197208,1,0,0:0:0:0:
448,192,197260,1,0,0:0:0:0:
64,192,197312,1,0,0:0:0:0:
320,192,197364,1,0,0:0:0:0:
192,192,197416,1,0,0:0:0:0:
64,192,197468,1,0,0:0:0:0:
320,192,197520,1,0,0:0:0:0:
448,192,197572,1,0,0:0:0:0:
192,192,197572,1,0,0:0:0:0:
64,192,197623,1,0,0:0:0:0:
320,192,197675,1,0,0:0:0:0:
192,192,197727,1,0,0:0:0:0:
448,192,197778,1,0,0:0:0:0:
320,192,197830,1,0,0:0:0:0:
64,192,197882,1,0,0:0:0:0:
192,192,197934,1,0,0:0:0:0:
320,192,197986,1,0,0:0:0:0:
448,192,197986,1,0,0:0:0:0:
64,192,198038,1,0,0:0:0:0:
192,192,198091,1,0,0:0:0:0:
448,192,198144,1,0,0:0:0:0:
64,192,198197,1,0,0:0:0:0:
320,192,198250,1,0,0:0:0:0:
192,192,198302,1,0,0:0:0:0:
448,192,198355,1,0,0:0:0:0:
320,192,198408,1,0,0:0:0:0:
64,192,198409,1,0,0:0:0:0:
192,192,198460,1,0,0:0:0:0:
448,192,198512,1,0,0:0:0:0:
64,192,198564,1,0,0:0:0:0:
320,192,198615,1,0,0:0:0:0:
448,192,198667,1,0,0:0:0:0:
192,192,198719,1,0,0:0:0:0:
64,192,198771,1,0,0:0:0:0:
320,192,198822,1,0,0:0:0:0:
448,192,198822,1,0,0:0:0:0:
192,192,198874,1,0,0:0:0:0:
64,192,198926,1,0,0:0:0:0:
320,192,198977,1,0,0:0:0:0:
192,192,199029,1,0,0:0:0:0:
448,192,199081,1,0,0:0:0:0:
320,192,199133,1,0,0:0:0:0:
64,192,199184,1,0,0:0:0:0:
448,192,199236,1,0,0:0:0:0:
192,192,199236,1,0,0:0:0:0:
320,192,199288,1,0,0:0:0:0:
64,192,199340,1,0,0:0:0:0:
448,192,199392,1,0,0:0:0:0:
192,192,199444,1,0,0:0:0:0:
320,192,199496,1,0,0:0:0:0:
448,192,199548,1,0,0:0:0:0:
192,192,199600,1,0,0:0:0:0:
320,192,199652,1,0,0:0:0:0:
64,192,199653,1,0,0:0:0:0:
448,192,199705,1,0,0:0:0:0:
192,192,199757,1,0,0:0:0:0:
320,192,199810,1,0,0:0:0:0:
64,192,199862,1,0,0:0:0:0:
192,192,199915,1,0,0:0:0:0:
448,192,199967,1,0,0:0:0:0:
320,192,200020,1,0,0:0:0:0:
64,192,200072,1,0,0:0:0:0:
192,192,200072,1,0,0:0:0:0:
448,192,200123,1,0,0:0:0:0:
320,192,200174,1,0,0:0:0:0:
64,192,200225,1,0,0:0:0:0:
448,192,200276,1,0,0:0:0:0:
192,192,200327,1,0,0:0:0:0:
320,192,200378,1,0,0:0:0:0:
448,192,200429,1,0,0:0:0:0:
64,192,200480,1,0,0:0:0:0:
192,192,200481,1,0,0:0:0:0:
320,192,200531,1,0,0:0:0:0:
448,192,200582,1,0,0:0:0:0:
192,192,200633,1,0,0:0:0:0:
320,192,200683,1,0,0:0:0:0:
64,192,200734,1,0,0:0:0:0:
448,192,200785,1,0,0:0:0:0:
192,192,200835,1,0,0:0:0:0:
320,192,200886,1,0,0:0:0:0:
64,192,200886,1,0,0:0:0:0:
448,192,200939,1,0,0:0:0:0:
192,192,200993,1,0,0:0:0:0:
64,192,201047,1,0,0:0:0:0:
320,192,201101,1,0,0:0:0:0:
192,192,201155,1,0,0:0:0:0:
448,192,201209,1,0,0:0:0:0:
320,192,201263,1,0,0:0:0:0:
192,192,201317,1,0,0:0:0:0:
64,192,201317,1,0,0:0:0:0:
448,192,201367,1,0,0:0:0:0:
320,192,201416,1,0,0:0:0:0:
192,192,201466,1,0,0:0:0:0:
64,192,201515,1,0,0:0:0:0:
448,192,201564,1,0,0:0:0:0:
320,192,201614,1,0,0:0:0:0:
64,192,201663,1,0,0:0:0:0:
192,192,201712,1,0,0:0:0:0:
448,192,201712,1,0,0:0:0:0:
320,192,201765,1,0,0:0:0:0:
64,192,201818,1,0,0:0:0:0:
192,192,201871,1,0,0:0:0:0:
448,192,201924,1,0,0:0:0:0:
320,192,201977,1,0,0:0:0:0:
64,192,202031,1,0,0:0:0:0:
192,192,202084,1,0,0:0:0:0:
320,192,202138,1,0,0:0:0:0:
448,192,202138,1,0,0:0:0:0:
64,192,202188,1,0,0:0:0:0:
192,192,202239,1,0,0:0:0:0:
448,192,202290,1,0,0:0:0:0:
64,192,202340,1,0,0:0:0:0:
320,192,202391,1,0,0:0:0:0:
448,192,202442,1,0,0:0:0:0:
192,192,202492,1,0,0:0:0:0:
64,192,202543,1,0,0:0:0:0:
320,192,202543,1,0,0:0:0:0:
448,192,202588,1,0,0:0:0:0:
192,192,202633,1,0,0:0:0:0:
320,192,202679,1,0,0:0:0:0:
64,192,202724,1,0,0:0:0:0:
448,192,202769,1,0,0:0:0:0:
192,192,202815,1,0,0:0:0:0:
320,192,202860,1,0,0:0:0:0:
64,192,202905,1,0,0:0:0:0:
192,192,202951,1,0,0:0:0:0:
448,192,202951,1,0,0:0:0:0:
320,192,202996,1,0,0:0:0:0:
64,192,203042,1,0,0:0:0:0:
192,192,203088,1,0,0:0:0:0:
448,192,203134,1,0,0:0:0:0:
320,192,203180,1,0,0:0:0:0:
64,192,203226,1,0,0:0:0:0:
448,192,203272,1,0,0:0:0:0:
320,192,203318,1,0,0:0:0:0:
64,192,203364,1,0,0:0:0:0:
192,192,203365,1,0,0:0:0:0:
448,192,203412,1,0,0:0:0:0:
320,192,203460,1,0,0:0:0:0:
192,192,203507,1,0,0:0:0:0:
64,192,203555,1,0,0:0:0:0:
448,192,203603,1,0,0:0:0:0:
320,192,203650,1,0,0:0:0:0:
64,192,203698,1,0,0:0:0:0:
192,192,203745,1,0,0:0:0:0:
320,192,203794,1,0,0:0:0:0:
448,192,203794,1,0,0:0:0:0:
192,192,203915,1,0,0:0:0:0:
64,192,203915,1,0,0:0:0:0:
320,192,204037,1,0,0:0:0:0:
448,192,204037,1,0,0:0:0:0:
192,192,204159,1,0,0:0:0:0:
64,192,204159,1,0,0:0:0:0:
320,192,204281,1,0,0:0:0:0:
448,192,204281,1,0,0:0:0:0:
