osu file format v14

[General]
AudioFilename: audio.mp3
AudioLeadIn: 0
PreviewTime: -1
Countdown: 1
SampleSet: None
StackLeniency: 0.7
Mode: 0
LetterboxInBreaks: 0
WidescreenStoryboard: 0

[Editor]
DistanceSpacing: 0.8
BeatDivisor: 4
GridSize: 16
TimelineZoom: 1

[Metadata]
Title:Fly
TitleUnicode:Fly
Artist:Fransis Darelle
ArtistUnicode:Fransis Darelle
Creator:PowerPellet
Version:Fly High
Source:
Tags:
BeatmapID:1439545
BeatmapSetID:680864

[Difficulty]
HPDrainRate:5.5
CircleSize:4.5
OverallDifficulty:5.4
ApproachRate:6
SliderMultiplier:1.4
SliderTickRate:1

[Events]
//Background and Video events
0,0,"Fly.jpg",0,0
//Break Periods
2,92163,104884
//Storyboard Layer 0 (Background)
//Storyboard Layer 1 (Fail)
//Storyboard Layer 2 (Pass)
//Storyboard Layer 3 (Foreground)
//Storyboard Sound Samples

[TimingPoints]
-620.211232503068,417.043163967471,4,1,0,100,1,0

[HitObjects]
256,192,13142,5,0,0:0:0:0:
144,160,13559,1,0,0:0:0:0:
256,192,13976,1,0,0:0:0:0:
160,160,14393,1,0,0:0:0:0:
256,192,14810,1,0,0:0:0:0:
256,80,15227,1,0,0:0:0:0:
256,192,15644,1,0,0:0:0:0:
256,320,16061,1,0,0:0:0:0:
256,192,16478,1,0,0:0:0:0:
368,192,16895,1,0,0:0:0:0:
256,192,17312,1,0,0:0:0:0:
96,192,17729,1,0,0:0:0:0:
256,192,18146,1,0,0:0:0:0:
256,96,18563,1,0,0:0:0:0:
256,192,18980,1,0,0:0:0:0:
256,288,19397,1,0,0:0:0:0:
256,192,19814,1,0,0:0:0:0:
368,96,20231,1,0,0:0:0:0:
368,288,20648,1,0,0:0:0:0:
112,304,21066,1,0,0:0:0:0:
112,112,21483,1,0,0:0:0:0:
368,112,21795,1,0,0:0:0:0:
112,192,22317,5,0,0:0:0:0:
256,80,22734,1,0,0:0:0:0:
384,192,23151,1,0,0:0:0:0:
256,272,23568,1,0,0:0:0:0:
128,192,23985,1,0,0:0:0:0:
256,192,24193,12,0,25444,0:0:0:0:
144,80,26174,6,0,B|320:224|112:128|384:384|480:48,1,490
480,64,27842,2,0,P|208:80|128:176,1,385
128,176,29198,2,0,P|304:256|272:160,1,455
256,144,30970,6,0,B|176:48|32:128|416:336,1,455
112,96,32743,5,0,0:0:0:0:
176,96,33160,1,0,0:0:0:0:
240,96,33577,1,0,0:0:0:0:
304,96,34098,1,0,0:0:0:0:
256,192,34411,12,0,36392,0:0:0:0:
256,192,37330,12,0,37852,0:0:0:0:
128,96,38269,6,0,B|368:288|480:96|48:32,1,560
62,34,40458,6,0,P|80:256|432:96,1,735
256,192,43169,12,0,46192,0:0:0:0:
96,160,46297,5,0,0:0:0:0:
128,176,46401,1,0,0:0:0:0:
112,112,46818,2,0,B|336:160|240:48|448:224|48:368,1,525
48,336,48382,2,0,P|48:112|416:176,1,700
413,166,50571,5,0,0:0:0:0:
400,176,50676,1,0,0:0:0:0:
384,192,50780,1,0,0:0:0:0:
256,192,50988,12,0,52969,0:0:0:0:
144,64,52969,6,0,P|304:80|320:304,1,420
288,320,54220,6,0,P|160:208|416:128,1,560
48,32,55889,2,0,P|272:48|0:224,1,805
32,208,58287,2,0,B|176:96|448:208|48:384|480:32,1,560
256,192,60372,12,0,64855,0:0:0:0:
96,96,65793,6,0,B|240:224|320:96|384:304|224:80|32:208|192:32|448:80|464:368|0:336|16:16|480:64|464:336|48:336|48:32,1,665
32,48,67774,6,0,B|320:64|448:336|80:320|432:352,1,595
432,352,69547,6,0,P|448:128|64:96,1,665
112,48,71528,6,0,P|400:256|480:128,1,595
480,144,73300,6,0,P|320:64|32:256,1,560
64,304,74968,6,0,P|432:128|464:32,1,525
432,48,76532,6,0,P|224:64|464:304,1,770
80,176,79035,1,0,0:0:0:0:
400,176,79452,1,0,0:0:0:0:
208,224,79764,1,0,0:0:0:0:
96,80,80181,6,0,P|320:80|464:352,1,560
400,352,81850,2,0,P|208:224|384:16,1,560
112,32,83518,2,0,P|288:32|80:304,1,735
128,144,86020,1,0,0:0:0:0:
272,160,86437,1,0,0:0:0:0:
112,288,87271,5,0,0:0:0:0:
336,304,87688,1,0,0:0:0:0:
144,256,88105,1,0,0:0:0:0:
304,256,88522,1,0,0:0:0:0:
192,144,88939,1,0,0:0:0:0:
336,64,89356,5,0,0:0:0:0:
448,224,89669,1,0,0:0:0:0:
432,224,89878,1,0,0:0:0:0:
128,240,90503,5,0,0:0:0:0:
128,240,90712,1,0,0:0:0:0:
336,224,91337,1,0,0:0:0:0:
336,224,91546,1,0,0:0:0:0:
176,128,91963,1,0,0:0:0:0:
112,112,105934,6,0,B|320:224|432:160|64:32|480:64,1,455
448,80,107602,6,0,P|400:304|16:176,1,735
80,176,110104,2,0,B|320:80|432:352|16:352,1,560
38,351,111772,2,0,B|32:224|416:112|448:32,1,525
352,32,113336,2,0,B|464:48|272:288|32:352,1,525
32,288,114900,2,0,B|80:336|416:80|400:80|304:32,1,455
288,64,116464,5,0,0:0:0:0:
288,80,116568,1,0,0:0:0:0:
288,96,116673,1,0,0:0:0:0:
288,112,116777,1,0,0:0:0:0:
256,192,116985,12,0,118341,0:0:0:0:
112,96,119175,6,0,P|368:160|48:272,1,840
464,48,120218,6,0,P|192:128|432:320,1,700
256,192,122511,12,0,124075,0:0:0:0:
112,96,124909,6,0,B|384:192|48:272|32:48,1,385
32,48,126056,2,0,P|336:48|480:368,1,665
480,336,128141,2,0,P|240:304|96:16,1,560
96,144,129914,2,0,P|288:16|432:96,1,385
432,96,132416,6,0,B|288:256|80:96|16:176,1,420
32,160,133667,2,0,P|320:336|400:48,1,735
402,51,135857,2,0,P|128:80|432:176,1,875
431,179,138463,2,0,P|160:288|400:64,1,910
256,192,141174,12,0,144093,0:0:0:0:
96,80,145761,6,0,L|528:96,1,420
496,96,147221,2,0,L|256:352,1,350
240,304,148472,2,0,L|32:64,1,315
16,80,149619,2,0,P|336:48|496:352,1,700
448,352,151704,2,0,P|192:192|432:48,1,665
112,32,153685,6,0,P|320:64|80:320,1,735
112,336,155875,6,0,P|240:128|480:80,1,490
467,77,157334,2,0,P|336:80|112:352,1,490
48,336,158794,2,0,P|80:80|416:240,1,735
416,224,160984,2,0,P|176:352|48:336,1,385
71,342,162235,2,0,P|160:192|448:128,1,455
384,112,163903,2,0,B|368:336|384:128|192:224,1,280
128,192,165050,2,0,B|416:176|144:192|464:32,1,385
80,96,166509,6,0,B|368:96|176:96|272:128,2,210
320,160,168073,2,0,B|160:144|160:144|272:144|304:160|144:64,1,385
96,112,169533,5,0,0:0:0:0:
128,112,169637,1,0,0:0:0:0:
160,112,169741,1,0,0:0:0:0:
192,112,169846,1,0,0:0:0:0:
192,112,169950,1,0,0:0:0:0:
224,112,170054,1,0,0:0:0:0:
256,112,170158,1,0,0:0:0:0:
288,112,170263,1,0,0:0:0:0:
288,144,170367,1,0,0:0:0:0:
288,176,170471,1,0,0:0:0:0:
288,208,170576,1,0,0:0:0:0:
288,240,170680,1,0,0:0:0:0:
288,272,170784,1,0,0:0:0:0:
288,304,170888,1,0,0:0:0:0:
256,192,171410,12,0,173286,0:0:0:0:
256,192,173703,12,0,175476,0:0:0:0:
256,192,175893,12,0,177040,0:0:0:0:
256,192,177457,12,0,177874,0:0:0:0:
256,192,178291,12,0,178708,0:0:0:0:
256,192,179542,12,0,180480,0:0:0:0:
256,192,181314,12,0,182148,0:0:0:0:
256,192,182774,12,0,183712,0:0:0:0:
