osu file format v14

[General]
AudioFilename: FILTHY FRANK - MEME MACHINE.mp3
AudioLeadIn: 0
PreviewTime: -1
Countdown: 3
SampleSet: None
StackLeniency: 0.7
Mode: 0
LetterboxInBreaks: 1
WidescreenStoryboard: 1

[Editor]
DistanceSpacing: 2
BeatDivisor: 4
GridSize: 32
TimelineZoom: 0.1999999

[Metadata]
Title:Meme Machine
TitleUnicode:Meme Machine
Artist:Franku-Sama (FilthyFrank)
ArtistUnicode:Franku-Sama (FilthyFrank)
Creator:bmenassa
Version:SPINNERS UNRELENTING
Source:
Tags:
BeatmapID:826145
BeatmapSetID:352365

[Difficulty]
HPDrainRate:10
CircleSize:7
OverallDifficulty:9.8
ApproachRate:10
SliderMultiplier:0.400000005960464
SliderTickRate:1

[Events]
//Background and Video events
0,0,"FFom.jpg",0,0
//Break Periods
//Storyboard Layer 0 (Background)
//Storyboard Layer 1 (Fail)
//Storyboard Layer 2 (Pass)
//Storyboard Layer 3 (Foreground)
//Storyboard Sound Samples

[TimingPoints]
5287.77922077922,779.220779220779,4,1,0,100,1,0

[Colours]
Combo1 : 226,97,201
Combo2 : 106,192,234
Combo3 : 147,147,255
Combo4 : 236,122,19

[HitObjects]
256,192,28,12,0,417,0:0:0:0:
256,192,222,12,0,807,0:0:0:0:
256,192,417,12,0,1002,0:0:0:0:
256,192,612,12,0,1196,0:0:0:0:
256,192,807,12,0,1391,0:0:0:0:
256,192,1196,12,0,1586,0:0:0:0:
256,192,1781,12,0,13859,0:0:0:0:
256,192,2560,12,0,2755,0:0:0:0:
256,192,3339,12,0,3534,0:0:0:0:
256,192,4118,12,0,4313,0:0:0:0:
256,192,4508,12,0,4703,0:0:0:0:
256,192,4898,12,0,5092,0:0:0:0:
256,192,5287,12,0,5482,0:0:0:0:
256,192,5677,12,0,5872,0:0:0:0:
256,192,6261,12,0,6456,0:0:0:0:
256,192,6651,12,0,6846,0:0:0:0:
256,192,7041,12,0,7235,0:0:0:0:
256,192,7430,12,0,7625,0:0:0:0:
256,192,7820,12,0,8015,0:0:0:0:
256,192,8209,12,0,8404,0:0:0:0:
256,192,8599,12,0,8794,0:0:0:0:
256,192,9573,12,0,9768,0:0:0:0:
256,192,10352,12,0,10547,0:0:0:0:
256,192,10742,12,0,10937,0:0:0:0:
256,192,11131,12,0,11326,0:0:0:0:
256,192,11521,12,0,11716,0:0:0:0:
256,192,11911,12,0,12105,0:0:0:0:
256,192,12300,12,0,12495,0:0:0:0:
256,192,14833,12,0,15222,0:0:0:0:
256,192,15612,12,0,15807,0:0:0:0:
256,192,16002,12,0,16586,0:0:0:0:
256,192,16781,12,0,17170,0:0:0:0:
256,192,17365,12,0,17560,0:0:0:0:
256,192,17755,12,0,17950,0:0:0:0:
256,192,18144,12,0,18339,0:0:0:0:
256,192,18729,12,0,19703,0:0:0:0:
256,192,19898,12,0,20287,0:0:0:0:
256,192,20482,12,0,20677,0:0:0:0:
256,192,21066,12,0,131711,0:0:0:0:
256,192,27105,12,0,27885,0:0:0:0:
256,192,29054,12,0,29638,0:0:0:0:
256,192,30417,12,0,30807,0:0:0:0:
256,192,31196,12,0,31391,0:0:0:0:
256,192,31586,12,0,31781,0:0:0:0:
256,192,31976,12,0,32365,0:0:0:0:
256,192,32560,12,0,33144,0:0:0:0:
256,192,34118,12,0,35092,0:0:0:0:
256,192,35677,12,0,36066,0:0:0:0:
256,192,39573,12,0,41326,0:0:0:0:
256,192,40352,12,0,40547,0:0:0:0:
256,192,40937,12,0,41131,0:0:0:0:
256,192,41326,12,0,41521,0:0:0:0:
256,192,43664,12,0,45417,0:0:0:0:
256,192,46976,12,0,48729,0:0:0:0:
256,192,50092,12,0,51651,0:0:0:0:
256,192,53209,12,0,54183,0:0:0:0:
256,192,55547,12,0,57105,0:0:0:0:
256,192,58664,12,0,60222,0:0:0:0:
256,192,61196,12,0,62560,0:0:0:0:
256,192,63729,12,0,65287,0:0:0:0:
256,192,66066,12,0,67430,0:0:0:0:
256,192,68599,12,0,70157,0:0:0:0:
256,192,70937,12,0,72300,0:0:0:0:
256,192,73079,12,0,74443,0:0:0:0:
256,192,75222,12,0,76586,0:0:0:0:
256,192,77365,12,0,78924,0:0:0:0:
256,192,79703,12,0,80872,0:0:0:0:
256,192,82041,12,0,83015,0:0:0:0:
256,192,83794,12,0,84768,0:0:0:0:
256,192,85742,12,0,87105,0:0:0:0:
256,192,88079,12,0,89054,0:0:0:0:
256,192,89833,12,0,91002,0:0:0:0:
256,192,91976,12,0,92170,0:0:0:0:
256,192,92950,12,0,93924,0:0:0:0:
256,192,94703,12,0,95872,0:0:0:0:
256,192,96846,12,0,98209,0:0:0:0:
256,192,99378,12,0,100352,0:0:0:0:
256,192,101326,12,0,102495,0:0:0:0:
256,192,102885,12,0,103664,0:0:0:0:
256,192,104443,12,0,105807,0:0:0:0:
256,192,106391,12,0,107755,0:0:0:0:
256,192,108534,12,0,109703,0:0:0:0:
256,192,110677,12,0,112235,0:0:0:0:
256,192,113209,12,0,113599,0:0:0:0:
256,192,114183,12,0,115547,0:0:0:0:
256,192,116326,12,0,117690,0:0:0:0:
256,192,118664,12,0,120028,0:0:0:0:
256,192,120807,12,0,121781,0:0:0:0:
256,192,122560,12,0,124313,0:0:0:0:
256,192,125092,12,0,126456,0:0:0:0:
256,192,127235,12,0,128599,0:0:0:0:
256,192,129573,12,0,130742,0:0:0:0:
256,192,130937,12,0,131521,0:0:0:0:
256,192,131326,12,0,131521,0:0:0:0:
