osu file format v14

[General]
AudioFilename: FILTHY FRANK - MEME MACHINE.mp3
AudioLeadIn: 0
PreviewTime: -1
Countdown: 3
SampleSet: None
StackLeniency: 0.7
Mode: 2
LetterboxInBreaks: 1
WidescreenStoryboard: 1

[Editor]
DistanceSpacing: 2
BeatDivisor: 4
GridSize: 32
TimelineZoom: 0.1999999

[Metadata]
Title:Meme Machine
TitleUnicode:Meme Machine
Artist:Franku-Sama (FilthyFrank)
ArtistUnicode:Franku-Sama (FilthyFrank)
Creator:bmenassa
Version:Ramen Maze
Source:
Tags:
BeatmapID:826142
BeatmapSetID:352365

[Difficulty]
HPDrainRate:5
CircleSize:2
OverallDifficulty:10
ApproachRate:7
SliderMultiplier:0.799999904632568
SliderTickRate:1

[Events]
//Background and Video events
0,0,"FFom.jpg",0,0
//Break Periods
//Storyboard Layer 0 (Background)
//Storyboard Layer 1 (Fail)
//Storyboard Layer 2 (Pass)
//Storyboard Layer 3 (Foreground)
//Storyboard Sound Samples

[TimingPoints]
5381,192,4,1,0,100,1,0

[Colours]
Combo1 : 226,97,201
Combo2 : 106,192,234
Combo3 : 147,147,255
Combo4 : 236,122,19

[HitObjects]
111,307,677,5,0,0:0:0:0:
424,303,725,1,0,0:0:0:0:
138,297,773,1,0,0:0:0:0:
407,300,821,1,0,0:0:0:0:
177,299,869,1,0,0:0:0:0:
346,301,917,1,0,0:0:0:0:
198,293,965,1,0,0:0:0:0:
318,294,1013,1,0,0:0:0:0:
59,291,1061,1,0,0:0:0:0:
453,302,1109,1,0,0:0:0:0:
78,292,1157,1,0,0:0:0:0:
452,291,1205,1,0,0:0:0:0:
52,284,1253,1,0,0:0:0:0:
449,294,1301,1,0,0:0:0:0:
72,282,1349,1,0,0:0:0:0:
91,284,1397,1,0,0:0:0:0:
452,291,1445,1,0,0:0:0:0:
118,290,1493,1,0,0:0:0:0:
449,294,1541,1,0,0:0:0:0:
107,290,1637,1,0,0:0:0:0:
452,291,1685,1,0,0:0:0:0:
77,292,1733,1,0,0:0:0:0:
433,294,1781,1,0,0:0:0:0:
118,277,1829,1,0,0:0:0:0:
452,291,1877,1,0,0:0:0:0:
88,286,1925,1,0,0:0:0:0:
415,295,1973,1,0,0:0:0:0:
86,280,2021,1,0,0:0:0:0:
442,285,2069,1,0,0:0:0:0:
96,285,2117,1,0,0:0:0:0:
420,286,2165,1,0,0:0:0:0:
103,280,2213,1,0,0:0:0:0:
415,296,2261,1,0,0:0:0:0:
43,291,2309,2,0,L|468:287,1,419.999949932098
200,289,2501,1,0,0:0:0:0:
298,282,2549,1,0,0:0:0:0:
390,288,2597,1,0,0:0:0:0:
71,157,2645,1,0,0:0:0:0:
400,147,2693,1,0,0:0:0:0:
171,126,2741,1,0,0:0:0:0:
303,111,2789,1,0,0:0:0:0:
63,149,2885,1,0,0:0:0:0:
460,167,2933,1,0,0:0:0:0:
100,134,2981,1,0,0:0:0:0:
449,146,3029,1,0,0:0:0:0:
83,121,3077,1,0,0:0:0:0:
430,133,3125,1,0,0:0:0:0:
72,121,3173,1,0,0:0:0:0:
427,125,3221,1,0,0:0:0:0:
80,128,3269,1,0,0:0:0:0:
424,123,3317,1,0,0:0:0:0:
83,118,3365,1,0,0:0:0:0:
433,117,3413,1,0,0:0:0:0:
256,192,3509,12,0,7301,0:0:0:0:
174,251,3701,5,0,0:0:0:0:
357,258,3797,1,0,0:0:0:0:
166,253,3845,1,0,0:0:0:0:
357,258,3893,1,0,0:0:0:0:
177,257,3941,1,0,0:0:0:0:
357,258,3989,1,0,0:0:0:0:
166,253,4037,1,0,0:0:0:0:
354,250,4085,1,0,0:0:0:0:
165,260,4133,1,0,0:0:0:0:
357,258,4181,1,0,0:0:0:0:
181,258,4229,1,0,0:0:0:0:
350,256,4277,1,0,0:0:0:0:
70,292,4325,1,0,0:0:0:0:
70,292,4373,1,0,0:0:0:0:
70,292,4421,1,0,0:0:0:0:
70,292,4469,1,0,0:0:0:0:
70,292,4517,1,0,0:0:0:0:
70,292,4565,1,0,0:0:0:0:
70,292,4613,1,0,0:0:0:0:
70,292,4661,1,0,0:0:0:0:
443,305,4709,1,0,0:0:0:0:
443,305,4757,1,0,0:0:0:0:
443,305,4805,1,0,0:0:0:0:
443,305,4901,1,0,0:0:0:0:
443,305,4949,1,0,0:0:0:0:
443,305,4997,1,0,0:0:0:0:
440,298,5045,1,0,0:0:0:0:
440,297,5093,1,0,0:0:0:0:
439,298,5141,1,0,0:0:0:0:
439,298,5189,1,0,0:0:0:0:
439,298,5237,1,0,0:0:0:0:
264,217,5285,1,0,0:0:0:0:
263,217,5333,1,0,0:0:0:0:
263,217,5381,1,0,0:0:0:0:
262,217,5429,1,0,0:0:0:0:
158,271,5477,1,0,0:0:0:0:
324,256,5525,1,0,0:0:0:0:
158,271,5573,1,0,0:0:0:0:
324,256,5621,1,0,0:0:0:0:
63,294,5669,1,0,0:0:0:0:
63,294,5717,1,0,0:0:0:0:
63,294,5765,1,0,0:0:0:0:
63,294,5813,1,0,0:0:0:0:
101,295,5861,1,0,0:0:0:0:
141,296,5909,1,0,0:0:0:0:
180,288,5957,1,0,0:0:0:0:
235,290,6005,1,0,0:0:0:0:
293,295,6053,1,0,0:0:0:0:
467,295,6101,1,0,0:0:0:0:
420,290,6149,1,0,0:0:0:0:
378,287,6197,1,0,0:0:0:0:
331,287,6245,1,0,0:0:0:0:
279,281,6293,1,0,0:0:0:0:
137,283,6341,1,0,0:0:0:0:
391,277,6389,1,0,0:0:0:0:
121,290,6437,1,0,0:0:0:0:
395,291,6485,1,0,0:0:0:0:
137,283,6533,1,0,0:0:0:0:
398,290,6581,1,0,0:0:0:0:
131,292,6629,1,0,0:0:0:0:
410,284,6677,1,0,0:0:0:0:
127,283,6725,1,0,0:0:0:0:
399,278,6773,1,0,0:0:0:0:
100,291,6821,1,0,0:0:0:0:
391,288,6869,1,0,0:0:0:0:
132,289,6917,1,0,0:0:0:0:
399,278,6965,1,0,0:0:0:0:
144,292,7013,1,0,0:0:0:0:
401,281,7061,1,0,0:0:0:0:
132,289,7109,1,0,0:0:0:0:
389,276,7157,1,0,0:0:0:0:
148,279,7205,1,0,0:0:0:0:
391,281,7253,1,0,0:0:0:0:
151,299,7301,1,0,0:0:0:0:
400,285,7349,1,0,0:0:0:0:
141,284,7397,1,0,0:0:0:0:
406,276,7445,1,0,0:0:0:0:
218,284,7493,1,0,0:0:0:0:
329,277,7541,1,0,0:0:0:0:
57,285,7589,1,0,0:0:0:0:
485,275,7637,1,0,0:0:0:0:
57,285,7685,1,0,0:0:0:0:
478,282,7733,1,0,0:0:0:0:
55,274,7781,1,0,0:0:0:0:
472,284,7877,1,0,0:0:0:0:
55,274,7973,1,0,0:0:0:0:
470,275,8069,1,0,0:0:0:0:
46,277,8165,1,0,0:0:0:0:
475,270,8261,1,0,0:0:0:0:
46,277,8357,1,0,0:0:0:0:
475,270,8453,1,0,0:0:0:0:
46,277,8549,1,0,0:0:0:0:
501,278,8645,1,0,0:0:0:0:
52,279,8741,1,0,0:0:0:0:
501,278,8837,1,0,0:0:0:0:
63,275,8933,1,0,0:0:0:0:
104,274,8981,1,0,0:0:0:0:
164,275,9029,1,0,0:0:0:0:
484,276,9077,1,0,0:0:0:0:
63,275,9173,1,0,0:0:0:0:
131,274,9221,1,0,0:0:0:0:
193,276,9269,1,0,0:0:0:0:
241,285,9317,1,0,0:0:0:0:
477,275,9365,1,0,0:0:0:0:
426,280,9413,1,0,0:0:0:0:
377,275,9461,1,0,0:0:0:0:
67,288,9509,1,0,0:0:0:0:
472,285,9557,1,0,0:0:0:0:
75,281,9605,1,0,0:0:0:0:
456,294,9653,1,0,0:0:0:0:
102,280,9701,1,0,0:0:0:0:
472,285,9749,1,0,0:0:0:0:
50,330,9797,2,0,B|465:74|465:74|60:72,1,879.999895095825
171,248,10133,2,0,L|91:151,1,119.999985694885
338,171,10229,2,0,L|201:92,1,139.999983310699
333,59,10325,2,0,L|346:277,1,199.999976158142
70,61,10373,2,0,L|506:324,1,499.999940395355
202,312,10469,2,0,L|434:149,4,279.999966621399
256,192,13637,12,0,20741,0:0:0:0:
133,178,15797,5,0,0:0:0:0:
388,176,15845,1,0,0:0:0:0:
125,171,15893,1,0,0:0:0:0:
378,180,15941,1,0,0:0:0:0:
150,177,15989,1,0,0:0:0:0:
379,172,16037,1,0,0:0:0:0:
135,169,16085,1,0,0:0:0:0:
378,180,16133,1,0,0:0:0:0:
119,166,16181,1,0,0:0:0:0:
366,166,16229,1,0,0:0:0:0:
43,168,16277,1,0,0:0:0:0:
422,169,16325,1,0,0:0:0:0:
16,174,16373,1,0,0:0:0:0:
477,165,16421,1,0,0:0:0:0:
108,167,16469,1,0,0:0:0:0:
413,156,16517,1,0,0:0:0:0:
138,169,16565,1,0,0:0:0:0:
375,161,16613,1,0,0:0:0:0:
150,156,16661,1,0,0:0:0:0:
326,153,16709,1,0,0:0:0:0:
166,156,16757,1,0,0:0:0:0:
304,156,16805,1,0,0:0:0:0:
122,161,16853,1,0,0:0:0:0:
338,162,16901,1,0,0:0:0:0:
150,163,16949,1,0,0:0:0:0:
354,157,16997,1,0,0:0:0:0:
83,157,17045,1,0,0:0:0:0:
35,156,17093,1,0,0:0:0:0:
422,159,17141,1,0,0:0:0:0:
461,172,17189,1,0,0:0:0:0:
2,159,17237,1,0,0:0:0:0:
475,160,17285,1,0,0:0:0:0:
1,162,17333,1,0,0:0:0:0:
330,164,17381,1,0,0:0:0:0:
99,157,17429,1,0,0:0:0:0:
285,154,17477,1,0,0:0:0:0:
162,154,17525,1,0,0:0:0:0:
387,149,17573,1,0,0:0:0:0:
87,148,17621,1,0,0:0:0:0:
358,170,17669,1,0,0:0:0:0:
27,154,17717,1,0,0:0:0:0:
331,165,17765,1,0,0:0:0:0:
175,158,17813,1,0,0:0:0:0:
483,157,17861,1,0,0:0:0:0:
316,160,17909,1,0,0:0:0:0:
175,158,17957,1,0,0:0:0:0:
464,156,18005,1,0,0:0:0:0:
27,147,18053,1,0,0:0:0:0:
200,154,18101,1,0,0:0:0:0:
321,167,18149,1,0,0:0:0:0:
42,160,18197,1,0,0:0:0:0:
134,161,18245,1,0,0:0:0:0:
490,161,18293,1,0,0:0:0:0:
393,168,18341,1,0,0:0:0:0:
168,168,18389,1,0,0:0:0:0:
316,161,18437,1,0,0:0:0:0:
166,165,18485,1,0,0:0:0:0:
325,160,18533,1,0,0:0:0:0:
161,165,18581,1,0,0:0:0:0:
320,168,18629,1,0,0:0:0:0:
178,162,18677,1,0,0:0:0:0:
333,168,18725,1,0,0:0:0:0:
84,180,18773,1,0,0:0:0:0:
37,176,18821,1,0,0:0:0:0:
15,172,18869,1,0,0:0:0:0:
367,167,18917,1,0,0:0:0:0:
408,168,18965,1,0,0:0:0:0:
467,166,19013,1,0,0:0:0:0:
36,278,19109,2,0,L|323:85,1,339.999959468841
424,262,19445,2,0,L|113:75,1,359.999957084656
19,151,19733,2,0,L|470:144,1,439.999947547912
494,323,19925,2,0,P|59:347|53:347,1,439.999947547912
19,236,20789,1,0,0:0:0:0:
477,229,20837,1,0,0:0:0:0:
73,235,20885,1,0,0:0:0:0:
410,234,20933,1,0,0:0:0:0:
57,237,20981,1,0,0:0:0:0:
429,239,21029,1,0,0:0:0:0:
104,246,21077,1,0,0:0:0:0:
382,252,21125,1,0,0:0:0:0:
121,251,21173,1,0,0:0:0:0:
382,252,21221,1,0,0:0:0:0:
40,243,21269,1,0,0:0:0:0:
423,261,21317,1,0,0:0:0:0:
29,257,21365,1,0,0:0:0:0:
467,276,21413,1,0,0:0:0:0:
39,260,21461,1,0,0:0:0:0:
459,267,21509,1,0,0:0:0:0:
29,257,21557,1,0,0:0:0:0:
453,268,21605,1,0,0:0:0:0:
44,254,21653,1,0,0:0:0:0:
449,265,21701,1,0,0:0:0:0:
37,252,21749,1,0,0:0:0:0:
453,268,21797,1,0,0:0:0:0:
33,261,21845,1,0,0:0:0:0:
110,257,21893,1,0,0:0:0:0:
437,265,21941,1,0,0:0:0:0:
400,266,21989,1,0,0:0:0:0:
148,260,22037,1,0,0:0:0:0:
347,263,22085,1,0,0:0:0:0:
26,262,22133,1,0,0:0:0:0:
459,271,22181,1,0,0:0:0:0:
74,262,22229,1,0,0:0:0:0:
413,270,22277,1,0,0:0:0:0:
132,271,22325,1,0,0:0:0:0:
362,271,22373,1,0,0:0:0:0:
37,267,22421,1,0,0:0:0:0:
445,269,22469,1,0,0:0:0:0:
57,277,22517,1,0,0:0:0:0:
446,276,22565,1,0,0:0:0:0:
57,272,22613,1,0,0:0:0:0:
445,269,22661,1,0,0:0:0:0:
134,270,22709,1,0,0:0:0:0:
190,271,22757,1,0,0:0:0:0:
243,274,22805,1,0,0:0:0:0:
445,269,22853,1,0,0:0:0:0:
67,272,22901,1,0,0:0:0:0:
395,275,22949,1,0,0:0:0:0:
349,277,22997,1,0,0:0:0:0:
288,277,23045,1,0,0:0:0:0:
73,275,23093,1,0,0:0:0:0:
447,278,23141,1,0,0:0:0:0:
65,276,23189,1,0,0:0:0:0:
423,287,23237,1,0,0:0:0:0:
73,275,23285,1,0,0:0:0:0:
424,279,23333,1,0,0:0:0:0:
82,278,23381,1,0,0:0:0:0:
429,291,23429,1,0,0:0:0:0:
151,154,23477,2,0,L|175:146,12,19.9999976158142
334,300,23669,2,0,L|314:278,14,19.9999976158142
89,297,23957,2,0,L|397:144,1,339.999959468841
