osu file format v14

[General]
AudioFilename: FILTHY FRANK - MEME MACHINE.mp3
AudioLeadIn: 0
PreviewTime: -1
Countdown: 3
SampleSet: None
StackLeniency: 0.7
Mode: 2
LetterboxInBreaks: 1
WidescreenStoryboard: 1

[Editor]
DistanceSpacing: 2
BeatDivisor: 16
GridSize: 32
TimelineZoom: 0.1999999

[Metadata]
Title:Meme Machine
TitleUnicode:Meme Machine
Artist:Franku-Sama (FilthyFrank)
ArtistUnicode:Franku-Sama (FilthyFrank)
Creator:bmenassa
Version:RAMENON PHENOMINAN
Source:
Tags:
BeatmapID:826144
BeatmapSetID:352365

[Difficulty]
HPDrainRate:5
CircleSize:2
OverallDifficulty:10
ApproachRate:7
SliderMultiplier:0.799999904632568
SliderTickRate:1

[Events]
//Background and Video events
0,0,"FFom.jpg",0,0
//Break Periods
//Storyboard Layer 0 (Background)
//Storyboard Layer 1 (Fail)
//Storyboard Layer 2 (Pass)
//Storyboard Layer 3 (Foreground)
//Storyboard Sound Samples

[TimingPoints]
5381,192,4,1,0,100,1,0

[Colours]
Combo1 : 226,97,201
Combo2 : 106,192,234
Combo3 : 147,147,255
Combo4 : 236,122,19

[HitObjects]
33,236,5,5,0,0:0:0:0:
415,237,197,1,0,0:0:0:0:
45,249,209,1,0,0:0:0:0:
252,248,221,1,0,0:0:0:0:
149,245,233,1,0,0:0:0:0:
294,240,245,1,0,0:0:0:0:
230,246,257,1,0,0:0:0:0:
294,240,269,1,0,0:0:0:0:
176,240,281,1,0,0:0:0:0:
227,237,293,1,0,0:0:0:0:
227,237,317,1,0,0:0:0:0:
227,237,329,1,0,0:0:0:0:
227,237,341,1,0,0:0:0:0:
227,237,353,1,0,0:0:0:0:
227,237,365,1,0,0:0:0:0:
281,229,377,1,0,0:0:0:0:
199,239,389,1,0,0:0:0:0:
267,230,401,1,0,0:0:0:0:
163,237,413,1,0,0:0:0:0:
267,228,425,1,0,0:0:0:0:
184,233,437,1,0,0:0:0:0:
268,228,449,1,0,0:0:0:0:
178,236,473,1,0,0:0:0:0:
252,233,485,1,0,0:0:0:0:
228,233,497,1,0,0:0:0:0:
183,237,509,1,0,0:0:0:0:
156,240,521,1,0,0:0:0:0:
190,230,533,1,0,0:0:0:0:
154,234,545,1,0,0:0:0:0:
196,224,557,1,0,0:0:0:0:
170,234,569,1,0,0:0:0:0:
179,268,581,2,0,L|252:236,4,79.9999904632568
280,259,1337,1,0,0:0:0:0:
333,256,1349,1,0,0:0:0:0:
171,237,1373,1,0,0:0:0:0:
307,239,1385,1,0,0:0:0:0:
202,240,1397,1,0,0:0:0:0:
280,229,1409,1,0,0:0:0:0:
218,228,1421,1,0,0:0:0:0:
262,228,1445,1,0,0:0:0:0:
200,220,1457,1,0,0:0:0:0:
267,228,1469,1,0,0:0:0:0:
229,229,1481,1,0,0:0:0:0:
268,223,1493,1,0,0:0:0:0:
190,226,1505,1,0,0:0:0:0:
288,215,1517,1,0,0:0:0:0:
162,223,1529,1,0,0:0:0:0:
471,238,1553,1,0,0:0:0:0:
101,192,1565,1,0,0:0:0:0:
353,221,1577,1,0,0:0:0:0:
146,237,1589,1,0,0:0:0:0:
275,239,1601,1,0,0:0:0:0:
184,248,1613,1,0,0:0:0:0:
276,240,1625,1,0,0:0:0:0:
189,247,1637,1,0,0:0:0:0:
256,238,1649,1,0,0:0:0:0:
164,246,1661,1,0,0:0:0:0:
288,256,1745,1,0,0:0:0:0:
288,254,1757,1,0,0:0:0:0:
288,252,1781,1,0,0:0:0:0:
287,252,1793,1,0,0:0:0:0:
286,252,1817,1,0,0:0:0:0:
285,251,1829,1,0,0:0:0:0:
285,252,1841,1,0,0:0:0:0:
285,252,1853,1,0,0:0:0:0:
285,252,1865,1,0,0:0:0:0:
285,253,1877,1,0,0:0:0:0:
284,254,1889,1,0,0:0:0:0:
288,256,1901,1,0,0:0:0:0:
288,256,1913,1,0,0:0:0:0:
288,256,1925,1,0,0:0:0:0:
288,256,1937,1,0,0:0:0:0:
288,256,1949,1,0,0:0:0:0:
288,256,1961,1,0,0:0:0:0:
288,256,1973,1,0,0:0:0:0:
288,256,1985,1,0,0:0:0:0:
288,254,1997,1,0,0:0:0:0:
288,252,2009,1,0,0:0:0:0:
288,252,2021,2,0,L|289:246,215,4.99999940395355
