osu file format v14

[General]
AudioFilename: audio.mp3
AudioLeadIn: 0
PreviewTime: 56394
Countdown: 1
SampleSet: Normal
StackLeniency: 0.7
Mode: 0
LetterboxInBreaks: 0
SkinPreference:Default
WidescreenStoryboard: 1

[Editor]
DistanceSpacing: 0.7
BeatDivisor: 2
GridSize: 8
TimelineZoom: 1.8

[Metadata]
Title:Leb deinen Traum
TitleUnicode:Leb deinen Traum
Artist:Frank Schindel
ArtistUnicode:Frank Schindel
Creator:Mao
Version:Bonsai's Easy
Source:デジモンアドベンチャー
Tags:Myxomatosis Bonsai Desperate-kun Digimon Adventures tv size opening op Andy Knote Kouji Wada 和田光司 Butter-fly butterfly Ikou Chiwata digital monsters german deutsch dub
BeatmapID:1518158
BeatmapSetID:718848

[Difficulty]
HPDrainRate:3
CircleSize:3
OverallDifficulty:3
ApproachRate:4
SliderMultiplier:1.39
SliderTickRate:1

[Events]
//Background and Video events
0,0,"digi.jpg",0,0
Video,0,"digiop.avi"
//Break Periods
//Storyboard Layer 0 (Background)
//Storyboard Layer 1 (Fail)
//Storyboard Layer 2 (Pass)
//Storyboard Layer 3 (Foreground)
//Storyboard Sound Samples

[TimingPoints]
1213,363.636363636364,4,1,0,90,1,0
56485,-100,4,1,0,100,0,1
79758,-100,4,1,0,90,0,0

[Colours]
Combo1 : 255,150,0
Combo2 : 5,240,5
Combo3 : 5,5,240
Combo4 : 240,5,5

[HitObjects]
0,288,18485,6,0,L|208:288,1,208.5,4|0,0:0|0:0,0:0:0:0:
304,288,19394,1,0,0:0:0:0:
400,288,19758,2,0,L|400:208,1,69.5
400,128,20303,2,0,B|304:32|304:32|208:128|208:128|400:128,1,417,0|4,0:0|0:0,0:0:0:0:
352,288,21940,1,0,0:0:0:0:
256,288,22303,2,0,L|112:288,1,139
64,288,22849,2,0,B|30:288|-2:254|-35:221|-2:188|30:154|64:154,1,208.5
256,160,24122,5,4,0:0:0:0:
256,64,24485,1,4,0:0:0:0:
256,64,25758,2,2,B|286:155|286:155|225:215|225:215|256:306,2,278,0|0|0,0:0|0:0|0:0,0:0:0:0:
256,192,27394,12,4,30303,0:0:0:0:
96,96,31940,6,0,B|64:128|96:160|96:160,1,69.5,2|2,0:0|0:0,0:0:0:0:
160,224,32485,2,0,B|192:256|160:288|161:286,1,69.5,2|2,0:0|0:0,0:0:0:0:
96,352,33031,1,4,0:0:0:0:
320,131,34849,6,0,B|288:163|320:195|320:195,1,69.5,2|2,0:0|0:0,0:0:0:0:
384,259,35394,2,0,B|416:291|384:323|384:323,2,69.5,2|2|0,0:0|0:0|0:0,0:0:0:0:
291,291,36122,5,4,0:0:0:0:
291,291,37394,2,0,B|225:367|164:285|172:293,1,139,4|0,0:0|0:0,0:0:0:0:
225,213,38122,2,0,B|333:129|220:42|215:39,1,208.5,4|0,0:0|0:0,0:0:0:0:
211,37,39031,6,0,B|166:-29|33:15|33:192|255:347|255:347|476:192|476:15|343:-29|299:37|299:37,1,973,4|0,0:0|0:0,0:0:0:0:
256,192,41940,12,0,43213,0:0:0:0:
128,160,44485,5,2,0:0:0:0:
128,160,44849,2,0,B|192:96|256:160|256:160,1,139,2|8,0:0|0:0,0:0:0:0:
336,208,45576,2,0,B|400:272|464:208|464:208,1,139,0|8,0:0|0:0,0:0:0:0:
464,160,46122,2,0,B|400:96|336:160|336:160,1,139,6|0,0:0|0:0,0:0:0:0:
128,320,47394,5,0,0:0:0:0:
256,192,47758,12,0,49031,0:0:0:0:
384,128,50303,5,2,0:0:0:0:
384,128,50667,2,0,B|320:64|256:128|256:128,1,139,6|0,0:0|0:0,0:0:0:0:
224,160,51213,2,0,B|157:221|96:155|96:155,1,139,6|0,0:0|0:0,0:0:0:0:
100,60,51940,2,0,B|166:-1|227:64|227:64,1,139,6|0,0:0|0:0,0:0:0:0:
224,160,52667,2,2,L|224:368,1,208.5,6|0,0:0|0:0,0:0:0:0:
256,192,53576,12,0,55031,0:0:0:0:
208,288,56485,6,0,B|145:303|66:240|145:178|208:193|208:193,2,208.5,4|8|8,0:0|0:0|0:0,0:0:0:0:
296,256,57940,2,0,B|358:240|437:303|358:365|296:350|296:350,2,208.5,0|8|8,0:0|0:0|0:0,0:0:0:0:
256,272,59213,1,4,0:0:0:0:
224,16,60303,6,0,L|293:16,1,69.5,8|8,0:0|0:0,0:0:0:0:
328,104,60849,2,0,L|168:104,1,139,0|8,0:0|0:0,0:0:0:0:
152,192,61576,2,0,L|360:192,1,208.5,0|4,0:0|0:0,0:0:0:0:
500,307,63031,6,0,B|566:248|500:190,1,139,8|8,0:0|0:0,0:0:0:0:
456,192,63576,2,0,L|312:192,1,139,4|12,0:0|0:0,0:0:0:0:
224,192,64303,1,4,0:0:0:0:
152,56,65213,6,8,L|291:56,3,139
380,16,66667,2,0,B|487:105|380:194|380:194,1,208.5,4|4,0:0|0:0,0:0:0:0:
296,152,67576,1,8,0:0:0:0:
296,152,68122,6,0,B|233:136|154:199|233:261|296:246|296:246,2,208.5,4|8|8,0:0|0:0|0:0,0:0:0:0:
384,192,69576,2,0,B|491:281|384:370|384:370,1,208.5,4|8,0:0|0:0,0:0:0:0:
296,340,70485,2,0,L|226:340,2,69.5,8|8|4,0:0|0:0|0:0,0:0:0:0:
318,124,71940,6,0,B|256:62|194:124|194:124,1,139,8|4,0:0|0:0,0:0:0:0:
128,192,72667,1,8,0:0:0:0:
194,260,73031,2,0,B|256:321|318:260,1,139,0|8,0:0|0:0,0:0:0:0:
384,192,73758,1,4,0:0:0:0:
256,0,74668,6,0,L|256:144,1,139,8|8,0:0|0:0,0:0:0:0:
256,180,75213,1,4,0:0:0:0:
256,276,75576,1,4,0:0:0:0:
256,372,75940,1,4,0:0:0:0:
256,192,76849,12,0,78303,0:0:0:0:
416,320,79758,6,2,B|256:96|256:96|96:320|96:320|320:320|320:320|120:44,1,1112,0|0,0:0|0:0,0:0:0:0:
336,192,84122,5,4,0:0:0:0:
176,192,84667,1,4,0:0:0:0:
256,0,85576,5,6,0:0:0:0:
336,192,87031,5,4,0:0:0:0:
176,192,87576,1,4,0:0:0:0:
256,384,88485,6,0,L|256:232,3,139
256,192,89940,12,0,91395,0:0:0:0:
256,287,92849,6,2,B|233:219|233:219|279:174|279:174|256:106,1,208.5,6|6,0:0|0:0,0:0:0:0:
