osu file format v14

[General]
AudioFilename: audio.mp3
AudioLeadIn: 0
PreviewTime: 56394
Countdown: 1
SampleSet: Normal
StackLeniency: 0.7
Mode: 0
LetterboxInBreaks: 0
SkinPreference:Default
WidescreenStoryboard: 0

[Editor]
Bookmarks: 27394,41576
DistanceSpacing: 0.6
BeatDivisor: 4
GridSize: 8
TimelineZoom: 1.8

[Metadata]
Title:Leb deinen Traum
TitleUnicode:Leb deinen Traum
Artist:Frank Schindel
ArtistUnicode:Frank Schindel
Creator:Mao
Version:Hard
Source:デジモンアドベンチャー
Tags:Myxomatosis Bonsai Desperate-kun Digimon Adventures tv size opening op Andy Knote Kouji Wada 和田光司 Butter-fly butterfly Ikou Chiwata digital monsters german deutsch dub
BeatmapID:1518159
BeatmapSetID:718848

[Difficulty]
HPDrainRate:6
CircleSize:5
OverallDifficulty:7
ApproachRate:7
SliderMultiplier:2.7
SliderTickRate:1

[Events]
//Background and Video events
0,0,"digi.jpg",0,0
Video,0,"digiop.avi"
//Break Periods
//Storyboard Layer 0 (Background)
//Storyboard Layer 1 (Fail)
//Storyboard Layer 2 (Pass)
//Storyboard Layer 3 (Foreground)
//Storyboard Sound Samples

[TimingPoints]
1213,363.636363636364,4,1,0,90,1,0
56485,-100,4,1,0,100,0,1
79758,-100,4,1,0,90,0,0

[Colours]
Combo1 : 255,150,0
Combo2 : 5,240,5
Combo3 : 5,5,240
Combo4 : 240,5,5

[HitObjects]
32,48,18485,6,2,B|32:192|32:192|160:192,1,270,6|0,0:0|0:0,0:0:0:0:
240,192,19031,1,10,0:0:0:0:
240,32,19394,1,0,0:0:0:0:
400,32,19758,1,8,0:0:0:0:
480,32,19940,1,2,0:0:0:0:
480,192,20303,2,2,B|458:303|355:347|252:391|156:327,1,405,2|0,0:0|0:0,0:0:0:0:
8,138,21394,6,0,B|22:64|91:34|159:5|224:48,1,270,6|0,0:0|0:0,0:0:0:0:
224,128,21940,1,10,0:0:0:0:
224,208,22122,1,0,0:0:0:0:
224,288,22303,1,0,0:0:0:0:
384,336,22667,1,10,0:0:0:0:
464,336,22849,2,2,B|464:192|464:192|336:192,1,270
48,48,23940,1,2,0:0:0:0:
128,48,24122,1,8,0:0:0:0:
208,48,24303,1,4,0:0:0:0:
208,128,24485,6,2,B|208:242|191:291|126:339|61:291|44:242|44:128,1,405,6|0,0:0|0:0,0:0:0:0:
208,48,25394,1,0,0:0:0:0:
288,48,25576,1,8,0:0:0:0:
368,48,25758,1,6,0:0:0:0:
480,160,26122,1,6,0:0:0:0:
416,304,26485,2,2,B|288:304|288:304|288:224|288:224|80:224,1,405,6|8,0:0|0:0,0:0:0:0:
256,192,27213,12,8,28485,0:0:0:0:
256,240,29940,5,8,0:0:0:0:
172,271,30122,2,2,B|172:387|338:387|338:271,1,270,6|0,0:0|0:0,0:0:0:0:
320,192,30667,1,10,0:0:0:0:
384,144,30849,1,0,0:0:0:0:
448,96,31031,1,2,0:0:0:0:
304,32,31394,1,8,0:0:0:0:
224,32,31576,1,2,0:0:0:0:
136,168,31940,1,2,0:0:0:0:
136,248,32122,1,10,0:0:0:0:
256,368,32485,1,2,0:0:0:0:
256,288,32667,1,2,0:0:0:0:
336,288,32849,1,8,0:0:0:0:
416,288,33031,6,0,B|476:239|470:165|463:90|397:54,1,270,6|0,0:0|0:0,0:0:0:0:
320,48,33576,1,10,0:0:0:0:
320,128,33758,1,0,0:0:0:0:
320,208,33940,2,0,L|48:208,1,270,2|8,0:0|0:0,0:0:0:0:
50,128,34485,2,2,L|322:128,1,270
400,128,35031,1,10,0:0:0:0:
400,288,35394,1,2,0:0:0:0:
400,208,35576,1,2,0:0:0:0:
320,208,35758,1,8,0:0:0:0:
320,288,35940,1,0,0:0:0:0:
320,368,36122,6,2,B|192:368|112:336|80:256|80:112,1,405,6|0,0:0|0:0,0:0:0:0:
224,32,37031,1,2,0:0:0:0:
224,112,37213,1,8,0:0:0:0:
224,192,37394,1,6,0:0:0:0:
384,192,37758,1,0,0:0:0:0:
384,112,37940,1,10,0:0:0:0:
384,32,38122,1,6,0:0:0:0:
304,32,38303,1,2,0:0:0:0:
304,112,38485,1,0,0:0:0:0:
304,192,38667,1,10,0:0:0:0:
304,272,38849,1,0,0:0:0:0:
224,272,39031,5,6,0:0:0:0:
256,192,39213,12,4,41213,0:0:0:0:
256,352,41576,5,10,0:0:0:0:
176,208,41940,1,6,0:0:0:0:
336,208,42303,1,10,0:0:0:0:
256,64,42667,1,0,0:0:0:0:
256,144,42849,1,2,0:0:0:0:
112,224,43213,2,2,B|144:384|208:304|256:128|304:304|368:384|400:224,1,405,6|8,0:0|0:0,0:0:0:0:
400,144,43940,1,0,0:0:0:0:
256,64,44303,5,0,0:0:0:0:
176,64,44485,1,10,0:0:0:0:
96,64,44667,1,0,0:0:0:0:
48,128,44849,1,6,0:0:0:0:
0,192,45031,1,0,0:0:0:0:
0,272,45213,1,10,0:0:0:0:
0,352,45394,1,2,0:0:0:0:
80,352,45576,1,2,0:0:0:0:
80,272,45758,1,0,0:0:0:0:
80,192,45940,1,10,0:0:0:0:
140,142,46122,2,2,B|189:340|189:340|322:340|322:340|371:142,1,540,6|0,0:0|0:0,0:0:0:0:
144,48,47394,5,10,0:0:0:0:
64,192,47758,1,6,0:0:0:0:
144,336,48122,1,10,0:0:0:0:
208,192,48485,1,0,0:0:0:0:
288,192,48667,1,2,0:0:0:0:
364,52,49031,2,2,B|519:52|519:331|364:331,1,405,6|8,0:0|0:0,0:0:0:0:
284,327,49758,1,0,0:0:0:0:
256,80,50303,1,14,0:0:0:0:
256,240,50667,5,4,0:0:0:0:
176,240,50849,1,2,0:0:0:0:
96,240,51031,1,8,0:0:0:0:
96,320,51213,1,6,0:0:0:0:
0,192,51576,1,6,0:0:0:0:
32,32,51940,1,6,0:0:0:0:
128,160,52303,1,4,0:0:0:0:
80,96,52485,1,10,0:0:0:0:
128,32,52667,1,6,0:0:0:0:
256,192,53031,12,0,55031,0:0:0:0:
48,176,56485,6,2,B|48:352|224:336,1,270,6|8,0:0|0:0,0:0:0:0:
297,336,57031,2,2,B|464:352|464:176,1,270,2|0,0:0|0:0,0:0:0:0:
464,96,57576,1,10,0:0:0:0:
304,96,57940,2,2,L|32:96,1,270,6|8,0:0|0:0,0:0:0:0:
32,176,58485,1,2,0:0:0:0:
32,336,58849,1,0,0:0:0:0:
112,336,59031,1,8,0:0:0:0:
192,336,59213,2,2,B|243:284|330:301|295:370|382:387|434:336,1,270,6|0,0:0|0:0,0:0:0:0:
464,16,60303,5,2,0:0:0:0:
464,96,60485,1,8,0:0:0:0:
464,176,60667,1,0,0:0:0:0:
384,176,60849,1,6,0:0:0:0:
224,176,61213,1,10,0:0:0:0:
176,112,61394,1,0,0:0:0:0:
128,176,61576,1,0,0:0:0:0:
128,256,61758,1,2,0:0:0:0:
128,336,61940,1,8,0:0:0:0:
48,336,62122,2,2,L|48:64,1,270,6|0,0:0|0:0,0:0:0:0:
256,192,63031,5,14,0:0:0:0:
256,272,63213,1,0,0:0:0:0:
320,320,63394,1,2,0:0:0:0:
384,368,63576,2,2,B|512:368|512:368|512:224,2,270,6|6|6,0:0|0:0|0:0,0:0:0:0:
96,352,65031,5,2,0:0:0:0:
160,304,65213,1,6,0:0:0:0:
224,256,65394,1,0,0:0:0:0:
160,208,65576,1,10,0:0:0:0:
96,160,65758,1,0,0:0:0:0:
32,112,65940,1,6,0:0:0:0:
96,64,66122,1,2,0:0:0:0:
160,16,66303,1,10,0:0:0:0:
224,64,66485,1,0,0:0:0:0:
288,112,66667,5,4,0:0:0:0:
368,112,66849,1,2,0:0:0:0:
368,288,67213,1,6,0:0:0:0:
208,288,67576,2,0,L|128:288,5,67.5,6|0|8|0|0|0,0:0|0:0|0:0|0:0|0:0|0:0,0:0:0:0:
93,289,68122,6,2,B|12:273|-3:192|12:110|93:94,1,270,6|8,0:0|0:0,0:0:0:0:
176,80,68667,2,2,B|320:80|320:80|320:208,1,270,2|0,0:0|0:0,0:0:0:0:
320,288,69213,1,10,0:0:0:0:
464,368,69576,2,2,L|464:96,1,270,6|8,0:0|0:0,0:0:0:0:
464,16,70122,1,2,0:0:0:0:
304,16,70485,1,0,0:0:0:0:
240,64,70667,1,10,0:0:0:0:
176,16,70849,2,2,B|64:16|64:16|64:176,1,270,6|0,0:0|0:0,0:0:0:0:
336,352,71940,5,2,0:0:0:0:
336,272,72122,1,8,0:0:0:0:
256,272,72303,1,6,0:0:0:0:
112,352,72667,1,2,0:0:0:0:
112,192,73031,1,6,0:0:0:0:
112,32,73394,1,2,0:0:0:0:
192,32,73576,1,8,0:0:0:0:
272,32,73758,2,2,B|368:16|464:96|448:192,1,270,6|0,0:0|0:0,0:0:0:0:
256,344,74667,5,2,0:0:0:0:
208,280,74849,1,2,0:0:0:0:
256,216,75031,1,8,0:0:0:0:
304,280,75213,1,6,0:0:0:0:
200,160,75576,1,6,0:0:0:0:
304,32,75940,2,2,B|232:-8|16:-8|16:216,1,405,6|8,0:0|0:0,0:0:0:0:
96,352,76849,5,6,0:0:0:0:
256,352,77213,1,8,0:0:0:0:
416,352,77576,1,4,0:0:0:0:
416,192,77940,1,8,0:0:0:0:
256,192,78303,1,6,0:0:0:0:
96,192,78667,1,8,0:0:0:0:
96,32,79031,1,4,0:0:0:0:
256,32,79395,1,8,0:0:0:0:
416,32,79758,1,6,0:0:0:0:
256,192,79940,12,6,82667,0:0:0:0:
128,80,83394,5,0,0:0:0:0:
128,160,83576,1,2,0:0:0:0:
128,240,83758,1,8,0:0:0:0:
256,336,84122,2,0,B|370:347|441:260|511:173|478:64,2,405,6|6|8,0:0|0:0|0:0,0:0:0:0:
96,336,85576,5,6,0:0:0:0:
16,192,85940,1,8,0:0:0:0:
176,192,86303,1,0,0:0:0:0:
136,120,86485,1,2,0:0:0:0:
96,48,86667,1,8,0:0:0:0:
256,48,87031,2,0,B|464:48|464:48|464:256,2,405,6|6|8,0:0|0:0|0:0,0:0:0:0:
256,192,88485,12,4,92122,0:0:0:0:
128,192,92849,5,6,0:0:0:0:
256,80,93031,5,6,0:0:0:0:
384,192,93213,5,6,0:0:0:0:
256,304,93394,5,6,0:0:0:0:
