osu file format v13

[General]
AudioFilename: 01 Leb deinen Traum.mp3
AudioLeadIn: 0
PreviewTime: 0
Countdown: 1
SampleSet: Normal
StackLeniency: 0.7
Mode: 0
LetterboxInBreaks: 1
CountdownOffset: 3
WidescreenStoryboard: 1

[Editor]
Bookmarks: 27359,38635,54993,61544,64271,76816,82627,92816,92997,93179,93361
DistanceSpacing: 0.8
BeatDivisor: 4
GridSize: 32
TimelineZoom: 1

[Metadata]
Title:Leb deinen Traum
TitleUnicode:Leb deinen Traum
Artist:Frank Schindel
ArtistUnicode:Frank Schindel
Creator:Chaos234
Version:Easy (Gabumon; by paseli)
Source:Digimon Gold
Tags:Digimon
BeatmapID:480828
BeatmapSetID:129589

[Difficulty]
HPDrainRate:2
CircleSize:3
OverallDifficulty:2
ApproachRate:2
SliderMultiplier:1.00000000596046
SliderTickRate:1

[Events]
//Background and Video events
0,0,"digimon.jpg",0,0
Video,0,"Digimon Adventure Opening - Sascha-Movie-Boy1994 - MyVideo.flv"
//Break Periods
2,79925,86892
//Storyboard Layer 0 (Background)
//Storyboard Layer 1 (Fail)
//Storyboard Layer 2 (Pass)
//Storyboard Layer 3 (Foreground)
//Storyboard Sound Samples
//Background Colour Transformations
3,100,255,255,255

[TimingPoints]
18636,363.628175797713,4,1,0,90,1,0

[Colours]
Combo1 : 252,143,203
Combo2 : 255,128,64
Combo3 : 145,145,255
Combo4 : 227,146,239
Combo5 : 255,91,91
Combo6 : 192,192,192
Combo7 : 162,234,11
Combo8 : 253,236,142

[HitObjects]
80,104,18636,6,0,P|176:72|472:120,1,400.000002384184
464,264,21545,2,0,P|272:312|64:264,1,400.000002384184
160,136,24454,6,0,L|336:240,1,200.000001192092
352,192,25908,1,2,0:0:0:0:
224,256,26635,1,2,0:0:0:0:
224,96,27363,2,6,B|256:64|288:128|320:160|384:160|416:128,1,200.000001192093,2|2,0:0|0:0,0:0:0:0:
248,176,28817,2,0,P|224:224|296:336,2,200.000001192092,0|0|0,0:0|0:0|0:0,0:0:0:0:
192,32,31726,2,4,B|256:64|352:32|352:32|384:64|384:64,1,200.000001192092
480,160,33181,1,0,0:0:0:0:
256,192,34635,1,4,0:0:0:0:
160,128,35362,1,4,0:0:0:0:
256,64,36090,1,4,0:0:0:0:
120,264,36818,5,0,0:0:0:0:
200,272,37544,2,0,P|296:240|304:136,1,200.000001192092
152,128,38999,2,0,P|96:136|48:272,1,200.000001192092
200,288,40453,2,0,L|320:288,1,100.000000596046
160,160,41180,2,0,B|224:224|256:160|256:160,1,100.000000596046
248,96,41908,6,0,P|312:80|432:160,1,200.000001192092
424,304,43362,2,0,L|208:248,1,200.000001192092
96,192,44817,1,0,0:0:0:0:
136,40,45544,1,0,0:0:0:0:
240,80,46271,2,0,P|328:72|416:160,1,200.000001192092
336,304,47726,2,0,L|144:232,1,200.000001192092
80,88,49180,2,0,P|168:64|264:128,1,200.000001192092
320,192,50271,5,0,0:0:0:0:
320,272,50635,2,0,P|352:336|440:352,2,150.000000894069,0|0|0,0:0|0:0|0:0,0:0:0:0:
288,200,52089,2,0,P|320:112|384:88,2,150.000000894069,0|0|0,0:0|0:0|0:0,0:0:0:0:
232,256,53544,2,0,P|176:296|128:88,1,400.000002384184
168,232,56453,6,0,L|312:152,2,150.000000894069,0|0|0,0:0|0:0|0:0,0:0:0:0:
112,176,57907,2,0,P|120:112|200:56,1,150.000000894069,0|0,0:0|0:0,0:0:0:0:
296,96,58998,1,0,0:0:0:0:
368,136,59362,2,0,P|384:216|336:288,1,150.000000894069
240,304,60453,5,0,0:0:0:0:
168,272,60816,2,0,L|72:208,1,100.000000596046
88,120,61544,2,0,L|200:64,1,100.000000596046
248,40,62271,1,0,0:0:0:0:
336,176,62998,6,0,P|288:248|152:272,2,200.000001192092,0|0|0,0:0|0:0|0:0,0:0:0:0:
232,56,65180,2,0,L|160:136,1,100.000000596046
88,144,65907,2,0,L|24:224,1,100.000000596046
48,256,66634,2,0,P|120:304|240:272,1,200.000001192092
344,176,68089,6,0,P|400:128|496:160,2,150.000000894069,0|0|0,0:0|0:0|0:0,0:0:0:0:
264,168,69543,2,0,P|200:208|96:176,2,150.000000894069,0|0|0,0:0|0:0|0:0,0:0:0:0:
296,240,70998,2,0,P|280:320|160:352,1,200.000001192092,0|0,0:0|0:0,0:0:0:0:
128,264,72089,1,0,0:0:0:0:
64,216,72452,2,0,P|48:144|144:48,1,200.000001192092
280,48,73907,2,0,P|304:96|440:192,1,200.000001192092
264,152,75361,6,0,P|224:224|312:320,1,200.000001192092
144,208,76816,2,0,B|160:176|144:120|144:120|200:72|256:104|256:104|304:80|352:120|352:120|328:176|352:224,2,400.000002384184,0|0|0,0:0|0:0|0:0,0:0:0:0:
72,176,88452,6,0,P|120:112|256:112,1,200.000001192092
304,200,89543,5,12,0:0:0:0:
320,112,89907,2,0,L|464:32,2,150.000000894069,0|0|0,0:0|0:0|0:0,0:0:0:0:
224,160,92816,2,2,L|288:192,3,50.0000002980232,0|0|0|0,0:0|0:0|0:0|0:0,0:0:0:0:
