osu file format v14

[General]
AudioFilename: Frank Schindel - Die Hyper Spirit Digitation.mp3
AudioLeadIn: 0
PreviewTime: 77784
Countdown: 0
SampleSet: Soft
StackLeniency: 0.3
Mode: 0
LetterboxInBreaks: 1
WidescreenStoryboard: 1

[Editor]
Bookmarks: 2784,16568,26297,49000,55487,78189,100892,113865,136568,159270,172243,181973,188460,194946,201433,224135
DistanceSpacing: 1
BeatDivisor: 4
GridSize: 4
TimelineZoom: 1.5

[Metadata]
Title:Die Hyper Spirit Digitation
TitleUnicode:Die Hyper Spirit Digitation
Artist:Frank Schindel
ArtistUnicode:Frank Schindel
Creator:AnimeStyle
Version:trig's Hyper
Source:Digimon Frontier
Tags:the last element ayumi miyazaki j-rock rock german deutsch kyshiro trig anime 宮崎歩 デジモンフロンティア cover
BeatmapID:3039770
BeatmapSetID:1405595

[Difficulty]
HPDrainRate:5.5
CircleSize:4
OverallDifficulty:6.5
ApproachRate:7.3
SliderMultiplier:1.6
SliderTickRate:2

[Events]
//Background and Video events
0,0,"BG.png",0,0
Video,0,"vid.mp4"
//Break Periods
2,117308,118889
2,159470,160443
2,164538,165308
2,188460,194092
//Storyboard Layer 0 (Background)
//Storyboard Layer 1 (Fail)
//Storyboard Layer 2 (Pass)
//Storyboard Layer 3 (Foreground)
//Storyboard Layer 4 (Overlay)
//Storyboard Sound Samples

[TimingPoints]
352,405.405405405405,4,2,1,20,1,0
1973,-100,4,2,1,30,0,0
2987,-100,4,2,1,35,0,0
3189,-100,4,2,1,40,0,0
3392,-100,4,2,1,45,0,0
3595,-100,4,2,1,60,0,0
10487,-100,4,2,1,50,0,0
11906,-100,4,2,1,60,0,0
16568,-100,4,2,1,60,0,0
25689,-100,4,2,1,40,0,0
26095,-100,4,2,1,30,0,0
26297,-100,4,2,1,50,0,0
28933,-100,4,2,1,55,0,0
29135,-100,4,2,1,60,0,0
29338,-100,4,2,1,65,0,0
29541,-100,4,2,1,50,0,0
32176,-100,4,2,1,55,0,0
32379,-100,4,2,1,60,0,0
32581,-100,4,2,1,65,0,0
32784,-100,4,2,1,50,0,0
35419,-100,4,2,1,55,0,0
35622,-100,4,2,1,60,0,0
35824,-100,4,2,1,65,0,0
36027,-100,4,2,1,50,0,0
38662,-100,4,2,1,55,0,0
38865,-100,4,2,1,60,0,0
39068,-100,4,2,1,65,0,0
39270,-100,4,2,1,50,0,0
41906,-100,4,2,1,55,0,0
42108,-100,4,2,1,60,0,0
42311,-100,4,2,1,65,0,0
42514,-100,4,2,1,50,0,0
45149,-100,4,2,1,55,0,0
45351,-100,4,2,1,60,0,0
45554,-100,4,2,1,65,0,0
45757,-100,4,2,1,50,0,0
48392,-100,4,2,1,55,0,0
48595,-100,4,2,1,60,0,0
48797,-100,4,2,1,65,0,0
49000,-95.2380952380952,4,2,1,60,0,0
54879,-95.2380952380952,4,2,1,65,0,0
55081,-95.2380952380952,4,2,1,70,0,0
55284,-95.2380952380952,4,2,1,75,0,0
55487,-100,4,2,1,50,0,0
58122,-100,4,2,1,55,0,0
58324,-100,4,2,1,60,0,0
58527,-100,4,2,1,65,0,0
58730,-100,4,2,1,50,0,0
61365,-100,4,2,1,55,0,0
61568,-100,4,2,1,60,0,0
61770,-100,4,2,1,65,0,0
61973,-100,4,2,1,50,0,0
64608,-100,4,2,1,55,0,0
64811,-100,4,2,1,60,0,0
65014,-100,4,2,1,65,0,0
65216,-100,4,2,1,50,0,0
67851,-100,4,2,1,55,0,0
68054,-100,4,2,1,60,0,0
68257,-100,4,2,1,65,0,0
68460,-100,4,2,1,50,0,0
71095,-100,4,2,1,55,0,0
71297,-95.2380952380952,4,2,1,60,0,0
71500,-100,4,2,1,65,0,0
71703,-100,4,2,1,50,0,0
74338,-100,4,2,1,55,0,0
74541,-100,4,2,1,60,0,0
74743,-100,4,2,1,65,0,0
74946,-100,4,2,1,50,0,0
77328,-100,4,2,1,5,0,0
77379,-100,4,2,1,50,0,0
77987,-100,4,2,1,55,0,0
78189,-95.2380952380952,4,2,1,60,0,1
84270,-95.2380952380952,4,2,1,60,0,0
84676,-95.2380952380952,4,2,1,60,0,1
91162,-100,4,2,1,50,0,1
100892,-100,4,2,1,50,0,0
113054,-100,4,2,1,55,0,0
113460,-100,4,2,1,60,0,0
113865,-100,4,2,1,50,0,0
119743,-100,4,2,1,50,0,0
119946,-100,4,2,1,50,0,0
120149,-100,4,2,1,50,0,0
120351,-100,4,2,1,50,0,0
122987,-100,4,2,1,55,0,0
123189,-100,4,2,1,60,0,0
123392,-100,4,2,1,65,0,0
123595,-100,4,2,1,50,0,0
126230,-100,4,2,1,55,0,0
126433,-100,4,2,1,60,0,0
126635,-100,4,2,1,65,0,0
126838,-100,4,2,1,50,0,0
129473,-100,4,2,1,55,0,0
129676,-95.2380952380952,4,2,1,60,0,0
129879,-100,4,2,1,65,0,0
130081,-100,4,2,1,50,0,0
132716,-100,4,2,1,55,0,0
132919,-100,4,2,1,60,0,0
133122,-100,4,2,1,65,0,0
133324,-100,4,2,1,50,0,0
135706,-100,4,2,1,5,0,0
135757,-100,4,2,1,50,0,0
136568,-95.2380952380952,4,2,1,60,0,1
142649,-95.2380952380952,4,2,1,60,0,0
143054,-95.2380952380952,4,2,1,60,0,1
149541,-100,4,2,1,50,0,1
159270,-105.263157894737,4,2,1,50,0,0
162514,-100,4,2,1,50,0,0
166162,-100,4,2,1,40,0,0
167581,-100,4,2,1,50,0,0
182379,-100,4,2,1,40,0,0
183797,-100,4,2,1,50,0,0
185216,-100,4,2,1,40,0,0
187649,-100,4,2,1,5,0,0
194946,-111.111111111111,4,2,1,40,0,0
199000,-111.111111111111,4,2,1,40,0,0
199811,-100,4,2,1,40,0,0
201027,-100,4,2,1,20,0,0
201433,-95.2380952380952,4,2,1,60,0,1
207514,-95.2380952380952,4,2,1,60,0,0
207919,-95.2380952380952,4,2,1,60,0,1
214406,-100,4,2,1,50,0,1
224135,-100,4,2,1,50,0,0
240622,-100,4,2,1,50,0,0
240892,-100,4,2,1,50,0,0
241162,-100,4,2,1,50,0,0
241433,-100,4,2,1,50,0,0
241703,-100,4,2,1,50,0,0
241973,-100,4,2,1,50,0,0
242243,-100,4,2,1,50,0,0
242987,-100,4,2,1,50,0,0
244608,-100,4,2,1,5,0,0

[Colours]
Combo1 : 255,255,81
Combo2 : 255,128,64
Combo3 : 0,128,64
Combo4 : 128,0,0

[HitObjects]
81,152,1973,6,0,L|76:199,7,40,2|0|0|8|8|0|0|0,0:0|0:0|0:0|0:0|0:0|0:0|0:0|0:0,0:0:0:0:
96,227,2784,2,0,L|100:274,7,40,2|2|2|10|10|2|2|2,0:0|0:0|0:0|0:0|0:0|0:0|0:0|0:0,0:0:0:0:
131,291,3595,6,2,P|168:277|207:284,2,80,6|0|8,0:0|0:0|0:0,0:0:0:0:
176,358,4203,2,2,B|217:377|267:362|309:327|303:256|275:222|229:207|229:207|193:195|180:153,1,320,0|0,0:0|0:0,0:0:0:0:
173,91,5216,6,2,P|195:91|221:98,2,40,2|0|0,0:0|0:0|0:0,0:0:0:0:
335,235,5824,1,2,0:0:0:0:
335,235,5926,1,2,0:0:0:0:
335,235,6027,2,0,L|418:228,1,80,2|2,0:0|0:0,0:0:0:0:
378,156,6433,2,0,L|330:151,2,40,10|2|2,0:0|0:0|0:0,0:0:0:0:
444,111,6838,5,0,0:0:0:0:
408,39,7041,2,2,P|389:58|367:69,1,40,4|8,0:0|0:0,0:0:0:0:
340,78,7243,2,2,P|314:71|293:57,1,40,12|0,0:0|0:0,0:0:0:0:
276,33,7446,1,4,0:0:0:0:
196,38,7649,2,2,P|133:88|110:125,1,120,0|8,0:0|0:0,0:0:0:0:
103,159,8054,1,12,0:0:0:0:
166,210,8257,2,2,P|226:172|312:197,1,160,0|0,0:0|0:0,0:0:0:0:
343,265,8865,5,8,0:0:0:0:
275,302,9068,1,8,0:0:0:0:
275,302,9169,1,8,0:0:0:0:
275,302,9270,2,0,L|231:305,3,40,8|0|8|0,0:0|0:0|0:0|0:0,0:0:0:0:
199,324,9676,2,0,P|190:345|188:367,3,40,8|8|8|8,0:0|0:0|0:0|0:0,0:0:0:0:
430,316,10487,6,2,P|395:318|352:324,2,53.3333333333333,6|10|10,0:0|0:0|0:0,0:0:0:0:
466,277,10892,2,2,P|466:244|457:220,2,53.3333333333333,2|2|4,0:0|0:0|0:0,0:0:0:0:
222,127,11906,5,4,0:0:0:0:
222,127,12007,1,12,0:0:0:0:
222,127,12108,2,2,P|272:120|305:25,1,160,12|0,0:0|0:0,0:0:0:0:
230,0,12716,2,2,B|162:-10|155:69|86:57,1,160,4|0,0:0|0:0,0:0:0:0:
55,41,13223,1,0,0:0:0:0:
55,41,13324,5,2,0:0:0:0:
12,109,13527,2,0,P|36:115|55:122,1,40,2|2,0:0|0:0,0:0:0:0:
72,153,13730,2,2,B|103:188|103:188|55:304,1,160,14|0,0:0|0:0,0:0:0:0:
220,310,14541,2,2,B|189:277|189:277|218:204,1,120,14|0,0:0|0:0,0:0:0:0:
248,183,14946,6,0,L|292:186,3,40,2|2|2|2,0:0|0:0|0:0|0:0,0:0:0:0:
318,211,15351,2,0,P|319:232|323:253,3,40,2|2|2|2,0:0|0:0|0:0|0:0,0:0:0:0:
354,274,15757,1,10,0:0:0:0:
410,216,15960,2,0,B|404:156|404:156|422:132,1,80,6|0,0:0|0:0,0:0:0:0:
455,128,16264,2,0,B|469:114|469:114|474:54,1,80,6|0,0:0|0:0,0:0:0:0:
443,29,16568,6,2,P|411:4|364:0,2,80,6|0|10,0:0|0:0|0:0,0:0:0:0:
380,79,17176,2,2,P|310:107|292:193,1,160,0|0,0:0|0:0,0:0:0:0:
334,249,17784,2,2,P|297:263|251:253,1,80,10|0,0:0|0:0,0:0:0:0:
224,244,18088,1,0,0:0:0:0:
224,244,18189,6,2,P|157:254|120:300,2,120,2|8|0,0:0|0:0|0:0,0:0:0:0:
254,320,19000,2,2,P|283:353|321:365,1,80,2|0,0:0|0:0,0:0:0:0:
383,319,19406,2,0,P|385:275|367:239,1,80,10|0,0:0|0:0,0:0:0:0:
339,227,19710,1,0,0:0:0:0:
339,227,19811,6,2,P|372:201|387:158,2,80,2|0|10,0:0|0:0|0:0,0:0:0:0:
306,153,20419,2,2,P|253:98|167:114,1,160,0|0,0:0|0:0,0:0:0:0:
131,175,21027,2,0,L|138:258,1,80,10|0,0:0|0:0,0:0:0:0:
110,283,21331,1,0,0:0:0:0:
110,283,21433,6,2,P|60:271|31:238,1,80,2|0,0:0|0:0,0:0:0:0:
27,214,21737,2,2,L|30:171,1,40,8|10,0:0|0:0,0:0:0:0:
39,94,22041,2,2,P|83:68|127:73,1,80,0|2,0:0|0:0,0:0:0:0:
190,82,22446,2,0,L|186:39,2,40,0|8|10,0:0|0:0|0:0,0:0:0:0:
146,150,22851,1,2,0:0:0:0:
146,150,22953,1,2,0:0:0:0:
146,150,23054,6,0,P|136:176|129:204,2,53.3333333333333,4|4|12,0:0|0:0|0:0,0:0:0:0:
245,188,23595,2,0,P|252:214|257:243,2,53.3333333333333,4|4|12,0:0|0:0|0:0,0:0:0:0:
179,272,24135,2,0,P|173:299|171:328,2,53.3333333333333,4|4|12,0:0|0:0|0:0,0:0:0:0:
334,379,24879,6,0,B|423:403|505:353|483:289|449:265|411:274,1,240,4|0,0:0|0:0,0:0:0:0:
351,268,25689,1,2,0:0:0:0:
351,268,25791,1,2,0:0:0:0:
351,268,25892,2,0,L|355:308,2,40,2|2|2,0:0|0:0|0:0,0:0:0:0:
359,190,26297,6,0,L|442:198,1,80,6|0,0:0|0:0,0:0:0:0:
506,148,26703,2,0,P|519:106|504:57,1,80,10|0,0:0|0:0,0:0:0:0:
476,0,27108,2,0,P|443:29|432:79,1,80,2|0,0:0|0:0,0:0:0:0:
443,105,27412,1,8,0:0:0:0:
443,105,27514,2,0,P|407:121|367:118,1,80,10|0,0:0|0:0,0:0:0:0:
324,50,27919,6,0,L|240:42,1,80,2|0,0:0|0:0,0:0:0:0:
175,2,28324,1,10,0:0:0:0:
174,83,28527,1,0,0:0:0:0:
243,124,28730,2,0,P|228:160|198:186,1,80,2|0,0:0|0:0,0:0:0:0:
162,179,29034,1,8,0:0:0:0:
162,179,29135,2,0,P|125:163|86:167,1,80,10|0,0:0|0:0,0:0:0:0:
26,221,29541,6,0,L|32:303,1,80,6|0,0:0|0:0,0:0:0:0:
72,369,29946,2,0,P|109:385|148:381,1,80,10|0,0:0|0:0,0:0:0:0:
212,333,30351,1,2,0:0:0:0:
145,308,30554,1,0,0:0:0:0:
145,308,30656,1,8,0:0:0:0:
145,308,30757,2,0,P|119:276|113:237,1,80,10|0,0:0|0:0,0:0:0:0:
162,174,31162,6,0,P|222:188|296:192,2,120,2|8|0,0:0|0:0|0:0,0:0:0:0:
120,105,31973,2,0,P|156:93|207:107,1,80,2|0,0:0|0:0,0:0:0:0:
238,115,32277,1,8,0:0:0:0:
238,115,32379,2,0,L|316:109,1,80,10|10,0:0|0:0,0:0:0:0:
360,122,32683,1,0,0:0:0:0:
360,122,32784,6,0,B|355:162|355:162|371:203,1,80,6|0,0:0|0:0,0:0:0:0:
444,225,33189,2,0,P|459:265|448:315,1,80,10|0,0:0|0:0,0:0:0:0:
425,375,33595,2,0,P|390:347|375:298,1,80,2|0,0:0|0:0,0:0:0:0:
382,278,33899,1,8,0:0:0:0:
382,278,34000,2,0,P|342:274|306:289,1,80,10|0,0:0|0:0,0:0:0:0:
270,361,34406,6,0,L|189:353,1,80,2|0,0:0|0:0,0:0:0:0:
109,348,34811,1,10,0:0:0:0:
89,270,35014,1,0,0:0:0:0:
157,227,35216,2,0,P|177:193|179:153,1,80,2|0,0:0|0:0,0:0:0:0:
157,126,35520,1,8,0:0:0:0:
157,126,35622,2,0,P|196:124|230:103,1,80,10|0,0:0|0:0,0:0:0:0:
243,23,36027,6,0,L|324:16,1,80,6|0,0:0|0:0,0:0:0:0:
370,82,36433,2,0,P|361:120|373:158,1,80,10|0,0:0|0:0,0:0:0:0:
431,213,36838,1,2,0:0:0:0:
457,142,37041,1,0,0:0:0:0:
457,142,37142,1,8,0:0:0:0:
457,142,37243,2,0,P|465:103|453:65,1,80,10|0,0:0|0:0,0:0:0:0:
377,38,37649,6,0,P|343:73|266:93,1,120,2|8,0:0|0:0,0:0:0:0:
248,65,38054,2,0,P|223:36|136:52,1,120,10|0,0:0|0:0,0:0:0:0:
146,80,38460,2,0,L|149:121,3,40,10|8|8|8,0:0|0:0|0:0|0:0,0:0:0:0:
175,149,38865,1,10,0:0:0:0:
270,297,39270,6,0,P|239:243|135:255,1,160,6|10,0:0|0:0,0:0:0:0:
106,310,39879,2,0,P|135:348|160:372,1,80,0|2,0:0|0:0,0:0:0:0:
244,384,40284,1,0,0:0:0:0:
244,384,40385,1,8,0:0:0:0:
244,384,40487,2,0,P|282:359|323:354,1,80,10|0,0:0|0:0,0:0:0:0:
393,336,40892,6,0,P|390:290|406:252,1,80,6|0,0:0|0:0,0:0:0:0:
475,225,41297,2,0,P|500:263|505:304,1,80,10|0,0:0|0:0,0:0:0:0:
489,335,41601,1,0,0:0:0:0:
489,335,41703,1,2,0:0:0:0:
417,355,41906,1,0,0:0:0:0:
417,355,42007,1,8,0:0:0:0:
417,355,42108,2,0,B|378:322|378:322|283:330,1,120,10|0,0:0|0:0,0:0:0:0:
268,323,42514,6,0,L|275:235,1,80,6|0,0:0|0:0,0:0:0:0:
280,165,42919,1,10,0:0:0:0:
205,134,43122,1,0,0:0:0:0:
153,196,43324,2,0,P|107:201|68:188,1,80,2|0,0:0|0:0,0:0:0:0:
54,162,43629,1,8,0:0:0:0:
54,162,43730,2,0,L|61:79,1,80,10|0,0:0|0:0,0:0:0:0:
19,14,44135,6,0,P|72:3|130:43,1,120,6|8,0:0|0:0,0:0:0:0:
138,74,44541,2,0,P|177:93|228:82,1,80,10|0,0:0|0:0,0:0:0:0:
252,76,44845,1,0,0:0:0:0:
252,76,44946,1,10,0:0:0:0:
303,16,45149,1,0,0:0:0:0:
303,16,45250,1,8,0:0:0:0:
303,16,45351,2,0,P|329:56|311:128,1,120,10|0,0:0|0:0,0:0:0:0:
286,151,45757,6,0,P|328:169|354:199,1,80,6|0,0:0|0:0,0:0:0:0:
303,258,46162,2,0,P|261:240|235:210,1,80,10|0,0:0|0:0,0:0:0:0:
221,184,46466,1,0,0:0:0:0:
221,184,46568,2,0,P|179:193|153:222,1,80,2|0,0:0|0:0,0:0:0:0:
166,262,46872,1,8,0:0:0:0:
166,262,46973,2,0,L|173:345,1,80,10|0,0:0|0:0,0:0:0:0:
102,381,47379,6,0,B|61:377|61:377|32:341,1,80,6|0,0:0|0:0,0:0:0:0:
7,272,47784,2,0,P|46:255|66:221,1,80,10|0,0:0|0:0,0:0:0:0:
68,188,48088,1,0,0:0:0:0:
68,188,48189,2,0,L|112:184,3,40,10|8|8|8,0:0|0:0|0:0|0:0,0:0:0:0:
141,197,48595,2,0,L|137:236,3,40,10|8|10|8,0:0|0:0|0:0|0:0,0:0:0:0:
162,270,49000,6,2,P|213:273|244:293,2,83.9999974365235,6|0|10,0:0|0:0|0:0,0:0:0:0:
183,350,49608,2,2,P|251:372|320:286,1,167.999994873047,0|0,0:0|0:0,0:0:0:0:
316,275,50115,1,8,0:0:0:0:
316,275,50216,2,0,P|303:210|300:149,1,125.999996154785,10|0,0:0|0:0,0:0:0:0:
310,109,50622,6,2,P|364:88|422:156,1,125.999996154785,6|8,0:0|0:0,0:0:0:0:
433,163,51027,2,2,P|480:131|493:86,1,83.9999974365235,10|0,0:0|0:0,0:0:0:0:
453,33,51433,2,2,P|406:26|364:9,1,83.9999974365235,2|0,0:0|0:0,0:0:0:0:
335,4,51737,1,8,0:0:0:0:
335,4,51838,2,0,L|240:13,1,83.9999974365235,10|0,0:0|0:0,0:0:0:0:
191,71,52243,6,2,P|196:122|217:153,2,83.9999974365235,6|0|10,0:0|0:0|0:0,0:0:0:0:
272,90,52851,2,2,P|297:158|213:230,1,167.999994873047,0|0,0:0|0:0,0:0:0:0:
203,224,53358,1,8,0:0:0:0:
203,224,53460,2,0,P|146:204|114:202,1,83.9999974365235,10|0,0:0|0:0,0:0:0:0:
39,213,53865,6,2,P|54:166|48:123,1,83.9999974365235,6|0,0:0|0:0,0:0:0:0:
28,97,54169,2,2,L|71:93,1,41.9999987182618,8|10,0:0|0:0,0:0:0:0:
153,85,54473,1,0,0:0:0:0:
114,10,54676,2,0,L|155:13,3,41.9999987182618,10|8|8|8,0:0|0:0|0:0|0:0,0:0:0:0:
196,3,55081,2,0,L|237:0,3,41.9999987182618,10|8|10|8,0:0|0:0|0:0|0:0,0:0:0:0:
273,17,55487,6,0,P|247:127|294:162,1,160,6|10,0:0|0:0,0:0:0:0:
347,176,56095,1,0,0:0:0:0:
404,120,56297,2,0,P|428:81|462:62,1,80,2|0,0:0|0:0,0:0:0:0:
491,96,56601,1,8,0:0:0:0:
491,96,56703,2,0,P|495:140|482:177,1,80,10|0,0:0|0:0,0:0:0:0:
414,212,57108,6,0,L|422:298,1,80,2|0,0:0|0:0,0:0:0:0:
379,360,57514,2,0,P|336:376|297:372,1,80,10|0,0:0|0:0,0:0:0:0:
303,293,57919,2,0,P|263:268|225:265,1,80,2|0,0:0|0:0,0:0:0:0:
197,283,58223,1,8,0:0:0:0:
197,283,58324,2,0,P|167:317|132:334,1,80,10|0,0:0|0:0,0:0:0:0:
91,268,58730,6,0,L|83:184,1,80,6|0,0:0|0:0,0:0:0:0:
125,121,59135,1,10,0:0:0:0:
125,121,59338,1,0,0:0:0:0:
44,117,59541,2,0,P|12:84|0:47,1,80,2|0,0:0|0:0,0:0:0:0:
27,23,59845,1,8,0:0:0:0:
27,23,59946,2,0,P|72:23|107:40,1,80,10|0,0:0|0:0,0:0:0:0:
141,108,60351,6,0,P|182:145|246:169,2,120,2|8|0,0:0|0:0|0:0,0:0:0:0:
183,40,61162,2,0,P|232:48|265:44,1,80,2|0,0:0|0:0,0:0:0:0:
276,10,61466,1,8,0:0:0:0:
276,10,61568,2,0,L|354:16,1,80,10|2,0:0|0:0,0:0:0:0:
392,42,61872,1,0,0:0:0:0:
391,42,61973,6,0,B|396:82|396:82|380:123,1,80,6|0,0:0|0:0,0:0:0:0:
306,149,62379,2,0,P|333:185|377:199,1,80,10|0,0:0|0:0,0:0:0:0:
444,198,62784,2,0,P|461:239|451:284,1,80,2|0,0:0|0:0,0:0:0:0:
429,302,63088,1,8,0:0:0:0:
429,302,63189,2,0,P|387:284|342:294,1,80,10|0,0:0|0:0,0:0:0:0:
339,368,63595,6,0,L|256:375,1,80,2|0,0:0|0:0,0:0:0:0:
202,318,64000,2,0,P|219:276|209:231,1,80,10|0,0:0|0:0,0:0:0:0:
185,168,64406,2,0,P|149:195|134:238,1,80,2|0,0:0|0:0,0:0:0:0:
139,270,64710,1,8,0:0:0:0:
139,270,64811,2,0,P|99:273|63:256,1,80,10|0,0:0|0:0,0:0:0:0:
19,190,65216,6,0,L|27:102,1,80,6|0,0:0|0:0,0:0:0:0:
34,32,65621,1,10,0:0:0:0:
113,14,65824,1,0,0:0:0:0:
154,84,66027,2,0,P|188:102|228:101,1,80,2|0,0:0|0:0,0:0:0:0:
262,78,66331,1,8,0:0:0:0:
262,78,66433,2,0,P|291:104|302:142,1,80,10|0,0:0|0:0,0:0:0:0:
250,204,66838,6,0,P|204:206|166:201,1,80,2|0,0:0|0:0,0:0:0:0:
106,161,67243,1,10,0:0:0:0:
106,161,67446,1,0,0:0:0:0:
66,230,67649,2,0,L|70:275,3,40,10|8|8|8,0:0|0:0|0:0|0:0,0:0:0:0:
106,284,68054,2,0,L|151:288,3,40,10|8|10|8,0:0|0:0|0:0|0:0,0:0:0:0:
174,258,68460,6,0,P|184:204|283:183,1,160,6|10,0:0|0:0,0:0:0:0:
321,245,69068,2,0,P|292:283|273:315,1,80,0|2,0:0|0:0,0:0:0:0:
329,383,69473,1,0,0:0:0:0:
329,383,69574,1,8,0:0:0:0:
329,383,69676,2,0,P|373:383|409:366,1,80,10|0,0:0|0:0,0:0:0:0:
452,303,70081,6,0,P|420:271|407:234,1,80,6|0,0:0|0:0,0:0:0:0:
451,170,70487,2,0,P|489:192|511:224,1,80,10|0,0:0|0:0,0:0:0:0:
492,298,70892,2,0,P|453:315|413:341,1,80,2|0,0:0|0:0,0:0:0:0:
397,367,71196,1,8,0:0:0:0:
397,367,71297,2,0,L|303:358,1,83.9999974365235,10|0,0:0|0:0,0:0:0:0:
283,286,71703,6,0,B|294:247|294:247|286:204,1,80,6|0,0:0|0:0,0:0:0:0:
274,129,72108,2,0,P|232:147|209:186,1,80,10|0,0:0|0:0,0:0:0:0:
211,218,72412,1,0,0:0:0:0:
211,218,72514,2,0,P|168:223|105:168,1,120,2|8,0:0|0:0,0:0:0:0:
101,140,72919,2,0,L|108:50,1,80,10|0,0:0|0:0,0:0:0:0:
160,0,73324,6,0,P|237:-3|293:52,1,160,6|10,0:0|0:0,0:0:0:0:
246,119,73933,1,0,0:0:0:0:
246,119,74034,1,0,0:0:0:0:
246,119,74135,2,0,P|291:134|326:127,1,80,10|0,0:0|0:0,0:0:0:0:
357,107,74439,1,8,0:0:0:0:
357,107,74541,2,0,P|388:131|404:167,1,80,10|2,0:0|0:0,0:0:0:0:
333,205,74946,6,0,P|286:266|299:343,1,160,6|10,0:0|0:0,0:0:0:0:
371,378,75554,2,0,P|423:348|454:340,1,80,0|2,0:0|0:0,0:0:0:0:
502,289,75960,1,8,0:0:0:0:
502,289,76061,1,8,0:0:0:0:
502,289,76162,2,0,L|497:237,3,40,10|0|10|0,0:0|0:0|0:0|0:0,0:0:0:0:
479,213,76568,6,0,B|462:188|462:188|401:183,1,80,6|0,0:0|0:0,0:0:0:0:
380,209,76872,2,0,B|329:212|329:212|308:192,1,80,6|0,0:0|0:0,0:0:0:0:
295,153,77176,1,6,0:0:0:0:
206,161,77379,1,6,0:0:0:0:
292,23,77784,1,2,0:0:0:0:
302,29,77885,1,2,0:0:0:0:
312,35,77987,1,2,0:0:0:0:
391,8,78189,6,0,P|429:23|456:55,1,83.9999974365235,6|0,0:0|0:0,0:0:0:0:
380,91,78595,2,0,P|385:132|371:171,1,83.9999974365235,10|0,0:0|0:0,0:0:0:0:
302,123,79000,2,8,P|268:147|228:155,1,83.9999974365235,2|0,0:0|0:0,0:0:0:0:
193,139,79304,1,8,0:0:0:0:
193,139,79406,1,10,0:0:0:0:
237,68,79608,1,2,0:0:0:0:
237,68,79710,1,0,0:0:0:0:
237,68,79811,6,8,P|209:36|171:19,1,83.9999974365235,6|0,0:0|0:0,0:0:0:0:
90,42,80216,2,0,L|5:35,1,83.9999974365235,10|0,0:0|0:0,0:0:0:0:
0,118,80622,2,0,P|11:166|45:199,1,83.9999974365235,2|0,0:0|0:0,0:0:0:0:
75,174,80926,1,8,0:0:0:0:
75,174,81027,2,0,P|111:170|154:190,1,83.9999974365235,10|2,0:0|0:0,0:0:0:0:
100,255,81433,6,0,P|41:298|38:354,1,125.999996154785,6|8,0:0|0:0,0:0:0:0:
75,359,81838,2,0,L|168:350,1,83.9999974365235,10|0,0:0|0:0,0:0:0:0:
241,344,82243,1,2,0:0:0:0:
269,269,82446,1,0,0:0:0:0:
269,269,82547,1,8,0:0:0:0:
269,269,82649,2,0,P|238:238|229:196,1,83.9999974365235,10|2,0:0|0:0,0:0:0:0:
247,117,83054,6,0,P|289:109|328:126,1,83.9999974365235,14|0,0:0|0:0,0:0:0:0:
306,163,83358,1,8,0:0:0:0:
306,163,83460,2,0,P|336:193|345:235,1,83.9999974365235,10|0,0:0|0:0,0:0:0:0:
340,316,83865,1,2,0:0:0:0:
423,288,84068,1,10,0:0:0:0:
423,288,84169,1,8,0:0:0:0:
423,288,84270,2,0,P|436:271|452:258,3,41.9999987182618,10|8|10|10,0:0|0:0|0:0|0:0,0:0:0:0:
488,236,84676,6,0,P|509:201|512:159,1,83.9999974365235,6|0,0:0|0:0,0:0:0:0:
426,173,85082,2,0,P|405:136|371:113,1,83.9999974365235,10|0,0:0|0:0,0:0:0:0:
344,192,85487,2,8,P|302:192|265:209,1,83.9999974365235,2|0,0:0|0:0,0:0:0:0:
243,248,85791,1,8,0:0:0:0:
243,248,85892,1,10,0:0:0:0:
330,281,86095,1,2,0:0:0:0:
330,281,86197,1,0,0:0:0:0:
330,281,86298,6,8,P|326:322|306:358,1,83.9999974365235,6|0,0:0|0:0,0:0:0:0:
227,328,86703,2,0,L|135:336,1,83.9999974365235,10|0,0:0|0:0,0:0:0:0:
72,290,87108,2,0,P|85:250|69:203,1,83.9999974365235,2|0,0:0|0:0,0:0:0:0:
52,180,87412,1,8,0:0:0:0:
52,180,87514,2,0,P|53:138|75:104,1,83.9999974365235,10|2,0:0|0:0,0:0:0:0:
133,164,87919,6,0,P|196:154|245:110,1,125.999996154785,6|8,0:0|0:0,0:0:0:0:
276,91,88324,2,0,L|284:180,1,83.9999974365235,10|0,0:0|0:0,0:0:0:0:
335,241,88730,2,0,P|286:260|244:250,1,83.9999974365235,2|0,0:0|0:0,0:0:0:0:
222,239,89034,1,8,0:0:0:0:
222,239,89135,2,0,P|179:271|189:346,1,125.999996154785,10|0,0:0|0:0,0:0:0:0:
197,378,89541,6,0,P|135:364|100:360,1,83.9999974365235,6|0,0:0|0:0,0:0:0:0:
76,356,89845,1,8,0:0:0:0:
76,356,89946,2,0,P|89:302|70:267,1,83.9999974365235,10|0,0:0|0:0,0:0:0:0:
38,203,90351,2,0,L|84:198,3,41.9999987182618,10|8|10|8,0:0|0:0|0:0|0:0,0:0:0:0:
94,159,90757,2,0,P|97:135|104:116,1,41.9999987182618,10|8,0:0|0:0,0:0:0:0:
132,87,90960,2,0,P|154:77|174:74,1,41.9999987182618,10|10,0:0|0:0,0:0:0:0:
198,105,91162,6,0,P|215:150|240:186,1,80,6|0,0:0|0:0,0:0:0:0:
266,206,91466,1,8,0:0:0:0:
266,206,91568,2,0,P|304:174|343:169,1,80,10|0,0:0|0:0,0:0:0:0:
333,248,91973,2,0,P|295:280|216:267,1,120,2|8,0:0|0:0,0:0:0:0:
198,248,92379,2,0,P|186:199|199:162,1,80,10|2,0:0|0:0,0:0:0:0:
264,134,92784,6,0,P|326:142|386:68,1,160,6|10,0:0|0:0,0:0:0:0:
353,1,93392,1,0,0:0:0:0:
306,65,93595,2,0,P|258:57|217:53,1,80,2|0,0:0|0:0,0:0:0:0:
190,58,93899,1,8,0:0:0:0:
190,58,94000,1,10,0:0:0:0:
155,132,94203,1,10,0:0:0:0:
155,132,94304,1,0,0:0:0:0:
155,132,94406,6,0,P|177:168|180:208,1,80,6|0,0:0|0:0,0:0:0:0:
168,245,94710,1,8,0:0:0:0:
168,245,94811,2,0,P|131:266|91:270,1,80,10|0,0:0|0:0,0:0:0:0:
33,218,95216,2,0,P|68:195|108:191,1,80,6|0,0:0|0:0,0:0:0:0:
136,165,95520,1,8,0:0:0:0:
136,165,95622,2,0,P|174:160|208:138,1,80,10|2,0:0|0:0,0:0:0:0:
265,82,96027,6,0,P|334:87|367:170,1,160,6|10,0:0|0:0,0:0:0:0:
289,176,96635,1,0,0:0:0:0:
338,239,96838,2,0,P|357:278|383:318,1,80,2|0,0:0|0:0,0:0:0:0:
402,346,97142,1,8,0:0:0:0:
402,346,97243,2,0,L|310:354,1,80,10|10,0:0|0:0,0:0:0:0:
246,379,97649,6,0,P|243:334|220:298,1,80,6|0,0:0|0:0,0:0:0:0:
191,296,97953,1,8,0:0:0:0:
191,296,98054,2,0,P|192:256|211:221,1,80,10|0,0:0|0:0,0:0:0:0:
290,200,98460,2,0,P|265:158|222:140,1,80,2|2,0:0|0:0,0:0:0:0:
202,140,98764,1,8,0:0:0:0:
202,140,98865,2,0,L|205:95,3,40,10|8|10|10,0:0|0:0|0:0|0:0,0:0:0:0:
178,70,99270,6,0,B|137:73|137:73|95:56,1,80,6|0,0:0|0:0,0:0:0:0:
20,62,99676,1,2,0:0:0:0:
64,130,99879,2,0,B|101:146|101:146|129:182,1,80,4|0,0:0|0:0,0:0:0:0:
117,257,100284,1,2,0:0:0:0:
52,210,100487,2,0,B|32:219|12:225|12:225|9:269|3:314,1,120,4|0,0:0|0:0,0:0:0:0:
10,341,100892,6,0,P|71:318|121:384,1,160,6|10,0:0|0:0,0:0:0:0:
275,354,101703,2,2,B|309:312|286:261|286:261|313:227|313:227|283:178|320:132,1,240,6|2,0:0|0:0,0:0:0:0:
356,123,102412,1,2,0:0:0:0:
356,123,102514,6,2,P|401:134|468:85,1,120,6|8,0:0|0:0,0:0:0:0:
466,58,102919,2,2,B|432:40|396:58|396:58|355:0|277:22|283:29|207:51|174:-5,1,320,10|10,0:0|0:0,0:0:0:0:
153,144,104135,6,2,B|164:147|178:146|178:146|199:170|225:175,1,80,6|0,0:0|0:0,0:0:0:0:
256,207,104439,1,8,0:0:0:0:
256,207,104541,2,2,B|245:209|231:208|231:208|210:232|184:237,1,80,14|0,0:0|0:0,0:0:0:0:
160,268,104845,1,0,0:0:0:0:
160,268,104946,2,2,B|170:270|184:269|184:269|205:293|231:298,1,80,6|0,0:0|0:0,0:0:0:0:
308,315,105351,2,2,B|311:304|310:290|310:290|335:271|342:245,1,80,14|0,0:0|0:0,0:0:0:0:
322,168,105757,6,2,B|287:146|276:93|301:53|301:53|261:71|218:68|190:44,1,240,6|0,0:0|0:0,0:0:0:0:
172,22,106466,1,8,0:0:0:0:
172,22,106568,2,2,P|98:36|96:123,1,160,14|10,0:0|0:0,0:0:0:0:
159,163,107176,1,2,0:0:0:0:
159,163,107277,1,2,0:0:0:0:
159,163,107379,6,2,P|124:196|116:233,1,80,6|0,0:0|0:0,0:0:0:0:
113,305,107784,2,10,P|141:307|167:315,2,53.3333333333333,10|0|0,0:0|0:0|0:0,0:0:0:0:
74,341,108189,2,10,P|57:364|37:382,2,53.3333333333333,2|0|0,0:0|0:0|0:0,0:0:0:0:
62,287,108595,2,10,P|44:249|33:170,1,120,10|0,0:0|0:0,0:0:0:0:
60,143,109000,6,2,P|85:150|112:152,2,53.3333333333333,6|0|0,0:0|0:0|0:0,0:0:0:0:
38,94,109406,1,10,0:0:0:0:
116,65,109608,1,0,0:0:0:0:
116,65,109710,1,0,0:0:0:0:
116,65,109811,2,2,B|157:65|184:114|184:114|211:163|265:162|265:162|261:143|266:110,1,240,2|0,0:0|0:0,0:0:0:0:
317,50,110622,6,2,P|342:53|360:58,1,40,6|0,0:0|0:0,0:0:0:0:
389,78,110824,2,2,B|404:118|457:123|457:123|460:185|413:240|346:234|346:234|313:231|287:249,1,320,0|0,0:0|0:0,0:0:0:0:
335,313,111838,2,0,P|329:334|318:352,1,40,10|0,0:0|0:0,0:0:0:0:
282,365,112041,2,0,P|261:359|243:348,1,40
229,324,112243,5,2,0:0:0:0:
229,324,112345,1,0,0:0:0:0:
229,324,112446,1,0,0:0:0:0:
219,244,112649,2,0,P|202:231|183:224,3,40,10|8|8|8,0:0|0:0|0:0|0:0,0:0:0:0:
169,187,113054,2,0,P|185:174|204:167,3,40,10|8|8|8,0:0|0:0|0:0|0:0,0:0:0:0:
245,164,113460,2,0,L|249:117,1,40,10|8,0:0|0:0,0:0:0:0:
219,96,113662,2,0,L|214:49,1,40,10|10,0:0|0:0,0:0:0:0:
246,29,113865,5,14,0:0:0:0:
256,192,113966,12,0,117108,0:0:0:0:
46,168,119743,53,8,0:0:0:0:
46,168,119845,1,8,0:0:0:0:
46,168,119946,2,0,L|50:214,3,40,10|8|10|8,0:0|0:0|0:0|0:0,0:0:0:0:
77,236,120351,6,0,L|159:243,1,80,6|0,0:0|0:0,0:0:0:0:
220,194,120757,2,0,P|222:145|206:113,1,80,10|0,0:0|0:0,0:0:0:0:
144,71,121162,1,2,0:0:0:0:
112,148,121365,1,0,0:0:0:0:
112,148,121466,1,8,0:0:0:0:
112,148,121568,2,0,P|121:195|146:222,1,80,10|0,0:0|0:0,0:0:0:0:
218,238,121973,6,0,L|303:230,1,80,6|0,0:0|0:0,0:0:0:0:
325,155,122379,2,0,P|325:106|347:76,1,80,10|0,0:0|0:0,0:0:0:0:
397,23,122784,2,0,P|421:65|417:102,1,80,2|0,0:0|0:0,0:0:0:0:
403,133,123088,1,8,0:0:0:0:
403,133,123189,2,0,P|452:132|482:155,1,80,10|0,0:0|0:0,0:0:0:0:
497,226,123595,6,0,L|489:313,1,80,6|0,0:0|0:0,0:0:0:0:
440,367,124000,1,10,0:0:0:0:
365,339,124203,1,0,0:0:0:0:
369,258,124406,2,0,P|341:230|302:222,1,80,2|0,0:0|0:0,0:0:0:0:
270,244,124710,1,8,0:0:0:0:
270,244,124811,2,0,P|270:283|291:316,1,80,10|0,0:0|0:0,0:0:0:0:
358,360,125216,6,0,P|288:353|230:377,1,120,6|8,0:0|0:0,0:0:0:0:
205,384,125622,2,0,P|168:368|147:334,1,80,10|0,0:0|0:0,0:0:0:0:
157,298,125926,1,0,0:0:0:0:
157,298,126027,2,0,L|110:293,3,40,10|8|8|8,0:0|0:0|0:0|0:0,0:0:0:0:
87,267,126433,2,0,L|82:220,3,40,10|8|10|8,0:0|0:0|0:0|0:0,0:0:0:0:
49,206,126838,6,0,P|89:117|161:111,1,160,6|10,0:0|0:0,0:0:0:0:
175,179,127446,2,0,P|209:211|239:229,1,80,0|2,0:0|0:0,0:0:0:0:
321,214,127851,1,0,0:0:0:0:
321,214,127953,1,8,0:0:0:0:
321,214,128054,2,0,P|333:173|321:128,1,80,10|0,0:0|0:0,0:0:0:0:
267,81,128460,6,0,P|303:64|326:30,1,80,6|0,0:0|0:0,0:0:0:0:
251,2,128865,2,0,P|214:18|191:52,1,80,10|0,0:0|0:0,0:0:0:0:
203,129,129270,2,0,P|191:173|173:213,1,80,2|0,0:0|0:0,0:0:0:0:
143,222,129574,1,8,0:0:0:0:
143,222,129676,2,0,L|59:214,1,83.9999974365235,10|0,0:0|0:0,0:0:0:0:
2,157,130081,6,0,B|-4:117|-4:117|17:73,1,80,6|0,0:0|0:0,0:0:0:0:
53,11,130487,2,0,P|81:38|91:78,1,80,10|0,0:0|0:0,0:0:0:0:
93,120,130791,1,0,0:0:0:0:
93,120,130892,2,0,P|137:154|203:134,1,120,2|8,0:0|0:0,0:0:0:0:
209,103,131297,2,0,L|216:22,1,80,10|0,0:0|0:0,0:0:0:0:
293,0,131703,6,0,P|362:50|363:122,1,160,6|10,0:0|0:0,0:0:0:0:
295,153,132312,1,0,0:0:0:0:
295,153,132413,1,0,0:0:0:0:
295,153,132514,2,0,P|327:187|361:196,1,80,2|0,0:0|0:0,0:0:0:0:
401,193,132818,1,8,0:0:0:0:
401,193,132920,2,0,P|408:231|397:269,1,80,10|10,0:0|0:0,0:0:0:0:
317,275,133324,6,0,P|270:247|174:288,1,160,6|10,0:0|0:0,0:0:0:0:
163,361,133933,1,0,0:0:0:0:
103,307,134135,2,0,L|99:267,3,40,10|8|10|8,0:0|0:0|0:0|0:0,0:0:0:0:
72,237,134541,1,10,0:0:0:0:
147,202,134743,1,2,0:0:0:0:
147,202,134845,1,2,0:0:0:0:
147,202,134946,6,0,B|174:204|174:204|195:216|195:216|223:218,1,80,6|0,0:0|0:0,0:0:0:0:
241,183,135250,2,0,B|268:180|268:180|289:168|289:168|322:165,1,80,6|0,0:0|0:0,0:0:0:0:
352,185,135554,1,6,0:0:0:0:
413,121,135757,1,6,0:0:0:0:
163,22,136162,1,2,0:0:0:0:
153,28,136263,1,2,0:0:0:0:
143,34,136365,2,0,L|138:80,1,40,2|2,0:0|0:0,0:0:0:0:
117,110,136568,6,0,P|157:128|184:169,1,83.9999974365235,6|0,0:0|0:0,0:0:0:0:
103,194,136973,2,0,P|72:225|62:273,1,83.9999974365235,10|0,0:0|0:0,0:0:0:0:
147,265,137379,2,0,P|158:307|143:353,1,83.9999974365235,2|0,0:0|0:0,0:0:0:0:
121,377,137683,1,8,0:0:0:0:
121,377,137784,1,10,0:0:0:0:
52,348,137987,1,2,0:0:0:0:
52,348,138088,1,2,0:0:0:0:
52,348,138189,6,0,P|40:305|55:259,1,83.9999974365235,6|0,0:0|0:0,0:0:0:0:
98,198,138595,2,0,L|91:98,1,83.9999974365235,10|0,0:0|0:0,0:0:0:0:
122,35,139000,2,0,P|167:43|196:71,1,83.9999974365235,2|0,0:0|0:0,0:0:0:0:
214,111,139304,1,8,0:0:0:0:
214,111,139406,2,0,P|257:107|294:84,1,83.9999974365235,10|2,0:0|0:0,0:0:0:0:
317,7,139811,6,0,P|372:52|440:60,1,125.999996154785,6|8,0:0|0:0,0:0:0:0:
465,50,140216,2,0,L|457:137,1,83.9999974365235,10|0,0:0|0:0,0:0:0:0:
486,212,140622,1,2,0:0:0:0:
410,205,140824,1,0,0:0:0:0:
410,205,140926,1,8,0:0:0:0:
410,205,141027,2,0,P|352:225|328:261,1,83.9999974365235,10|2,0:0|0:0,0:0:0:0:
342,325,141433,6,0,P|291:311|264:281,1,83.9999974365235,6|0,0:0|0:0,0:0:0:0:
261,253,141737,1,8,0:0:0:0:
261,253,141838,2,0,P|225:231|183:231,1,83.9999974365235,10|0,0:0|0:0,0:0:0:0:
146,306,142243,1,10,0:0:0:0:
203,380,142446,1,10,0:0:0:0:
203,380,142547,1,8,0:0:0:0:
203,380,142649,2,0,L|245:376,3,41.9999987182618,10|8|10|10,0:0|0:0|0:0|0:0,0:0:0:0:
284,362,143054,6,0,P|319:336|338:291,1,83.9999974365235,6|0,0:0|0:0,0:0:0:0:
254,282,143459,2,0,P|218:256|199:211,1,83.9999974365235,10|0,0:0|0:0,0:0:0:0:
283,204,143865,2,0,P|301:163|295:115,1,83.9999974365235,2|0,0:0|0:0,0:0:0:0:
278,93,144169,1,8,0:0:0:0:
278,93,144270,1,10,0:0:0:0:
201,107,144473,1,2,0:0:0:0:
201,107,144574,1,2,0:0:0:0:
201,107,144676,6,0,P|182:147|188:195,1,83.9999974365235,6|0,0:0|0:0,0:0:0:0:
221,261,145081,2,0,L|214:349,1,83.9999974365235,10|0,0:0|0:0,0:0:0:0:
290,381,145487,2,0,P|317:349|322:302,1,83.9999974365235,2|0,0:0|0:0,0:0:0:0:
313,272,145791,1,8,0:0:0:0:
313,272,145892,2,0,P|302:232|313:192,1,83.9999974365235,10|2,0:0|0:0,0:0:0:0:
386,232,146297,6,0,P|461:236|499:188,1,125.999996154785,6|8,0:0|0:0,0:0:0:0:
493,160,146703,2,0,L|486:73,1,83.9999974365235,10|0,0:0|0:0,0:0:0:0:
446,2,147108,2,0,P|411:37|402:72,1,83.9999974365235,2|0,0:0|0:0,0:0:0:0:
412,114,147412,1,8,0:0:0:0:
412,114,147514,2,0,P|356:131|306:75,1,125.999996154785,10|0,0:0|0:0,0:0:0:0:
321,49,147919,6,0,P|261:61|219:58,1,83.9999974365235,6|0,0:0|0:0,0:0:0:0:
200,60,148223,1,8,0:0:0:0:
200,60,148324,2,0,P|192:116|173:137,1,83.9999974365235,10|0,0:0|0:0,0:0:0:0:
90,134,148730,2,0,L|86:92,3,41.9999987182618,10|8|10|8,0:0|0:0|0:0|0:0,0:0:0:0:
50,70,149135,2,0,P|34:81|16:102,1,41.9999987182618,10|8,0:0|0:0,0:0:0:0:
10,138,149338,2,0,P|7:156|9:184,1,41.9999987182618,10|10,0:0|0:0,0:0:0:0:
43,200,149541,6,0,P|77:212|111:249,1,80,6|0,0:0|0:0,0:0:0:0:
103,286,149845,1,8,0:0:0:0:
103,286,149946,2,0,P|146:299|192:268,1,80,10|0,0:0|0:0,0:0:0:0:
179,205,150351,2,0,P|134:166|59:179,1,120,2|8,0:0|0:0,0:0:0:0:
45,193,150757,2,0,P|29:228|36:277,1,80,10|2,0:0|0:0,0:0:0:0:
77,334,151162,6,0,P|143:291|240:296,1,160,6|10,0:0|0:0,0:0:0:0:
210,369,151770,1,0,0:0:0:0:
284,340,151973,2,0,P|318:330|361:309,1,80,2|0,0:0|0:0,0:0:0:0:
380,278,152277,1,8,0:0:0:0:
380,278,152379,1,10,0:0:0:0:
441,344,152581,1,2,0:0:0:0:
441,344,152683,1,0,0:0:0:0:
441,344,152784,6,0,P|498:316|513:287,1,80,6|0,0:0|0:0,0:0:0:0:
490,276,153088,1,8,0:0:0:0:
490,276,153189,2,0,P|460:251|448:210,1,80,10|0,0:0|0:0,0:0:0:0:
448,132,153595,2,0,P|423:162|382:174,1,80,6|0,0:0|0:0,0:0:0:0:
361,147,153899,1,8,0:0:0:0:
361,147,154000,2,0,P|321:144|283:164,1,80,10|2,0:0|0:0,0:0:0:0:
231,220,154406,6,0,P|284:252|286:355,1,160,6|10,0:0|0:0,0:0:0:0:
224,384,155014,1,0,0:0:0:0:
216,304,155216,2,0,P|169:328|142:350,1,80,2|0,0:0|0:0,0:0:0:0:
118,371,155520,1,8,0:0:0:0:
118,371,155622,2,0,L|111:283,1,80,10|2,0:0|0:0,0:0:0:0:
85,215,156027,6,0,P|121:191|140:153,1,80,6|0,0:0|0:0,0:0:0:0:
111,136,156331,1,8,0:0:0:0:
111,136,156433,2,0,P|113:96|133:62,1,80,10|0,0:0|0:0,0:0:0:0:
185,3,156838,2,0,P|213:51|210:92,1,80,2|10,0:0|0:0,0:0:0:0:
203,113,157142,1,8,0:0:0:0:
203,113,157243,2,0,L|243:116,3,40,10|8|10|10,0:0|0:0|0:0|0:0,0:0:0:0:
274,141,157649,6,0,B|326:110|326:110|356:115,1,80,6|0,0:0|0:0,0:0:0:0:
423,130,158054,1,2,0:0:0:0:
388,202,158257,2,0,B|378:218|378:218|321:239,1,80,4|0,0:0|0:0,0:0:0:0:
244,215,158662,1,2,0:0:0:0:
171,249,158865,2,0,B|139:264|139:264|115:261|115:261|99:282|99:282|54:301,1,120,4|0,0:0|0:0,0:0:0:0:
32,310,159270,5,6,0:0:0:0:
408,23,161297,6,0,L|417:137,1,113.999996955872,2|0,0:0|0:0,0:0:0:0:
403,172,161703,2,0,P|378:177|344:177,2,50.6666653137207,2|2|2,0:0|0:0|0:0,0:0:0:0:
437,209,162108,2,0,P|465:205|499:210,2,50.6666653137207,2|2|2,0:0|0:0|0:0,0:0:0:0:
425,258,162514,5,6,0:0:0:0:
357,301,162716,2,2,P|330:299|307:289,1,40,4|8,0:0|0:0,0:0:0:0:
284,275,162918,2,2,P|272:250|269:225,1,40,12|0,0:0|0:0,0:0:0:0:
276,197,163122,1,0,0:0:0:0:
242,124,163324,2,0,P|169:130|117:121,1,120
85,107,163730,1,12,0:0:0:0:
73,186,163933,2,2,P|28:226|33:326,1,160,0|0,0:0|0:0,0:0:0:0:
151,286,166162,22,2,P|193:284|226:285,2,53.3333333333333,6|10|10,0:0|0:0|0:0,0:0:0:0:
105,257,166568,2,2,P|89:228|80:188,2,53.3333333333333,2|2|14,0:0|0:0|0:0,0:0:0:0:
64,30,167581,5,4,0:0:0:0:
64,30,167683,1,12,0:0:0:0:
64,30,167784,2,2,P|102:103|193:87,1,160,12|0,0:0|0:0,0:0:0:0:
211,33,168392,2,2,B|283:15|282:80|373:53,1,160,4|0,0:0|0:0,0:0:0:0:
399,34,168899,1,8,0:0:0:0:
399,34,169000,5,4,0:0:0:0:
426,109,169203,2,0,L|454:106,2,26.6666666666667,2|2|2,0:0|0:0|0:0,0:0:0:0:
443,142,169406,2,0,B|406:173|406:173|286:158,1,160,6|0,0:0|0:0,0:0:0:0:
180,271,170216,2,0,B|214:247|214:247|302:258,1,120,6|0,0:0|0:0,0:0:0:0:
332,250,170622,5,2,0:0:0:0:
379,313,170824,2,0,B|360:316|360:316|340:331,5,40,2|2|2|2|2|2,0:0|0:0|0:0|0:0|0:0|0:0,0:0:0:0:
247,239,171635,2,0,B|241:179|241:179|259:155,1,80,6|0,0:0|0:0,0:0:0:0:
292,151,171939,2,0,B|306:137|306:137|311:77,1,80,6|0,0:0|0:0,0:0:0:0:
289,43,172243,6,2,P|247:29|208:45,2,80,6|0|10,0:0|0:0|0:0,0:0:0:0:
346,98,172851,2,2,P|401:120|461:42,1,160,0|0,0:0|0:0,0:0:0:0:
448,21,173358,1,8,0:0:0:0:
448,21,173460,2,0,P|404:24|359:19,1,80,10|0,0:0|0:0,0:0:0:0:
289,9,173865,6,2,P|286:32|281:49,1,40,2|0,0:0|0:0,0:0:0:0:
257,80,174068,2,2,B|185:165|297:208|220:314,1,240,0|2,0:0|0:0,0:0:0:0:
152,322,174879,1,0,0:0:0:0:
152,322,174980,1,8,0:0:0:0:
152,322,175081,2,2,P|141:277|37:234,1,160,10|6,0:0|0:0,0:0:0:0:
22,308,175689,5,0,0:0:0:0:
100,289,175892,1,10,0:0:0:0:
124,212,176095,1,0,0:0:0:0:
201,235,176297,2,2,P|234:202|219:91,1,160,2|10,0:0|0:0,0:0:0:0:
148,121,176906,2,2,B|113:145|61:142|37:100|58:64|84:57,1,160,0|0,0:0|0:0,0:0:0:0:
160,45,177514,6,0,B|242:73|232:-4|322:24,1,160,10|2,0:0|0:0,0:0:0:0:
339,105,178122,1,0,0:0:0:0:
339,105,178223,1,8,0:0:0:0:
339,105,178324,2,0,P|334:149|331:189,1,80,10|0,0:0|0:0,0:0:0:0:
380,248,178730,6,2,P|418:225|431:185,2,80,6|0|10,0:0|0:0|0:0,0:0:0:0:
300,258,179338,2,2,P|250:258|227:375,1,160,0|0,0:0|0:0,0:0:0:0:
248,368,179845,1,8,0:0:0:0:
248,368,179946,2,0,P|300:373|333:380,1,80,10|0,0:0|0:0,0:0:0:0:
406,368,180351,6,2,P|402:343|396:324,1,40,2|0,0:0|0:0,0:0:0:0:
370,299,180554,2,2,B|413:269|419:203|376:163|376:163|339:128|354:80,1,240,0|2,0:0|0:0,0:0:0:0:
375,15,181365,1,0,0:0:0:0:
375,15,181466,1,8,0:0:0:0:
375,15,181568,2,0,P|319:6|284:7,1,80,10|0,0:0|0:0,0:0:0:0:
229,51,181973,5,6,0:0:0:0:
190,206,182379,2,0,P|163:203|133:193,2,53.3333333333333,10|0|0,0:0|0:0|0:0,0:0:0:0:
235,233,182784,2,0,P|245:257|252:288,2,53.3333333333333,2|0|0,0:0|0:0|0:0,0:0:0:0:
241,194,183797,5,4,0:0:0:0:
241,194,183899,1,12,0:0:0:0:
241,194,184000,2,0,P|272:169|305:128,1,80,12|0,0:0|0:0,0:0:0:0:
305,59,184406,2,0,L|345:62,3,40,10|8|8|8,0:0|0:0|0:0|0:0,0:0:0:0:
377,90,184811,2,0,L|417:86,3,40,10|8|10|8,0:0|0:0|0:0|0:0,0:0:0:0:
446,113,185216,6,0,P|456:143|462:174,2,53.3333333333333,4|4|12,0:0|0:0|0:0,0:0:0:0:
356,172,185757,2,0,P|348:202|345:234,2,53.3333333333333,4|4|12,0:0|0:0|0:0,0:0:0:0:
427,250,186297,2,0,P|431:281|432:312,2,53.3333333333333,4|4|12,0:0|0:0|0:0,0:0:0:0:
219,350,187041,6,0,B|290:292|298:196|233:176|194:189|179:225,1,240,4|0,0:0|0:0,0:0:0:0:
49,45,194946,6,0,P|78:16|126:11,1,71.9999978027344,4|0,0:0|0:0,0:0:0:0:
111,81,195351,2,0,P|150:92|179:131,1,71.9999978027344,4|0,0:0|0:0,0:0:0:0:
111,153,195757,2,0,P|127:218|95:291,1,143.999995605469,4|0,0:0|0:0,0:0:0:0:
34,318,196365,1,0,0:0:0:0:
93,358,196568,6,0,P|131:372|177:358,1,71.9999978027344,4|0,0:0|0:0,0:0:0:0:
189,301,196973,2,0,P|222:287|257:293,1,71.9999978027344,4|0,0:0|0:0,0:0:0:0:
285,270,197277,2,0,P|362:215|292:98,1,251.999992309571,4|0,0:0|0:0,0:0:0:0:
227,118,198189,6,0,P|206:153|213:201,1,71.9999978027344,4|0,0:0|0:0,0:0:0:0:
277,170,198594,2,0,P|297:205|342:223,1,71.9999978027344,4|0,0:0|0:0,0:0:0:0:
349,152,199000,2,0,P|407:139|317:82,1,251.999992309571,4|0,0:0|0:0,0:0:0:0:
280,89,199811,6,0,L|237:85,3,40,2|2|2|10,0:0|0:0|0:0|0:0,0:0:0:0:
208,109,200216,2,0,P|187:111|165:117,3,40,10|2|2|2,0:0|0:0|0:0|0:0,0:0:0:0:
145,82,200622,2,0,P|123:78|105:70,3,40,2|2|2|10,0:0|0:0|0:0|0:0,0:0:0:0:
100,265,201433,6,0,P|119:301|153:325,1,83.9999974365235,6|0,0:0|0:0,0:0:0:0:
182,247,201838,2,0,P|204:211|207:170,1,83.9999974365235,10|0,0:0|0:0,0:0:0:0:
124,184,202243,2,0,P|81:182|44:200,1,83.9999974365235,2|0,0:0|0:0,0:0:0:0:
20,235,202547,1,8,0:0:0:0:
20,235,202649,1,10,0:0:0:0:
60,319,202851,1,2,0:0:0:0:
60,319,202953,1,0,0:0:0:0:
60,319,203054,6,0,P|102:317|139:335,1,83.9999974365235,6|0,0:0|0:0,0:0:0:0:
208,383,203460,2,0,L|293:376,1,83.9999974365235,10|0,0:0|0:0,0:0:0:0:
322,298,203865,2,0,P|333:251|320:216,1,83.9999974365235,2|0,0:0|0:0,0:0:0:0:
282,222,204169,1,8,0:0:0:0:
282,222,204270,2,0,P|259:186|260:144,1,83.9999974365235,10|2,0:0|0:0,0:0:0:0:
345,138,204676,6,0,P|398:175|410:234,1,125.999996154785,6|8,0:0|0:0,0:0:0:0:
408,274,205081,2,0,L|498:266,1,83.9999974365235,10|0,0:0|0:0,0:0:0:0:
512,185,205487,1,2,0:0:0:0:
460,131,205690,1,0,0:0:0:0:
460,131,205791,1,8,0:0:0:0:
460,131,205892,2,0,P|450:91|401:50,1,83.9999974365235,10|2,0:0|0:0,0:0:0:0:
355,8,206297,6,0,P|315:19|277:70,1,83.9999974365235,6|0,0:0|0:0,0:0:0:0:
322,80,206601,1,8,0:0:0:0:
322,80,206703,2,0,P|309:119|332:178,1,83.9999974365235,10|0,0:0|0:0,0:0:0:0:
396,192,207108,1,2,0:0:0:0:
337,252,207311,1,10,0:0:0:0:
337,252,207412,1,8,0:0:0:0:
337,252,207514,2,0,L|332:306,3,41.9999987182618,10|8|10|10,0:0|0:0|0:0|0:0,0:0:0:0:
360,325,207919,6,0,P|392:349|433:356,1,83.9999974365235,6|0,0:0|0:0,0:0:0:0:
426,270,208324,2,0,P|429:228|414:190,1,83.9999974365235,10|0,0:0|0:0,0:0:0:0:
346,240,208730,2,0,P|308:257|283:289,1,83.9999974365235,2|0,0:0|0:0,0:0:0:0:
269,332,209034,1,8,0:0:0:0:
269,332,209135,1,10,0:0:0:0:
214,281,209338,1,2,0:0:0:0:
214,281,209439,1,0,0:0:0:0:
214,281,209541,6,0,P|197:242|165:216,1,83.9999974365235,6|0,0:0|0:0,0:0:0:0:
85,241,209946,2,0,L|-15:233,1,83.9999974365235,10|0,0:0|0:0,0:0:0:0:
35,157,210351,2,0,P|51:123|50:75,1,83.9999974365235,2|0,0:0|0:0,0:0:0:0:
28,46,210656,1,8,0:0:0:0:
28,46,210757,2,0,P|55:14|95:1,1,83.9999974365235,10|2,0:0|0:0,0:0:0:0:
129,77,211162,6,0,P|179:117|241:99,1,125.999996154785,6|8,0:0|0:0,0:0:0:0:
242,62,211568,2,0,L|335:53,1,83.9999974365235,10|0,0:0|0:0,0:0:0:0:
406,77,211973,2,0,P|399:132|378:157,1,83.9999974365235,2|0,0:0|0:0,0:0:0:0:
344,163,212277,1,8,0:0:0:0:
344,163,212379,2,0,P|295:164|245:219,1,125.999996154785,10|0,0:0|0:0,0:0:0:0:
275,247,212784,6,0,P|208:261|178:273,1,83.9999974365235,6|0,0:0|0:0,0:0:0:0:
157,258,213088,1,8,0:0:0:0:
157,258,213189,2,0,P|116:246|76:258,1,83.9999974365235,10|0,0:0|0:0,0:0:0:0:
46,335,213595,2,0,L|96:339,3,41.9999987182618,10|8|10|8,0:0|0:0|0:0|0:0,0:0:0:0:
122,363,214000,2,0,P|140:374|159:381,1,41.9999987182618,10|8,0:0|0:0,0:0:0:0:
202,384,214203,2,0,P|222:379|240:370,1,41.9999987182618,10|10,0:0|0:0,0:0:0:0:
268,340,214406,6,0,P|265:289|242:254,1,80,6|0,0:0|0:0,0:0:0:0:
217,251,214710,1,8,0:0:0:0:
217,251,214811,2,0,P|184:227|165:193,1,80,10|0,0:0|0:0,0:0:0:0:
183,115,215216,2,0,P|230:86|302:104,1,120,2|8,0:0|0:0,0:0:0:0:
319,125,215622,2,0,P|333:171|327:202,1,80,10|2,0:0|0:0,0:0:0:0:
296,275,216027,6,0,P|368:328|438:293,1,160,6|10,0:0|0:0,0:0:0:0:
489,255,216635,1,0,0:0:0:0:
413,230,216838,2,0,P|402:164|399:126,1,80,2|0,0:0|0:0,0:0:0:0:
369,133,217142,1,8,0:0:0:0:
369,133,217243,1,10,0:0:0:0:
389,61,217446,1,2,0:0:0:0:
389,61,217547,1,0,0:0:0:0:
389,61,217649,6,0,P|349:32|305:31,1,80,6|0,0:0|0:0,0:0:0:0:
299,64,217953,1,8,0:0:0:0:
299,64,218054,2,0,P|266:86|226:90,1,80,10|0,0:0|0:0,0:0:0:0:
164,39,218460,2,0,P|193:79|194:123,1,80,6|0,0:0|0:0,0:0:0:0:
161,129,218764,1,8,0:0:0:0:
161,129,218865,2,0,P|138:161|134:201,1,80,10|2,0:0|0:0,0:0:0:0:
186,260,219270,6,0,P|180:339|110:374,1,160,6|10,0:0|0:0,0:0:0:0:
43,335,219879,1,0,0:0:0:0:
112,293,220081,2,0,P|82:263|42:235,1,80,2|0,0:0|0:0,0:0:0:0:
19,226,220385,1,8,0:0:0:0:
19,226,220487,2,0,L|26:142,1,80,10|2,0:0|0:0,0:0:0:0:
57,72,220892,6,0,P|99:55|141:64,1,80,6|0,0:0|0:0,0:0:0:0:
134,104,221196,1,8,0:0:0:0:
134,104,221297,2,0,P|165:136|207:146,1,80,10|0,0:0|0:0,0:0:0:0:
278,150,221703,2,0,P|267:105|235:76,1,80,10|10,0:0|0:0,0:0:0:0:
210,69,222007,1,8,0:0:0:0:
210,69,222108,2,0,L|213:26,3,40,10|8|10|10,0:0|0:0|0:0|0:0,0:0:0:0:
249,11,222514,6,0,B|289:5|289:5|334:33,1,80,6|0,0:0|0:0,0:0:0:0:
389,69,222919,1,2,0:0:0:0:
339,131,223122,2,0,B|373:151|373:151|426:142,1,80,4|0,0:0|0:0,0:0:0:0:
491,131,223527,1,2,0:0:0:0:
463,206,223730,1,6,0:0:0:0:
459,217,223832,1,2,0:0:0:0:
454,228,223933,1,2,0:0:0:0:
374,231,224135,6,0,P|329:227|297:245,1,80,6|0,0:0|0:0,0:0:0:0:
266,317,224541,2,0,P|227:324|190:309,1,80,10|2,0:0|0:0,0:0:0:0:
172,279,224845,1,2,0:0:0:0:
172,279,224946,1,0,0:0:0:0:
182,199,225149,2,2,B|156:194|119:209|104:235|104:235|91:191|47:167,1,160,2|10,0:0|0:0,0:0:0:0:
2,129,225757,6,2,P|21:62|69:63,1,120,6|8,0:0|0:0,0:0:0:0:
79,95,226162,2,2,B|100:84|100:84|122:104|157:110,1,80,10|2,0:0|0:0,0:0:0:0:
190,96,226466,1,2,0:0:0:0:
190,96,226568,2,2,B|224:142|288:134|288:134|283:106|297:77,1,160,0|8,0:0|0:0,0:0:0:0:
348,28,227176,1,10,0:0:0:0:
348,28,227277,1,8,0:0:0:0:
348,28,227379,6,2,B|389:35|415:91|391:132|391:132|417:147|451:163|451:163|412:188|392:236,1,280,6|2,0:0|0:0,0:0:0:0:
389,263,228189,2,2,P|369:264|346:271,1,40,0|0,0:0|0:0,0:0:0:0:
343,309,228392,2,2,P|310:335|233:269,1,160
272,203,229000,6,2,B|257:176|225:167|225:167|249:146|249:114,2,120,6|8|2,0:0|0:0|0:0,0:0:0:0:
256,281,229811,1,2,0:0:0:0:
194,329,230014,1,2,0:0:0:0:
194,329,230115,1,10,0:0:0:0:
194,329,230216,2,0,L|146:333,3,40,10|2|2|2,0:0|0:0|0:0|0:0,0:0:0:0:
115,320,230622,6,2,P|82:273|103:211,1,120,6|8,0:0|0:0,0:0:0:0:
137,209,231027,2,0,P|157:223|177:244,2,53.3333333333333,10|0|0,0:0|0:0|0:0,0:0:0:0:
143,155,231433,2,0,P|165:144|194:137,2,53.3333333333333,2|0|0,0:0|0:0|0:0,0:0:0:0:
94,133,231838,2,0,P|85:109|70:84,2,53.3333333333333,8|0|0,0:0|0:0|0:0,0:0:0:0:
46,157,232243,6,2,B|11:170|1:229|49:258|101:242|101:242|148:230|180:255,1,240,6|0,0:0|0:0,0:0:0:0:
203,290,232953,1,2,0:0:0:0:
203,290,233054,2,2,P|263:305|337:218,1,160,0|8,0:0|0:0,0:0:0:0:
299,184,233662,1,2,0:0:0:0:
299,184,233764,1,0,0:0:0:0:
299,184,233865,5,6,0:0:0:0:
379,180,234068,2,2,B|422:167|445:125|445:125|462:158|455:193,1,160,0|2,0:0|0:0,0:0:0:0:
445,235,234574,1,2,0:0:0:0:
445,235,234676,2,2,B|417:304|501:314|477:395,1,160,0|8,0:0|0:0,0:0:0:0:
410,367,235284,1,2,0:0:0:0:
410,367,235385,1,0,0:0:0:0:
410,367,235487,6,2,B|387:337|345:322|305:334|305:334|263:316|248:267|273:231,1,240,6|0,0:0|0:0,0:0:0:0:
312,219,236196,1,0,0:0:0:0:
312,219,236297,2,0,L|307:171,3,40,2|2|2|10,0:0|0:0|0:0|0:0,0:0:0:0:
337,151,236703,2,0,L|384:155,3,40,10|2|2|2,0:0|0:0|0:0|0:0,0:0:0:0:
413,138,237108,6,0,P|412:83|382:49,1,80,6|0,0:0|0:0,0:0:0:0:
362,71,237412,1,8,0:0:0:0:
362,71,237514,2,0,P|313:44|269:53,1,80,10|0,0:0|0:0,0:0:0:0:
257,118,237919,2,0,P|209:146|195:189,1,80,2|0,0:0|0:0,0:0:0:0:
224,195,238223,1,8,0:0:0:0:
224,195,238325,2,0,P|224:249|255:284,1,80,10|0,0:0|0:0,0:0:0:0:
316,281,238730,6,0,P|267:343|172:316,1,160,6|10,0:0|0:0,0:0:0:0:
158,274,239338,1,0,0:0:0:0:
158,274,239439,1,0,0:0:0:0:
158,274,239541,2,0,L|111:278,3,40,2|2|2|10,0:0|0:0|0:0|0:0,0:0:0:0:
83,257,239946,2,0,P|70:238|64:219,1,40,10|2,0:0|0:0,0:0:0:0:
86,188,240149,2,0,P|84:168|77:149,1,40,2|2,0:0|0:0,0:0:0:0:
44,126,240351,6,2,P|78:82|117:45,3,106.666666666667
198,113,241433,2,2,P|253:120|304:135,3,106.666666666667
428,285,242987,6,2,B|402:369|402:369|366:331|366:331|352:322|352:322|323:292|323:292|315:275|315:275|283:238|283:238|415:208|415:208|429:194|429:194|456:188|456:188|472:134|472:134|482:102|453:55|381:81|397:139,1,640,6|2,0:0|0:0,0:0:0:0:
