osu file format v14

[General]
AudioFilename: Frank Schindel - Die Hyper Spirit Digitation.mp3
AudioLeadIn: 0
PreviewTime: 77784
Countdown: 0
SampleSet: Soft
StackLeniency: 0.2
Mode: 0
LetterboxInBreaks: 1
WidescreenStoryboard: 1

[Editor]
DistanceSpacing: 0.6
BeatDivisor: 4
GridSize: 32
TimelineZoom: 1.5

[Metadata]
Title:Die Hyper Spirit Digitation
TitleUnicode:Die Hyper Spirit Digitation
Artist:Frank Schindel
ArtistUnicode:Frank Schindel
Creator:AnimeStyle
Version:Kyshiro's Final Frontier
Source:Digimon Frontier
Tags:the last element ayumi miyazaki j-rock rock german deutsch kyshiro trig anime 宮崎歩 デジモンフロンティア cover
BeatmapID:2997757
BeatmapSetID:1405595

[Difficulty]
HPDrainRate:6
CircleSize:4
OverallDifficulty:8.5
ApproachRate:9.2
SliderMultiplier:2
SliderTickRate:2

[Events]
//Background and Video events
0,0,"BG.png",0,0
Video,0,"vid.mp4"
//Break Periods
2,117308,119619
2,188460,194135
//Storyboard Layer 0 (Background)
//Storyboard Layer 1 (Fail)
//Storyboard Layer 2 (Pass)
//Storyboard Layer 3 (Foreground)
//Storyboard Layer 4 (Overlay)
//Storyboard Sound Samples

[TimingPoints]
352,405.405405405405,4,2,1,20,1,0
1973,-100,4,2,1,30,0,0
2987,-100,4,2,1,35,0,0
3189,-100,4,2,1,40,0,0
3392,-100,4,2,1,45,0,0
3595,-100,4,2,1,60,0,0
10487,-100,4,2,1,50,0,0
11906,-100,4,2,1,60,0,0
15960,-71.4285714285714,4,2,1,60,0,0
16568,-83.3333333333333,4,2,1,60,0,0
23054,-71.4285714285714,4,2,1,60,0,0
24879,-333.333333333333,4,2,1,60,0,0
25689,-100,4,2,1,40,0,0
26095,-100,4,2,1,30,0,0
26297,-83.3333333333333,4,2,1,50,0,0
28933,-83.3333333333333,4,2,1,55,0,0
29135,-83.3333333333333,4,2,1,60,0,0
29338,-83.3333333333333,4,2,1,65,0,0
29541,-83.3333333333333,4,2,1,50,0,0
32176,-83.3333333333333,4,2,1,55,0,0
32379,-83.3333333333333,4,2,1,60,0,0
32581,-83.3333333333333,4,2,1,65,0,0
32784,-83.3333333333333,4,2,1,50,0,0
35419,-83.3333333333333,4,2,1,55,0,0
35622,-83.3333333333333,4,2,1,60,0,0
35824,-83.3333333333333,4,2,1,65,0,0
36027,-83.3333333333333,4,2,1,50,0,0
38662,-83.3333333333333,4,2,1,55,0,0
38865,-83.3333333333333,4,2,1,60,0,0
39068,-83.3333333333333,4,2,1,65,0,0
39270,-83.3333333333333,4,2,1,50,0,0
41906,-83.3333333333333,4,2,1,55,0,0
42108,-83.3333333333333,4,2,1,60,0,0
42311,-83.3333333333333,4,2,1,65,0,0
42514,-83.3333333333333,4,2,1,50,0,0
45149,-83.3333333333333,4,2,1,55,0,0
45351,-83.3333333333333,4,2,1,60,0,0
45554,-83.3333333333333,4,2,1,65,0,0
45757,-83.3333333333333,4,2,1,50,0,0
48392,-83.3333333333333,4,2,1,55,0,0
48595,-83.3333333333333,4,2,1,60,0,0
48797,-83.3333333333333,4,2,1,65,0,0
49000,-83.3333333333333,4,2,1,60,0,0
54879,-83.3333333333333,4,2,1,65,0,0
55081,-83.3333333333333,4,2,1,70,0,0
55284,-83.3333333333333,4,2,1,75,0,0
55487,-83.3333333333333,4,2,1,50,0,0
58122,-83.3333333333333,4,2,1,55,0,0
58324,-83.3333333333333,4,2,1,60,0,0
58527,-83.3333333333333,4,2,1,65,0,0
58730,-83.3333333333333,4,2,1,50,0,0
61365,-83.3333333333333,4,2,1,55,0,0
61568,-83.3333333333333,4,2,1,60,0,0
61770,-83.3333333333333,4,2,1,65,0,0
61973,-83.3333333333333,4,2,1,50,0,0
64608,-83.3333333333333,4,2,1,55,0,0
64811,-83.3333333333333,4,2,1,60,0,0
65014,-83.3333333333333,4,2,1,65,0,0
65216,-83.3333333333333,4,2,1,50,0,0
67851,-83.3333333333333,4,2,1,55,0,0
68054,-83.3333333333333,4,2,1,60,0,0
68257,-83.3333333333333,4,2,1,65,0,0
68460,-83.3333333333333,4,2,1,50,0,0
71095,-83.3333333333333,4,2,1,55,0,0
71297,-83.3333333333333,4,2,1,60,0,0
71500,-83.3333333333333,4,2,1,65,0,0
71703,-83.3333333333333,4,2,1,50,0,0
74338,-83.3333333333333,4,2,1,55,0,0
74541,-83.3333333333333,4,2,1,60,0,0
74743,-83.3333333333333,4,2,1,65,0,0
74946,-83.3333333333333,4,2,1,50,0,0
76568,-71.4285714285714,4,2,1,50,0,0
77176,-58.8235294117647,4,2,1,50,0,0
77328,-58.8235294117647,4,2,1,5,0,0
77379,-58.8235294117647,4,2,1,50,0,0
77784,-71.4285714285714,4,2,1,50,0,0
77987,-71.4285714285714,4,2,1,55,0,0
78189,-66.6666666666667,4,2,1,60,0,1
84270,-66.6666666666667,4,2,1,60,0,0
84676,-66.6666666666667,4,2,1,60,0,1
91162,-66.6666666666667,4,2,1,50,0,1
100892,-76.9230769230769,4,2,1,50,0,0
113054,-76.9230769230769,4,2,1,55,0,0
113460,-76.9230769230769,4,2,1,60,0,0
113865,-76.9230769230769,4,2,1,50,0,0
120351,-83.3333333333333,4,2,1,50,0,0
122987,-83.3333333333333,4,2,1,55,0,0
123189,-83.3333333333333,4,2,1,60,0,0
123392,-83.3333333333333,4,2,1,65,0,0
123595,-83.3333333333333,4,2,1,50,0,0
126230,-83.3333333333333,4,2,1,55,0,0
126433,-83.3333333333333,4,2,1,60,0,0
126635,-83.3333333333333,4,2,1,65,0,0
126838,-83.3333333333333,4,2,1,50,0,0
129473,-83.3333333333333,4,2,1,55,0,0
129676,-83.3333333333333,4,2,1,60,0,0
129879,-83.3333333333333,4,2,1,65,0,0
130081,-83.3333333333333,4,2,1,50,0,0
132716,-83.3333333333333,4,2,1,55,0,0
132919,-83.3333333333333,4,2,1,60,0,0
133122,-83.3333333333333,4,2,1,65,0,0
133324,-83.3333333333333,4,2,1,50,0,0
134946,-71.4285714285714,4,2,1,50,0,0
135554,-58.8235294117647,4,2,1,50,0,0
135706,-58.8235294117647,4,2,1,5,0,0
135757,-58.8235294117647,4,2,1,50,0,0
136162,-71.4285714285714,4,2,1,50,0,0
136568,-66.6666666666667,4,2,1,60,0,1
142649,-66.6666666666667,4,2,1,60,0,0
143054,-66.6666666666667,4,2,1,60,0,1
149541,-66.6666666666667,4,2,1,50,0,1
159270,-100,4,2,1,50,0,0
166162,-100,4,2,1,40,0,0
167581,-100,4,2,1,50,0,0
168392,-133.333333333333,4,2,1,50,0,0
169406,-100,4,2,1,50,0,0
171635,-71.4285714285714,4,2,1,50,0,0
172243,-83.3333333333333,4,2,1,50,0,0
182379,-100,4,2,1,40,0,0
183797,-100,4,2,1,50,0,0
185216,-71.4285714285714,4,2,1,40,0,0
187041,-100,4,2,1,40,0,0
194946,-133.333333333333,4,2,1,40,0,0
199000,-117.647058823529,4,2,1,40,0,0
199811,-100,4,2,1,40,0,0
201027,-100,4,2,1,20,0,0
201433,-66.6666666666667,4,2,1,60,0,1
207514,-66.6666666666667,4,2,1,60,0,0
207919,-66.6666666666667,4,2,1,60,0,1
214406,-66.6666666666667,4,2,1,50,0,1
224135,-83.3333333333333,4,2,1,50,0,0
240554,-83.3333333333333,4,2,1,5,0,0
240622,-83.3333333333333,4,2,1,50,0,0
240824,-83.3333333333333,4,2,1,5,0,0
240892,-83.3333333333333,4,2,1,50,0,0
241095,-83.3333333333333,4,2,1,5,0,0
241162,-83.3333333333333,4,2,1,50,0,0
241365,-83.3333333333333,4,2,1,5,0,0
241433,-83.3333333333333,4,2,1,50,0,0
241635,-83.3333333333333,4,2,1,5,0,0
241703,-83.3333333333333,4,2,1,50,0,0
241906,-83.3333333333333,4,2,1,5,0,0
241973,-83.3333333333333,4,2,1,50,0,0
242176,-83.3333333333333,4,2,1,5,0,0
242243,-83.3333333333333,4,2,1,50,0,0
244608,-100,4,2,1,5,0,0

[Colours]
Combo1 : 255,255,81
Combo2 : 255,128,64
Combo3 : 0,128,64
Combo4 : 128,0,0

[HitObjects]
124,75,352,6,0,L|69:66,3,50
225,123,757,2,0,L|280:114,3,50
143,157,1162,1,0,0:0:0:0:
140,171,1264,1,0,0:0:0:0:
137,185,1365,1,0,0:0:0:0:
134,199,1466,1,0,0:0:0:0:
131,213,1568,1,0,0:0:0:0:
128,227,1669,1,0,0:0:0:0:
126,241,1770,1,0,0:0:0:0:
124,255,1872,1,0,0:0:0:0:
121,269,1973,6,0,P|76:275|52:270,1,50,2|0,0:0|0:0,0:0:0:0:
189,346,2176,1,0,0:0:0:0:
211,325,2277,1,8,0:0:0:0:
239,313,2379,2,0,P|265:344|276:369,1,50,8|0,0:0|0:0,0:0:0:0:
219,202,2581,2,0,P|232:180|249:162,1,50
391,96,2784,1,2,0:0:0:0:
376,109,2885,1,2,0:0:0:0:
362,124,2987,2,0,L|375:163,2,25,2|0|10,0:0|0:0|0:0,0:0:0:0:
277,68,3189,1,10,0:0:0:0:
249,79,3291,1,2,0:0:0:0:
172,49,3392,1,10,0:0:0:0:
144,38,3494,1,10,0:0:0:0:
79,116,3595,6,2,P|55:167|44:224,1,100,6|0,0:0|0:0,0:0:0:0:
22,24,4000,1,8,0:0:0:0:
177,172,4203,2,2,B|340:141|299:284|462:253,1,300,0|8,0:0|0:0,0:0:0:0:
443,66,5014,1,0,0:0:0:0:
435,94,5115,1,0,0:0:0:0:
427,122,5216,6,2,L|366:102,1,50,2|0,0:0|0:0,0:0:0:0:
292,57,5419,2,2,L|309:173,1,100,0|8,0:0|0:0,0:0:0:0:
227,342,5824,1,2,0:0:0:0:
229,311,5926,1,2,0:0:0:0:
232,281,6027,1,2,0:0:0:0:
354,335,6230,1,2,0:0:0:0:
156,123,6433,1,2,0:0:0:0:
167,150,6534,1,2,0:0:0:0:
170,179,6635,1,2,0:0:0:0:
167,209,6737,1,2,0:0:0:0:
159,237,6838,1,2,0:0:0:0:
159,237,7041,6,2,L|74:222,1,50,4|8,0:0|0:0,0:0:0:0:
300,155,7243,2,2,L|385:140,1,50,12|0,0:0|0:0,0:0:0:0:
179,85,7446,1,0,0:0:0:0:
401,252,7649,2,2,P|308:251|271:293,1,150,0|8,0:0|0:0,0:0:0:0:
266,315,8054,1,12,0:0:0:0:
60,194,8257,2,2,P|125:185|157:157,1,100,0|0,0:0|0:0,0:0:0:0:
341,16,8662,6,2,L|313:217,1,200,0|8,0:0|0:0,0:0:0:0:
312,229,9169,1,8,0:0:0:0:
310,243,9270,1,8,0:0:0:0:
231,103,9473,1,8,0:0:0:0:
231,103,9574,2,0,P|223:62|216:38,2,50,8|8|0,0:0|0:0|0:0,0:0:0:0:
172,262,9879,2,0,L|160:333,1,50,8|8,0:0|0:0,0:0:0:0:
163,311,10487,6,2,P|119:335|75:336,2,66.6666666666667,6|10|10,0:0|0:0|0:0,0:0:0:0:
333,214,10892,2,2,P|320:256|320:303,2,66.6666666666667,2|2|4,0:0|0:0|0:0,0:0:0:0:
135,212,11906,5,4,0:0:0:0:
135,212,12007,1,12,0:0:0:0:
135,212,12108,2,2,P|195:203|277:78,1,200,12|0,0:0|0:0,0:0:0:0:
351,336,12716,2,2,P|310:276|307:232,1,100,4|0,0:0|0:0,0:0:0:0:
388,28,13122,1,8,0:0:0:0:
407,43,13223,1,8,0:0:0:0:
426,58,13324,2,2,L|405:172,1,100
462,238,13629,5,2,0:0:0:0:
474,252,13730,2,2,P|414:207|287:246,1,200,14|0,0:0|0:0,0:0:0:0:
55,96,14338,1,2,0:0:0:0:
64,119,14439,1,2,0:0:0:0:
72,142,14541,2,2,P|137:162|201:117,1,150,14|0,0:0|0:0,0:0:0:0:
211,89,14946,5,2,0:0:0:0:
380,30,15149,2,0,L|368:86,1,50,2|2,0:0|0:0,0:0:0:0:
465,246,15351,2,0,L|454:197,1,50,2|2,0:0|0:0,0:0:0:0:
272,206,15554,1,2,0:0:0:0:
301,199,15656,1,10,0:0:0:0:
330,192,15757,1,10,0:0:0:0:
330,192,15960,6,2,B|288:137|288:137|215:141,1,139.999995727539,6|0,0:0|0:0,0:0:0:0:
5,144,16264,2,2,B|75:147|75:147|117:92,1,139.999995727539,6|0,0:0|0:0,0:0:0:0:
205,232,16568,6,2,P|140:237|98:282,1,119.999996337891,6|0,0:0|0:0,0:0:0:0:
181,321,16872,1,8,0:0:0:0:
274,300,16973,2,0,P|300:261|305:230,2,59.9999981689454,10|0|0,0:0|0:0|0:0,0:0:0:0:
304,129,17277,2,2,P|327:218|381:290,1,179.999994506836,0|0,0:0|0:0,0:0:0:0:
468,317,17683,1,8,0:0:0:0:
468,317,17784,2,2,L|495:188,1,119.999996337891,10|0,0:0|0:0,0:0:0:0:
391,101,18088,5,0,0:0:0:0:
391,101,18189,2,2,B|296:83|320:165|226:147,2,179.999994506836,2|8|0,0:0|0:0|0:0,0:0:0:0:
145,225,19000,2,2,P|118:167|127:108,1,119.999996337891,2|0,0:0|0:0,0:0:0:0:
178,5,19304,1,8,0:0:0:0:
178,5,19406,2,0,P|196:31|207:67,1,59.9999981689454,10|0,0:0|0:0,0:0:0:0:
267,235,19608,2,0,P|277:206|294:182,1,59.9999981689454
407,81,19811,6,2,L|428:221,1,119.999996337891,2|0,0:0|0:0,0:0:0:0:
212,358,20216,1,10,0:0:0:0:
203,316,20318,1,0,0:0:0:0:
225,280,20419,1,0,0:0:0:0:
266,273,20520,2,2,P|179:315|81:284,1,179.999994506836,0|0,0:0|0:0,0:0:0:0:
33,214,20926,1,8,0:0:0:0:
33,214,21027,2,2,P|86:193|150:205,1,119.999996337891,10|0,0:0|0:0,0:0:0:0:
243,117,21331,5,0,0:0:0:0:
300,199,21433,2,2,P|226:214|149:149,1,179.999994506836,2|8,0:0|0:0,0:0:0:0:
143,120,21838,1,10,0:0:0:0:
355,42,22041,2,0,L|341:123,1,59.9999981689454
394,180,22243,2,2,L|517:161,1,119.999996337891,2|0,0:0|0:0,0:0:0:0:
230,302,22649,1,10,0:0:0:0:
222,248,22750,1,2,0:0:0:0:
169,239,22851,1,2,0:0:0:0:
143,286,22953,1,2,0:0:0:0:
181,325,23054,6,0,L|275:309,2,93.3333304850261,4|4|12,0:0|0:0|0:0,0:0:0:0:
483,151,23595,5,4,0:0:0:0:
401,61,23730,1,4,0:0:0:0:
353,172,23865,1,12,0:0:0:0:
12,112,24136,5,4,0:0:0:0:
94,202,24271,1,4,0:0:0:0:
142,91,24406,1,12,0:0:0:0:
263,112,24879,6,0,L|251:214,1,89.9999972534181,4|0,0:0|0:0,0:0:0:0:
57,222,25689,5,2,0:0:0:0:
60,236,25791,1,2,0:0:0:0:
63,250,25892,1,2,0:0:0:0:
66,264,25993,1,2,0:0:0:0:
69,278,26095,1,2,0:0:0:0:
399,356,26297,6,0,P|422:297|406:240,1,119.999996337891,6|0,0:0|0:0,0:0:0:0:
311,174,26601,1,8,0:0:0:0:
311,174,26703,2,0,L|327:306,1,119.999996337891,10|0,0:0|0:0,0:0:0:0:
308,322,27007,1,0,0:0:0:0:
308,322,27108,1,2,0:0:0:0:
146,203,27311,2,0,L|156:138,1,59.9999981689454,0|8,0:0|0:0,0:0:0:0:
151,46,27514,2,0,P|204:71|265:58,1,119.999996337891,10|0,0:0|0:0,0:0:0:0:
347,22,27818,1,0,0:0:0:0:
427,73,27919,6,0,L|443:207,1,119.999996337891,2|0,0:0|0:0,0:0:0:0:
445,227,28223,1,8,0:0:0:0:
445,227,28324,1,10,0:0:0:0:
291,318,28527,2,0,L|306:249,1,59.9999981689454
206,143,28730,1,10,0:0:0:0:
210,166,28831,1,8,0:0:0:0:
214,189,28933,1,8,0:0:0:0:
218,212,29034,1,8,0:0:0:0:
141,248,29135,1,10,0:0:0:0:
137,271,29236,1,8,0:0:0:0:
133,294,29338,1,10,0:0:0:0:
129,317,29439,1,8,0:0:0:0:
193,369,29541,5,6,0:0:0:0:
265,90,29743,2,0,P|227:67|203:64,1,59.9999981689454,0|8,0:0|0:0,0:0:0:0:
300,168,29946,2,0,L|435:153,1,119.999996337891,10|0,0:0|0:0,0:0:0:0:
447,165,30250,1,0,0:0:0:0:
447,165,30351,1,2,0:0:0:0:
125,231,30554,1,0,0:0:0:0:
125,231,30656,1,8,0:0:0:0:
125,231,30757,2,0,P|105:197|97:155,1,59.9999981689454,10|0,0:0|0:0,0:0:0:0:
232,262,30960,2,0,P|222:290|206:315,1,59.9999981689454
11,138,31162,6,0,P|69:90|136:92,1,119.999996337891,2|0,0:0|0:0,0:0:0:0:
146,93,31466,1,8,0:0:0:0:
146,93,31568,1,10,0:0:0:0:
311,124,31770,1,8,0:0:0:0:
307,147,31872,1,8,0:0:0:0:
303,170,31973,1,10,0:0:0:0:
299,193,32074,1,8,0:0:0:0:
296,212,32176,2,0,L|232:203,1,59.9999981689454,8|8,0:0|0:0,0:0:0:0:
371,291,32379,2,0,L|431:298,1,59.9999981689454,10|8,0:0|0:0,0:0:0:0:
261,312,32581,1,10,0:0:0:0:
224,329,32683,1,8,0:0:0:0:
195,356,32784,6,0,P|150:318|93:293,1,119.999996337891,6|0,0:0|0:0,0:0:0:0:
66,294,33088,1,8,0:0:0:0:
66,294,33189,1,10,0:0:0:0:
299,201,33392,2,0,P|337:189|364:172,1,59.9999981689454
223,119,33595,2,0,P|188:175|188:232,1,119.999996337891,2|0,0:0|0:0,0:0:0:0:
200,259,33899,1,8,0:0:0:0:
200,259,34000,1,10,0:0:0:0:
441,238,34203,1,0,0:0:0:0:
463,227,34304,1,0,0:0:0:0:
486,216,34406,6,0,L|465:90,1,119.999996337891,2|0,0:0|0:0,0:0:0:0:
387,20,34710,1,8,0:0:0:0:
387,20,34811,2,0,P|359:56|353:80,1,59.9999981689454,10|0,0:0|0:0,0:0:0:0:
315,198,35014,2,0,P|303:170|282:148,1,59.9999981689454
172,63,35216,1,10,0:0:0:0:
158,90,35318,1,8,0:0:0:0:
150,118,35419,1,8,0:0:0:0:
145,147,35520,1,8,0:0:0:0:
88,234,35622,1,10,0:0:0:0:
83,205,35723,1,8,0:0:0:0:
75,177,35824,1,10,0:0:0:0:
61,150,35926,1,8,0:0:0:0:
1,237,36027,5,6,0:0:0:0:
1,237,36230,2,0,L|15:323,1,59.9999981689454,0|8,0:0|0:0,0:0:0:0:
81,361,36433,2,0,P|147:321|203:316,1,119.999996337891,10|0,0:0|0:0,0:0:0:0:
337,313,36737,1,0,0:0:0:0:
337,313,36838,2,0,P|299:288|278:258,1,59.9999981689454,2|0,0:0|0:0,0:0:0:0:
152,225,37041,2,0,P|192:204|229:201,1,59.9999981689454,0|8,0:0|0:0,0:0:0:0:
323,110,37243,2,0,P|320:155|304:188,1,59.9999981689454,10|0,0:0|0:0,0:0:0:0:
213,98,37446,1,0,0:0:0:0:
485,52,37649,6,0,L|469:192,1,119.999996337891,2|0,0:0|0:0,0:0:0:0:
395,251,37953,1,8,0:0:0:0:
395,251,38054,2,0,B|401:190|348:182|323:110|323:110|326:186|302:199|269:243|318:299,1,359.999989013672,10|0,0:0|0:0,0:0:0:0:
109,60,38865,1,10,0:0:0:0:
136,100,38966,1,8,0:0:0:0:
106,140,39068,1,10,0:0:0:0:
59,123,39169,1,8,0:0:0:0:
60,73,39270,6,0,L|204:87,1,119.999996337891,6|0,0:0|0:0,0:0:0:0:
285,33,39574,1,8,0:0:0:0:
285,33,39676,2,0,L|300:109,1,59.9999981689454,10|0,0:0|0:0,0:0:0:0:
418,74,39879,2,0,L|378:222,1,119.999996337891,0|2,0:0|0:0,0:0:0:0:
101,322,40284,1,0,0:0:0:0:
101,322,40385,1,8,0:0:0:0:
101,322,40487,2,0,P|65:251|77:195,1,119.999996337891,10|0,0:0|0:0,0:0:0:0:
221,188,40791,5,0,0:0:0:0:
221,188,40892,2,0,P|191:221|158:231,1,59.9999981689454,6|0,0:0|0:0,0:0:0:0:
73,109,41095,2,0,P|116:118|141:142,1,59.9999981689454,0|8,0:0|0:0,0:0:0:0:
81,270,41297,2,0,P|67:227|75:193,1,59.9999981689454,10|0,0:0|0:0,0:0:0:0:
228,81,41500,1,0,0:0:0:0:
268,71,41601,1,0,0:0:0:0:
308,83,41703,1,10,0:0:0:0:
337,112,41804,1,8,0:0:0:0:
358,148,41906,1,8,0:0:0:0:
393,169,42007,1,8,0:0:0:0:
434,168,42108,1,10,0:0:0:0:
183,224,42311,6,0,P|150:240|123:265,1,59.9999981689454,10|8,0:0|0:0,0:0:0:0:
268,297,42514,2,0,L|404:278,1,119.999996337891,6|0,0:0|0:0,0:0:0:0:
48,305,42919,2,0,P|11:246|8:178,1,119.999996337891,10|0,0:0|0:0,0:0:0:0:
26,90,43223,1,0,0:0:0:0:
26,90,43324,2,0,B|152:65|120:177|247:152,1,239.999992675781,2|10,0:0|0:0,0:0:0:0:
481,44,43933,1,0,0:0:0:0:
481,44,44034,1,0,0:0:0:0:
481,44,44135,6,0,B|439:92|439:92|444:152,1,119.999996337891,6|0,0:0|0:0,0:0:0:0:
306,228,44439,1,8,0:0:0:0:
306,228,44540,2,0,B|348:180|348:180|343:120,1,119.999996337891,10|0,0:0|0:0,0:0:0:0:
206,55,44845,1,0,0:0:0:0:
206,55,44946,2,0,L|213:124,1,59.9999981689454,10|8,0:0|0:0,0:0:0:0:
220,257,45149,2,0,L|156:228,1,59.9999981689454,8|8,0:0|0:0,0:0:0:0:
35,169,45351,2,0,L|91:128,1,59.9999981689454,10|8,0:0|0:0,0:0:0:0:
306,184,45554,1,10,0:0:0:0:
323,188,45656,1,8,0:0:0:0:
340,192,45757,6,0,P|356:263|344:320,1,119.999996337891,6|0,0:0|0:0,0:0:0:0:
439,20,46162,2,0,P|385:43|343:86,1,119.999996337891,10|0,0:0|0:0,0:0:0:0:
250,140,46466,1,0,0:0:0:0:
250,140,46568,2,0,P|192:124|144:88,1,119.999996337891,2|0,0:0|0:0,0:0:0:0:
0,316,46973,2,0,P|53:278|112:266,1,119.999996337891,10|0,0:0|0:0,0:0:0:0:
215,211,47277,5,0,0:0:0:0:
215,211,47379,2,0,L|202:349,1,119.999996337891,6|0,0:0|0:0,0:0:0:0:
206,355,47683,1,8,0:0:0:0:
206,355,47784,1,10,0:0:0:0:
408,270,47987,2,0,P|368:293|339:299,1,59.9999981689454
309,211,48189,1,10,0:0:0:0:
313,187,48291,1,8,0:0:0:0:
318,163,48392,1,8,0:0:0:0:
323,139,48493,1,8,0:0:0:0:
235,135,48595,1,10,0:0:0:0:
231,111,48697,1,8,0:0:0:0:
226,87,48798,1,10,0:0:0:0:
221,63,48899,1,8,0:0:0:0:
141,99,49000,6,2,L|118:229,1,119.999996337891,6|0,0:0|0:0,0:0:0:0:
105,304,49304,1,8,0:0:0:0:
30,256,49406,2,0,P|22:218|29:182,2,59.9999981689454,10|0|0,0:0|0:0|0:0,0:0:0:0:
37,369,49710,2,2,P|111:318|215:321,1,179.999994506836,0|0,0:0|0:0,0:0:0:0:
288,363,50115,1,8,0:0:0:0:
288,363,50216,2,2,P|360:375|406:354,1,119.999996337891,10|0,0:0|0:0,0:0:0:0:
474,285,50520,5,0,0:0:0:0:
474,285,50622,2,2,L|455:102,2,179.999994506836,6|8|0,0:0|0:0|0:0,0:0:0:0:
308,21,51433,2,2,P|293:99|271:137,1,119.999996337891,2|0,0:0|0:0,0:0:0:0:
203,217,51737,1,8,0:0:0:0:
203,217,51838,2,0,P|170:178|165:159,1,59.9999981689454,10|0,0:0|0:0,0:0:0:0:
311,227,52041,2,0,L|305:308,1,59.9999981689454
198,333,52243,6,2,L|71:315,1,119.999996337891,6|0,0:0|0:0,0:0:0:0:
314,113,52648,1,10,0:0:0:0:
355,105,52750,1,0,0:0:0:0:
394,119,52851,1,0,0:0:0:0:
420,151,52952,2,2,P|332:90|326:9,1,179.999994506836,0|0,0:0|0:0,0:0:0:0:
237,96,53358,1,8,0:0:0:0:
237,96,53460,2,2,P|216:171|187:205,1,119.999996337891,10|0,0:0|0:0,0:0:0:0:
88,272,53764,5,0,0:0:0:0:
88,272,53865,2,2,L|67:147,1,119.999996337891,6|0,0:0|0:0,0:0:0:0:
19,68,54169,2,2,P|101:61|133:80,1,119.999996337891,8|0,0:0|0:0,0:0:0:0:
170,163,54473,1,0,0:0:0:0:
282,73,54676,1,10,0:0:0:0:
287,96,54777,1,8,0:0:0:0:
292,119,54879,1,8,0:0:0:0:
297,142,54980,1,0,0:0:0:0:
382,159,55081,1,10,0:0:0:0:
377,182,55182,1,8,0:0:0:0:
372,205,55284,1,10,0:0:0:0:
367,228,55385,1,8,0:0:0:0:
435,283,55487,5,6,0:0:0:0:
435,283,55689,2,0,P|470:254|486:232,1,59.9999981689454,0|8,0:0|0:0,0:0:0:0:
351,313,55892,2,0,P|273:299|209:307,1,119.999996337891,2|0,0:0|0:0,0:0:0:0:
206,317,56196,1,0,0:0:0:0:
206,317,56297,1,2,0:0:0:0:
25,234,56500,1,0,0:0:0:0:
52,246,56601,1,8,0:0:0:0:
82,248,56703,2,0,P|137:228|186:182,1,119.999996337891,10|0,0:0|0:0,0:0:0:0:
386,32,57108,6,0,L|372:163,1,119.999996337891,2|0,0:0|0:0,0:0:0:0:
296,111,57412,1,8,0:0:0:0:
296,111,57514,2,0,P|252:78|230:73,1,59.9999981689454,10|0,0:0|0:0,0:0:0:0:
449,175,57716,2,0,P|475:161|496:140,1,59.9999981689454
332,217,57919,2,0,P|324:278|352:333,1,119.999996337891,10|8,0:0|0:0,0:0:0:0:
372,345,58223,1,8,0:0:0:0:
372,345,58324,1,10,0:0:0:0:
86,238,58527,2,0,L|23:226,1,59.9999981689454,10|8,0:0|0:0,0:0:0:0:
108,322,58730,6,0,P|178:305|233:268,1,119.999996337891,6|0,0:0|0:0,0:0:0:0:
257,196,59034,1,8,0:0:0:0:
257,196,59135,2,0,L|246:132,1,59.9999981689454,10|0,0:0|0:0,0:0:0:0:
355,42,59338,2,0,L|344:101,1,59.9999981689454
157,100,59541,2,0,L|30:74,1,119.999996337891,2|0,0:0|0:0,0:0:0:0:
14,71,59845,1,8,0:0:0:0:
14,71,59946,1,10,0:0:0:0:
21,304,60149,1,0,0:0:0:0:
50,301,60250,1,0,0:0:0:0:
77,288,60351,6,0,P|104:253|119:169,1,119.999996337891,2|0,0:0|0:0,0:0:0:0:
202,86,60656,1,8,0:0:0:0:
202,86,60757,2,0,L|219:218,1,119.999996337891,10|0,0:0|0:0,0:0:0:0:
272,298,61061,1,0,0:0:0:0:
272,298,61162,2,0,L|351:289,1,59.9999981689454,10|8,0:0|0:0,0:0:0:0:
462,208,61365,2,0,L|383:217,1,59.9999981689454,8|8,0:0|0:0,0:0:0:0:
312,155,61568,2,0,L|296:35,1,119.999996337891,10|10,0:0|0:0,0:0:0:0:
434,24,61872,5,0,0:0:0:0:
434,24,61973,2,0,P|423:96|392:137,1,119.999996337891,6|0,0:0|0:0,0:0:0:0:
307,240,62277,1,8,0:0:0:0:
307,240,62379,2,0,P|233:208|177:209,1,119.999996337891,10|0,0:0|0:0,0:0:0:0:
163,216,62683,1,0,0:0:0:0:
163,216,62784,1,2,0:0:0:0:
58,42,62987,2,0,P|36:89|38:115,1,59.9999981689454,0|8,0:0|0:0,0:0:0:0:
152,35,63189,2,0,P|188:83|245:113,1,119.999996337891,10|0,0:0|0:0,0:0:0:0:
302,35,63493,5,0,0:0:0:0:
302,35,63595,2,0,P|376:42|437:22,1,119.999996337891,2|0,0:0|0:0,0:0:0:0:
500,96,63899,1,8,0:0:0:0:
500,96,64000,2,0,L|478:177,1,59.9999981689454,10|0,0:0|0:0,0:0:0:0:
393,193,64203,2,0,L|415:274,1,59.9999981689454
468,334,64406,2,0,L|334:323,1,119.999996337891,10|8,0:0|0:0,0:0:0:0:
203,258,64710,1,8,0:0:0:0:
203,258,64811,2,0,L|337:247,1,119.999996337891,10|10,0:0|0:0,0:0:0:0:
114,185,65115,5,8,0:0:0:0:
114,185,65216,2,0,P|88:246|99:302,1,119.999996337891,6|0,0:0|0:0,0:0:0:0:
114,321,65520,1,8,0:0:0:0:
114,321,65622,1,10,0:0:0:0:
294,121,65824,2,0,L|274:52,1,59.9999981689454
399,99,66027,2,0,L|372:222,1,119.999996337891,2|0,0:0|0:0,0:0:0:0:
370,245,66331,1,8,0:0:0:0:
370,245,66433,1,10,0:0:0:0:
205,173,66635,1,0,0:0:0:0:
213,202,66737,1,0,0:0:0:0:
221,230,66838,6,0,L|254:349,1,119.999996337891,2|0,0:0|0:0,0:0:0:0:
163,335,67142,1,8,0:0:0:0:
163,335,67243,2,0,L|83:323,1,59.9999981689454,10|0,0:0|0:0,0:0:0:0:
316,280,67446,2,0,L|396:268,1,59.9999981689454
475,167,67649,1,10,0:0:0:0:
457,150,67750,1,8,0:0:0:0:
437,136,67851,1,8,0:0:0:0:
416,123,67953,1,8,0:0:0:0:
341,159,68054,1,10,0:0:0:0:
323,176,68155,1,8,0:0:0:0:
303,190,68256,1,10,0:0:0:0:
282,203,68358,1,8,0:0:0:0:
213,156,68460,5,6,0:0:0:0:
213,156,68662,2,0,P|192:106|190:78,1,59.9999981689454,0|8,0:0|0:0,0:0:0:0:
107,26,68865,2,0,P|94:110|71:153,1,119.999996337891,10|0,0:0|0:0,0:0:0:0:
66,163,69169,1,0,0:0:0:0:
66,163,69270,1,2,0:0:0:0:
257,46,69473,1,0,0:0:0:0:
284,34,69574,1,8,0:0:0:0:
313,29,69676,2,0,P|393:36|435:67,1,119.999996337891,10|0,0:0|0:0,0:0:0:0:
484,146,69980,5,0,0:0:0:0:
484,146,70081,2,0,L|473:227,1,59.9999981689454,6|0,0:0|0:0,0:0:0:0:
317,146,70284,2,0,L|398:157,1,59.9999981689454,0|8,0:0|0:0,0:0:0:0:
329,257,70487,2,0,L|196:239,1,119.999996337891,10|0,0:0|0:0,0:0:0:0:
171,145,70791,1,0,0:0:0:0:
147,163,70892,1,10,0:0:0:0:
124,182,70993,1,8,0:0:0:0:
105,205,71095,1,8,0:0:0:0:
88,229,71196,1,8,0:0:0:0:
73,254,71297,1,10,0:0:0:0:
70,223,71399,1,8,0:0:0:0:
59,194,71500,1,10,0:0:0:0:
45,167,71601,1,8,0:0:0:0:
28,141,71703,1,6,0:0:0:0:
3,328,71906,5,0,0:0:0:0:
3,328,72007,1,8,0:0:0:0:
3,328,72108,2,0,P|72:356|134:338,1,119.999996337891,10|0,0:0|0:0,0:0:0:0:
207,274,72412,1,0,0:0:0:0:
207,274,72514,2,0,L|231:341,1,59.9999981689454,2|0,0:0|0:0,0:0:0:0:
311,273,72716,2,0,L|331:216,1,59.9999981689454,0|8,0:0|0:0,0:0:0:0:
236,165,72919,1,10,0:0:0:0:
375,351,73122,1,0,0:0:0:0:
404,353,73223,1,0,0:0:0:0:
432,344,73324,6,0,P|457:291|450:224,1,119.999996337891,6|0,0:0|0:0,0:0:0:0:
512,156,73629,1,8,0:0:0:0:
512,156,73730,2,0,P|487:102|431:65,1,119.999996337891,10|0,0:0|0:0,0:0:0:0:
361,11,74034,1,0,0:0:0:0:
361,11,74135,2,0,P|307:36|293:52,1,59.9999981689454,10|8,0:0|0:0,0:0:0:0:
227,100,74338,2,0,P|275:134|296:138,1,59.9999981689454,8|8,0:0|0:0,0:0:0:0:
172,18,74541,1,10,0:0:0:0:
136,19,74642,1,8,0:0:0:0:
103,33,74743,1,10,0:0:0:0:
79,60,74845,1,8,0:0:0:0:
65,93,74946,6,0,L|78:218,1,119.999996337891,6|0,0:0|0:0,0:0:0:0:
84,247,75250,1,8,0:0:0:0:
84,247,75351,1,10,0:0:0:0:
196,333,75554,1,0,0:0:0:0:
196,333,75656,1,0,0:0:0:0:
196,333,75757,2,0,P|219:270|211:208,1,119.999996337891,10|8,0:0|0:0,0:0:0:0:
305,125,76061,1,8,0:0:0:0:
305,125,76162,2,0,P|301:184|323:239,1,119.999996337891,10|10,0:0|0:0,0:0:0:0:
442,241,76466,5,2,0:0:0:0:
442,241,76568,2,0,B|480:181|480:181|472:108,1,139.999995727539,6|0,0:0|0:0,0:0:0:0:
270,65,76872,6,0,B|302:127|302:127|370:157,1,139.999995727539,6|0,0:0|0:0,0:0:0:0:
504,8,77176,6,0,B|441:5|441:5|388:43,1,127.50000243187,6|0,0:0|0:0,0:0:0:0:
372,57,77379,1,6,0:0:0:0:
190,343,77784,5,2,0:0:0:0:
211,307,77885,1,2,0:0:0:0:
211,264,77987,1,2,0:0:0:0:
191,227,78088,1,2,0:0:0:0:
155,200,78189,6,0,P|67:204|19:253,1,150.000005722046,6|0,0:0|0:0,0:0:0:0:
33,336,78493,1,8,0:0:0:0:
118,372,78595,2,0,P|125:312|112:284,1,75.0000028610231,10|0,0:0|0:0,0:0:0:0:
152,127,78797,2,0,P|145:164|155:200,1,75.0000028610231
256,258,79000,2,0,L|415:237,1,150.000005722046,2|0,0:0|0:0,0:0:0:0:
482,162,79304,1,8,0:0:0:0:
394,101,79406,2,0,L|301:90,1,75.0000028610231,10|0,0:0|0:0,0:0:0:0:
228,35,79608,2,0,L|217:128,1,75.0000028610231,2|0,0:0|0:0,0:0:0:0:
89,96,79811,6,0,P|135:180|150:244,1,150.000005722046,6|0,0:0|0:0,0:0:0:0:
167,364,80115,1,8,0:0:0:0:
31,344,80216,2,0,P|78:313|116:308,1,75.0000028610231,10|0,0:0|0:0,0:0:0:0:
230,290,80419,2,0,P|258:313|294:325,1,75.0000028610231
390,357,80622,2,0,P|464:320|506:265,1,150.000005722046,2|0,0:0|0:0,0:0:0:0:
481,147,80926,1,8,0:0:0:0:
336,211,81027,2,0,L|416:226,1,75.0000028610231,10|0,0:0|0:0,0:0:0:0:
271,138,81230,2,0,L|197:151,1,75.0000028610231,2|0,0:0|0:0,0:0:0:0:
73,221,81433,6,0,L|221:247,1,150.000005722046,6|0,0:0|0:0,0:0:0:0:
308,302,81737,1,8,0:0:0:0:
218,348,81838,2,0,L|128:365,1,75.0000028610231,10|0,0:0|0:0,0:0:0:0:
308,302,82041,2,0,L|398:319,1,75.0000028610231
483,366,82243,2,0,P|513:281|502:204,1,150.000005722046,2|0,0:0|0:0,0:0:0:0:
445,131,82547,1,8,0:0:0:0:
401,230,82649,2,0,P|342:161|270:132,1,150.000005722046,10|2,0:0|0:0,0:0:0:0:
180,132,82953,1,0,0:0:0:0:
230,226,83054,6,0,P|141:242|80:290,1,150.000005722046,6|0,0:0|0:0,0:0:0:0:
0,223,83358,1,8,0:0:0:0:
77,151,83460,2,0,P|87:103|76:63,1,75.0000028610231,10|0,0:0|0:0,0:0:0:0:
186,7,83662,2,0,P|181:44|191:79,1,75.0000028610231
365,163,83865,1,10,0:0:0:0:
395,120,83966,1,8,0:0:0:0:
391,67,84068,1,8,0:0:0:0:
350,34,84169,1,8,0:0:0:0:
298,39,84270,1,10,0:0:0:0:
270,84,84372,1,8,0:0:0:0:
272,136,84473,1,10,0:0:0:0:
254,185,84574,1,10,0:0:0:0:
216,213,84676,6,0,L|58:183,1,150.000005722046,6|0,0:0|0:0,0:0:0:0:
0,262,84980,1,8,0:0:0:0:
97,307,85081,2,0,P|109:338|109:385,1,75.0000028610231,10|0,0:0|0:0,0:0:0:0:
203,285,85284,2,0,P|203:248|216:213,1,75.0000028610231
169,90,85487,2,0,P|285:102|330:146,1,150.000005722046,2|0,0:0|0:0,0:0:0:0:
366,205,85791,1,8,0:0:0:0:
450,130,85892,2,0,L|463:45,1,75.0000028610231,10|0,0:0|0:0,0:0:0:0:
366,205,86095,2,0,L|377:279,1,75.0000028610231,2|0,0:0|0:0,0:0:0:0:
290,346,86297,6,0,B|208:361|228:290|147:305,1,150.000005722046,6|0,0:0|0:0,0:0:0:0:
30,325,86601,1,8,0:0:0:0:
83,237,86703,2,0,P|89:171|83:149,1,75.0000028610231,10|0,0:0|0:0,0:0:0:0:
78,41,86906,2,0,P|132:79|154:84,1,75.0000028610231
326,134,87108,2,0,P|250:135|178:179,1,150.000005722046,2|0,0:0|0:0,0:0:0:0:
358,236,87412,1,8,0:0:0:0:
435,160,87514,2,0,P|456:107|451:69,1,75.0000028610231,10|0,0:0|0:0,0:0:0:0:
358,236,87716,2,0,P|361:273|378:306,1,75.0000028610231,2|0,0:0|0:0,0:0:0:0:
254,343,87919,6,0,L|97:317,1,150.000005722046,6|0,0:0|0:0,0:0:0:0:
25,252,88223,1,8,0:0:0:0:
90,165,88324,2,0,P|170:187|213:245,1,150.000005722046,10|0,0:0|0:0,0:0:0:0:
285,158,88629,1,0,0:0:0:0:
312,257,88730,2,0,P|374:269|410:258,1,75.0000028610231,2|0,0:0|0:0,0:0:0:0:
463,147,88933,2,0,L|380:162,1,75.0000028610231,0|8,0:0|0:0,0:0:0:0:
218,135,89135,2,0,P|293:103|345:48,1,150.000005722046,10|2,0:0|0:0,0:0:0:0:
142,68,89439,1,0,0:0:0:0:
67,145,89541,6,0,L|94:306,1,150.000005722046,6|0,0:0|0:0,0:0:0:0:
186,240,89845,1,8,0:0:0:0:
264,301,89946,2,0,L|257:390,1,75.0000028610231,10|0,0:0|0:0,0:0:0:0:
361,229,90149,2,0,L|368:318,1,75.0000028610231
386,141,90351,1,10,0:0:0:0:
369,115,90453,1,8,0:0:0:0:
359,86,90554,1,10,0:0:0:0:
354,56,90656,1,8,0:0:0:0:
278,12,90757,1,10,0:0:0:0:
273,41,90858,1,8,0:0:0:0:
262,69,90960,1,10,0:0:0:0:
243,92,91061,1,10,0:0:0:0:
151,87,91162,6,0,L|104:250,1,150.000005722046,6|0,0:0|0:0,0:0:0:0:
236,207,91466,1,8,0:0:0:0:
236,207,91568,2,0,L|247:376,1,150.000005722046,10|0,0:0|0:0,0:0:0:0:
345,243,91872,1,0,0:0:0:0:
345,243,91973,2,0,L|371:317,1,75.0000028610231,2|0,0:0|0:0,0:0:0:0:
409,149,92176,2,0,L|453:213,1,75.0000028610231,0|8,0:0|0:0,0:0:0:0:
316,43,92379,2,0,L|325:125,1,75.0000028610231,10|0,0:0|0:0,0:0:0:0:
219,101,92581,1,2,0:0:0:0:
219,101,92683,1,0,0:0:0:0:
219,101,92784,6,0,L|197:256,1,150.000005722046,6|0,0:0|0:0,0:0:0:0:
113,139,93088,1,8,0:0:0:0:
113,139,93189,2,0,L|83:213,1,75.0000028610231,10|0,0:0|0:0,0:0:0:0:
54,45,93392,2,0,L|5:108,1,75.0000028610231
174,17,93595,1,10,0:0:0:0:
183,45,93696,1,8,0:0:0:0:
192,73,93797,1,8,0:0:0:0:
201,101,93899,1,8,0:0:0:0:
291,119,94000,1,10,0:0:0:0:
282,147,94101,1,8,0:0:0:0:
273,175,94202,1,10,0:0:0:0:
264,203,94304,1,10,0:0:0:0:
181,252,94406,6,0,P|240:296|324:280,1,150.000005722046,6|0,0:0|0:0,0:0:0:0:
407,343,94710,1,8,0:0:0:0:
407,343,94811,2,0,P|430:284|426:255,1,75.0000028610231,10|0,0:0|0:0,0:0:0:0:
502,200,95014,2,0,P|471:144|446:128,1,75.0000028610231
358,18,95216,2,0,P|280:30|228:86,1,150.000005722046,6|0,0:0|0:0,0:0:0:0:
167,166,95520,1,8,0:0:0:0:
167,166,95622,2,0,P|247:186|277:174,1,75.0000028610231,10|0,0:0|0:0,0:0:0:0:
288,288,95824,2,0,P|319:267|339:236,1,75.0000028610231,2|0,0:0|0:0,0:0:0:0:
155,358,96027,6,0,P|57:354|17:313,1,150.000005722046,6|0,0:0|0:0,0:0:0:0:
121,236,96331,1,8,0:0:0:0:
121,236,96433,2,0,P|97:175|97:140,1,75.0000028610231,10|0,0:0|0:0,0:0:0:0:
213,177,96635,2,0,P|244:119|271:96,1,75.0000028610231
323,198,96838,2,0,P|429:215|476:269,1,150.000005722046,10|8,0:0|0:0,0:0:0:0:
340,331,97142,1,8,0:0:0:0:
304,342,97243,1,10,0:0:0:0:
266,340,97345,1,8,0:0:0:0:
232,324,97446,1,10,0:0:0:0:
204,298,97547,1,10,0:0:0:0:
191,262,97649,6,0,B|127:222|127:222|55:239,1,150.000005722046,6|0,0:0|0:0,0:0:0:0:
152,100,97953,1,8,0:0:0:0:
152,100,98054,2,0,B|188:109|188:109|208:143,1,75.0000028610231,10|0,0:0|0:0,0:0:0:0:
318,131,98257,2,0,B|337:97|337:97|327:61,1,75.0000028610231
510,170,98460,2,0,B|457:221|457:221|381:220,1,150.000005722046,2|8,0:0|0:0,0:0:0:0:
268,227,98764,1,8,0:0:0:0:
271,249,98865,1,10,0:0:0:0:
274,271,98966,1,8,0:0:0:0:
278,293,99068,1,10,0:0:0:0:
282,315,99169,1,10,0:0:0:0:
285,337,99270,6,0,P|377:365|418:258,1,225.000008583069,6|0,0:0|0:0,0:0:0:0:
349,291,99676,1,2,0:0:0:0:
375,112,99879,6,0,P|353:18|240:36,1,225.000008583069,4|0,0:0|0:0,0:0:0:0:
303,79,100285,1,2,0:0:0:0:
115,144,100487,6,0,P|45:210|117:299,1,225.000008583069,4|0,0:0|0:0,0:0:0:0:
123,223,100892,6,0,P|176:203|249:202,1,129.999994049073,6|0,0:0|0:0,0:0:0:0:
280,212,101196,1,8,0:0:0:0:
280,212,101297,1,10,0:0:0:0:
428,52,101500,1,0,0:0:0:0:
428,52,101601,1,0,0:0:0:0:
428,52,101703,2,2,B|292:26|326:145|190:119,1,259.999988098145,6|10,0:0|0:0,0:0:0:0:
405,149,102311,1,2,0:0:0:0:
405,149,102412,1,2,0:0:0:0:
405,149,102514,6,2,L|422:303,1,129.999994049073,6|0,0:0|0:0,0:0:0:0:
426,309,102818,1,8,0:0:0:0:
426,309,102919,1,10,0:0:0:0:
282,343,103122,1,0,0:0:0:0:
282,343,103223,1,0,0:0:0:0:
282,343,103324,2,0,P|254:279|251:263,1,64.9999970245363,2|0,0:0|0:0,0:0:0:0:
188,184,103527,2,0,P|177:214|161:242,1,64.9999970245363,0|8,0:0|0:0,0:0:0:0:
78,290,103730,1,10,0:0:0:0:
55,58,103933,1,2,0:0:0:0:
77,45,104034,1,2,0:0:0:0:
101,36,104135,6,2,P|173:26|236:39,1,129.999994049073,6|0,0:0|0:0,0:0:0:0:
387,58,104439,1,8,0:0:0:0:
387,58,104541,2,2,P|318:86|274:134,1,129.999994049073,14|0,0:0|0:0,0:0:0:0:
146,152,104845,1,0,0:0:0:0:
146,152,104946,2,2,P|199:216|218:274,1,129.999994049073,6|0,0:0|0:0,0:0:0:0:
327,255,105250,1,8,0:0:0:0:
327,255,105351,2,2,P|316:352|322:398,1,129.999994049073,14|0,0:0|0:0,0:0:0:0:
471,216,105757,6,2,B|396:165|390:77|390:77|358:119|305:135|305:135|270:86|201:79,1,389.999982147218,6|0,0:0|0:0,0:0:0:0:
81,78,106466,1,0,0:0:0:0:
81,78,106568,2,2,L|111:212,1,129.999994049073,6|0,0:0|0:0,0:0:0:0:
118,235,106872,1,8,0:0:0:0:
118,235,106973,1,10,0:0:0:0:
7,181,107176,1,2,0:0:0:0:
354,191,107379,6,2,P|299:264|288:322,1,129.999994049073,6|0,0:0|0:0,0:0:0:0:
389,350,107683,1,8,0:0:0:0:
389,350,107784,2,2,P|449:337|490:307,2,86.6666626993817,10|0|0,0:0|0:0|0:0,0:0:0:0:
256,169,108189,2,2,L|255:78,2,86.6666626993817,2|0|0,0:0|0:0|0:0,0:0:0:0:
129,267,108595,1,10,0:0:0:0:
149,182,108730,1,0,0:0:0:0:
66,207,108865,1,0,0:0:0:0:
220,245,109000,6,2,L|307:241,2,86.6666626993817,6|0|0,0:0|0:0|0:0,0:0:0:0:
310,356,109406,1,10,0:0:0:0:
393,377,109541,1,0,0:0:0:0:
454,316,109676,1,0,0:0:0:0:
427,232,109811,2,2,P|401:162|409:102,1,129.999994049073,2|0,0:0|0:0,0:0:0:0:
421,82,110115,1,8,0:0:0:0:
421,82,110216,1,10,0:0:0:0:
284,34,110419,1,2,0:0:0:0:
291,51,110520,1,2,0:0:0:0:
298,68,110622,6,2,L|280:132,1,64.9999970245363,6|0,0:0|0:0,0:0:0:0:
329,223,110824,2,2,B|241:258|140:214|191:92|90:49|3:84,1,389.999982147218,0|2,0:0|0:0,0:0:0:0:
5,214,111635,6,0,L|-1:284,1,64.9999970245363,8|8,0:0|0:0,0:0:0:0:
48,352,111838,1,10,0:0:0:0:
65,344,111939,1,8,0:0:0:0:
81,333,112041,1,10,0:0:0:0:
96,321,112142,1,10,0:0:0:0:
108,306,112243,2,2,P|126:269|131:236,1,64.9999970245363,6|0,0:0|0:0,0:0:0:0:
204,108,112446,2,2,P|211:139|226:168,1,64.9999970245363,0|8,0:0|0:0,0:0:0:0:
308,273,112649,5,10,0:0:0:0:
326,278,112750,1,0,0:0:0:0:
345,279,112851,1,0,0:0:0:0:
364,277,112953,1,0,0:0:0:0:
378,273,113054,2,2,L|440:249,1,64.9999970245363,2|0,0:0|0:0,0:0:0:0:
512,162,113257,2,2,L|444:137,1,64.9999970245363,0|8,0:0|0:0,0:0:0:0:
322,55,113460,5,10,0:0:0:0:
295,99,113561,1,8,0:0:0:0:
248,122,113662,1,10,0:0:0:0:
195,126,113764,1,10,0:0:0:0:
146,107,113865,1,14,0:0:0:0:
256,192,113966,12,0,117108,0:0:0:0:
91,65,120351,6,0,L|78:195,1,119.999996337891,6|0,0:0|0:0,0:0:0:0:
134,270,120656,1,8,0:0:0:0:
134,270,120757,2,0,P|220:254|253:232,1,119.999996337891,10|0,0:0|0:0,0:0:0:0:
331,166,121061,1,0,0:0:0:0:
331,166,121162,2,0,L|356:297,1,119.999996337891,2|0,0:0|0:0,0:0:0:0:
362,313,121466,1,8,0:0:0:0:
362,313,121568,1,10,0:0:0:0:
434,92,121770,1,0,0:0:0:0:
434,92,121872,1,0,0:0:0:0:
434,92,121973,6,0,P|367:38|322:39,1,119.999996337891,6|0,0:0|0:0,0:0:0:0:
216,23,122277,1,8,0:0:0:0:
216,23,122379,2,0,L|239:153,1,119.999996337891,10|0,0:0|0:0,0:0:0:0:
179,214,122683,1,0,0:0:0:0:
179,214,122784,2,0,P|143:242|118:251,1,59.9999981689454,10|8,0:0|0:0,0:0:0:0:
141,122,122987,2,0,P|96:112|73:99,1,59.9999981689454,8|8,0:0|0:0,0:0:0:0:
379,198,123189,2,0,P|407:233|415:258,1,59.9999981689454,10|8,0:0|0:0,0:0:0:0:
286,235,123392,2,0,P|276:279|263:302,1,59.9999981689454,10|8,0:0|0:0,0:0:0:0:
291,126,123595,6,0,P|345:91|402:87,1,119.999996337891,6|0,0:0|0:0,0:0:0:0:
431,94,123899,1,8,0:0:0:0:
431,94,124000,1,10,0:0:0:0:
178,294,124203,1,0,0:0:0:0:
178,294,124304,1,0,0:0:0:0:
178,294,124406,2,0,L|46:273,1,119.999996337891,2|0,0:0|0:0,0:0:0:0:
20,196,124710,1,8,0:0:0:0:
20,196,124811,2,0,P|5:140|8:117,1,59.9999981689454,10|0,0:0|0:0,0:0:0:0:
99,36,125014,2,0,L|85:117,1,59.9999981689454
172,165,125216,6,0,P|242:145|278:104,1,119.999996337891,6|0,0:0|0:0,0:0:0:0:
286,84,125520,1,8,0:0:0:0:
286,84,125622,1,10,0:0:0:0:
328,236,125824,2,0,L|347:311,1,59.9999981689454
417,175,126027,2,0,L|431:116,1,59.9999981689454,10|8,0:0|0:0,0:0:0:0:
337,11,126230,1,8,0:0:0:0:
316,32,126331,1,8,0:0:0:0:
299,57,126433,1,10,0:0:0:0:
286,84,126534,1,8,0:0:0:0:
277,112,126635,1,10,0:0:0:0:
270,141,126737,1,8,0:0:0:0:
266,170,126838,5,6,0:0:0:0:
185,65,127041,2,0,P|168:47|132:23,1,59.9999981689454,0|8,0:0|0:0,0:0:0:0:
50,88,127243,2,0,L|67:232,1,119.999996337891,10|0,0:0|0:0,0:0:0:0:
55,236,127547,1,0,0:0:0:0:
55,236,127649,1,2,0:0:0:0:
135,348,127851,1,0,0:0:0:0:
135,348,127953,1,8,0:0:0:0:
135,348,128054,2,8,P|196:316|258:317,1,119.999996337891,10|0,0:0|0:0,0:0:0:0:
373,346,128358,5,0,0:0:0:0:
373,346,128460,2,0,P|345:303|336:273,1,59.9999981689454,6|0,0:0|0:0,0:0:0:0:
444,164,128662,2,0,P|431:191|412:214,1,59.9999981689454,0|8,0:0|0:0,0:0:0:0:
307,192,128865,2,0,L|284:66,1,119.999996337891,10|0,0:0|0:0,0:0:0:0:
281,46,129169,1,0,0:0:0:0:
281,46,129270,1,10,0:0:0:0:
120,111,129473,1,8,0:0:0:0:
120,111,129574,1,8,0:0:0:0:
120,111,129676,2,0,L|191:125,1,59.9999981689454,10|8,0:0|0:0,0:0:0:0:
61,201,129879,2,0,L|-10:215,1,59.9999981689454,10|8,0:0|0:0,0:0:0:0:
126,280,130081,6,0,P|192:263|248:267,1,119.999996337891,6|0,0:0|0:0,0:0:0:0:
349,215,130385,1,8,0:0:0:0:
349,215,130487,2,0,L|330:349,1,119.999996337891,10|0,0:0|0:0,0:0:0:0:
256,174,130791,1,0,0:0:0:0:
256,174,130893,2,0,L|237:40,1,119.999996337891,2|0,0:0|0:0,0:0:0:0:
237,26,131196,1,8,0:0:0:0:
237,26,131297,1,10,0:0:0:0:
465,71,131500,1,0,0:0:0:0:
465,71,131601,1,0,0:0:0:0:
465,71,131703,6,0,P|416:123|362:147,1,119.999996337891,6|0,0:0|0:0,0:0:0:0:
301,208,132007,1,8,0:0:0:0:
301,208,132108,2,0,P|221:179|179:181,1,119.999996337891,10|0,0:0|0:0,0:0:0:0:
95,120,132412,1,0,0:0:0:0:
95,120,132514,2,0,P|77:173|78:196,1,59.9999981689454,10|8,0:0|0:0,0:0:0:0:
158,327,132716,2,0,P|152:297|139:270,1,59.9999981689454,8|8,0:0|0:0,0:0:0:0:
29,281,132919,1,10,0:0:0:0:
270,358,133122,1,10,0:0:0:0:
270,358,133223,1,8,0:0:0:0:
270,358,133324,6,0,L|401:331,1,119.999996337891,6|0,0:0|0:0,0:0:0:0:
420,344,133629,1,8,0:0:0:0:
420,344,133730,1,10,0:0:0:0:
287,202,133933,5,0,0:0:0:0:
440,110,134135,1,10,0:0:0:0:
437,133,134237,1,8,0:0:0:0:
434,156,134338,1,8,0:0:0:0:
431,179,134439,1,8,0:0:0:0:
428,202,134541,1,10,0:0:0:0:
308,84,134743,2,0,P|280:60|242:41,1,59.9999981689454,10|10,0:0|0:0,0:0:0:0:
58,171,134946,6,0,P|110:216|179:220,1,139.999995727539,6|0,0:0|0:0,0:0:0:0:
264,293,135250,6,0,P|275:225|245:164,1,139.999995727539,6|0,0:0|0:0,0:0:0:0:
261,49,135554,6,0,P|196:71|161:127,1,127.50000243187,6|0,0:0|0:0,0:0:0:0:
161,139,135757,1,6,0:0:0:0:
437,338,136162,5,2,0:0:0:0:
442,303,136264,1,2,0:0:0:0:
447,268,136365,1,2,0:0:0:0:
452,233,136466,1,2,0:0:0:0:
457,199,136568,6,0,P|387:154|301:180,1,150.000005722046,6|0,0:0|0:0,0:0:0:0:
270,260,136872,1,8,0:0:0:0:
362,317,136973,2,0,L|375:233,1,75.0000028610231,10|0,0:0|0:0,0:0:0:0:
212,99,137176,2,0,L|223:173,1,75.0000028610231
237,339,137379,2,0,L|67:319,1,150.000005722046,2|0,0:0|0:0,0:0:0:0:
13,236,137683,1,8,0:0:0:0:
85,143,137784,2,0,P|121:190|127:215,1,75.0000028610231,10|0,0:0|0:0,0:0:0:0:
212,99,137987,2,0,P|226:64|252:37,1,75.0000028610231,2|0,0:0|0:0,0:0:0:0:
356,82,138189,6,0,L|373:247,1,150.000005722046,6|0,0:0|0:0,0:0:0:0:
472,173,138493,1,8,0:0:0:0:
477,280,138595,2,0,L|472:362,1,75.0000028610231,10|0,0:0|0:0,0:0:0:0:
297,347,138797,2,0,L|381:338,1,75.0000028610231
256,243,139000,2,0,P|200:203|161:122,1,150.000005722046,2|0,0:0|0:0,0:0:0:0:
160,24,139304,1,8,0:0:0:0:
62,82,139406,2,0,L|43:243,1,150.000005722046,10|2,0:0|0:0,0:0:0:0:
96,317,139710,1,0,0:0:0:0:
174,248,139811,6,0,P|266:263|316:312,1,150.000005722046,6|0,0:0|0:0,0:0:0:0:
379,220,140115,1,8,0:0:0:0:
444,298,140216,2,0,P|437:358|427:380,1,75.0000028610231,10|0,0:0|0:0,0:0:0:0:
374,214,140419,2,0,P|362:178|361:140,1,75.0000028610231
360,39,140622,2,0,B|281:39|301:90|223:91,1,150.000005722046,2|0,0:0|0:0,0:0:0:0:
96,212,140926,1,8,0:0:0:0:
89,126,141027,2,0,B|167:126|147:177|225:178,1,150.000005722046,10|2,0:0|0:0,0:0:0:0:
347,295,141331,1,0,0:0:0:0:
354,209,141432,6,0,B|275:209|295:260|217:261,1,150.000005722046,6|0,0:0|0:0,0:0:0:0:
74,329,141737,1,8,0:0:0:0:
52,243,141838,2,0,P|111:250|139:269,1,75.0000028610231,10|0,0:0|0:0,0:0:0:0:
271,335,142041,2,0,P|236:348|199:349,1,75.0000028610231
170,171,142243,1,10,0:0:0:0:
204,142,142345,1,8,0:0:0:0:
248,134,142446,1,10,0:0:0:0:
289,150,142547,1,8,0:0:0:0:
313,187,142649,1,10,0:0:0:0:
346,216,142750,1,8,0:0:0:0:
388,229,142851,1,10,0:0:0:0:
433,225,142953,1,10,0:0:0:0:
463,192,143054,6,0,P|480:144|475:113,1,75.0000028610231,6|0,0:0|0:0,0:0:0:0:
362,19,143257,2,0,L|379:107,1,75.0000028610231,0|8,0:0|0:0,0:0:0:0:
289,150,143460,2,0,L|210:127,1,75.0000028610231,10|0,0:0|0:0,0:0:0:0:
256,294,143662,2,0,P|303:255|343:246,1,75.0000028610231
168,221,143865,2,0,P|93:205|36:151,1,150.000005722046,2|0,0:0|0:0,0:0:0:0:
56,53,144169,1,8,0:0:0:0:
150,10,144270,2,0,P|160:70|150:98,1,75.0000028610231,10|0,0:0|0:0,0:0:0:0:
273,174,144473,2,0,P|268:136|279:101,1,75.0000028610231,2|0,0:0|0:0,0:0:0:0:
385,45,144676,6,0,L|408:229,1,150.000005722046,6|0,0:0|0:0,0:0:0:0:
496,253,144980,1,8,0:0:0:0:
399,293,145081,2,0,P|358:280|324:252,1,75.0000028610231,10|0,0:0|0:0,0:0:0:0:
255,187,145284,2,0,P|285:165|321:155,1,75.0000028610231
236,290,145487,2,0,P|155:288|86:248,1,150.000005722046,2|0,0:0|0:0,0:0:0:0:
41,166,145791,1,8,0:0:0:0:
155,92,145892,2,0,L|143:178,1,75.0000028610231,10|0,0:0|0:0,0:0:0:0:
321,155,146095,2,0,L|229:173,1,75.0000028610231,2|0,0:0|0:0,0:0:0:0:
337,255,146297,6,0,P|423:245|491:199,1,150.000005722046,6|0,0:0|0:0,0:0:0:0:
502,104,146601,1,8,0:0:0:0:
404,54,146703,2,0,L|392:140,1,75.0000028610231,10|0,0:0|0:0,0:0:0:0:
219,71,146906,2,0,L|311:89,1,75.0000028610231
197,172,147108,2,0,L|44:184,1,150.000005722046,2|0,0:0|0:0,0:0:0:0:
4,278,147412,1,8,0:0:0:0:
74,359,147514,2,0,P|110:308|116:271,1,75.0000028610231,10|0,0:0|0:0,0:0:0:0:
197,172,147716,2,0,P|211:206|236:234,1,75.0000028610231,2|0,0:0|0:0,0:0:0:0:
294,335,147919,6,0,P|383:290|450:290,1,150.000005722046,6|0,0:0|0:0,0:0:0:0:
490,190,148223,1,8,0:0:0:0:
381,179,148324,2,0,P|333:164|302:141,1,75.0000028610231,10|0,0:0|0:0,0:0:0:0:
432,29,148527,2,0,L|446:110,1,75.0000028610231
342,50,148730,1,10,0:0:0:0:
312,46,148831,1,8,0:0:0:0:
282,39,148933,1,10,0:0:0:0:
253,29,149034,1,8,0:0:0:0:
203,97,149135,1,10,0:0:0:0:
170,101,149236,1,8,0:0:0:0:
138,108,149338,1,10,0:0:0:0:
108,119,149439,1,10,0:0:0:0:
14,125,149541,6,0,L|41:274,1,150.000005722046,6|0,0:0|0:0,0:0:0:0:
139,226,149845,1,8,0:0:0:0:
139,226,149946,2,0,L|133:315,1,75.0000028610231,10|0,0:0|0:0,0:0:0:0:
243,278,150149,2,0,L|217:363,1,75.0000028610231
319,192,150351,2,0,L|335:351,1,150.000005722046,2|0,0:0|0:0,0:0:0:0:
414,228,150656,1,8,0:0:0:0:
414,228,150757,2,0,L|439:312,1,75.0000028610231,10|0,0:0|0:0,0:0:0:0:
477,142,150960,2,0,L|513:210,1,75.0000028610231,2|0,0:0|0:0,0:0:0:0:
402,61,151162,6,0,P|333:52|254:78,1,150.000005722046,6|0,0:0|0:0,0:0:0:0:
182,23,151466,1,8,0:0:0:0:
182,23,151568,2,0,P|145:79|140:102,1,75.0000028610231,10|0,0:0|0:0,0:0:0:0:
43,98,151770,2,0,P|50:164|61:185,1,75.0000028610231
27,263,151973,1,10,0:0:0:0:
44,276,152074,1,8,0:0:0:0:
64,286,152176,1,8,0:0:0:0:
85,293,152277,1,8,0:0:0:0:
141,363,152379,1,10,0:0:0:0:
162,362,152480,1,8,0:0:0:0:
184,356,152582,1,10,0:0:0:0:
204,348,152683,1,10,0:0:0:0:
241,273,152784,6,0,P|337:259|402:280,1,150.000005722046,6|0,0:0|0:0,0:0:0:0:
367,138,153088,1,8,0:0:0:0:
367,138,153189,2,0,P|409:164|433:188,1,75.0000028610231,10|0,0:0|0:0,0:0:0:0:
494,69,153392,2,0,P|509:115|512:149,1,75.0000028610231
273,163,153595,2,0,P|218:125|163:55,1,150.000005722046,6|0,0:0|0:0,0:0:0:0:
236,247,153899,1,8,0:0:0:0:
236,247,154000,2,0,P|171:249|149:242,1,75.0000028610231,10|0,0:0|0:0,0:0:0:0:
297,325,154203,2,0,P|240:357|217:361,1,75.0000028610231,2|0,0:0|0:0,0:0:0:0:
434,353,154406,6,0,L|473:195,1,150.000005722046,6|0,0:0|0:0,0:0:0:0:
367,223,154710,1,8,0:0:0:0:
367,223,154811,2,0,L|374:142,1,75.0000028610231,10|0,0:0|0:0,0:0:0:0:
286,185,155014,2,0,L|277:105,1,75.0000028610231
220,246,155216,2,0,L|155:95,1,150.000005722046,10|8,0:0|0:0,0:0:0:0:
112,208,155520,1,8,0:0:0:0:
112,208,155622,2,0,L|61:138,1,75.0000028610231,10|8,0:0|0:0,0:0:0:0:
58,278,155824,2,0,L|-7:226,1,75.0000028610231,10|10,0:0|0:0,0:0:0:0:
139,351,156027,6,0,P|250:309|297:314,1,150.000005722046,6|0,0:0|0:0,0:0:0:0:
398,268,156331,1,8,0:0:0:0:
398,268,156433,2,0,P|351:248|324:214,1,75.0000028610231,10|0,0:0|0:0,0:0:0:0:
302,54,156635,2,0,P|308:104|292:145,1,75.0000028610231
164,245,156838,2,0,P|204:214|247:207,1,75.0000028610231,10|8,0:0|0:0,0:0:0:0:
64,343,157041,1,8,0:0:0:0:
35,308,157142,1,8,0:0:0:0:
21,265,157243,1,10,0:0:0:0:
20,219,157345,1,8,0:0:0:0:
33,176,157446,1,10,0:0:0:0:
61,141,157547,1,10,0:0:0:0:
100,118,157649,6,0,B|132:187|132:187|111:257|111:257|139:332,1,225.000008583069,6|0,0:0|0:0,0:0:0:0:
208,248,158054,1,2,0:0:0:0:
398,93,158257,6,0,B|322:87|322:87|272:33|272:33|193:20,1,225.000008583069,4|0,0:0|0:0,0:0:0:0:
231,122,158662,1,2,0:0:0:0:
269,364,158865,6,0,B|313:301|313:301|384:285|384:285|435:223,1,225.000008583069,4|0,0:0|0:0,0:0:0:0:
328,205,159270,6,2,L|219:191,2,100,6|0|8,0:0|0:0|0:0,0:0:0:0:
196,73,159879,2,2,B|257:12|370:30|347:123|363:145|422:175|455:162|487:137|498:89|461:54,1,400,0|0,0:0|0:0,0:0:0:0:
75,127,160892,2,2,L|93:194,2,50,2|0|0,0:0|0:0|0:0,0:0:0:0:
287,73,161297,6,0,L|277:223,1,150,2|2,0:0|0:0,0:0:0:0:
328,306,161703,2,0,L|402:289,2,66.6666666666667,2|2|2,0:0|0:0|0:0,0:0:0:0:
246,362,162108,1,2,0:0:0:0:
201,288,162243,1,2,0:0:0:0:
125,331,162379,1,2,0:0:0:0:
79,257,162514,1,6,0:0:0:0:
79,257,162716,6,2,L|91:200,1,50,4|8,0:0|0:0,0:0:0:0:
146,81,162919,2,2,L|156:129,1,50,12|0,0:0|0:0,0:0:0:0:
250,184,163122,1,0,0:0:0:0:
472,131,163324,2,2,P|396:74|337:73,1,150,0|8,0:0|0:0,0:0:0:0:
316,77,163730,1,12,0:0:0:0:
366,277,163933,6,2,L|376:159,1,100,0|0,0:0|0:0,0:0:0:0:
225,20,164338,2,2,B|153:-8|83:22|50:111|80:196|154:220|240:184|287:193|302:291|273:342|269:371|247:393|203:400|172:399|138:395|107:358|95:294|157:259,1,700,0|0,0:0|0:0,0:0:0:0:
411,73,166162,6,2,P|458:68|488:75,2,66.6666666666667,6|10|10,0:0|0:0|0:0,0:0:0:0:
322,84,166568,1,2,0:0:0:0:
442,158,166703,1,2,0:0:0:0:
354,166,166838,1,14,0:0:0:0:
354,166,167581,6,2,P|322:152|299:136,1,50,4|12,0:0|0:0,0:0:0:0:
250,54,167784,2,2,P|198:103|60:114,1,200,12|0,0:0|0:0,0:0:0:0:
16,248,168392,2,2,P|90:234|183:302,1,187.500007152558,4|8,0:0|0:0,0:0:0:0:
187,321,169000,1,4,0:0:0:0:
290,235,169203,2,2,L|297:183,1,37.5000014305115
223,119,169406,6,2,L|430:95,1,200,6|0,0:0|0:0,0:0:0:0:
421,95,170216,2,2,P|441:165|440:204,1,100,6|0,0:0|0:0,0:0:0:0:
369,246,170520,1,0,0:0:0:0:
369,246,170622,2,0,P|372:290|382:319,1,50,2|2,0:0|0:0,0:0:0:0:
292,353,170824,1,2,0:0:0:0:
270,318,170926,1,2,0:0:0:0:
237,294,171027,1,2,0:0:0:0:
199,280,171129,1,2,0:0:0:0:
159,275,171230,1,2,0:0:0:0:
120,286,171331,1,2,0:0:0:0:
90,33,171635,6,2,B|138:83|138:83|117:151,1,139.999995727539,6|0,0:0|0:0,0:0:0:0:
250,215,171939,2,2,B|202:165|202:165|223:97,1,139.999995727539,6|0,0:0|0:0,0:0:0:0:
351,42,172243,6,2,P|415:40|470:78,1,119.999996337891,6|0,0:0|0:0,0:0:0:0:
479,166,172547,1,8,0:0:0:0:
381,189,172649,2,2,P|381:144|390:121,2,59.9999981689454,10|0|0,0:0|0:0|0:0,0:0:0:0:
453,257,172953,2,2,P|370:288|293:238,1,179.999994506836,0|0,0:0|0:0,0:0:0:0:
235,312,173358,1,8,0:0:0:0:
235,312,173460,2,2,P|178:286|101:279,1,119.999996337891,10|0,0:0|0:0,0:0:0:0:
31,305,173764,5,0,0:0:0:0:
31,305,173865,2,2,P|21:333|14:362,2,59.9999981689454,2|0|0,0:0|0:0|0:0,0:0:0:0:
195,165,174270,2,0,P|269:171|320:148,1,119.999996337891,10|0,0:0|0:0,0:0:0:0:
403,114,174574,1,0,0:0:0:0:
403,114,174676,2,0,L|417:45,3,59.9999981689454,2|0|0|8,0:0|0:0|0:0|0:0,0:0:0:0:
479,182,175081,2,0,L|490:240,3,59.9999981689454,10|0|0|0,0:0|0:0|0:0|0:0,0:0:0:0:
431,305,175487,6,2,P|343:272|310:272,1,119.999996337891,6|0,0:0|0:0,0:0:0:0:
251,202,175791,1,8,0:0:0:0:
251,202,175892,2,2,P|221:249|219:274,1,59.9999981689454,10|0,0:0|0:0,0:0:0:0:
164,343,176095,2,2,P|153:315|133:292,1,59.9999981689454,0|0,0:0|0:0,0:0:0:0:
29,233,176297,2,2,P|95:213|132:168,1,119.999996337891,2|0,0:0|0:0,0:0:0:0:
139,145,176601,1,8,0:0:0:0:
139,145,176703,1,10,0:0:0:0:
258,33,176906,1,0,0:0:0:0:
258,33,177007,1,0,0:0:0:0:
258,33,177108,6,2,L|248:166,1,119.999996337891,2|0,0:0|0:0,0:0:0:0:
321,331,177514,1,10,0:0:0:0:
438,195,177716,1,0,0:0:0:0:
438,195,177818,1,0,0:0:0:0:
438,195,177919,2,0,P|389:209|361:228,3,59.9999981689454,2|0|0|8,0:0|0:0|0:0|0:0,0:0:0:0:
333,97,178324,2,0,P|360:109|389:115,3,59.9999981689454,10|0|0|0,0:0|0:0|0:0|0:0,0:0:0:0:
290,179,178730,6,2,P|271:242|284:311,1,119.999996337891,6|0,0:0|0:0,0:0:0:0:
146,144,179135,1,10,0:0:0:0:
109,123,179237,1,0,0:0:0:0:
67,121,179338,1,0,0:0:0:0:
27,134,179439,2,2,P|132:122|192:80,1,179.999994506836,0|0,0:0|0:0,0:0:0:0:
289,35,179845,1,8,0:0:0:0:
289,35,179946,2,2,L|269:162,1,119.999996337891,10|0,0:0|0:0,0:0:0:0:
339,229,180250,5,0,0:0:0:0:
339,229,180351,2,2,L|402:212,2,59.9999981689454,2|0|0,0:0|0:0|0:0,0:0:0:0:
353,318,180656,1,8,0:0:0:0:
266,292,180757,2,0,L|207:307,1,59.9999981689454,10|0,0:0|0:0,0:0:0:0:
91,291,180960,1,0,0:0:0:0:
91,291,181061,1,0,0:0:0:0:
91,291,181162,2,0,L|62:224,3,59.9999981689454,2|0|0|8,0:0|0:0|0:0|0:0,0:0:0:0:
149,189,181568,2,0,L|178:122,3,59.9999981689454,10|0|0|0,0:0|0:0|0:0|0:0,0:0:0:0:
113,51,181973,5,6,0:0:0:0:
259,207,182176,1,0,0:0:0:0:
259,207,182277,1,8,0:0:0:0:
259,207,182379,2,2,P|303:195|335:180,2,66.6666666666667,10|0|0,0:0|0:0|0:0,0:0:0:0:
388,301,182784,2,2,P|357:288|324:280,2,66.6666666666667,2|0|0,0:0|0:0|0:0,0:0:0:0:
474,229,183189,1,10,0:0:0:0:
324,102,183392,1,0,0:0:0:0:
461,52,183595,6,0,L|451:115,1,50,2|0,0:0|0:0,0:0:0:0:
376,197,183797,1,0,0:0:0:0:
376,197,183899,1,8,0:0:0:0:
376,197,184000,2,2,P|287:192|240:174,1,100,10|0,0:0|0:0,0:0:0:0:
104,23,184406,2,0,L|112:98,1,50,10|8,0:0|0:0,0:0:0:0:
184,144,184608,1,8,0:0:0:0:
191,173,184710,1,8,0:0:0:0:
192,202,184811,1,10,0:0:0:0:
188,231,184912,1,8,0:0:0:0:
180,259,185013,1,10,0:0:0:0:
163,284,185115,1,8,0:0:0:0:
140,298,185216,6,0,B|92:292|92:292|59:257,2,93.3333304850261,4|4|12,0:0|0:0|0:0,0:0:0:0:
447,297,185757,5,4,0:0:0:0:
349,225,185892,1,4,0:0:0:0:
460,177,186027,1,12,0:0:0:0:
72,161,186297,5,4,0:0:0:0:
170,89,186432,1,4,0:0:0:0:
59,41,186567,1,12,0:0:0:0:
300,55,187041,6,0,B|323:210|185:166|209:326,1,300,4|0,0:0|0:0,0:0:0:0:
100,147,194946,6,0,P|61:114|48:91,1,75.0000028610231,4|0,0:0|0:0,0:0:0:0:
275,91,195351,2,0,P|323:73|349:73,1,75.0000028610231,4|0,0:0|0:0,0:0:0:0:
240,246,195757,2,0,P|230:296|217:319,1,75.0000028610231,4|0,0:0|0:0,0:0:0:0:
198,332,196061,1,0,0:0:0:0:
198,332,196162,1,0,0:0:0:0:
113,241,196365,1,0,0:0:0:0:
194,151,196568,6,0,P|253:142|334:211,1,150.000005722046,4|4,0:0|0:0,0:0:0:0:
459,173,197176,1,0,0:0:0:0:
459,173,197277,1,0,0:0:0:0:
459,173,197379,2,0,P|440:237|437:263,1,75.0000028610231,4|0,0:0|0:0,0:0:0:0:
403,265,197683,2,0,P|419:307|427:378,1,112.500004291535
264,328,198189,6,0,P|198:293|103:289,1,150.000005722046,4|4,0:0|0:0,0:0:0:0:
17,102,198797,1,0,0:0:0:0:
17,102,198899,1,0,0:0:0:0:
17,102,199000,2,0,P|46:152|55:194,1,85.0000016212464,4|0,0:0|0:0,0:0:0:0:
58,211,199304,2,0,L|198:181,1,127.50000243187
367,212,199811,6,0,P|339:158|336:107,1,100,2|2,0:0|0:0,0:0:0:0:
386,49,200115,1,10,0:0:0:0:
386,49,200216,2,0,L|456:38,1,50,10|2,0:0|0:0,0:0:0:0:
252,81,200419,2,0,L|182:70,1,50,2|2,0:0|0:0,0:0:0:0:
37,150,200622,1,2,0:0:0:0:
81,141,200723,1,2,0:0:0:0:
125,148,200824,1,2,0:0:0:0:
164,169,200926,1,10,0:0:0:0:
193,202,201027,1,10,0:0:0:0:
193,202,201433,6,0,P|282:222|331:190,1,150.000005722046,6|0,0:0|0:0,0:0:0:0:
355,87,201737,1,8,0:0:0:0:
255,51,201838,2,0,P|254:120|272:148,1,75.0000028610231,10|0,0:0|0:0,0:0:0:0:
391,229,202041,2,0,P|331:193|298:195,1,75.0000028610231
324,322,202243,2,0,L|485:314,1,150.000005722046,2|0,0:0|0:0,0:0:0:0:
256,252,202547,1,8,0:0:0:0:
170,305,202649,2,0,L|153:380,1,75.0000028610231,10|0,0:0|0:0,0:0:0:0:
98,222,202851,2,0,L|81:148,1,75.0000028610231,2|0,0:0|0:0,0:0:0:0:
166,50,203054,6,0,B|244:50|224:101|302:102,1,150.000005722046,6|0,0:0|0:0,0:0:0:0:
483,73,203358,1,8,0:0:0:0:
408,9,203460,2,0,P|386:68|389:90,1,75.0000028610231,10|0,0:0|0:0,0:0:0:0:
428,241,203662,2,0,P|424:203|406:171,1,75.0000028610231
311,236,203865,2,0,P|234:205|154:228,1,150.000005722046,2|0,0:0|0:0,0:0:0:0:
97,145,204169,1,8,0:0:0:0:
25,224,204270,2,0,L|36:299,1,75.0000028610231,10|0,0:0|0:0,0:0:0:0:
97,145,204473,2,0,L|86:70,1,75.0000028610231,2|0,0:0|0:0,0:0:0:0:
133,323,204676,6,0,L|298:299,1,150.000005722046,6|0,0:0|0:0,0:0:0:0:
456,264,204980,1,8,0:0:0:0:
354,202,205081,2,0,L|274:181,1,75.0000028610231,10|0,0:0|0:0,0:0:0:0:
457,66,205284,2,0,L|463:141,1,75.0000028610231
341,42,205487,2,0,P|267:40|204:95,1,150.000005722046,2|0,0:0|0:0,0:0:0:0:
116,37,205791,1,8,0:0:0:0:
36,116,205892,2,0,L|66:275,1,150.000005722046,10|2,0:0|0:0,0:0:0:0:
162,202,206196,1,0,0:0:0:0:
204,304,206297,6,0,P|291:340|369:313,1,150.000005722046,6|0,0:0|0:0,0:0:0:0:
290,222,206601,1,8,0:0:0:0:
404,237,206703,2,0,L|437:83,1,150.000005722046,10|0,0:0|0:0,0:0:0:0:
348,19,207007,1,0,0:0:0:0:
273,87,207108,2,0,P|326:117|360:116,1,75.0000028610231,10|8,0:0|0:0,0:0:0:0:
184,25,207311,2,0,P|147:33|118:56,1,75.0000028610231,10|8,0:0|0:0,0:0:0:0:
38,187,207514,1,10,0:0:0:0:
62,241,207615,1,8,0:0:0:0:
113,271,207716,1,10,0:0:0:0:
173,270,207818,1,10,0:0:0:0:
224,240,207919,6,0,P|242:189|241:151,1,75.0000028610231,6|0,0:0|0:0,0:0:0:0:
341,272,208122,2,0,P|345:309|359:343,1,75.0000028610231,0|8,0:0|0:0,0:0:0:0:
301,102,208324,2,0,P|252:82|209:87,1,75.0000028610231,10|0,0:0|0:0,0:0:0:0:
407,178,208527,2,0,P|444:174|477:158,1,75.0000028610231
325,29,208730,2,0,L|326:196,1,150.000005722046,2|0,0:0|0:0,0:0:0:0:
272,273,209034,1,8,0:0:0:0:
143,185,209135,2,0,L|227:178,1,75.0000028610231,10|0,0:0|0:0,0:0:0:0:
456,277,209338,2,0,L|372:270,1,75.0000028610231,2|0,0:0|0:0,0:0:0:0:
127,257,209541,6,0,P|98:179|123:104,1,150.000005722046,6|0,0:0|0:0,0:0:0:0:
248,44,209845,1,8,0:0:0:0:
312,131,209946,2,0,P|256:151|228:146,1,75.0000028610231,10|0,0:0|0:0,0:0:0:0:
354,36,210149,2,0,L|434:49,1,75.0000028610231
484,160,210351,2,0,L|458:326,1,150.000005722046,2|0,0:0|0:0,0:0:0:0:
355,238,210656,1,8,0:0:0:0:
296,338,210757,2,0,P|210:353|153:318,1,150.000005722046,10|2,0:0|0:0,0:0:0:0:
239,238,211061,1,0,0:0:0:0:
125,217,211162,6,0,L|110:60,1,150.000005722046,6|0,0:0|0:0,0:0:0:0:
28,131,211466,1,8,0:0:0:0:
207,161,211568,2,0,P|266:162|301:154,1,75.0000028610231,10|0,0:0|0:0,0:0:0:0:
249,3,211770,2,0,P|218:53|208:87,1,75.0000028610231
355,237,211973,2,0,P|386:150|363:90,1,150.000005722046,2|0,0:0|0:0,0:0:0:0:
281,159,212277,1,8,0:0:0:0:
252,256,212379,2,0,P|291:323|312:334,1,75.0000028610231,10|0,0:0|0:0,0:0:0:0:
174,181,212581,2,0,P|96:181|76:193,1,75.0000028610231,2|0,0:0|0:0,0:0:0:0:
24,51,212784,6,0,P|106:84|177:73,1,150.000005722046,6|0,0:0|0:0,0:0:0:0:
260,17,213088,1,8,0:0:0:0:
341,92,213189,2,0,L|326:178,1,75.0000028610231,10|0,0:0|0:0,0:0:0:0:
460,257,213392,2,0,L|447:183,1,75.0000028610231
228,157,213595,1,10,0:0:0:0:
218,216,213696,1,8,0:0:0:0:
229,274,213797,1,10,0:0:0:0:
267,320,213899,1,8,0:0:0:0:
319,348,214000,1,10,0:0:0:0:
378,354,214101,1,8,0:0:0:0:
436,338,214203,1,10,0:0:0:0:
483,301,214304,1,10,0:0:0:0:
506,245,214406,6,0,L|475:98,1,150.000005722046,6|0,0:0|0:0,0:0:0:0:
396,202,214710,1,8,0:0:0:0:
396,202,214811,2,0,L|331:60,1,150.000005722046,10|0,0:0|0:0,0:0:0:0:
281,187,215115,1,0,0:0:0:0:
281,187,215216,2,0,L|222:131,1,75.0000028610231,2|0,0:0|0:0,0:0:0:0:
176,227,215419,2,0,L|90:215,1,75.0000028610231,0|8,0:0|0:0,0:0:0:0:
97,311,215622,2,0,L|16:326,1,75.0000028610231,10|0,0:0|0:0,0:0:0:0:
16,135,215824,1,2,0:0:0:0:
20,120,215926,1,0,0:0:0:0:
24,105,216027,6,0,P|95:61|176:65,1,150.000005722046,6|0,0:0|0:0,0:0:0:0:
267,15,216331,1,8,0:0:0:0:
267,15,216433,2,0,P|329:70|349:148,1,150.000005722046,10|0,0:0|0:0,0:0:0:0:
450,177,216737,1,0,0:0:0:0:
450,177,216838,2,0,P|431:234|406:259,1,75.0000028610231,10|8,0:0|0:0,0:0:0:0:
398,353,217041,2,0,P|338:357|305:345,1,75.0000028610231,8|8,0:0|0:0,0:0:0:0:
296,242,217243,2,8,P|265:197|233:174,1,75.0000028610231,10|8,0:0|0:0,0:0:0:0:
160,246,217446,2,0,P|120:232|70:233,1,75.0000028610231,10|10,0:0|0:0,0:0:0:0:
25,352,217649,6,0,B|90:339|90:339|118:346|118:346|180:335,1,150.000005722046,6|0,0:0|0:0,0:0:0:0:
174,170,217953,1,8,0:0:0:0:
174,170,218054,2,0,B|161:105|161:105|168:77|168:77|157:15,1,150.000005722046,10|0,0:0|0:0,0:0:0:0:
353,22,218358,1,0,0:0:0:0:
353,22,218460,2,0,B|344:77|344:77|351:105|351:105|338:170,1,150.000005722046,6|0,0:0|0:0,0:0:0:0:
339,336,218764,1,8,0:0:0:0:
339,336,218865,2,0,B|394:346|394:346|422:339|422:339|487:352,1,150.000005722046,10|2,0:0|0:0,0:0:0:0:
443,189,219169,5,0,0:0:0:0:
443,189,219270,2,0,P|415:141|384:118,1,75.0000028610231,6|0,0:0|0:0,0:0:0:0:
231,235,219473,2,0,P|286:239|330:228,1,75.0000028610231,0|8,0:0|0:0,0:0:0:0:
152,83,219676,2,0,P|117:121|107:150,1,75.0000028610231,10|0,0:0|0:0,0:0:0:0:
146,318,219879,2,0,P|131:273|108:241,1,75.0000028610231
234,140,220081,2,0,P|275:134|308:118,1,75.0000028610231,10|8,0:0|0:0,0:0:0:0:
13,123,220284,2,0,P|12:172|26:210,1,75.0000028610231,8|8,0:0|0:0,0:0:0:0:
231,295,220487,1,10,0:0:0:0:
237,281,220588,1,8,0:0:0:0:
241,266,220689,1,10,0:0:0:0:
244,251,220791,1,10,0:0:0:0:
246,236,220892,6,0,L|89:252,1,150.000005722046,6|0,0:0|0:0,0:0:0:0:
206,137,221196,1,8,0:0:0:0:
206,137,221297,2,0,L|141:92,1,75.0000028610231,10|0,0:0|0:0,0:0:0:0:
296,86,221500,2,0,L|296:1,1,75.0000028610231
378,156,221703,2,0,L|490:50,1,150.000005722046,10|8,0:0|0:0,0:0:0:0:
353,251,222007,1,8,0:0:0:0:
353,251,222108,2,0,L|444:280,1,75.0000028610231,10|8,0:0|0:0,0:0:0:0:
246,236,222311,2,0,L|163:249,1,75.0000028610231,10|10,0:0|0:0,0:0:0:0:
43,140,222514,6,0,B|84:102|97:43|97:43|138:88|208:93,1,225.000008583069,6|0,0:0|0:0,0:0:0:0:
140,176,222919,1,2,0:0:0:0:
316,91,223122,6,0,B|374:88|415:43|415:43|428:102|469:140,1,225.000008583069,4|0,0:0|0:0,0:0:0:0:
372,176,223527,1,2,0:0:0:0:
486,302,223730,5,12,0:0:0:0:
442,292,223831,1,8,0:0:0:0:
398,302,223933,1,8,0:0:0:0:
358,322,224034,1,8,0:0:0:0:
331,354,224135,6,0,L|213:328,1,119.999996337891,6|0,0:0|0:0,0:0:0:0:
106,354,224439,1,8,0:0:0:0:
106,354,224541,2,0,P|75:289|78:230,1,119.999996337891,8|2,0:0|0:0,0:0:0:0:
19,146,224845,2,2,P|111:138|181:201,1,179.999994506836
407,72,225351,1,8,0:0:0:0:
404,89,225453,1,8,0:0:0:0:
401,106,225554,2,0,L|342:100,1,59.9999981689454,10|8,0:0|0:0,0:0:0:0:
249,50,225757,6,2,B|241:116|241:116|266:159|266:159|259:235,1,179.999994506836,6|8,0:0|0:0,0:0:0:0:
327,312,226162,2,2,L|456:281,1,119.999996337891,8|2,0:0|0:0,0:0:0:0:
212,319,226466,2,2,B|117:336|140:254|46:271,1,179.999994506836
99,28,226973,1,8,0:0:0:0:
102,45,227074,1,8,0:0:0:0:
105,62,227176,1,10,0:0:0:0:
109,79,227277,1,8,0:0:0:0:
113,96,227379,6,2,P|167:96|231:61,1,119.999996337891,6|0,0:0|0:0,0:0:0:0:
493,297,227784,2,0,P|440:268|381:267,1,119.999996337891,8|2,0:0|0:0,0:0:0:0:
299,210,228088,1,2,0:0:0:0:
299,210,228189,2,2,L|286:282,1,59.9999981689454,0|0,0:0|0:0,0:0:0:0:
208,349,228392,2,2,L|197:289,1,59.9999981689454,2|0,0:0|0:0,0:0:0:0:
175,173,228595,2,0,P|112:144|58:156,1,119.999996337891,8|10,0:0|0:0,0:0:0:0:
38,170,228899,5,8,0:0:0:0:
38,170,229000,2,2,B|71:286|71:286|56:349,2,179.999994506836,6|8|2,0:0|0:0|0:0,0:0:0:0:
202,30,229811,1,2,0:0:0:0:
215,75,229912,1,2,0:0:0:0:
251,106,230014,1,2,0:0:0:0:
297,114,230115,1,10,0:0:0:0:
341,97,230216,1,10,0:0:0:0:
389,93,230318,1,2,0:0:0:0:
432,112,230419,1,2,0:0:0:0:
461,149,230520,1,2,0:0:0:0:
467,196,230622,6,2,L|451:339,1,119.999996337891,6|0,0:0|0:0,0:0:0:0:
373,360,230926,1,8,0:0:0:0:
373,360,231027,2,2,P|336:300|326:242,1,119.999996337891,8|2,0:0|0:0,0:0:0:0:
258,151,231331,2,2,P|246:239|196:313,1,179.999994506836
22,68,231838,1,8,0:0:0:0:
43,78,231939,1,8,0:0:0:0:
64,88,232041,1,10,0:0:0:0:
85,98,232142,1,8,0:0:0:0:
106,108,232243,6,2,L|232:71,1,119.999996337891,6|0,0:0|0:0,0:0:0:0:
488,179,232649,2,0,P|387:170|356:186,1,119.999996337891,8|2,0:0|0:0,0:0:0:0:
292,218,232953,2,2,L|304:24,1,179.999994506836
62,238,233460,2,2,L|78:313,1,59.9999981689454,8|8,0:0|0:0,0:0:0:0:
156,346,233662,1,10,0:0:0:0:
156,346,233764,1,8,0:0:0:0:
156,346,233865,6,0,L|223:325,1,59.9999981689454,6|0,0:0|0:0,0:0:0:0:
323,350,234068,2,0,P|287:266|406:262,1,239.999992675781,8|2,0:0|0:0,0:0:0:0:
399,147,234574,1,2,0:0:0:0:
399,147,234676,2,2,P|385:130|366:26,1,119.999996337891,0|2,0:0|0:0,0:0:0:0:
498,272,235081,2,2,P|472:317|447:331,1,59.9999981689454,8|8,0:0|0:0,0:0:0:0:
382,354,235284,1,10,0:0:0:0:
382,354,235385,1,8,0:0:0:0:
382,354,235487,6,2,P|296:317|256:320,1,119.999996337891,6|0,0:0|0:0,0:0:0:0:
182,266,235791,1,8,0:0:0:0:
182,266,235892,2,0,L|161:335,1,59.9999981689454,8|0,0:0|0:0,0:0:0:0:
258,150,236095,2,2,L|279:219,1,59.9999981689454
122,142,236297,1,2,0:0:0:0:
118,130,236398,1,2,0:0:0:0:
113,119,236499,1,2,0:0:0:0:
108,108,236601,1,10,0:0:0:0:
103,97,236702,1,10,0:0:0:0:
97,87,236803,1,2,0:0:0:0:
91,77,236905,1,2,0:0:0:0:
84,67,237006,1,2,0:0:0:0:
76,58,237107,5,6,0:0:0:0:
115,74,237210,1,0,0:0:0:0:
156,73,237311,1,0,0:0:0:0:
194,56,237412,1,8,0:0:0:0:
223,25,237514,1,10,0:0:0:0:
264,18,237615,1,0,0:0:0:0:
303,32,237716,1,2,0:0:0:0:
327,66,237818,1,2,0:0:0:0:
327,107,237919,1,0,0:0:0:0:
299,138,238020,1,0,0:0:0:0:
258,149,238122,1,2,0:0:0:0:
224,174,238223,1,8,0:0:0:0:
213,214,238324,1,10,0:0:0:0:
222,255,238426,1,0,0:0:0:0:
252,283,238527,1,2,0:0:0:0:
293,290,238629,1,0,0:0:0:0:
332,275,238730,6,0,P|367:253|404:245,3,59.9999981689454,6|0|0|8,0:0|0:0|0:0|0:0,0:0:0:0:
490,186,239135,2,0,P|461:175|437:158,3,59.9999981689454,10|0|2|2,0:0|0:0|0:0|0:0,0:0:0:0:
374,81,239541,1,0,0:0:0:0:
343,125,239642,1,2,0:0:0:0:
293,146,239743,1,2,0:0:0:0:
238,143,239845,1,10,0:0:0:0:
193,112,239946,1,10,0:0:0:0:
144,87,240047,1,2,0:0:0:0:
89,87,240149,1,2,0:0:0:0:
42,113,240250,1,2,0:0:0:0:
11,157,240351,6,2,L|60:266,1,119.999996337891,6|0,0:0|0:0,0:0:0:0:
130,210,240622,6,2,P|147:279|137:355,1,119.999996337891,2|0,0:0|0:0,0:0:0:0:
224,228,240892,6,2,P|253:174|308:135,1,119.999996337891,2|0,0:0|0:0,0:0:0:0:
339,214,241162,6,2,L|463:204,1,119.999996337891,2|0,0:0|0:0,0:0:0:0:
493,283,241433,6,2,P|440:326|377:338,1,119.999996337891,2|0,0:0|0:0,0:0:0:0:
312,306,241703,6,2,L|186:286,1,119.999996337891,2|0,0:0|0:0,0:0:0:0:
219,207,241973,6,2,P|167:160|137:103,1,119.999996337891,2|0,0:0|0:0,0:0:0:0:
226,90,242243,5,2,0:0:0:0:
71,253,242987,5,6,0:0:0:0:
256,192,243037,12,0,244608,0:0:0:0:
