osu file format v14

[General]
AudioFilename: Frank Schindel - Die Hyper Spirit Digitation.mp3
AudioLeadIn: 0
PreviewTime: 77784
Countdown: 0
SampleSet: Soft
StackLeniency: 0.8
Mode: 0
LetterboxInBreaks: 1
WidescreenStoryboard: 1

[Editor]
DistanceSpacing: 0.9
BeatDivisor: 4
GridSize: 4
TimelineZoom: 1.5

[Metadata]
Title:Die Hyper Spirit Digitation
TitleUnicode:Die Hyper Spirit Digitation
Artist:Frank Schindel
ArtistUnicode:Frank Schindel
Creator:AnimeStyle
Version:Advanced
Source:Digimon Frontier
Tags:the last element ayumi miyazaki j-rock rock german deutsch kyshiro trig anime 宮崎歩 デジモンフロンティア cover
BeatmapID:2985789
BeatmapSetID:1405595

[Difficulty]
HPDrainRate:4
CircleSize:3.5
OverallDifficulty:4
ApproachRate:5
SliderMultiplier:1.4
SliderTickRate:1

[Events]
//Background and Video events
0,0,"BG.png",0,0
Video,0,"vid.mp4"
//Break Periods
2,22443,24995
2,103524,112503
2,185213,187158
//Storyboard Layer 0 (Background)
//Storyboard Layer 1 (Fail)
//Storyboard Layer 2 (Pass)
//Storyboard Layer 3 (Foreground)
//Storyboard Layer 4 (Overlay)
//Storyboard Sound Samples

[TimingPoints]
352,405.405405405405,4,2,1,80,1,0
1973,-100,4,2,1,30,0,0
3595,-100,4,2,1,60,0,0
5824,-100,4,2,1,50,0,0
7041,-100,4,2,1,60,0,0
10487,-100,4,2,1,50,0,0
16568,-100,4,2,1,60,0,0
26297,-100,4,2,1,50,0,0
49000,-100,4,2,1,60,0,0
55487,-100,4,2,1,50,0,0
78189,-100,4,2,1,60,0,1
84270,-100,4,2,1,60,0,0
84676,-100,4,2,1,60,0,1
91162,-100,4,2,1,50,0,1
100892,-100,4,2,1,50,0,0
136568,-100,4,2,1,60,0,1
142649,-100,4,2,1,60,0,0
143054,-100,4,2,1,60,0,1
149541,-100,4,2,1,50,0,1
159270,-100,4,2,1,50,0,0
166162,-100,4,2,1,40,0,0
172243,-100,4,2,1,50,0,0
188460,-133.333333333333,4,2,1,40,0,0
201433,-100,4,2,1,60,0,1
207514,-100,4,2,1,60,0,0
207919,-100,4,2,1,60,0,1
214406,-100,4,2,1,50,0,1
224135,-100,4,2,1,50,0,0
244608,-100,4,2,1,5,0,0

[Colours]
Combo1 : 255,255,81
Combo2 : 255,128,64
Combo3 : 0,128,64
Combo4 : 128,0,0

[HitObjects]
56,44,1973,6,0,B|132:77|132:77|106:157|106:157|138:208|203:194|203:194|268:181|300:232|300:232|274:312|274:312|351:345,1,560,2|6,0:0|0:0,0:0:0:0:
452,300,4000,1,8,0:0:0:0:
470,246,4203,2,2,B|496:166|496:166|379:113,1,210,0|8,0:0|0:0,0:0:0:0:
269,125,5216,6,2,L|205:96,1,70,2|0,0:0|0:0,0:0:0:0:
128,180,5824,2,0,L|191:208,1,70,2|2,0:0|0:0,0:0:0:0:
228,252,6230,1,2,0:0:0:0:
264,296,6433,2,0,L|327:324,1,70,10|2,0:0|0:0,0:0:0:0:
380,303,6838,5,2,0:0:0:0:
432,280,7041,2,2,L|499:310,2,70,4|12|4,0:0|0:0|0:0,0:0:0:0:
407,229,7649,2,2,P|364:176|383:105,1,140,0|12,0:0|0:0,0:0:0:0:
418,71,8257,2,2,P|365:113|294:94,1,140,0|0,0:0|0:0,0:0:0:0:
75,43,10487,6,2,B|173:302,1,233.333333333333,6|4,0:0|0:0,0:0:0:0:
360,300,11906,6,2,L|335:234,1,70,4|12,0:0|0:0,0:0:0:0:
224,107,12716,2,2,P|280:68|349:67,1,140,4|4,0:0|0:0,0:0:0:0:
404,82,13324,6,2,L|468:54,2,70,6|6|6,0:0|0:0|0:0,0:0:0:0:
280,269,14541,1,6,0:0:0:0:
178,315,14946,6,0,P|66:255|82:107,1,280,2|2,0:0|0:0,0:0:0:0:
124,93,15960,2,0,L|232:47,1,105,6|6,0:0|0:0,0:0:0:0:
298,19,16568,5,6,0:0:0:0:
388,85,16973,1,8,0:0:0:0:
371,138,17176,2,2,B|340:239|340:239|244:280,1,210,0|8,0:0|0:0,0:0:0:0:
192,299,17987,1,0,0:0:0:0:
138,316,18189,6,2,P|76:298|80:234,1,140,2|8,0:0|0:0,0:0:0:0:
129,206,18797,1,0,0:0:0:0:
178,180,19000,2,2,P|182:115|119:97,1,140,2|8,0:0|0:0,0:0:0:0:
17,142,19811,5,2,0:0:0:0:
81,234,20216,1,8,0:0:0:0:
115,277,20419,2,2,P|190:320|302:273,1,210,0|8,0:0|0:0,0:0:0:0:
376,197,21433,6,2,P|358:129|399:62,1,140,2|8,0:0|0:0,0:0:0:0:
436,40,22041,2,2,L|504:52,1,70,0|2,0:0|0:0,0:0:0:0:
477,172,26297,5,6,0:0:0:0:
367,151,26703,2,0,L|299:139,1,70,8|0,0:0|0:0,0:0:0:0:
296,194,27108,2,0,L|237:228,1,70,2|0,0:0|0:0,0:0:0:0:
185,254,27514,1,8,0:0:0:0:
127,349,27919,5,2,0:0:0:0:
84,313,28122,1,0,0:0:0:0:
74,258,28324,2,0,L|40:198,1,70,8|0,0:0|0:0,0:0:0:0:
91,174,28730,2,0,L|103:105,1,70,2|0,0:0|0:0,0:0:0:0:
114,49,29135,1,8,0:0:0:0:
222,16,29541,5,2,0:0:0:0:
278,25,29743,1,0,0:0:0:0:
334,32,29946,2,0,L|403:43,1,70,8|0,0:0|0:0,0:0:0:0:
388,97,30351,2,0,L|434:149,1,70,2|0,0:0|0:0,0:0:0:0:
470,193,30757,1,8,0:0:0:0:
424,296,31162,6,0,P|379:331|303:314,1,140,2|8,0:0|0:0,0:0:0:0:
256,284,31770,1,0,0:0:0:0:
210,314,31973,2,0,P|145:333|88:295,1,140,2|8,0:0|0:0,0:0:0:0:
163,212,32784,5,6,0:0:0:0:
202,171,32987,1,0,0:0:0:0:
241,129,33189,2,0,L|294:71,1,70,8|0,0:0|0:0,0:0:0:0:
329,115,33595,2,0,L|406:104,1,70,2|0,0:0|0:0,0:0:0:0:
455,98,34001,1,8,0:0:0:0:
468,209,34406,5,2,0:0:0:0:
412,216,34608,1,0,0:0:0:0:
357,223,34811,2,0,L|281:233,1,70,8|0,0:0|0:0,0:0:0:0:
302,286,35216,2,0,L|250:343,1,70,2|0,0:0|0:0,0:0:0:0:
218,380,35622,1,8,0:0:0:0:
139,301,36028,5,2,0:0:0:0:
99,263,36230,1,0,0:0:0:0:
59,224,36433,2,0,L|2:172,1,70,8|0,0:0|0:0,0:0:0:0:
49,139,36838,2,0,L|39:62,1,70,2|0,0:0|0:0,0:0:0:0:
31,14,37244,1,8,0:0:0:0:
143,25,37649,6,0,L|154:101,1,70,2|0,0:0|0:0,0:0:0:0:
162,149,38054,2,0,P|256:234|351:149,1,280,8|8,0:0|0:0,0:0:0:0:
359,94,39068,1,2,0:0:0:0:
367,38,39270,6,0,L|464:160,1,140,6|8,0:0|0:0,0:0:0:0:
488,192,39879,1,0,0:0:0:0:
444,296,40284,2,0,L|390:339,1,70,0|8,0:0|0:0,0:0:0:0:
336,328,40689,1,0,0:0:0:0:
282,316,40892,6,0,L|228:359,2,70,6|0|8,0:0|0:0|0:0,0:0:0:0:
284,259,41500,1,0,0:0:0:0:
286,202,41703,2,0,B|344:154|344:154|432:180,1,140,2|8,0:0|0:0,0:0:0:0:
489,96,42514,5,6,0:0:0:0:
434,82,42716,2,0,L|454:16,2,70,0|8|0,0:0|0:0|0:0,0:0:0:0:
379,67,43324,2,0,L|244:28,1,140,2|8,0:0|0:0,0:0:0:0:
195,56,43933,1,0,0:0:0:0:
147,84,44135,6,0,P|107:142|140:220,1,140,6|8,0:0|0:0,0:0:0:0:
80,308,44946,2,0,L|26:351,2,70,2|0|8,0:0|0:0|0:0,0:0:0:0:
189,341,45757,6,0,L|243:298,1,70,6|0,0:0|0:0,0:0:0:0:
269,347,46162,2,0,L|338:348,1,70,8|0,0:0|0:0,0:0:0:0:
395,348,46568,2,0,B|449:305|449:305|424:228,1,140,2|8,0:0|0:0,0:0:0:0:
407,184,47176,1,0,0:0:0:0:
387,131,47379,6,0,L|317:132,1,70,6|0,0:0|0:0,0:0:0:0:
269,102,47784,2,0,L|199:103,1,70,8|0,0:0|0:0,0:0:0:0:
151,72,48189,2,0,L|200:227,1,140,2|8,0:0|0:0,0:0:0:0:
256,300,49000,5,6,0:0:0:0:
319,205,49406,1,8,0:0:0:0:
336,152,49608,2,2,B|352:94|352:94|373:43|419:50|461:68|452:122|452:122|434:184,1,280,0|0,0:0|0:0,0:0:0:0:
419,234,50622,6,2,B|398:299|398:299|336:334,1,140,2|8,0:0|0:0,0:0:0:0:
286,359,51229,1,0,0:0:0:0:
236,384,51432,2,2,P|184:356|162:275,1,140,2|8,0:0|0:0,0:0:0:0:
104,184,52243,5,6,0:0:0:0:
204,135,52648,1,8,0:0:0:0:
256,120,52851,2,2,B|314:104|314:104|365:83|358:37|340:-5|286:4|286:4|224:22,1,280,0|0,0:0|0:0,0:0:0:0:
174,38,53865,6,2,L|29:78,1,140,2|8,0:0|0:0,0:0:0:0:
16,128,54473,2,2,L|34:195,1,70,0|2,0:0|0:0,0:0:0:0:
220,320,55487,5,6,0:0:0:0:
272,305,55689,1,0,0:0:0:0:
326,290,55892,2,0,L|393:272,1,70,8|0,0:0|0:0,0:0:0:0:
371,220,56297,2,0,L|410:163,1,70,2|0,0:0|0:0,0:0:0:0:
443,116,56704,1,8,0:0:0:0:
394,15,57109,5,2,0:0:0:0:
362,61,57311,1,0,0:0:0:0:
330,107,57514,2,0,L|273:67,1,70,8|0,0:0|0:0,0:0:0:0:
246,116,57919,2,0,L|176:122,1,70,2|0,0:0|0:0,0:0:0:0:
120,129,58325,1,8,0:0:0:0:
75,232,58731,5,2,0:0:0:0:
131,225,58933,1,0,0:0:0:0:
188,218,59135,2,0,L|257:211,1,70,8|0,0:0|0:0,0:0:0:0:
255,268,59541,2,0,L|311:307,1,70,2|0,0:0|0:0,0:0:0:0:
359,338,59947,1,8,0:0:0:0:
442,265,60351,6,0,P|472:204|438:145,1,140,2|8,0:0|0:0,0:0:0:0:
388,121,60960,1,0,0:0:0:0:
346,157,61162,2,0,P|285:186|226:152,1,140,2|8,0:0|0:0,0:0:0:0:
170,55,61973,5,6,0:0:0:0:
130,94,62176,1,0,0:0:0:0:
116,148,62379,2,0,P|116:185|141:218,1,70,8|0,0:0|0:0,0:0:0:0:
173,251,62784,2,0,P|190:280|190:315,1,70,2|0,0:0|0:0,0:0:0:0:
173,369,63189,1,8,0:0:0:0:
76,310,63595,5,2,0:0:0:0:
57,257,63797,1,0,0:0:0:0:
38,204,64000,2,0,P|20:174|21:139,1,70,8|0,0:0|0:0,0:0:0:0:
44,87,64406,2,0,P|68:62|102:55,1,70,2|0,0:0|0:0,0:0:0:0:
157,63,64811,1,8,0:0:0:0:
265,90,65216,5,2,0:0:0:0:
257,145,65419,1,0,0:0:0:0:
249,200,65622,2,0,P|256:233|280:258,1,70,8|0,0:0|0:0,0:0:0:0:
329,288,66027,2,0,P|362:296|395:287,1,70,2|0,0:0|0:0,0:0:0:0:
443,257,66433,1,8,0:0:0:0:
361,179,66838,6,0,P|379:112|354:48,1,140,2|8,0:0|0:0,0:0:0:0:
322,1,67446,2,0,P|251:74|149:76,1,210,0|8,0:0|0:0,0:0:0:0:
96,56,68257,1,2,0:0:0:0:
43,36,68460,6,0,P|25:103|50:167,1,140,6|8,0:0|0:0,0:0:0:0:
87,210,69068,2,0,P|151:185|217:203,1,140
266,230,69676,1,8,0:0:0:0:
361,288,70082,6,0,L|321:357,2,70,6|0|8,0:0|0:0|0:0,0:0:0:0:
389,239,70689,1,0,0:0:0:0:
417,190,70892,2,0,P|435:123|410:59,1,140,2|8,0:0|0:0,0:0:0:0:
309,10,71704,5,6,0:0:0:0:
280,57,71906,2,0,L|211:17,2,70,0|8|0,0:0|0:0|0:0,0:0:0:0:
261,110,72514,2,0,B|320:145|320:145|269:194,1,140,2|8,0:0|0:0,0:0:0:0:
230,234,73122,1,0,0:0:0:0:
190,273,73324,6,0,B|139:322|139:322|198:357,1,140,6|8,0:0|0:0,0:0:0:0:
309,339,74135,2,0,L|378:379,2,70,2|0|8,0:0|0:0|0:0,0:0:0:0:
299,283,74743,1,0,0:0:0:0:
289,227,74946,6,0,B|229:191|229:191|280:142,1,140,6|8,0:0|0:0,0:0:0:0:
322,106,75554,2,0,P|264:42|348:26,1,210,0|8,0:0|0:0,0:0:0:0:
400,49,76365,1,0,0:0:0:0:
451,71,76568,6,0,P|459:122|440:170,2,105,6|6|6,0:0|0:0|0:0,0:0:0:0:
400,49,77379,1,6,0:0:0:0:
304,107,77784,1,2,0:0:0:0:
207,163,78189,6,0,L|143:136,1,70,6|0,0:0|0:0,0:0:0:0:
102,175,78595,2,0,L|64:101,1,70,8|0,0:0|0:0,0:0:0:0:
15,109,79000,2,0,B|29:43|29:43|100:31,1,140,2|8,0:0|0:0,0:0:0:0:
155,39,79608,1,2,0:0:0:0:
210,47,79811,5,6,0:0:0:0:
143,136,80216,1,8,0:0:0:0:
109,180,80419,1,0,0:0:0:0:
75,225,80622,2,0,L|59:293,1,70,2|0,0:0|0:0,0:0:0:0:
115,298,81027,2,0,L|146:360,1,70,8|2,0:0|0:0,0:0:0:0:
193,328,81433,6,0,B|258:355|258:355|330:303,1,140,6|8,0:0|0:0,0:0:0:0:
358,279,82041,1,0,0:0:0:0:
401,243,82243,2,0,L|465:270,2,70,2|0|8,0:0|0:0|0:0,0:0:0:0:
371,195,82851,1,2,0:0:0:0:
341,147,83054,6,0,L|211:93,1,140,6|8,0:0|0:0,0:0:0:0:
161,69,83662,1,0,0:0:0:0:
110,45,83865,2,0,P|36:98|65:160,1,140,2|8,0:0|0:0,0:0:0:0:
86,238,84676,6,0,L|177:276,1,70,6|0,0:0|0:0,0:0:0:0:
165,210,85081,2,0,L|259:180,1,70,8|0,0:0|0:0,0:0:0:0:
205,139,85487,2,0,B|243:80|243:80|330:54,1,140,2|8,0:0|0:0,0:0:0:0:
364,46,86095,1,2,0:0:0:0:
419,35,86297,5,6,0:0:0:0:
444,144,86703,1,8,0:0:0:0:
335,171,87108,2,0,L|297:229,1,70,2|0,0:0|0:0,0:0:0:0:
253,194,87514,2,0,L|186:214,1,70,8|2,0:0|0:0,0:0:0:0:
133,233,87919,6,0,P|59:180|88:118,1,140,6|8,0:0|0:0,0:0:0:0:
99,98,88527,1,0,0:0:0:0:
137,57,88730,2,0,L|72:30,2,70,2|0|8,0:0|0:0|0:0,0:0:0:0:
188,80,89338,1,2,0:0:0:0:
238,101,89541,6,0,P|286:147|265:211,1,140,6|8,0:0|0:0,0:0:0:0:
230,255,90149,1,0,0:0:0:0:
194,297,90351,2,0,L|342:359,1,140,2|8,0:0|0:0,0:0:0:0:
393,265,91162,6,0,L|265:211,1,140,6|8,0:0|0:0,0:0:0:0:
247,157,91770,1,0,0:0:0:0:
228,103,91973,2,0,L|98:48,1,140,2|8,0:0|0:0,0:0:0:0:
91,104,92581,1,0,0:0:0:0:
86,160,92784,6,0,B|150:187|150:187|171:254,1,140,6|8,0:0|0:0,0:0:0:0:
189,307,93392,1,0,0:0:0:0:
206,360,93595,2,0,B|270:386|270:386|333:354,1,140,2|8,0:0|0:0,0:0:0:0:
301,246,94406,6,0,B|280:179|280:179|318:120,1,140,6|8,0:0|0:0,0:0:0:0:
354,77,95014,1,0,0:0:0:0:
390,34,95216,2,0,L|250:34,1,140,6|8,0:0|0:0,0:0:0:0:
215,78,95824,1,0,0:0:0:0:
179,121,96027,6,0,B|102:121|102:121|63:171,1,140,6|8,0:0|0:0,0:0:0:0:
63,227,96635,1,0,0:0:0:0:
63,283,96838,2,0,B|102:333|102:333|178:333,1,140,2|8,0:0|0:0,0:0:0:0:
256,252,97649,6,0,B|332:251|332:251|371:201,1,140,6|8,0:0|0:0,0:0:0:0:
405,156,98257,1,0,0:0:0:0:
438,111,98460,2,0,L|298:111,1,140,2|8,0:0|0:0,0:0:0:0:
186,111,99270,6,0,P|124:140|102:205,1,140,6|8,0:0|0:0,0:0:0:0:
106,261,99879,2,0,P|177:309|216:218,1,210,6|6,0:0|0:0,0:0:0:0:
256,192,100892,12,0,103324,0:0:0:0:
260,261,113865,5,6,0:0:0:0:
312,241,114068,1,0,0:0:0:0:
364,221,114270,2,0,B|454:184,1,70,8|0,0:0|0:0,0:0:0:0:
399,146,114676,2,0,B|444:59,1,70,2|0,0:0|0:0,0:0:0:0:
456,33,115082,1,8,0:0:0:0:
344,19,115487,5,2,0:0:0:0:
319,69,115689,1,0,0:0:0:0:
294,119,115892,2,0,B|207:73,1,70,8|0,0:0|0:0,0:0:0:0:
210,138,116297,2,0,B|114:158,1,70,2|0,0:0|0:0,0:0:0:0:
86,166,116703,1,8,0:0:0:0:
84,278,117108,5,2,0:0:0:0:
139,264,117311,1,0,0:0:0:0:
194,253,117514,2,0,B|262:238,1,70,8|0,0:0|0:0,0:0:0:0:
270,293,117919,2,0,B|332:325,1,70,2|0,0:0|0:0,0:0:0:0:
381,352,118325,1,8,0:0:0:0:
430,251,118730,6,0,P|434:193|369:141,1,140,2|8,0:0|0:0,0:0:0:0:
321,141,119338,1,0,0:0:0:0:
262,139,119541,2,0,P|209:98|208:30,1,140,2|8,0:0|0:0,0:0:0:0:
320,41,120352,5,6,0:0:0:0:
375,46,120554,1,0,0:0:0:0:
430,51,120757,2,0,L|457:123,1,70,8|0,0:0|0:0,0:0:0:0:
400,129,121162,2,0,L|374:201,1,70,2|0,0:0|0:0,0:0:0:0:
357,248,121569,1,8,0:0:0:0:
319,353,121974,5,2,0:0:0:0:
266,335,122176,1,0,0:0:0:0:
213,316,122379,2,0,L|140:290,1,70,8|0,0:0|0:0,0:0:0:0:
171,242,122784,2,0,L|131:175,1,70,2|0,0:0|0:0,0:0:0:0:
108,132,123190,1,8,0:0:0:0:
10,76,123595,5,2,0:0:0:0:
48,35,123797,1,0,0:0:0:0:
101,19,124000,2,0,P|135:17|165:34,1,70,8|0,0:0|0:0,0:0:0:0:
205,73,124406,2,0,P|222:103|222:138,1,70,2|0,0:0|0:0,0:0:0:0:
203,191,124811,1,8,0:0:0:0:
108,250,125216,6,0,P|89:220|89:186,1,70,2|0,0:0|0:0,0:0:0:0:
108,132,125622,2,0,L|379:64,1,280,8|8,0:0|0:0,0:0:0:0:
426,95,126635,1,0,0:0:0:0:
472,126,126838,6,0,P|510:182|499:249,1,140,6|8,0:0|0:0,0:0:0:0:
445,264,127446,2,0,L|309:298,1,140
254,310,128054,1,8,0:0:0:0:
141,298,128460,6,0,P|138:332|153:363,2,70,6|0|8,0:0|0:0|0:0,0:0:0:0:
161,245,129068,1,0,0:0:0:0:
180,192,129270,2,0,P|191:124|152:68,1,140,2|8,0:0|0:0,0:0:0:0:
74,149,130082,5,6,0:0:0:0:
72,204,130284,2,0,L|-10:186,2,70,0|8|0,0:0|0:0|0:0,0:0:0:0:
69,260,130892,2,0,P|113:312|181:320,1,140,2|8,0:0|0:0,0:0:0:0:
232,296,131500,1,0,0:0:0:0:
283,274,131703,6,0,L|449:310,1,140,6|8,0:0|0:0,0:0:0:0:
443,194,132514,2,0,L|525:212,2,70,2|0|8,0:0|0:0|0:0,0:0:0:0:
388,182,133122,1,0,0:0:0:0:
333,170,133324,6,0,P|273:136|254:70,1,140,6|8,0:0|0:0,0:0:0:0:
258,15,133932,2,0,P|180:23|126:140,1,210,0|8,0:0|0:0,0:0:0:0:
128,243,134946,6,0,L|19:268,2,105,6|6|6,0:0|0:0|0:0,0:0:0:0:
183,233,135757,1,6,0:0:0:0:
256,148,136162,1,2,0:0:0:0:
329,233,136568,6,0,L|429:256,1,70,6|0,0:0|0:0,0:0:0:0:
404,193,136973,2,0,L|495:146,1,70,8|0,0:0|0:0,0:0:0:0:
432,115,137379,2,0,P|412:49|352:16,1,140,2|8,0:0|0:0,0:0:0:0:
296,13,137987,1,2,0:0:0:0:
240,8,138189,5,6,0:0:0:0:
179,101,138594,1,8,0:0:0:0:
128,126,138797,1,0,0:0:0:0:
77,150,139000,2,0,L|-14:197,1,70,2|0,0:0|0:0,0:0:0:0:
47,227,139406,2,0,L|7:321,1,70,8|2,0:0|0:0,0:0:0:0:
73,304,139811,6,0,P|115:359|183:367,1,140,6|8,0:0|0:0,0:0:0:0:
236,350,140419,1,0,0:0:0:0:
289,334,140622,2,0,L|268:267,2,70,2|0|8,0:0|0:0|0:0,0:0:0:0:
342,318,141230,1,2,0:0:0:0:
394,302,141433,6,0,P|445:256|448:187,1,140,6|8,0:0|0:0,0:0:0:0:
433,134,142040,1,0,0:0:0:0:
418,79,142243,2,0,B|261:127,1,140,2|8,0:0|0:0,0:0:0:0:
240,223,143054,6,0,L|173:243,1,70,6|0,0:0|0:0,0:0:0:0:
166,187,143460,2,0,L|101:159,1,70,8|0,0:0|0:0,0:0:0:0:
133,113,143865,2,0,B|101:51|101:51|168:33,1,140,2|8,0:0|0:0,0:0:0:0:
223,21,144473,1,2,0:0:0:0:
277,7,144675,5,6,0:0:0:0:
375,60,145081,1,8,0:0:0:0:
316,155,145487,2,0,B|334:222,1,70,2|0,0:0|0:0,0:0:0:0:
278,228,145892,2,0,B|248:290,1,70,8|10,0:0|0:0,0:0:0:0:
201,260,146297,6,0,B|138:289|138:289|114:222,1,140,6|8,0:0|0:0,0:0:0:0:
96,169,146906,1,0,0:0:0:0:
78,116,147108,2,0,B|15:145,2,70,2|0|8,0:0|0:0|0:0,0:0:0:0:
119,77,147716,1,2,0:0:0:0:
160,39,147919,6,0,B|216:14|216:14|288:45,1,140,6|8,0:0|0:0,0:0:0:0:
299,100,148527,1,0,0:0:0:0:
310,154,148730,2,0,B|381:184|381:184|438:159,1,140,2|8,0:0|0:0,0:0:0:0:
495,62,149541,6,0,B|424:32|424:32|366:56,1,140,6|8,0:0|0:0,0:0:0:0:
315,81,150149,1,0,0:0:0:0:
264,105,150351,2,0,P|196:115|140:74,1,140,2|8,0:0|0:0,0:0:0:0:
88,56,150960,1,0,0:0:0:0:
40,85,151162,6,0,P|-1:140|10:207,1,140,6|8,0:0|0:0,0:0:0:0:
33,258,151770,1,0,0:0:0:0:
55,309,151973,2,0,B|126:339|126:339|183:314,1,140,2|8,0:0|0:0,0:0:0:0:
282,259,152784,6,0,B|339:234|339:234|410:264,1,140,6|8,0:0|0:0,0:0:0:0:
458,235,153392,1,0,0:0:0:0:
447,179,153595,2,0,B|376:149|376:149|350:91,1,140,6|8,0:0|0:0,0:0:0:0:
300,65,154203,1,0,0:0:0:0:
249,41,154406,6,0,B|191:65|191:65|120:35,1,140,6|8,0:0|0:0,0:0:0:0:
73,65,155014,1,0,0:0:0:0:
84,121,155217,2,0,B|155:151|155:151|180:208,1,140,2|8,0:0|0:0,0:0:0:0:
223,311,156027,6,0,P|278:351|345:340,1,140,6|8,0:0|0:0,0:0:0:0:
387,302,156635,1,0,0:0:0:0:
422,258,156838,2,0,P|429:190|385:137,1,140,2|8,0:0|0:0,0:0:0:0:
276,112,157649,6,0,P|213:139|189:203,1,140,6|8,0:0|0:0,0:0:0:0:
192,259,158257,2,0,L|86:76,1,210,6|6,0:0|0:0,0:0:0:0:
191,38,159270,5,6,0:0:0:0:
276,112,159676,1,8,0:0:0:0:
304,160,159879,2,2,B|353:244|353:244|468:295,1,210,0|8,0:0|0:0,0:0:0:0:
510,192,160892,6,2,L|416:151,1,70,2|0,0:0|0:0,0:0:0:0:
413,118,161297,2,0,L|339:86,9,46.6666666666667,10|0|0|2|2|2|10|2|2|2,0:0|0:0|0:0|0:0|0:0|0:0|0:0|0:0|0:0|0:0,0:0:0:0:
318,78,162716,6,2,L|359:-16,2,70,6|12|4,0:0|0:0|0:0,0:0:0:0:
298,130,163324,2,2,P|245:173|178:167,1,140,0|12,0:0|0:0,0:0:0:0:
125,146,163933,2,2,P|57:139|4:183,1,140,0|0,0:0|0:0,0:0:0:0:
148,304,166162,6,2,B|256:347|256:347|364:304,1,233.333333333333,6|4,0:0|0:0,0:0:0:0:
406,102,167581,6,2,L|340:127,1,70,4|12,0:0|0:0,0:0:0:0:
172,128,168392,2,2,L|41:76,1,140,4|4,0:0|0:0,0:0:0:0:
93,55,169000,6,2,L|158:29,2,70,2|2|6,0:0|0:0|0:0,0:0:0:0:
32,272,170216,1,6,0:0:0:0:
144,292,170622,6,0,P|256:363|368:292,1,280,2|2,0:0|0:0,0:0:0:0:
394,242,171635,2,0,P|392:200|443:143,1,105,6|6,0:0|0:0,0:0:0:0:
503,115,172243,5,6,0:0:0:0:
423,36,172648,1,8,0:0:0:0:
367,39,172851,2,2,P|330:126|217:83,1,210,0|8,0:0|0:0,0:0:0:0:
157,24,173865,6,2,P|131:46|121:79,1,70,2|0,0:0|0:0,0:0:0:0:
151,187,174473,2,0,P|142:221|116:244,1,70,2|2,0:0|0:0,0:0:0:0:
72,280,174879,1,2,0:0:0:0:
28,314,175081,2,0,L|74:366,1,70,2|2,0:0|0:0,0:0:0:0:
130,366,175487,5,2,0:0:0:0:
185,366,175689,2,2,L|185:293,2,70,4|12|4,0:0|0:0|0:0,0:0:0:0:
237,365,176297,2,2,B|302:365|302:365|353:310,1,140,0|12,0:0|0:0,0:0:0:0:
389,267,176906,2,2,B|439:211|439:211|504:211,1,140,0|0,0:0|0:0,0:0:0:0:
264,80,178730,5,6,0:0:0:0:
160,38,179135,1,8,0:0:0:0:
105,49,179338,2,2,P|39:116|122:203,1,210,0|8,0:0|0:0,0:0:0:0:
143,299,180351,6,2,P|174:284|192:254,1,70,2|0,0:0|0:0,0:0:0:0:
187,141,180960,2,0,P|222:140|252:157,1,70,2|2,0:0|0:0,0:0:0:0:
293,195,181365,1,2,0:0:0:0:
332,231,181568,2,0,P|362:249|397:248,1,70,10|2,0:0|0:0,0:0:0:0:
401,78,182379,6,2,L|171:14,1,233.333333333333,6|0,0:0|0:0,0:0:0:0:
41,170,183797,6,2,L|108:189,1,70,4|12,0:0|0:0,0:0:0:0:
226,309,184608,2,2,L|381:352,1,140,4|4,0:0|0:0,0:0:0:0:
286,82,188460,6,8,L|506:143,2,210.000008010865
170,208,190892,2,0,L|272:236,1,105.000004005432,8|8,0:0|0:0,0:0:0:0:
353,256,191703,6,0,P|426:307|444:371,2,157.500006008148,8|8|8,0:0|0:0|0:0,0:0:0:0:
272,236,193324,2,0,P|199:185|181:121,2,157.500006008148,8|8|8,0:0|0:0|0:0,0:0:0:0:
353,256,194946,6,0,L|454:283,2,105.000004005432,12|8|8,0:0|0:0|0:0,0:0:0:0:
265,112,196568,6,0,L|292:10,2,105.000004005432,12|8|8,0:0|0:0|0:0,0:0:0:0:
114,187,198189,6,0,L|12:159,2,105.000004005432,12|8|8,0:0|0:0|0:0,0:0:0:0:
274,236,199811,2,0,P|347:287|365:351,2,157.500006008148,12|8|0,0:0|0:0|0:0,0:0:0:0:
186,165,201433,6,0,L|92:139,1,70,6|0,0:0|0:0,0:0:0:0:
143,96,201838,2,0,L|87:15,1,70,8|0,0:0|0:0,0:0:0:0:
155,18,202243,2,0,B|289:55,1,140,2|8,0:0|0:0,0:0:0:0:
343,72,202851,1,2,0:0:0:0:
396,89,203054,5,6,0:0:0:0:
472,170,203460,1,8,0:0:0:0:
457,224,203662,1,0,0:0:0:0:
442,278,203865,2,0,L|416:372,1,70,2|0,0:0|0:0,0:0:0:0:
372,321,204270,2,0,L|291:376,1,70,8|2,0:0|0:0,0:0:0:0:
291,309,204676,6,0,B|219:302|219:302|197:237,1,140,6|8,0:0|0:0,0:0:0:0:
182,183,205284,1,0,0:0:0:0:
167,128,205487,2,0,L|69:118,2,70,2|0|8,0:0|0:0|0:0,0:0:0:0:
197,80,206095,1,2,0:0:0:0:
227,33,206297,6,0,L|366:46,1,140,6|8,0:0|0:0,0:0:0:0:
397,93,206906,1,0,0:0:0:0:
428,139,207108,2,0,P|487:172|507:237,1,140,2|8,0:0|0:0,0:0:0:0:
492,349,207919,6,0,L|394:339,1,70,6|0,0:0|0:0,0:0:0:0:
379,306,208324,2,0,L|281:296,1,70,8|0,0:0|0:0,0:0:0:0:
266,262,208730,2,0,B|197:255|197:255|148:204,1,140,2|8,0:0|0:0,0:0:0:0:
109,163,209338,1,2,0:0:0:0:
70,122,209541,5,6,0:0:0:0:
95,12,209947,1,8,0:0:0:0:
202,41,210351,2,0,L|271:47,1,70,2|0,0:0|0:0,0:0:0:0:
259,102,210757,2,0,L|308:151,1,70,8|2,0:0|0:0,0:0:0:0:
263,184,211162,6,0,P|247:251|189:288,1,140,6|8,0:0|0:0,0:0:0:0:
134,296,211770,1,0,0:0:0:0:
78,303,211973,2,0,L|83:372,2,70,2|0|8,0:0|0:0|0:0,0:0:0:0:
73,247,212581,1,2,0:0:0:0:
67,190,212784,6,0,P|83:124|140:87,1,140,6|8,0:0|0:0,0:0:0:0:
196,81,213392,1,0,0:0:0:0:
251,75,213595,2,0,L|408:64,1,140,2|8,0:0|0:0,0:0:0:0:
439,165,214406,6,0,B|372:169|372:169|335:232,1,140,6|8,0:0|0:0,0:0:0:0:
309,282,215014,1,0,0:0:0:0:
283,331,215216,2,0,L|143:340,1,140,2|8,0:0|0:0,0:0:0:0:
87,345,215824,1,0,0:0:0:0:
31,348,216027,6,0,P|-17:310|25:265,1,140,6|8,0:0|0:0,0:0:0:0:
80,260,216635,1,0,0:0:0:0:
135,255,216838,2,0,P|177:209|128:171,1,140,2|8,0:0|0:0,0:0:0:0:
15,171,217649,6,0,P|31:104|88:67,1,140,6|8,0:0|0:0,0:0:0:0:
144,62,218257,1,0,0:0:0:0:
199,57,218460,2,0,L|339:48,1,140,6|8,0:0|0:0,0:0:0:0:
394,43,219068,1,0,0:0:0:0:
448,38,219270,6,0,P|497:77|452:120,1,140,6|8,0:0|0:0,0:0:0:0:
396,127,219879,1,0,0:0:0:0:
340,133,220081,2,0,P|295:176|343:215,1,140,2|8,0:0|0:0,0:0:0:0:
454,216,220892,6,0,P|439:283|382:320,1,140,6|8,0:0|0:0,0:0:0:0:
326,326,221500,1,0,0:0:0:0:
271,331,221703,2,0,L|131:340,1,140,2|8,0:0|0:0,0:0:0:0:
57,255,222514,6,0,P|30:191|54:128,1,140,6|8,0:0|0:0,0:0:0:0:
95,90,223122,2,0,P|201:132|249:43,1,210,6|6,0:0|0:0,0:0:0:0:
256,192,224135,12,8,226973,0:0:0:0:
249,68,227379,6,2,L|404:88,1,140,6|8,0:0|0:0,0:0:0:0:
409,195,228189,2,0,L|502:207,2,70,2|2|8,0:0|0:0|0:0,0:0:0:0:
361,296,229000,6,2,L|222:278,1,140,6|8,0:0|0:0,0:0:0:0:
166,269,229608,1,0,0:0:0:0:
110,259,229811,1,2,0:0:0:0:
54,248,230014,2,0,B|12:210|12:210|22:127,1,140,2|2,0:0|0:0,0:0:0:0:
33,72,230622,6,2,L|171:89,1,140,6|8,0:0|0:0,0:0:0:0:
222,65,231230,1,0,0:0:0:0:
272,40,231433,2,0,L|365:52,2,70,2|2|8,0:0|0:0|0:0,0:0:0:0:
171,89,232243,6,2,L|33:72,1,140,6|8,0:0|0:0,0:0:0:0:
22,127,232851,1,0,0:0:0:0:
11,182,233054,2,0,L|-1:275,2,70,2|2|8,0:0|0:0|0:0,0:0:0:0:
101,115,233865,6,2,L|239:132,1,140,6|8,0:0|0:0,0:0:0:0:
306,222,234676,2,0,L|294:315,2,70,2|2|8,0:0|0:0|0:0,0:0:0:0:
396,155,235487,6,2,B|405:85|405:85|353:38,1,140,6|8,0:0|0:0,0:0:0:0:
297,32,236095,1,0,0:0:0:0:
241,29,236297,2,2,P|139:61|79:171,1,210,2|8,0:0|0:0,0:0:0:0:
71,198,237108,6,0,B|73:261|127:292|127:292|352:124|352:124|404:189|404:189|236:316|236:316|285:381|285:381|475:239,1,980,6|2,0:0|0:0,0:0:0:0:
256,192,240351,12,0,242243,0:0:0:0:
256,192,242987,12,0,244608,0:0:0:0:
