osu file format v14

[General]
AudioFilename: audio.mp3
AudioLeadIn: 0
PreviewTime: 55186
Countdown: 0
SampleSet: Soft
StackLeniency: 0.7
Mode: 0
LetterboxInBreaks: 0
WidescreenStoryboard: 0

[Editor]
Bookmarks: 17246,38962,52171,58440,62022,65604,72321
DistanceSpacing: 1.2
BeatDivisor: 4
GridSize: 32
TimelineZoom: 2.5

[Metadata]
Title:Der groesste Traeumer (TV Size)
TitleUnicode:Der größte Träumer (TV Size)
Artist:Frank Schindel
ArtistUnicode:Frank Schindel
Creator:PaRaDogi
Version:An die Spitze
Source:デジモンテイマーズ
Tags:tamers Dejimon Teimāzu log on now animestyle gidz mokobe anime german stage and screen 2001 Digital Monsters Vol. 3 the biggest dreamer Digimon 03 Toei Animation
BeatmapID:3152949
BeatmapSetID:1542483

[Difficulty]
HPDrainRate:5
CircleSize:5
OverallDifficulty:8.5
ApproachRate:9
SliderMultiplier:1.9
SliderTickRate:1

[Events]
//Background and Video events
0,0,"4bVMNiO-digimon-tamers-wallpaper.jpg",0,0
Video,-255,"aaa.mp4"
//Break Periods
//Storyboard Layer 0 (Background)
//Storyboard Layer 1 (Fail)
//Storyboard Layer 2 (Pass)
//Storyboard Layer 3 (Foreground)
//Storyboard Layer 4 (Overlay)
//Storyboard Sound Samples

[TimingPoints]
495,600,4,2,1,55,1,0
2895,-133.333333333333,4,2,1,55,0,0
12519,500,4,2,1,55,1,0
12519,-181.818181818181,4,2,1,55,0,0
12894,-181.818181818181,4,2,1,5,0,0
13019,-133.333333333333,4,2,1,55,0,0
13394,-133.333333333333,4,2,1,5,0,0
13519,-133.333333333333,4,2,1,55,0,0
14530,447.761194029851,4,2,1,65,1,0
14530,-100,4,2,1,65,0,0
25276,-133.333333333333,4,2,1,55,0,0
52141,-100,4,2,1,65,0,0
55276,-333.333333333333,4,2,1,45,0,0
55724,-83.3333333333333,4,2,1,75,0,1
62440,-83.3333333333333,4,2,1,55,0,1
77216,-100,4,2,1,65,0,0

[Colours]
Combo1 : 255,184,113
Combo2 : 255,98,98
Combo3 : 125,184,255
Combo4 : 113,255,113

[HitObjects]
85,88,2895,6,0,P|67:45|63:39,1,35.625001358986,2|0,0:0|0:0,0:0:0:0:
139,29,3195,2,0,P|157:72|161:78,1,35.625001358986,2|0,0:0|0:0,0:0:0:0:
212,138,3495,2,0,P|166:131|139:132,1,71.2500027179719,2|0,0:0|0:0,0:0:0:0:
14,233,3945,2,0,B|41:241|65:224|63:208|78:196|124:199,1,106.875004076958,2|2,0:0|0:0,0:0:0:0:
248,285,4695,1,2,0:0:0:0:
283,128,4995,1,2,0:0:0:0:
150,262,5295,6,0,P|175:305|174:314,1,35.625001358986,2|0,0:0|0:0,0:0:0:0:
234,194,5595,2,0,P|209:237|210:246,1,35.625001358986,2|0,0:0|0:0,0:0:0:0:
173,144,5895,2,0,P|191:102|210:99,1,53.4375020384789,2|0,0:0|0:0,0:0:0:0:
324,68,6420,1,2,0:0:0:0:
504,203,7695,6,0,B|474:233|436:224|435:202|407:192|351:231,1,142.500005435944,2|0,0:0|0:0,0:0:0:0:
510,213,8895,2,0,B|480:183|442:192|441:214|413:224|357:185,1,142.500005435944,2|0,0:0|0:0,0:0:0:0:
222,121,10095,6,0,P|214:74|282:57,1,106.875004076958,2|0,0:0|0:0,0:0:0:0:
317,11,10695,2,0,P|345:38|383:24,1,71.2500027179719,2|0,0:0|0:0,0:0:0:0:
298,172,11295,2,0,B|240:180|198:205|225:257|202:297|110:290,1,213.750008153916,2|0,0:0|0:0,0:0:0:0:
88,364,12519,6,0,P|84:334|35:318,1,78.3750023918153,2|2,0:0|0:0,0:0:0:0:
4,259,13019,6,0,P|52:211|28:164,1,106.875004076958,2|2,0:0|0:0,0:0:0:0:
23,95,13519,5,2,0:0:0:0:
33,81,13644,1,2,0:0:0:0:
118,120,13769,1,2,0:0:0:0:
106,95,13894,1,2,0:0:0:0:
177,66,14019,1,2,0:0:0:0:
192,33,14144,1,2,0:0:0:0:
245,89,14269,1,2,0:0:0:0:
284,147,14394,1,2,0:0:0:0:
217,266,14530,6,0,P|293:238|330:233,1,95,4|0,1:0|0:0,0:0:0:0:
216,353,14866,1,0,0:0:0:0:
145,315,14978,2,0,P|121:257|114:213,1,95,12|0,0:0|0:0,0:0:0:0:
170,80,15314,1,4,0:0:0:0:
113,33,15426,2,0,P|64:27|46:26,1,47.5,4|0,1:0|0:0,0:0:0:0:
247,137,15650,2,0,P|206:162|192:168,1,47.5,4|0,0:0|0:0,0:0:0:0:
296,12,15874,1,8,0:0:0:0:
333,0,15986,1,0,0:0:0:0:
370,15,16097,1,0,0:0:0:0:
383,55,16209,1,0,0:0:0:0:
342,118,16321,5,2,1:0:0:0:
383,177,16432,2,0,P|437:159|450:153,1,47.5,2|0,0:0|0:0,0:0:0:0:
297,277,16656,1,2,0:0:0:0:
323,337,16769,2,0,P|372:360|384:360,1,47.5,8|2,0:0|0:0,0:0:0:0:
170,266,16993,2,0,P|220:241|239:238,1,47.5,0|2,0:0|0:0,0:0:0:0:
336,113,17217,5,2,1:0:0:0:
38,45,17441,1,2,1:0:0:0:
121,330,17664,2,0,P|95:286|83:279,1,47.5,10|0,0:0|0:0,0:0:0:0:
164,251,17889,2,0,P|171:273|186:291,1,47.5,10|0,0:0|0:0,0:0:0:0:
18,169,18112,6,0,P|73:137|116:127,1,95,4|0,1:0|0:0,0:0:0:0:
184,35,18448,1,0,0:0:0:0:
243,73,18559,2,0,P|233:143|215:167,1,95,12|0,0:0|0:0,0:0:0:0:
325,25,18895,1,4,0:0:0:0:
353,91,19007,2,0,P|408:111|421:110,1,47.5,4|0,1:0|0:0,0:0:0:0:
250,229,19231,2,0,P|301:204|314:205,1,47.5,4|0,0:0|0:0,0:0:0:0:
123,128,19455,1,8,0:0:0:0:
105,166,19567,1,0,0:0:0:0:
114,208,19680,1,0,0:0:0:0:
152,229,19791,1,0,0:0:0:0:
199,142,19903,5,2,1:0:0:0:
172,77,20015,2,0,P|158:24|145:8,1,47.5,2|0,0:0|0:0,0:0:0:0:
359,122,20238,1,2,0:0:0:0:
330,60,20351,2,0,P|383:28|390:20,1,47.5,8|2,0:0|0:0,0:0:0:0:
275,155,20575,2,0,P|325:186|334:198,1,47.5,0|2,0:0|0:0,0:0:0:0:
138,49,20799,5,0,1:0:0:0:
209,358,21023,1,2,1:0:0:0:
445,172,21247,2,0,P|461:118|467:107,1,47.5,10|0,0:0|0:0,0:0:0:0:
390,110,21471,2,0,P|374:164|368:175,1,47.5,10|0,0:0|0:0,0:0:0:0:
293,368,21694,6,0,P|269:322|230:283,1,95,6|2,1:0|0:0,0:0:0:0:
235,199,22030,2,0,B|177:196|141:229|159:243|143:288|59:286,1,190,6|0,1:0|0:0,0:0:0:0:
132,146,22590,5,10,3:0:0:0:
169,89,22702,1,8,3:0:0:0:
237,98,22814,1,8,3:0:0:0:
302,209,22926,2,0,P|332:145|394:67,1,142.5,6|0,0:0|0:0,0:0:0:0:
401,356,23486,6,0,B|365:326|369:299|388:282|407:250|346:196,1,142.5,6|0,0:0|0:0,0:0:0:0:
256,141,23933,1,2,3:0:0:0:
197,112,24045,1,2,3:0:0:0:
155,129,24157,1,2,3:0:0:0:
145,157,24269,1,2,3:0:0:0:
115,264,24380,6,0,P|69:202|54:191,2,63.3333333333333,0|0|0,3:0|3:0|3:0,0:0:0:0:
152,371,24829,2,0,P|181:313|222:281,1,95,8|0,0:0|0:0,0:0:0:0:
383,184,25276,6,0,B|340:189|316:167|326:142|306:118|250:127,1,142.500005435944,6|8,1:0|0:0,0:0:0:0:
124,48,25948,1,0,0:0:0:0:
95,115,26172,2,0,P|61:93|43:89,1,35.625001358986,2|0,1:0|0:0,0:0:0:0:
214,2,26396,2,0,P|182:30|172:30,1,35.625001358986,2|0,0:0|0:0,0:0:0:0:
262,125,26620,2,0,P|267:83|293:56,1,71.2500027179719,10|2,0:0|0:0,0:0:0:0:
325,242,27068,6,0,P|314:280|284:301,1,71.2500027179719,2|0,1:0|0:0,0:0:0:0:
256,359,27403,1,2,0:0:0:0:
249,373,27515,2,0,P|221:348|182:340,1,71.2500027179719,10|2,0:0|0:0,0:0:0:0:
110,231,27963,2,0,B|67:242|54:264|66:286|46:317|-9:317,1,142.500005435944,0|8,1:0|0:0,0:0:0:0:
139,138,28635,1,0,0:0:0:0:
165,154,28747,1,0,0:0:0:0:
218,197,28859,6,0,P|197:238|195:244,1,35.625001358986,2|0,1:0|0:0,0:0:0:0:
296,164,29083,2,0,P|286:118|264:75,1,71.2500027179719,2|8,0:0|0:0,0:0:0:0:
408,0,29530,2,0,B|373:30|378:73|392:79|398:109|367:150,1,142.500005435944,2|0,0:0|0:0,0:0:0:0:
454,273,30202,1,10,0:0:0:0:
469,207,30426,2,0,P|505:188|512:180,1,35.625001358986,2|0,0:0|0:0,0:0:0:0:
383,300,30650,6,0,P|412:338|412:364,1,71.2500027179719,2|2,1:0|0:0,0:0:0:0:
312,301,30986,1,2,0:0:0:0:
298,290,31097,2,0,P|296:251|306:228,1,35.625001358986,8|2,0:0|0:0,0:0:0:0:
239,351,31321,2,0,P|222:320|202:309,1,35.625001358986,2|0,0:0|0:0,0:0:0:0:
188,171,31545,2,0,P|151:311|143:330,1,142.500005435944,0|8,1:0|0:0,0:0:0:0:
108,155,32217,1,0,0:0:0:0:
99,137,32329,1,0,0:0:0:0:
36,93,32441,6,0,P|70:68|95:40,1,71.2500027179719,6|2,1:0|0:0,0:0:0:0:
181,109,32889,2,0,P|213:133|245:140,1,71.2500027179719,10|2,0:0|0:0,0:0:0:0:
306,208,33224,1,2,0:0:0:0:
317,203,33336,2,0,B|347:200|361:175|356:166|364:144|420:127,1,106.875004076958,0|0,1:0|0:0,0:0:0:0:
397,67,33784,1,10,0:0:0:0:
213,204,34008,2,0,P|245:236|250:258,1,35.625001358986,2|0,0:0|0:0,0:0:0:0:
324,344,34232,6,0,P|276:317|221:342,1,106.875004076958,2|0,1:0|0:0,0:0:0:0:
149,373,34680,2,0,P|131:342|107:311,1,71.2500027179719,10|2,0:0|0:0,0:0:0:0:
14,266,35015,1,2,0:0:0:0:
5,250,35127,2,0,P|25:215|25:201,1,35.625001358986,0|0,1:0|0:0,0:0:0:0:
135,165,35351,2,0,P|151:212|157:217,1,35.625001358986
32,104,35575,1,8,0:0:0:0:
48,75,35687,1,0,0:0:0:0:
89,13,35799,2,0,P|121:37|133:42,1,35.625001358986
205,129,36023,6,0,P|240:99|285:88,1,71.2500027179719,2|2,1:0|0:0,0:0:0:0:
337,43,36359,1,0,0:0:0:0:
323,31,36471,2,0,P|316:-7|319:-12,1,35.625001358986,8|0,0:0|0:0,0:0:0:0:
316,181,36694,2,0,P|332:130|327:99,1,71.2500027179719,2|0,0:0|1:0,0:0:0:0:
268,238,37142,1,2,0:0:0:0:
366,363,37366,2,0,P|406:378|415:388,1,35.625001358986,10|0,0:0|0:0,0:0:0:0:
247,321,37590,2,0,P|283:308|300:297,1,35.625001358986,2|0,0:0|0:0,0:0:0:0:
162,259,37813,6,0,P|161:312|125:371,1,106.875004076958,2|0,1:0|0:0,0:0:0:0:
82,268,38262,2,0,P|66:233|55:225,1,35.625001358986,8|0,0:0|0:0,0:0:0:0:
142,152,38486,2,0,P|126:191|131:210,1,35.625001358986,2|0,0:0|0:0,0:0:0:0:
110,77,38709,1,2,1:0:0:0:
232,3,38933,5,0,1:0:0:0:
238,20,39045,1,0,1:0:0:0:
276,82,39157,5,8,0:0:0:0:
244,149,39269,1,8,0:0:0:0:
295,199,39381,1,8,0:0:0:0:
359,171,39493,1,8,0:0:0:0:
352,98,39605,6,0,P|394:80|426:73,1,71.2500027179719,6|0,0:0|0:0,0:0:0:0:
507,163,39941,1,2,0:0:0:0:
495,177,40053,2,0,P|456:153|445:143,2,35.625001358986,10|0|0,0:0|0:0|0:0,0:0:0:0:
439,249,40500,2,0,P|404:285|397:318,1,71.2500027179719,2|2,1:0|0:0,0:0:0:0:
286,368,40836,1,2,0:0:0:0:
303,351,40948,2,0,P|310:308|306:288,2,35.625001358986,8|0|0,0:0|0:0|0:0,0:0:0:0:
205,240,41396,6,0,P|169:206|152:201,1,35.625001358986,2|0,1:0|0:0,0:0:0:0:
286,119,41620,2,0,P|249:152|235:151,1,35.625001358986,2|0,0:0|0:0,0:0:0:0:
365,208,41844,2,0,P|366:164|399:130,1,71.2500027179719,10|0,0:0|0:0,0:0:0:0:
454,84,42180,1,0,0:0:0:0:
445,66,42291,1,2,1:0:0:0:
305,2,42515,5,2,1:0:0:0:
293,8,42627,1,2,1:0:0:0:
252,65,42739,5,8,0:0:0:0:
218,37,42851,1,8,0:0:0:0:
174,38,42963,1,10,0:0:0:0:
144,70,43075,1,8,0:0:0:0:
201,108,43187,6,0,P|179:154|166:180,1,71.2500027179719,2|0,1:0|0:0,0:0:0:0:
92,227,43523,1,0,0:0:0:0:
79,213,43635,2,0,P|52:183|39:177,2,35.625001358986,10|0|0,0:0|0:0|0:0,0:0:0:0:
82,341,44083,2,0,P|120:304|161:286,1,71.2500027179719,0|0,1:0|0:0,0:0:0:0:
233,219,44530,1,10,0:0:0:0:
265,238,44642,1,8,0:0:0:0:
277,275,44754,1,8,0:0:0:0:
268,312,44866,1,8,0:0:0:0:
235,340,44978,6,0,B|265:332|301:342|303:363|321:378|385:366,1,142.500005435944,2|10,1:0|0:0,0:0:0:0:
489,278,45650,2,0,P|479:316|484:327,1,35.625001358986
393,302,45874,2,0,P|410:258|398:223,1,71.2500027179719,0|0,1:0|0:0,0:0:0:0:
341,132,46321,1,10,0:0:0:0:
186,241,46545,1,10,0:0:0:0:
247,216,46657,1,10,0:0:0:0:
131,211,46769,6,0,P|162:259|171:284,1,71.2500027179719,2|2,1:0|0:0,0:0:0:0:
14,169,47217,2,0,P|32:126|68:88,1,71.2500027179719,10|2,0:0|0:0,0:0:0:0:
164,4,47665,2,0,P|192:43|206:73,1,71.2500027179719,2|2,1:0|0:0,0:0:0:0:
150,144,48000,1,2,0:0:0:0:
156,158,48112,2,0,B|189:164|201:149|199:133|214:120|273:130,1,106.875004076958,8|0,0:0|0:0,0:0:0:0:
322,61,48560,5,2,1:0:0:0:
237,233,48784,1,0,0:0:0:0:
423,226,49008,1,10,0:0:0:0:
435,213,49120,1,0,0:0:0:0:
434,191,49232,1,2,0:0:0:0:
245,309,49456,2,0,P|229:342|232:378,1,71.2500027179719,2|2,1:0|0:0,0:0:0:0:
321,348,49791,1,2,0:0:0:0:
334,339,49903,2,0,P|324:295|317:288,1,35.625001358986,8|0,0:0|0:0,0:0:0:0:
225,200,50127,2,0,P|235:240|226:258,1,35.625001358986,2|0,0:0|0:0,0:0:0:0:
157,362,50351,6,0,B|110:365|93:338|106:322|88:286|28:302,1,142.500005435944,2|8,1:0|0:0,0:0:0:0:
1,151,51023,1,2,0:0:0:0:
10,161,51135,1,0,0:0:0:0:
16,177,51247,2,0,P|-11:205|-22:207,1,35.625001358986,2|0,1:0|0:0,0:0:0:0:
114,83,51471,2,0,P|77:55|73:46,1,35.625001358986,2|0,0:0|0:0,0:0:0:0:
137,209,51694,2,0,P|169:231|186:273,1,71.2500027179719,10|2,0:0|0:0,0:0:0:0:
226,172,52030,1,0,0:0:0:0:
232,160,52142,6,0,P|230:113|203:60,1,95,4|2,0:0|0:0,0:0:0:0:
333,216,52478,1,0,0:0:0:0:
323,220,52590,2,0,P|298:271|297:313,1,95,8|0,0:0|0:0,0:0:0:0:
470,165,53038,2,0,P|427:130|411:130,1,47.5,0|0,1:0|0:0,0:0:0:0:
355,4,53262,5,0,3:0:0:0:
309,60,53374,1,0,3:0:0:0:
246,41,53486,1,8,0:0:0:0:
231,6,53597,1,0,3:0:0:0:
210,4,53709,2,0,P|165:39|165:44,1,47.5,0|0,3:0|0:0,0:0:0:0:
108,117,53933,5,12,0:0:0:0:
139,181,54045,1,12,0:0:0:0:
138,252,54157,1,12,0:0:0:0:
91,309,54269,6,0,P|54:280|30:276,1,47.5,12|0,0:0|0:0,0:0:0:0:
250,151,54493,2,0,P|206:182|193:180,1,47.5,12|0,0:0|0:0,0:0:0:0:
351,319,54717,5,12,0:0:0:0:
373,252,54829,1,12,0:0:0:0:
454,23,55277,6,0,P|468:40|483:67,1,42.7499986953736,2|0,0:0|0:0,0:0:0:0:
503,136,55724,6,0,P|452:90|379:157,1,170.999994781494,4|0,0:0|0:0,0:0:0:0:
324,251,56171,2,0,P|300:191|277:178,1,56.9999982604981,10|2,0:0|0:0,0:0:0:0:
386,371,56396,2,0,P|410:311|433:298,1,56.9999982604981
294,110,56620,2,0,P|225:138|164:140,1,113.999996520996,2|0,1:0|0:0,0:0:0:0:
57,220,56956,1,0,0:0:0:0:
103,163,57068,2,0,P|114:105|115:85,1,56.9999982604981,10|0,0:0|0:0,0:0:0:0:
44,342,57291,2,0,P|26:279|26:259,1,56.9999982604981,2|0,0:0|0:0,0:0:0:0:
10,37,57515,6,0,P|70:13|129:13,1,113.999996520996,2|2,1:0|0:0,0:0:0:0:
232,62,57851,1,0,0:0:0:0:
285,109,57963,2,0,P|257:171|239:188,1,56.9999982604981,10|0,0:0|0:0,0:0:0:0:
184,284,58187,2,0,P|165:227|163:203,1,56.9999982604981,2|0,0:0|0:0,0:0:0:0:
277,373,58411,5,10,0:0:0:0:
342,348,58523,1,8,0:0:0:0:
392,269,58635,1,0,3:0:0:0:
453,302,58747,1,0,3:0:0:0:
420,140,58859,2,0,P|379:180|364:202,1,56.9999982604981,10|0,0:0|0:0,0:0:0:0:
282,95,59083,2,0,P|236:60|226:39,1,56.9999982604981,2|0,0:0|0:0,0:0:0:0:
80,13,59306,6,0,P|124:102|141:149,1,113.999996520996,6|0,0:0|0:0,0:0:0:0:
42,206,59642,1,0,0:0:0:0:
5,148,59754,2,0,P|28:79|35:74,1,56.9999982604981,10|0,0:0|0:0,0:0:0:0:
166,257,59978,2,0,P|138:203|127:197,1,56.9999982604981,2|0,0:0|0:0,0:0:0:0:
79,370,60202,5,2,1:0:0:0:
137,330,60314,1,0,0:0:0:0:
206,320,60426,1,0,0:0:0:0:
274,338,60538,1,0,0:0:0:0:
330,380,60650,2,0,P|385:358|396:341,1,56.9999982604981,10|0,0:0|0:0,0:0:0:0:
275,212,60874,2,0,P|219:203|204:208,1,56.9999982604981,2|0,0:0|0:0,0:0:0:0:
432,233,61097,6,0,B|473:199|472:162|459:151|452:116|489:63,1,170.999994781494,2|0,1:0|0:0,0:0:0:0:
339,0,61545,2,0,P|360:58|366:62,1,56.9999982604981,10|0,0:0|0:0,0:0:0:0:
282,146,61769,2,0,P|255:86|238:82,1,56.9999982604981,2|0,0:0|0:0,0:0:0:0:
127,10,61993,5,0,1:0:0:0:
70,48,62105,1,0,1:0:0:0:
79,115,62217,1,0,1:0:0:0:
144,133,62329,1,0,1:0:0:0:
197,85,62441,2,0,P|218:22|227:16,1,56.9999982604981,10|0,0:0|0:0,0:0:0:0:
16,172,62665,1,10,0:0:0:0:
55,227,62777,1,8,0:0:0:0:
31,295,62889,6,0,P|-18:324|-40:324,1,56.9999982604981,6|0,0:0|0:0,0:0:0:0:
175,244,63112,2,0,P|122:208|109:194,1,56.9999982604981,2|0,0:0|0:0,0:0:0:0:
213,365,63335,2,0,B|239:328|278:320|288:342|326:357|374:307,1,170.999994781494,10|0,0:0|0:0,0:0:0:0:
477,230,63783,2,0,P|401:240|412:278,1,113.999996520996,2|0,1:0|0:0,0:0:0:0:
346,149,64119,1,0,0:0:0:0:
389,95,64232,2,0,P|410:33|406:18,1,56.9999982604981,10|0,0:0|0:0,0:0:0:0:
241,226,64456,2,0,P|208:169|210:141,1,56.9999982604981,2|0,0:0|0:0,0:0:0:0:
165,3,64679,6,0,P|116:42|63:57,1,113.999996520996,2|0,1:0|0:0,0:0:0:0:
223,109,65015,1,0,0:0:0:0:
288,86,65127,2,0,P|310:26|301:3,1,56.9999982604981,10|0,0:0|0:0,0:0:0:0:
127,204,65350,2,0,P|86:153|79:125,1,56.9999982604981
317,221,65574,5,10,0:0:0:0:
353,279,65687,1,8,0:0:0:0:
319,338,65799,1,8,0:0:0:0:
251,338,65911,1,0,3:0:0:0:
216,278,66023,2,0,P|283:280|292:286,1,56.9999982604981,12|0,3:0|0:0,0:0:0:0:
21,287,66246,2,0,P|67:254|81:231,1,56.9999982604981,2|0,0:0|0:0,0:0:0:0:
199,57,66470,5,6,0:0:0:0:
2,153,66694,1,0,0:0:0:0:
250,238,66918,1,10,0:0:0:0:
270,222,67030,1,0,0:0:0:0:
275,196,67142,1,0,0:0:0:0:
260,176,67254,1,0,0:0:0:0:
204,131,67366,6,0,P|236:213|252:309,1,170.999994781494,6|0,1:0|0:0,0:0:0:0:
363,195,67814,1,10,0:0:0:0:
386,149,67926,1,0,0:0:0:0:
358,107,68038,1,0,0:0:0:0:
381,62,68150,1,0,0:0:0:0:
432,54,68262,6,2,P|489:74|519:76,1,56.9999982604981,2|2,1:0|0:0,0:0:0:0:
338,285,68486,2,0,P|395:261|410:248,1,56.9999982604981,2|0,1:0|0:0,0:0:0:0:
232,111,68709,2,0,B|186:128|143:101|173:68|128:46|50:71,1,170.999994781494,14|0,0:0|0:0,0:0:0:0:
136,214,69156,1,14,0:0:0:0:
182,266,69269,2,0,P|249:246|270:204,1,113.999996520996,2|0,0:0|0:0,0:0:0:0:
72,177,69605,2,0,P|4:159|-16:165,1,56.9999982604981,14|0,0:0|0:0,0:0:0:0:
105,368,69829,1,2,3:0:0:0:
123,349,69941,1,0,3:0:0:0:
197,351,70053,6,0,P|174:294|146:273,1,56.9999982604981,6|0,0:0|0:0,0:0:0:0:
288,101,70277,2,0,P|311:158|339:179,1,56.9999982604981,2|0,0:0|0:0,0:0:0:0:
461,236,70500,2,0,B|419:259|406:291|423:315|414:357|345:369,1,170.999994781494,10|0,0:0|0:0,0:0:0:0:
266,217,70948,2,0,P|324:249|328:265,1,56.9999982604981,2|0,1:0|0:0,0:0:0:0:
406,33,71172,2,0,P|386:54|362:68,1,56.9999982604981,2|0,0:0|0:0,0:0:0:0:
163,15,71396,2,0,P|184:71|201:142,1,113.999996520996,10|0,0:0|0:0,0:0:0:0:
94,195,71732,1,0,0:0:0:0:
46,147,71844,6,0,P|73:91|83:80,1,56.9999982604981,2|0,1:0|0:0,0:0:0:0:
177,282,72067,2,0,P|168:254|154:230,1,56.9999982604981,2|0,0:0|0:0,0:0:0:0:
17,373,72291,5,10,0:0:0:0:
49,339,72403,1,0,1:0:0:0:
94,333,72515,1,2,1:0:0:0:
132,359,72627,1,0,1:0:0:0:
217,334,72739,5,10,0:0:0:0:
274,296,72851,1,8,0:0:0:0:
271,229,72963,1,8,0:0:0:0:
213,193,73075,1,0,3:0:0:0:
154,230,73187,2,0,P|175:290|171:301,1,56.9999982604981,0|0,3:0|0:0,0:0:0:0:
306,76,73411,2,0,P|277:127|279:141,1,56.9999982604981,2|0,1:0|0:0,0:0:0:0:
125,59,73635,6,0,P|47:21|-8:10,1,113.999996520996,6|2,0:0|0:0,0:0:0:0:
96,186,73971,1,2,0:0:0:0:
154,230,74083,2,0,P|216:202|229:187,1,56.9999982604981,8|0,0:0|0:0,0:0:0:0:
368,44,74306,1,0,0:0:0:0:
390,51,74418,1,0,0:0:0:0:
455,22,74530,6,0,P|479:86|488:131,1,113.999996520996,4|2,0:0|0:0,0:0:0:0:
374,233,74866,1,0,0:0:0:0:
317,197,74978,2,0,P|346:128|364:118,1,56.9999982604981,8|0,0:0|0:0,0:0:0:0:
430,342,75202,2,0,P|413:273|400:254,1,56.9999982604981
301,82,75426,5,2,1:0:0:0:
199,319,75650,1,2,1:0:0:0:
474,239,75874,1,14,0:0:0:0:
497,173,75986,2,0,P|477:105|452:58,1,113.999996520996,2|0,0:0|0:0,0:0:0:0:
312,2,76321,5,2,1:0:0:0:
255,41,76433,2,0,P|232:97|218:161,1,113.999996520996,12|0,0:0|0:0,0:0:0:0:
121,240,76769,2,0,P|94:189|81:169,1,56.9999982604981,12|0,0:0|0:0,0:0:0:0:
234,269,76993,1,8,0:0:0:0:
212,337,77105,1,8,0:0:0:0:
297,229,77216,6,0,P|308:170|306:117,1,95,4|0,1:0|0:0,0:0:0:0:
371,23,77553,1,0,0:0:0:0:
428,68,77665,2,0,P|483:51|527:26,1,95,4|0,1:0|0:0,0:0:0:0:
300,52,78000,1,4,0:0:0:0:
236,81,78112,2,0,P|177:66|166:59,1,47.5,4|0,0:0|0:0,0:0:0:0:
314,178,78336,2,0,P|355:153|376:147,1,47.5,4|0,0:0|0:0,0:0:0:0:
201,189,78560,5,8,0:0:0:0:
163,208,78672,1,0,0:0:0:0:
151,250,78784,1,0,0:0:0:0:
172,288,78896,1,0,0:0:0:0:
247,290,79007,5,2,1:0:0:0:
288,231,79119,2,0,P|272:167|274:157,1,47.5,2|0,0:0|0:0,0:0:0:0:
379,295,79343,1,2,0:0:0:0:
422,242,79456,2,0,P|483:264|501:277,1,47.5,8|2,0:0|0:0,0:0:0:0:
270,356,79680,2,0,P|213:372|195:370,1,47.5,2|0,0:0|0:0,0:0:0:0:
271,187,79903,5,2,1:0:0:0:
475,332,80127,1,2,0:0:0:0:
475,111,80351,2,0,P|428:89|416:90,1,47.5,10|0,0:0|0:0,0:0:0:0:
469,21,80575,2,0,P|516:43|528:42,1,47.5,2|0,1:0|0:0,0:0:0:0:
320,25,80798,6,0,P|261:42|210:78,1,95,4|0,1:0|0:0,0:0:0:0:
125,8,81135,1,0,0:0:0:0:
85,64,81247,2,0,P|102:129|122:164,1,95,4|0,1:0|0:0,0:0:0:0:
228,209,81583,1,4,0:0:0:0:
291,243,81694,2,0,P|350:226|361:221,1,47.5,4|0,0:0|0:0,0:0:0:0:
152,215,81918,2,0,P|106:238|88:256,1,47.5,4|0,0:0|0:0,0:0:0:0:
192,376,82142,5,0,1:0:0:0:
231,357,82254,1,0,0:0:0:0:
247,318,82366,1,0,0:0:0:0:
221,281,82478,1,0,0:0:0:0:
228,209,82589,5,2,1:0:0:0:
280,158,82701,2,0,P|328:171|345:172,1,47.5,2|0,0:0|0:0,0:0:0:0:
290,9,82925,1,2,0:0:0:0:
216,0,83037,2,0,P|152:-13|145:-13,1,47.5,8|2,0:0|0:0,0:0:0:0:
414,97,83262,2,0,P|370:125|344:131,1,47.5,0|2,0:0|0:0,0:0:0:0:
165,75,83486,5,2,1:0:0:0:
443,28,83709,1,2,0:0:0:0:
350,256,83933,2,0,P|334:210|321:194,1,47.5,10|0,0:0|0:0,0:0:0:0:
406,187,84157,2,0,P|422:233|435:249,1,47.5,10|0,0:0|0:0,0:0:0:0:
274,364,84380,6,0,P|227:320|180:297,1,95,6|8,0:0|0:0,0:0:0:0:
89,342,84716,2,0,B|77:293|106:258|132:249|145:213|126:157,1,190,6|0,1:0|0:0,0:0:0:0:
24,48,85277,1,10,0:0:0:0:
79,8,85389,1,8,0:0:0:0:
137,42,85500,1,8,0:0:0:0:
87,98,85612,2,0,B|131:104|150:84|141:58|155:39|251:30,1,142.5,6|0,0:0|0:0,0:0:0:0:
394,0,86172,6,0,P|431:35|424:86,1,95,0|0,1:0|0:0,0:0:0:0:
351,148,86508,1,0,0:0:0:0:
333,134,86620,2,0,P|329:87|364:60,1,95,8|0,0:0|0:0,0:0:0:0:
434,149,86956,1,0,1:0:0:0:
427,171,87068,1,0,1:0:0:0:
241,367,87291,5,14,0:0:0:0:
103,191,87515,1,0,1:0:0:0:
58,137,87627,2,0,P|43:78|53:43,1,95,6|0,0:0|0:0,0:0:0:0:
197,123,87963,6,0,L|148:309,1,190,6|0,0:0|0:0,0:0:0:0:
