osu file format v14

[General]
AudioFilename: labalancoire.mp3
AudioLeadIn: 0
PreviewTime: 26823
Countdown: 0
SampleSet: Normal
StackLeniency: 0.7
Mode: 2
LetterboxInBreaks: 1
WidescreenStoryboard: 1

[Editor]
DistanceSpacing: 1.3
BeatDivisor: 4
GridSize: 4
TimelineZoom: 1

[Metadata]
Title:La Balancoire
TitleUnicode:La Balançoire
Artist:Francois Perusse
ArtistUnicode:François Perusse
Creator:Star Sapphire
Version:Salad
Source:Les 2 Minutes du Peuple
Tags:Les deux minutes du peuple 2 la balancoire balançoire françois pérusse francois perusse Quebec Quebecois 414 Shad0w414
BeatmapID:1129640
BeatmapSetID:533026

[Difficulty]
HPDrainRate:3
CircleSize:4
OverallDifficulty:6
ApproachRate:6
SliderMultiplier:1.4
SliderTickRate:1

[Events]
//Background and Video events
0,0,"maxresdefault.jpg",0,0
//Break Periods
//Storyboard Layer 0 (Background)
//Storyboard Layer 1 (Fail)
//Storyboard Layer 2 (Pass)
//Storyboard Layer 3 (Foreground)
//Storyboard Sound Samples

[TimingPoints]
295,555.555555555556,4,1,0,70,1,0
1407,-100,4,1,0,30,0,0
2378,-100,4,1,0,70,0,0
3212,-100,4,1,0,30,0,0
4184,-100,4,1,0,70,0,0
5434,-100,4,1,0,30,0,0
6545,-100,4,1,0,70,0,0
7657,-100,4,1,0,30,0,0
8351,-100,4,1,0,70,0,0
9601,-100,4,1,0,30,0,0
10712,-100,4,1,0,70,0,0
11823,-100,4,1,0,30,0,0
12657,-100,4,1,0,70,0,0
13629,-100,4,1,0,30,0,0
15157,-100,4,1,0,70,0,0
16129,-100,4,1,0,30,0,0
17240,-100,4,1,0,70,0,0
18072,-100,4,1,0,70,0,1
19601,-100,4,1,0,30,0,1
21129,-100,4,1,0,70,0,1
21823,-100,4,1,0,30,0,1
23212,-100,4,1,0,70,0,1
24323,-100,4,1,0,30,0,1
25157,-100,4,1,0,70,0,1
25990,-100,4,1,0,30,0,1
26822,-100,4,1,0,70,0,0
27656,-100,4,1,0,30,0,0
28628,-100,4,1,0,70,0,0
29878,-100,4,1,0,30,0,0
30850,-100,4,1,0,70,0,0
31961,-100,4,1,0,30,0,0
33350,-100,4,1,0,70,0,0
34322,-100,4,1,0,30,0,0
35017,-100,4,1,0,70,0,0
36267,-100,4,1,0,30,0,0
37239,-100,4,1,0,70,0,0
38489,-100,4,1,0,30,0,0
39461,-100,4,1,0,70,0,0
40433,-100,4,1,0,30,0,0
41683,-100,4,1,0,70,0,0
43072,-100,4,1,0,30,0,0
43906,-100,4,1,0,70,0,0
44739,-100,4,1,0,70,0,1
46267,-100,4,1,0,30,0,1
47378,-100,4,1,0,70,0,1
48628,-100,4,1,0,30,0,1
49600,-100,4,1,0,70,0,1
50850,-100,4,1,0,30,0,1
51961,-100,4,1,0,70,0,1
52795,-100,4,1,0,30,0,1
53211,-100,4,1,0,30,0,0

[HitObjects]
136,272,295,6,8,L|292:272,1,140
372,248,1128,2,8,L|272:248,1,70
132,232,1961,1,8,0:0:0:0:
272,324,2517,6,8,L|124:320,1,140
232,316,3350,2,8,L|316:316,1,70
136,252,4183,1,8,0:0:0:0:
252,312,4739,6,8,L|400:316,1,140
276,264,5572,1,8,0:0:0:0:
160,260,5850,1,8,0:0:0:0:
344,248,6406,1,8,0:0:0:0:
236,292,6961,6,8,L|76:292,1,140
284,288,7795,2,8,L|188:288,1,70
324,244,8628,1,8,0:0:0:0:
100,288,9183,6,8,B|140:284|188:288|40:288,1,140
196,296,10017,2,8,L|272:296,1,70
332,272,10850,1,8,0:0:0:0:
144,304,11406,6,8,B|100:304|172:304|236:304|-16:304|64:308,1,140
256,268,12239,1,8,0:0:0:0:
376,272,12517,1,8,0:0:0:0:
88,256,13072,1,8,0:0:0:0:
372,268,13628,5,8,0:0:0:0:
144,240,14183,1,8,0:0:0:0:
316,268,14461,2,8,L|412:264,1,70
216,260,15295,1,8,0:0:0:0:
376,252,15850,5,8,0:0:0:0:
208,248,16406,1,8,0:0:0:0:
328,256,16683,2,8,L|420:256,1,70
236,208,17517,1,8,0:0:0:0:
336,244,18072,5,12,0:0:0:0:
172,260,18628,2,8,L|76:260,2,70
328,248,19739,1,8,0:0:0:0:
212,252,20295,5,8,0:0:0:0:
352,272,20850,2,8,L|440:268,2,70
224,236,21961,1,8,0:0:0:0:
324,284,22517,6,8,L|480:288,1,140
232,248,23350,1,8,0:0:0:0:
72,232,23628,1,8,0:0:0:0:
268,244,24183,1,8,0:0:0:0:
396,276,24739,6,8,L|232:272,1,140
132,232,25572,1,8,0:0:0:0:
304,256,25850,1,8,0:0:0:0:
384,232,26406,1,8,0:0:0:0:
144,284,26961,6,8,B|88:280|28:284|164:280,1,140
384,260,27795,2,8,L|288:256,1,70
168,232,28628,1,8,0:0:0:0:
316,296,29183,6,8,P|388:296|448:232,1,140
192,292,30017,2,8,L|116:292,1,70
260,228,30850,1,8,0:0:0:0:
396,280,31406,6,8,L|244:276,1,140
152,264,32239,2,8,L|52:260,1,70
264,244,33072,1,8,0:0:0:0:
420,292,33628,6,8,B|480:300|444:304|316:296,1,140
112,256,34461,2,8,L|192:256,1,70
300,244,35295,1,8,0:0:0:0:
184,264,35850,6,8,L|24:252,1,140
264,268,36683,2,8,L|344:272,1,70
220,224,37517,1,8,0:0:0:0:
320,280,38072,6,0,L|416:288,2,70,8|0|8,0:0|0:0|0:0,0:0:0:0:
140,292,38906,2,8,B|76:276|92:236|96:228,1,70
264,236,39739,1,8,0:0:0:0:
352,256,40295,6,8,P|412:260|404:268,1,140
264,276,41128,2,8,L|216:276,1,70
272,240,41961,1,8,0:0:0:0:
312,280,42517,6,0,L|400:288,2,70,8|0|8,0:0|0:0|0:0,0:0:0:0:
252,264,43350,2,0,L|156:264,3,70,8|8|0|8,0:0|0:0|0:0|0:0,0:0:0:0:
120,292,44739,6,0,P|68:260|72:228,1,70,12|0,0:0|0:0,0:0:0:0:
180,184,45295,2,0,L|256:200,2,70,8|8|8,0:0|0:0|0:0,0:0:0:0:
260,240,46406,1,8,0:0:0:0:
360,312,46961,6,0,L|452:312,4,70,8|0|8|8|8,0:0|0:0|0:0|0:0|0:0,0:0:0:0:
248,264,48628,1,8,0:0:0:0:
156,304,49183,6,8,P|92:292|88:212,1,140
324,288,50017,2,8,L|396:292,1,70
248,236,50850,1,8,0:0:0:0:
176,264,51406,6,0,L|104:264,1,70,8|0,0:0|0:0,0:0:0:0:
224,272,51961,2,0,L|320:268,1,70,8|8,0:0|0:0,0:0:0:0:
400,276,52517,2,0,L|304:276,1,70,8|0,0:0|0:0,0:0:0:0:
160,224,53072,1,8,0:0:0:0:
