osu file format v14

[General]
AudioFilename: labalancoire.mp3
AudioLeadIn: 0
PreviewTime: 26823
Countdown: 0
SampleSet: Normal
StackLeniency: 0.7
Mode: 2
LetterboxInBreaks: 1
WidescreenStoryboard: 0

[Editor]
DistanceSpacing: 1.3
BeatDivisor: 4
GridSize: 4
TimelineZoom: 1

[Metadata]
Title:La Balancoire
TitleUnicode:La Balançoire
Artist:Francois Perusse
ArtistUnicode:François Perusse
Creator:Star Sapphire
Version:414
Source:Les 2 Minutes du Peuple
Tags:Les deux minutes du peuple 2 la balancoire balançoire françois pérusse francois perusse Quebec Quebecois
BeatmapID:1129270
BeatmapSetID:533026

[Difficulty]
HPDrainRate:8
CircleSize:4
OverallDifficulty:9
ApproachRate:9
SliderMultiplier:1.4
SliderTickRate:1

[Events]
//Background and Video events
0,0,"maxresdefault.jpg",0,0
//Break Periods
//Storyboard Layer 0 (Background)
//Storyboard Layer 1 (Fail)
//Storyboard Layer 2 (Pass)
//Storyboard Layer 3 (Foreground)
//Storyboard Sound Samples

[TimingPoints]
295,555.555555555556,4,1,0,70,1,0
1407,-100,4,1,0,30,0,0
2378,-100,4,1,0,70,0,0
3212,-100,4,1,0,30,0,0
4184,-100,4,1,0,70,0,0
5434,-100,4,1,0,30,0,0
6545,-100,4,1,0,70,0,0
7657,-100,4,1,0,30,0,0
8351,-100,4,1,0,70,0,0
9601,-100,4,1,0,30,0,0
10712,-100,4,1,0,70,0,0
11823,-100,4,1,0,30,0,0
12657,-100,4,1,0,70,0,0
13629,-100,4,1,0,30,0,0
15157,-100,4,1,0,70,0,0
16129,-100,4,1,0,30,0,0
17239,-100,4,1,0,70,0,1
19601,-100,4,1,0,30,0,1
21129,-100,4,1,0,70,0,1
21823,-100,4,1,0,30,0,1
23212,-100,4,1,0,70,0,1
24323,-100,4,1,0,30,0,1
25157,-100,4,1,0,70,0,1
25990,-100,4,1,0,30,0,1
26822,-100,4,1,0,70,0,0
27656,-100,4,1,0,30,0,0
28628,-100,4,1,0,70,0,0
29878,-100,4,1,0,30,0,0
30850,-100,4,1,0,70,0,0
31961,-100,4,1,0,30,0,0
33350,-100,4,1,0,70,0,0
34322,-100,4,1,0,30,0,0
35017,-100,4,1,0,70,0,0
36267,-100,4,1,0,30,0,0
37239,-100,4,1,0,70,0,0
38489,-100,4,1,0,30,0,0
39461,-100,4,1,0,70,0,0
40433,-100,4,1,0,30,0,0
41683,-100,4,1,0,70,0,0
43072,-100,4,1,0,30,0,0
43906,-100,4,1,0,70,0,0
44739,-100,4,1,0,70,0,1
46267,-100,4,1,0,30,0,1
47378,-100,4,1,0,70,0,1
48628,-100,4,1,0,30,0,1
49600,-100,4,1,0,70,0,1
50850,-100,4,1,0,30,0,1
51961,-100,4,1,0,70,0,1
52795,-100,4,1,0,30,0,1
53350,-100,4,1,0,30,0,0

[HitObjects]
160,320,157,6,0,L|256:288,1,70,12|0,0:0|0:0,0:0:0:0:
416,320,573,2,0,L|448:288,2,35
256,224,1129,1,8,0:0:0:0:
64,192,1407,1,8,0:0:0:0:
320,288,1684,6,0,L|384:288,1,35
160,288,1962,2,0,L|96:288,2,35,8|0|0,0:0|0:0|0:0,0:0:0:0:
324,312,2518,6,0,P|376:296|376:284,1,70,8|0,0:0|0:0,0:0:0:0:
168,272,2934,2,0,L|116:272,1,35,8|0,0:0|0:0,0:0:0:0:
296,232,3212,2,0,L|348:240,2,35,0|8|0,0:0|0:0|0:0,0:0:0:0:
140,244,3629,2,0,L|96:244,3,35,8|0|0|0,0:0|0:0|0:0|0:0,0:0:0:0:
336,312,4184,6,0,P|400:308|436:308,2,70,12|0|8,0:0|0:0|0:0,0:0:0:0:
200,316,4879,2,0,L|152:316,1,35
328,312,5157,2,0,L|384:304,1,35
44,272,5573,1,8,0:0:0:0:
456,276,5851,1,8,0:0:0:0:
248,288,6129,2,0,L|148:284,1,70,0|8,0:0|0:0,0:0:0:0:
312,292,6684,6,0,L|356:296,2,35,0|0|8,0:0|0:0|0:0,0:0:0:0:
184,320,7240,2,0,P|140:296|128:260,1,70
312,308,7795,2,0,P|376:304|376:288,3,70,8|8|0|8,0:0|0:0|0:0|0:0,0:0:0:0:
144,276,9045,6,0,L|88:280,1,35,12|0,0:0|0:0,0:0:0:0:
296,296,9323,2,0,L|360:304,1,35
124,280,9601,2,0,L|76:264,1,35,8|0,0:0|0:0,0:0:0:0:
400,264,10018,1,8,0:0:0:0:
72,236,10295,1,8,0:0:0:0:
324,280,10573,6,0,L|372:276,4,35,0|0|8|0|0,0:0|0:0|0:0|0:0|0:0,0:0:0:0:
120,296,11407,6,0,L|68:292,2,35,8|0|0,0:0|0:0|0:0,0:0:0:0:
332,296,11823,2,0,L|392:296,2,35,8|0|0,0:0|0:0|0:0,0:0:0:0:
80,280,12240,1,8,0:0:0:0:
432,288,12518,2,0,L|352:292,1,70,8|0,0:0|0:0,0:0:0:0:
120,300,13073,6,0,P|80:284|60:256,2,70,12|0|8,0:0|0:0|0:0,0:0:0:0:
308,284,13768,2,0,L|376:288,1,35
156,280,14045,2,0,L|104:268,1,35,0|8,0:0|0:0,0:0:0:0:
400,272,14462,1,8,0:0:0:0:
96,240,14740,6,0,L|48:240,4,35,8|0|0|0|8,0:0|0:0|0:0|0:0|0:0,0:0:0:0:
308,268,15434,2,0,L|348:268,4,35,0|0|0|8|0,0:0|0:0|0:0|0:0|0:0,0:0:0:0:
124,280,16129,6,0,L|80:280|32:280,2,70,8|0|8,0:0|0:0|0:0,0:0:0:0:
348,296,16962,2,0,L|432:296,2,70,8|0|8,0:0|0:0|0:0,0:0:0:0:
200,272,17795,1,0,0:0:0:0:
124,260,18073,6,0,P|84:240|68:236,1,35,12|0,0:0|0:0,0:0:0:0:
288,312,18351,2,0,L|340:312,3,35,0|0|8|0,0:0|0:0|0:0|0:0,0:0:0:0:
168,244,18907,1,8,0:0:0:0:
372,288,19184,6,0,L|408:284,1,35,8|0,0:0|0:0,0:0:0:0:
240,304,19462,2,0,L|180:272,1,35
64,280,19740,2,0,L|104:256,2,35,8|0|0,0:0|0:0|0:0,0:0:0:0:
232,232,20295,5,8,0:0:0:0:
108,296,20434,2,0,P|72:272|72:256,2,35
296,292,20851,2,0,L|336:288,1,35,8|0,0:0|0:0,0:0:0:0:
160,292,21129,6,0,L|76:296,2,70,8|8|0,0:0|0:0|0:0,0:0:0:0:
312,244,21962,2,0,P|368:204|416:216,1,105,8|0,0:0|0:0,0:0:0:0:
64,240,22518,6,0,L|144:240,3,70,8|0|0|8,0:0|0:0|0:0|0:0,0:0:0:0:
348,296,23490,2,0,L|396:296,2,35,0|8|0,0:0|0:0|0:0,0:0:0:0:
136,264,23907,2,0,L|80:264,2,35,0|0|8,0:0|0:0|0:0,0:0:0:0:
328,252,24323,2,0,L|380:248,1,35
232,252,24740,6,0,L|176:252,1,35,8|0,0:0|0:0,0:0:0:0:
368,256,25018,1,0,0:0:0:0:
140,256,25295,1,8,0:0:0:0:
456,232,25573,1,8,0:0:0:0:
80,244,25850,2,0,L|172:244,2,70,8|0|8,0:0|0:0|0:0,0:0:0:0:
376,240,26545,1,0,0:0:0:0:
160,320,26822,6,0,L|256:288,1,70,12|0,0:0|0:0,0:0:0:0:
416,320,27239,2,0,L|448:288,2,35
256,224,27794,1,8,0:0:0:0:
64,192,28072,1,8,0:0:0:0:
320,288,28350,6,0,L|384:288,1,35
160,288,28628,2,0,L|100:288,2,35,8|0|0,0:0|0:0|0:0,0:0:0:0:
324,312,29183,6,0,P|376:296|376:284,1,70,8|0,0:0|0:0,0:0:0:0:
168,272,29600,2,0,L|116:272,1,35,8|0,0:0|0:0,0:0:0:0:
296,232,29878,2,0,L|348:240,2,35,0|8|0,0:0|0:0|0:0,0:0:0:0:
140,244,30294,2,0,L|96:244,3,35,8|0|0|0,0:0|0:0|0:0|0:0,0:0:0:0:
336,312,30850,6,0,P|400:308|436:308,2,70,12|0|8,0:0|0:0|0:0,0:0:0:0:
200,316,31544,2,0,L|152:316,1,35
328,312,31822,2,0,L|384:304,1,35
44,272,32238,1,8,0:0:0:0:
456,276,32516,1,8,0:0:0:0:
248,288,32794,2,0,L|148:284,1,70,0|8,0:0|0:0,0:0:0:0:
312,292,33350,6,0,L|356:296,2,35,0|0|8,0:0|0:0|0:0,0:0:0:0:
184,320,33905,2,0,P|140:296|128:260,1,70
312,308,34461,2,0,P|376:304|376:288,3,70,8|8|0|8,0:0|0:0|0:0|0:0,0:0:0:0:
144,276,35711,6,0,L|88:280,1,35,12|0,0:0|0:0,0:0:0:0:
296,296,35989,2,0,L|360:304,1,35
124,280,36267,2,0,L|76:264,1,35,8|0,0:0|0:0,0:0:0:0:
400,264,36683,1,8,0:0:0:0:
72,236,36960,1,8,0:0:0:0:
324,280,37239,6,0,L|372:276,4,35,0|0|8|0|0,0:0|0:0|0:0|0:0|0:0,0:0:0:0:
120,296,38072,6,0,L|68:292,2,35,8|0|0,0:0|0:0|0:0,0:0:0:0:
332,296,38489,2,0,L|392:296,2,35,8|0|0,0:0|0:0|0:0,0:0:0:0:
80,280,38905,1,8,0:0:0:0:
432,288,39183,2,0,L|352:292,1,70,8|0,0:0|0:0,0:0:0:0:
120,300,39739,6,0,P|80:284|60:256,2,70,12|0|8,0:0|0:0|0:0,0:0:0:0:
308,284,40433,2,0,L|376:288,1,35
156,280,40711,2,0,L|104:268,1,35,0|8,0:0|0:0,0:0:0:0:
400,272,41127,1,8,0:0:0:0:
96,240,41405,6,0,L|48:240,4,35,8|0|0|0|8,0:0|0:0|0:0|0:0|0:0,0:0:0:0:
308,268,42100,2,0,L|348:268,4,35,0|0|0|8|0,0:0|0:0|0:0|0:0|0:0,0:0:0:0:
124,280,42794,6,0,L|80:280|32:280,2,70,8|0|8,0:0|0:0|0:0,0:0:0:0:
348,296,43627,2,0,L|432:296,2,70,8|0|8,0:0|0:0|0:0,0:0:0:0:
200,272,44460,1,0,0:0:0:0:
176,264,44739,6,0,P|136:244|120:240,1,35,12|0,0:0|0:0,0:0:0:0:
288,312,45016,2,0,L|340:312,3,35,0|0|8|0,0:0|0:0|0:0|0:0,0:0:0:0:
168,244,45572,1,8,0:0:0:0:
372,288,45850,6,0,L|408:284,1,35,8|0,0:0|0:0,0:0:0:0:
240,304,46128,2,0,L|180:272,1,35
64,280,46405,2,0,L|104:256,2,35,8|0|0,0:0|0:0|0:0,0:0:0:0:
232,232,46960,5,8,0:0:0:0:
108,296,47100,2,0,P|72:272|72:256,2,35
296,292,47517,2,0,L|336:288,1,35,8|0,0:0|0:0,0:0:0:0:
160,292,47794,6,0,L|76:296,2,70,8|8|0,0:0|0:0|0:0,0:0:0:0:
232,244,48628,2,0,P|288:204|336:216,1,105,8|0,0:0|0:0,0:0:0:0:
64,240,49183,6,0,L|144:240,3,70,8|0|0|8,0:0|0:0|0:0|0:0,0:0:0:0:
348,296,50155,2,0,L|396:296,2,35,0|8|0,0:0|0:0|0:0,0:0:0:0:
136,264,50572,2,0,L|80:264,2,35,0|0|8,0:0|0:0|0:0,0:0:0:0:
256,256,50989,2,0,L|308:252,1,35
232,252,51406,6,0,L|176:252,1,35,8|0,0:0|0:0,0:0:0:0:
368,256,51683,1,0,0:0:0:0:
140,256,51960,1,8,0:0:0:0:
456,232,52238,1,8,0:0:0:0:
80,244,52516,2,0,L|172:244,2,70,8|0|8,0:0|0:0|0:0,0:0:0:0:
212,244,53210,1,0,0:0:0:0:
