osu file format v14

[General]
AudioFilename: audio.mp3
AudioLeadIn: 0
PreviewTime: 58391
Countdown: 0
SampleSet: Soft
StackLeniency: 0.2
Mode: 0
LetterboxInBreaks: 0
WidescreenStoryboard: 1

[Editor]
DistanceSpacing: 1
BeatDivisor: 4
GridSize: 32
TimelineZoom: 1

[Metadata]
Title:Taiga yo Tomo ni Naitekure (TV Size)
TitleUnicode:大河よ共に泣いてくれ (TV Size)
Artist:Franchouchou
ArtistUnicode:フランシュシュ
Creator:KwAIMSuckASFuk
Version:Saggin's Normal
Source:ゾンビランドサガ リベンジ
Tags:jpop pop j-pop gou op Saggin Zombieland Saga Revenge Furanshushu 山田たえ Yamada Tae 0号 Zero-gō Number 0 源さくら Minamoto Sakura 1号 Ichi-gō Number 1 二階堂サキ Nikaidō Saki Nikaidou 2号 Ni-gō Number 2 水野愛 Mizuno Ai 3号 San-gō Number 3 紺野純子 Konno Junko 4号 Yon-gō Number 4 ゆうぎり Yūgiri Yuugiri 5号 Go-gō Number 5 星川リリィ Hoshikawa Lily Ririi 6号 Roku-gō Number 6 三石琴乃 Mitsuishi Kotono 本渡楓 Hondo Kaede 田野アサミ Tano Asami 種田梨沙 Taneda Risa 河瀬茉希 Kawase Maki 衣川里佳 Kinugawa Rika 田中美海 Tanaka Minami ZombielandSaga Zombie land Saga Special Producer: 巽幸太郎 Tatsumi Kōtarō Koutarou 宮野真守 Miyano Mamoru Japanese Anime Opening
BeatmapID:2957972
BeatmapSetID:1436901

[Difficulty]
HPDrainRate:4
CircleSize:3
OverallDifficulty:4
ApproachRate:6
SliderMultiplier:0.999999999999999
SliderTickRate:1

[Events]
//Background and Video events
0,0,"bg.jpg",0,0
Video,-425,"video.mp4"
//Break Periods
//Storyboard Layer 0 (Background)
//Storyboard Layer 1 (Fail)
//Storyboard Layer 2 (Pass)
//Storyboard Layer 3 (Foreground)
//Storyboard Layer 4 (Overlay)
//Storyboard Sound Samples

[TimingPoints]
192,344.827586206897,4,2,1,60,1,0
22260,-100,4,2,5,60,0,0
22347,-100,4,2,1,60,0,0
33295,-100,4,2,5,60,0,0
33381,-100,4,2,1,60,0,0
58123,-100,4,2,2,60,0,0
58209,-100,4,2,1,60,0,0
60709,-100,4,2,3,70,0,0
60795,-100,4,2,1,70,0,0
71226,-100,4,2,3,70,0,0
71485,-100,4,2,1,70,0,0
71743,-100,4,2,3,70,0,0
71829,-100,4,2,1,70,0,0
77260,-100,4,2,3,70,0,0
77347,-100,4,2,1,70,0,0
83640,-100,4,2,1,50,0,0
85364,-100,4,2,1,70,0,0

[Colours]
Combo1 : 255,150,45
Combo2 : 255,128,192
Combo3 : 128,128,255
Combo4 : 255,255,2

[HitObjects]
423,138,192,6,0,L|432:30,2,99.9999999999999,2|2|2,0:0|0:0|0:0,0:0:0:0:
346,202,1226,1,2,0:0:0:0:
253,240,1571,2,0,L|244:339,2,99.9999999999999,2|2|2,0:0|0:0|0:0,0:0:0:0:
170,183,2605,1,2,0:0:0:0:
141,87,2950,2,0,L|21:101,2,99.9999999999999,2|2|2,0:0|0:0|0:0,0:0:0:0:
216,21,3985,1,2,0:0:0:0:
294,82,4329,2,0,L|393:70,2,99.9999999999999,2|2|2,0:0|0:0|0:0,0:0:0:0:
255,114,5192,6,0,L|261:180,1,50,10|10,0:1|0:1,0:0:0:0:
306,191,5536,2,0,L|295:306,1,99.9999999999999,10|0,0:1|0:0,0:0:0:0:
261,333,6054,1,2,3:2:0:0:
173,284,6398,2,0,P|129:281|91:230,1,99.9999999999999,2|10,3:2|0:2,0:0:0:0:
63,200,6916,2,0,B|142:195|113:146|210:147,1,150,10|2,0:1|3:2,0:0:0:0:
271,77,7778,1,2,3:2:0:0:
271,77,7950,2,0,P|335:86|374:89,1,99.9999999999999,8|0,0:2|3:2,0:0:0:0:
416,68,8467,5,14,0:1:0:0:
476,148,8812,1,10,0:1:0:0:
416,228,9157,2,0,L|426:316,2,74.9999999999999,10|10|10,0:1|0:1|0:1,0:0:0:0:
373,201,9847,1,0,3:0:0:0:
373,201,10019,1,0,3:0:0:0:
292,260,10364,2,0,P|244:254|183:250,1,99.9999999999999,10|10,0:1|0:1,0:0:0:0:
155,216,10881,2,0,L|91:223,1,50,10|10,0:1|0:1,0:0:0:0:
4,109,11571,6,0,P|41:107|86:51,1,99.9999999999999,14|0,0:1|0:0,0:0:0:0:
122,32,12088,1,10,0:1:0:0:
192,102,12433,2,0,P|186:152|182:214,1,99.9999999999999,0|2,3:0|3:2,0:0:0:0:
179,251,12950,1,10,0:2:0:0:
257,313,13295,2,0,L|255:368,2,50,2|2|8,3:2|0:2|0:0,0:0:0:0:
298,284,13812,6,0,P|360:293|406:303,1,99.9999999999999,2|0,0:0|0:0,0:0:0:0:
441,279,14329,1,10,0:1:0:0:
509,205,14674,2,0,L|504:147,1,50,0|2,3:0|3:2,0:0:0:0:
494,106,15019,1,10,0:2:0:0:
494,106,15192,1,2,0:0:0:0:
408,54,15536,2,0,P|368:62|344:66,1,50,2|10,0:2|0:2,0:0:0:0:
310,50,15881,2,0,P|256:67|236:123,1,99.9999999999999,6|10,3:2|0:2,0:0:0:0:
266,142,16398,2,0,L|259:222,1,50,10|10,0:2|0:2,0:0:0:0:
183,320,17088,6,0,B|98:318|130:274|33:278,1,150,14|8,0:1|0:0,0:0:0:0:
1,186,17950,2,0,P|53:168|76:121,1,99.9999999999999,2|2,3:2|3:2,0:0:0:0:
82,81,18467,1,10,0:2:0:0:
179,56,18812,2,0,L|184:2,2,50,2|2|10,3:2|3:2|0:2,0:0:0:0:
219,85,19329,6,0,L|210:210,1,99.9999999999999,2|0,0:2|0:0,0:0:0:0:
207,235,19847,1,10,0:1:0:0:
265,316,20192,2,0,L|323:309,1,50,0|2,3:2|3:2,0:0:0:0:
367,305,20536,1,10,0:2:0:0:
367,305,20709,1,2,0:0:0:0:
449,248,21054,2,0,L|456:190,1,50,2|8,0:0|0:0,0:0:0:0:
424,158,21398,2,0,P|370:169|314:175,1,99.9999999999999,2|2,3:2|3:2,0:0:0:0:
284,144,21916,1,10,0:2:0:0:
197,94,22260,5,6,3:1:0:0:
127,165,22605,2,0,P|135:211|140:263,1,99.9999999999999,0|0,3:2|3:2,0:0:0:0:
149,313,23123,1,2,0:3:0:0:
240,353,23467,2,0,P|294:350|331:243,1,150,2|0,0:3|3:2,0:0:0:0:
418,211,24329,2,0,P|413:173|409:149,1,50,0|2,3:2|0:3,0:0:0:0:
349,74,24847,2,0,B|294:86|233:93|234:93,1,99.9999999999999,2|2,0:3|0:3,0:0:0:0:
206,67,25364,5,2,3:1:0:0:
304,180,25881,1,2,0:1:0:0:
207,295,26398,1,2,3:1:0:0:
207,295,26571,1,2,0:1:0:0:
131,228,26916,1,2,0:1:0:0:
61,156,27260,6,0,L|69:98,1,50,0|8,3:0|0:0,0:0:0:0:
102,70,27605,2,0,P|158:79|197:131,1,99.9999999999999,0|0,3:0|3:0,0:0:0:0:
229,136,28123,1,10,0:1:0:0:
290,214,28467,1,0,3:0:0:0:
290,214,28640,2,0,L|282:288,1,50,0|8,3:0|0:0,0:0:0:0:
308,307,28985,2,0,B|393:319|374:251|484:265,1,150,0|10,3:0|0:1,0:0:0:0:
465,216,29674,2,0,L|517:222,2,50,0|0|0,0:0|3:0|3:0,0:0:0:0:
413,130,30364,6,0,P|350:131|306:198,1,150,0|8,3:0|0:0,0:0:0:0:
215,240,31226,2,0,L|221:307,2,50,0|0|8,3:0|3:0|0:0,0:0:0:0:
126,192,31916,2,0,L|115:73,1,99.9999999999999,2|8,3:1|0:0,0:0:0:0:
145,51,32433,2,0,P|197:55|230:103,1,99.9999999999999,6|2,3:1|3:1,0:0:0:0:
242,136,32950,1,10,0:1:0:0:
320,197,33295,5,6,3:1:0:0:
411,238,33640,2,0,B|393:378,1,99.9999999999999,0|0,3:2|3:2,0:0:0:0:
360,370,34157,1,2,0:3:0:0:
279,309,34502,2,0,P|227:317|123:332,1,150,2|0,0:3|3:2,0:0:0:0:
39,275,35364,2,0,L|45:220,1,50,0|2,3:2|0:3,0:0:0:0:
21,127,35881,2,0,P|74:103|92:59,1,99.9999999999999,2|2,0:3|0:3,0:0:0:0:
103,18,36398,5,2,3:1:0:0:
209,124,36916,1,2,0:1:0:0:
110,236,37433,1,2,3:1:0:0:
110,236,37605,1,2,0:1:0:0:
179,307,37950,1,2,0:1:0:0:
258,245,38295,6,0,L|313:253,1,50,0|8,3:0|0:0,0:0:0:0:
345,285,38640,2,0,P|406:281|465:278,1,99.9999999999999,0|0,3:0|3:0,0:0:0:0:
485,249,39157,1,10,0:1:0:0:
434,162,39502,1,0,3:0:0:0:
434,162,39674,2,0,L|440:86,1,50,0|8,3:0|0:0,0:0:0:0:
411,69,40019,2,0,P|345:67|299:148,1,150,0|10,3:0|0:1,0:0:0:0:
311,229,40881,6,0,L|318:291,2,50,0|0|8,3:0|3:0|0:0,0:0:0:0:
262,217,41398,2,0,P|206:225|151:232,1,99.9999999999999,0|0,3:0|3:0,0:0:0:0:
122,200,41916,1,8,0:0:0:0:
48,132,42260,2,0,L|-8:141,2,50,0|0|8,3:0|3:0|0:0,0:0:0:0:
122,64,42950,6,0,L|250:83,1,99.9999999999999,10|8,0:1|0:0,0:0:0:0:
270,86,43467,1,10,0:1:0:0:
333,163,43812,1,10,0:1:0:0:
333,163,43985,2,0,P|315:215|332:259,1,99.9999999999999,10|4,0:1|3:2,0:0:0:0:
251,318,44674,6,0,P|198:306|139:298,1,99.9999999999999,2|2,3:2|3:2,0:0:0:0:
91,220,45364,1,2,3:2:0:0:
31,139,45709,2,0,P|54:90|108:74,1,99.9999999999999,2|2,3:2|3:2,0:0:0:0:
174,133,46398,1,2,3:2:0:0:
255,75,46743,1,10,0:2:0:0:
332,147,47088,5,2,3:2:0:0:
332,147,47260,2,0,L|404:158,2,50,2|2|2,0:2|3:2|0:2,0:0:0:0:
301,187,47778,2,0,L|309:254,1,50,2|2,3:2|0:2,0:0:0:0:
259,324,48295,2,0,B|178:328|210:276|91:285,1,150,2|0,0:2|3:2,0:0:0:0:
72,262,48985,2,0,P|56:210|91:158,1,99.9999999999999,2|2,0:2|0:2,0:0:0:0:
116,143,49502,1,10,0:1:0:0:
197,84,49847,1,6,3:1:0:0:
274,147,50192,6,0,P|266:215|264:259,1,99.9999999999999,2|2,3:2|3:2,0:0:0:0:
320,329,50881,1,2,3:2:0:0:
408,282,51226,2,0,P|455:256|467:210,1,99.9999999999999,2|2,3:2|3:2,0:0:0:0:
406,133,51916,2,0,L|414:47,2,74.9999999999999,2|2|2,3:2|0:2|3:2,0:0:0:0:
364,160,52605,2,0,P|336:153|254:143,1,99.9999999999999,2|8,3:1|0:0,0:0:0:0:
193,73,53295,6,0,P|146:80|91:88,1,99.9999999999999,0|8,3:0|0:0,0:0:0:0:
52,59,53812,2,0,P|67:131|79:214,1,150,6|8,3:1|0:0,0:0:0:0:
123,295,54674,2,0,P|167:288|202:240,1,99.9999999999999,0|8,3:0|0:0,0:0:0:0:
246,226,55192,2,0,P|242:166|243:114,1,99.9999999999999,6|0,3:1|3:0,0:0:0:0:
240,76,55709,1,10,0:1:0:0:
325,24,56054,1,10,0:1:0:0:
407,80,56398,1,10,0:1:0:0:
444,172,56743,6,0,L|512:164,2,66.6666666666666,10|10|10,0:1|0:1|0:1,0:0:0:0:
430,237,57433,2,0,L|363:244,2,66.6666666666666,10|10|10,0:1|0:1|0:1,0:0:0:0:
466,293,58123,1,10,0:1:0:0:
255,72,60536,5,8,0:0:0:0:
255,72,60709,2,0,P|211:70|168:135,1,99.9999999999999,4|0,3:1|3:0,0:0:0:0:
131,135,61226,1,8,0:0:0:0:
131,135,61398,2,0,P|140:204|142:255,1,99.9999999999999,2|2,0:1|0:2,0:0:0:0:
148,284,61916,1,10,0:2:0:0:
229,341,62260,2,0,B|285:343|269:311|331:313,1,99.9999999999999,2|10,3:2|0:0,0:0:0:0:
373,312,62778,1,2,0:1:0:0:
438,236,63123,2,0,L|437:179,1,50,2|8,3:1|0:0,0:0:0:0:
455,139,63467,6,0,P|409:123|386:69,1,99.9999999999999,2|2,3:1|3:2,0:0:0:0:
347,56,63985,1,10,0:2:0:0:
347,56,64157,1,2,0:1:0:0:
269,119,64502,2,0,L|272:173,2,50,2|10|2,0:2|0:2|0:2,0:0:0:0:
232,82,65019,2,0,P|185:88|156:132,1,99.9999999999999,2|10,3:2|0:0,0:0:0:0:
123,166,65536,1,2,0:1:0:0:
55,239,65881,2,0,L|60:302,1,50,2|8,3:1|0:0,0:0:0:0:
86,330,66226,6,0,B|120:324|120:324|129:307|129:307|174:298,1,99.9999999999999,2|2,3:1|3:2,0:0:0:0:
208,261,66743,2,0,L|263:266,1,50,10|2,0:2|0:2,0:0:0:0:
355,243,67260,2,0,L|360:193,1,50,2|10,0:2|0:2,0:0:0:0:
404,168,67605,2,0,L|415:64,1,99.9999999999999,2|2,3:2|3:2,0:0:0:0:
381,30,68123,2,0,B|323:38|324:38,1,50,10|2,0:2|3:2,0:0:0:0:
261,108,68640,2,0,L|200:117,2,50,2|10|2,3:2|0:2|3:2,0:0:0:0:
289,149,69157,6,0,B|334:158|334:158|343:175|343:175|377:180,1,99.9999999999999,6|10,3:1|0:0,0:0:0:0:
427,180,69674,2,0,B|454:237|424:275,1,99.9999999999999,6|2,3:1|3:2,0:0:0:0:
388,308,70192,1,8,0:0:0:0:
388,308,70364,6,0,B|343:317|343:317|334:334|334:334|299:339,1,99.9999999999999,6|10,3:1|0:2,0:0:0:0:
256,366,70881,1,2,3:2:0:0:
177,314,71226,1,10,0:1:0:0:
177,314,71398,1,10,0:1:0:0:
110,238,71743,6,0,P|143:230|179:164,1,99.9999999999999,4|0,3:1|3:0,0:0:0:0:
212,140,72260,1,8,0:0:0:0:
212,140,72433,2,0,P|205:97|206:26,1,99.9999999999999,2|2,0:1|0:2,0:0:0:0:
236,1,72950,1,10,0:2:0:0:
340,18,73295,2,0,P|385:30|414:87,1,99.9999999999999,2|10,3:2|0:0,0:0:0:0:
428,120,73812,1,2,0:1:0:0:
485,201,74157,2,0,L|478:266,1,50,2|8,3:1|0:0,0:0:0:0:
504,294,74502,6,0,P|465:297|426:361,1,99.9999999999999,2|2,3:1|3:2,0:0:0:0:
380,358,75019,1,10,0:2:0:0:
380,358,75192,1,2,0:1:0:0:
301,296,75536,2,0,L|292:235,2,50,2|10|2,0:2|0:2|0:2,0:0:0:0:
264,331,76054,2,0,B|213:333|240:299|166:302,1,99.9999999999999,2|10,3:2|0:0,0:0:0:0:
127,278,76571,1,2,0:1:0:0:
54,208,76916,1,2,3:1:0:0:
96,121,77260,6,0,B|141:130|141:130|150:147|150:147|184:152,1,99.9999999999999,4|2,3:1|3:2,0:0:0:0:
230,133,77778,2,0,L|284:148,1,50,10|2,0:2|3:2,0:0:0:0:
326,132,78123,2,0,L|336:83,2,50,10|2|10,0:2|3:2|0:2,0:0:0:0:
367,160,78640,1,2,3:2:0:0:
367,159,78812,2,0,P|359:209|353:259,1,99.9999999999999,10|10,0:2|0:2,0:0:0:0:
287,334,79502,2,0,L|224:322,1,50,8|0,0:0|3:0,0:0:0:0:
202,289,79847,1,8,0:0:0:0:
202,289,80019,6,0,B|157:298|157:298|148:315|148:315|113:320,1,99.9999999999999,6|2,3:1|3:2,0:0:0:0:
70,290,80536,2,0,L|61:232,1,50,10|2,0:2|3:2,0:0:0:0:
93,201,80881,2,0,L|84:143,2,50,10|2|10,0:2|3:2|0:2,0:0:0:0:
190,223,81571,6,0,L|201:307,2,66.6666666666666,10|10|10,0:1|0:1|0:1,0:0:0:0:
251,196,82260,2,0,L|240:126,2,66.6666666666666,10|10|10,0:1|0:1|0:1,0:0:0:0:
315,213,82950,5,6,3:1:0:0:
471,88,83640,6,0,B|340:93|423:17|264:37,2,200,2|2|2,0:0|0:0|0:0,0:0:0:0:
503,182,85364,1,8,0:0:0:0:
436,256,85709,6,0,L|443:312,1,50,6|10,3:1|0:1,0:0:0:0:
350,346,86226,2,0,L|343:296,1,50,6|10,3:1|0:1,0:0:0:0:
251,259,86743,2,0,L|258:315,1,50,6|10,3:1|0:1,0:0:0:0:
170,359,87260,2,0,L|163:309,1,50,6|10,3:1|0:1,0:0:0:0:
76,259,87778,2,0,L|69:209,1,50,6|10,3:1|0:1,0:0:0:0:
