osu file format v14

[General]
AudioFilename: audio.mp3
AudioLeadIn: 0
PreviewTime: 58391
Countdown: 0
SampleSet: Soft
StackLeniency: 0.2
Mode: 0
LetterboxInBreaks: 0
WidescreenStoryboard: 0

[Editor]
DistanceSpacing: 1.5
BeatDivisor: 4
GridSize: 32
TimelineZoom: 1

[Metadata]
Title:Taiga yo Tomo ni Naitekure (TV Size)
TitleUnicode:大河よ共に泣いてくれ (TV Size)
Artist:Franchouchou
ArtistUnicode:フランシュシュ
Creator:KwAIMSuckASFuk
Version:Return
Source:ゾンビランドサガ リベンジ
Tags:jpop pop j-pop gou op Saggin Zombieland Saga Revenge Furanshushu 山田たえ Yamada Tae 0号 Zero-gō Number 0 源さくら Minamoto Sakura 1号 Ichi-gō Number 1 二階堂サキ Nikaidō Saki Nikaidou 2号 Ni-gō Number 2 水野愛 Mizuno Ai 3号 San-gō Number 3 紺野純子 Konno Junko 4号 Yon-gō Number 4 ゆうぎり Yūgiri Yuugiri 5号 Go-gō Number 5 星川リリィ Hoshikawa Lily Ririi 6号 Roku-gō Number 6 三石琴乃 Mitsuishi Kotono 本渡楓 Hondo Kaede 田野アサミ Tano Asami 種田梨沙 Taneda Risa 河瀬茉希 Kawase Maki 衣川里佳 Kinugawa Rika 田中美海 Tanaka Minami ZombielandSaga Zombie land Saga Special Producer: 巽幸太郎 Tatsumi Kōtarō Koutarou 宮野真守 Miyano Mamoru Japanese Anime Opening
BeatmapID:2956448
BeatmapSetID:1436901

[Difficulty]
HPDrainRate:6
CircleSize:4.2
OverallDifficulty:9
ApproachRate:9.5
SliderMultiplier:2
SliderTickRate:1

[Events]
//Background and Video events
0,0,"bg.jpg",0,0
Video,-425,"video.mp4"
//Break Periods
//Storyboard Layer 0 (Background)
//Storyboard Layer 1 (Fail)
//Storyboard Layer 2 (Pass)
//Storyboard Layer 3 (Foreground)
//Storyboard Layer 4 (Overlay)
//Storyboard Sound Samples

[TimingPoints]
192,344.827586206897,4,2,1,30,1,0
192,-500,4,2,1,35,0,0
1571,-250,4,2,1,40,0,0
2950,-166.666666666667,4,2,1,45,0,0
4329,-125,4,2,1,50,0,0
5019,-62.5,4,2,1,50,0,0
5536,-83.3333333333333,4,2,1,60,0,0
6054,-133.333333333333,4,2,1,60,0,0
6916,-66.6666666666667,4,2,1,60,0,0
7433,-133.333333333333,4,2,1,60,0,0
8467,-66.6666666666667,4,2,1,60,0,0
11226,-100,4,2,1,60,0,0
12088,-66.6666666666667,4,2,1,60,0,0
12433,-100,4,2,1,60,0,0
16226,-66.6666666666667,4,2,1,60,0,0
17605,-100,4,2,1,60,0,0
21398,-66.6666666666667,4,2,1,60,0,0
22260,-100,4,2,5,70,0,0
22347,-100,4,2,1,50,0,0
22605,-200,4,2,1,50,0,0
25364,-100,4,2,1,50,0,0
25450,-100,4,2,1,5,0,0
25536,-100,4,2,1,50,0,0
25967,-100,4,2,1,5,0,0
26054,-100,4,2,1,50,0,0
26485,-100,4,2,1,5,0,0
26571,-100,4,2,1,50,0,0
26657,-100,4,2,1,5,0,0
26743,-100,4,2,1,50,0,0
27002,-100,4,2,1,5,0,0
27088,-100,4,2,1,50,0,0
28123,-66.6666666666667,4,2,1,60,0,0
28467,-100,4,2,1,60,0,0
29502,-66.6666666666667,4,2,1,60,0,0
29847,-100,4,2,1,60,0,0
31916,-66.6666666666667,4,2,1,60,0,0
32433,-100,4,2,1,60,0,0
33295,-100,4,2,5,70,0,0
33381,-100,4,2,1,50,0,0
33640,-200,4,2,1,50,0,0
36398,-100,4,2,1,50,0,0
36485,-100,4,2,1,5,0,0
36571,-100,4,2,1,50,0,0
37002,-100,4,2,1,5,0,0
37088,-100,4,2,1,50,0,0
37519,-100,4,2,1,5,0,0
37605,-100,4,2,1,50,0,0
37692,-100,4,2,1,5,0,0
37778,-100,4,2,1,50,0,0
38036,-100,4,2,1,5,0,0
38123,-100,4,2,1,50,0,0
39157,-66.6666666666667,4,2,1,60,0,0
39674,-100,4,2,1,60,0,0
40536,-66.6666666666667,4,2,1,60,0,0
40881,-100,4,2,1,60,0,0
42950,-66.6666666666667,4,2,1,60,0,0
44329,-83.3333333333333,4,2,1,60,0,0
44933,-83.3333333333333,4,2,1,5,0,0
45019,-83.3333333333333,4,2,1,60,0,0
45278,-83.3333333333333,4,2,1,5,0,0
45364,-83.3333333333333,4,2,1,60,0,0
45623,-83.3333333333333,4,2,1,5,0,0
45709,-83.3333333333333,4,2,1,60,0,0
45967,-83.3333333333333,4,2,1,5,0,0
46054,-83.3333333333333,4,2,1,60,0,0
46312,-83.3333333333333,4,2,1,5,0,0
46398,-83.3333333333333,4,2,1,60,0,0
46657,-83.3333333333333,4,2,1,5,0,0
46743,-83.3333333333333,4,2,1,60,0,0
47002,-83.3333333333333,4,2,1,5,0,0
47088,-83.3333333333333,4,2,1,60,0,0
47950,-133.333333333333,4,2,1,60,0,0
49502,-66.6666666666667,4,2,1,60,0,0
50192,-83.3333333333333,4,2,1,60,0,0
50450,-83.3333333333333,4,2,1,5,0,0
50536,-83.3333333333333,4,2,1,60,0,0
50795,-83.3333333333333,4,2,1,5,0,0
50881,-83.3333333333333,4,2,1,60,0,0
51140,-83.3333333333333,4,2,1,5,0,0
51226,-83.3333333333333,4,2,1,60,0,0
51485,-83.3333333333333,4,2,1,5,0,0
51571,-83.3333333333333,4,2,1,60,0,0
51829,-83.3333333333333,4,2,1,5,0,0
51916,-83.3333333333333,4,2,1,60,0,0
52605,-66.6666666666667,4,2,1,60,0,0
52950,-133.333333333333,4,2,1,60,0,0
53295,-83.3333333333333,4,2,1,60,0,0
53812,-66.6666666666667,4,2,1,60,0,0
54329,-100,4,2,1,60,0,0
54674,-83.3333333333333,4,2,1,60,0,0
55192,-133.333333333333,4,2,1,60,0,0
55709,-66.6666666666667,4,2,1,60,0,0
56743,-100,4,2,1,60,0,0
56973,-83.3333333333333,4,2,1,60,0,0
57203,-66.6666666666667,4,2,1,60,0,0
57433,-58.8235294117647,4,2,1,60,0,0
57663,-50,4,2,1,60,0,0
58123,-100,4,2,2,60,0,0
58209,-100,4,2,1,60,0,0
58467,-1000,4,2,1,60,0,0
59502,-1000,4,2,1,30,0,0
59847,-250,4,2,1,30,0,0
60536,-83.3333333333333,4,2,1,60,0,0
60709,-83.3333333333333,4,2,3,70,0,1
60795,-83.3333333333333,4,2,1,70,0,1
61398,-66.6666666666667,4,2,1,70,0,1
62260,-83.3333333333333,4,2,1,70,0,1
62778,-66.6666666666667,4,2,1,70,0,1
63812,-83.3333333333333,4,2,1,70,0,1
64157,-66.6666666666667,4,2,1,70,0,1
65019,-83.3333333333333,4,2,1,70,0,1
66226,-66.6666666666667,4,2,1,70,0,1
69157,-50,4,2,1,70,0,1
70364,-83.3333333333333,4,2,1,70,0,1
70881,-50,4,2,1,70,0,1
71226,-50,4,2,3,70,0,1
71312,-50,4,2,1,70,0,1
71398,-200,4,2,3,70,0,1
71485,-200,4,2,1,70,0,1
71743,-83.3333333333333,4,2,3,70,0,1
71829,-83.3333333333333,4,2,1,70,0,1
72433,-66.6666666666667,4,2,1,70,0,1
73295,-83.3333333333333,4,2,1,70,0,1
73812,-66.6666666666667,4,2,1,70,0,1
74847,-83.3333333333333,4,2,1,70,0,1
75192,-66.6666666666667,4,2,1,70,0,1
76054,-83.3333333333333,4,2,1,70,0,1
77260,-83.3333333333333,4,2,3,70,0,1
77347,-83.3333333333333,4,2,1,70,0,1
77778,-66.6666666666667,4,2,1,70,0,1
79674,-40,4,2,1,70,0,1
80019,-83.3333333333333,4,2,1,70,0,1
80536,-66.6666666666667,4,2,1,70,0,1
81398,-100,4,2,1,70,0,1
81571,-50,4,2,1,70,0,1
82950,-100,4,2,1,60,0,0
87433,-66.6666666666667,4,2,1,60,0,0
87778,-100,4,2,1,60,0,0

[Colours]
Combo1 : 255,150,45
Combo2 : 255,128,192
Combo3 : 128,128,255
Combo4 : 255,255,2

[HitObjects]
383,364,192,6,0,L|406:360,1,20,2|0,0:0|0:0,0:0:0:0:
400,281,536,2,0,L|418:265,1,20,2|0,0:0|0:0,0:0:0:0:
381,198,881,2,0,L|383:179,1,20,2|0,0:0|0:0,0:0:0:0:
306,147,1225,2,0,L|299:126,1,20,2|0,0:0|0:0,0:0:0:0:
300,129,1571,6,0,P|316:153|321:176,1,40,2|0,0:0|0:0,0:0:0:0:
194,213,1916,2,0,P|201:191|199:167,1,40,2|0,0:0|0:0,0:0:0:0:
103,138,2260,2,0,P|93:156|68:171,1,40,2|0,0:0|0:0,0:0:0:0:
27,50,2605,2,0,P|50:50|78:41,1,40,2|0,0:0|0:0,0:0:0:0:
66,45,2950,6,0,P|40:31|7:27,1,59.9999981689454,2|0,0:0|0:0,0:0:0:0:
43,275,3294,2,0,P|66:256|93:242,1,59.9999981689454,2|0,0:0|0:0,0:0:0:0:
255,325,3640,2,0,P|250:354|253:384,1,59.9999981689454,2|0,0:0|0:0,0:0:0:0:
450,280,3985,2,0,P|428:262|408:236,1,59.9999981689454,2|0,0:0|0:0,0:0:0:0:
408,237,4329,6,0,P|416:276|388:311,1,80,2|0,0:0|0:0,0:0:0:0:
240,187,4674,2,0,P|207:165|197:127,1,80,2|0,0:0|0:0,0:0:0:0:
196,127,5019,1,2,0:0:0:0:
383,66,5192,6,0,B|378:107|378:107|382:113|382:113|377:162,1,80,10|0,0:1|0:0,0:0:0:0:
280,384,5364,2,0,B|276:352|276:352|280:346|280:346|275:305,1,80,10|0,0:1|0:0,0:0:0:0:
146,358,5536,6,0,B|138:334|106:325|106:325|188:246|278:308,1,239.999992675781,10|0,0:1|0:0,0:0:0:0:
361,351,6054,6,0,P|365:301|338:278,1,75.0000028610231,2|0,3:2|0:0,0:0:0:0:
459,246,6398,2,0,P|417:217|384:229,1,75.0000028610231,2|0,3:2|0:0,0:0:0:0:
361,351,6743,1,10,0:2:0:0:
146,358,6916,6,0,B|124:331|86:335|86:335|112:233|241:226|278:308,1,300.000011444092,10|0,0:1|0:0,0:0:0:0:
417,107,7433,2,0,P|371:128|365:163,1,75.0000028610231,2|0,3:2|0:0,0:0:0:0:
315,212,7778,1,2,3:2:0:0:
220,66,7950,5,8,0:2:0:0:
177,128,8036,1,0,3:0:0:0:
171,172,8123,1,8,0:2:0:0:
180,203,8208,1,0,3:2:0:0:
186,216,8295,2,0,P|211:201|234:200,1,37.5000014305115,0|0,3:0|3:0,0:0:0:0:
430,222,8467,6,0,B|455:181|455:181|449:170|449:170|377:152|377:152|365:152|365:152|301:228|301:228,1,225.000008583069,14|0,0:1|0:0,0:0:0:0:
363,316,8812,2,0,B|386:358|386:358|398:358|398:358|450:305|450:305|456:294|456:294|422:201|422:201,1,225.000008583069,10|0,0:1|0:0,0:0:0:0:
314,211,9157,2,0,B|265:209|265:209|259:220|259:220|279:291|279:291|285:302|285:302|383:319|383:319,2,225.000008583069,10|10|10,0:1|0:1|0:1,0:0:0:0:
376,25,9847,5,0,3:0:0:0:
151,146,10019,1,0,3:0:0:0:
234,1,10192,1,0,3:0:0:0:
462,93,10364,6,0,B|401:192|288:155|286:93|308:29|370:38|393:104,1,300.000011444092,10|10,0:1|0:1,0:0:0:0:
436,222,10881,2,0,B|415:309|364:237|341:359,1,150.000005722046,10|10,0:1|0:1,0:0:0:0:
423,384,11140,1,0,3:2:0:0:
480,330,11226,1,0,3:2:0:0:
476,320,11571,6,0,L|263:285,1,200,14|0,0:1|0:0,0:0:0:0:
176,197,12002,1,0,3:0:0:0:
176,197,12088,2,0,P|171:152|249:177,1,150.000005722046,10|0,0:1|0:0,0:0:0:0:
244,354,12433,6,0,P|167:357|97:387,1,150,0|0,3:0|0:0,0:0:0:0:
100,384,12778,1,2,3:2:0:0:
3,126,12950,2,0,B|34:85|34:85|93:106,1,100,10|0,0:2|0:0,0:0:0:0:
60,194,13295,1,2,3:2:0:0:
42,280,13467,2,0,B|87:296|87:296|118:255,1,100,2|8,0:2|0:0,0:0:0:0:
265,248,13812,6,0,B|348:267|348:267|363:293|363:293|462:315,1,200,2|0,0:0|0:0,0:0:0:0:
289,96,14329,2,0,B|324:78|286:8|229:32|174:56|178:150|293:176|293:176|359:200|346:268|314:288,1,400,10|10,0:1|0:2,0:0:0:0:
158,373,15192,6,0,P|133:343|179:284,1,100,2|0,0:0|3:0,0:0:0:0:
305,367,15536,1,2,0:2:0:0:
225,172,15709,1,10,0:2:0:0:
316,371,15881,2,0,B|411:364|345:299|441:301,1,150,6|0,3:2|0:0,0:0:0:0:
480,231,16226,6,0,B|536:290|536:290|487:385,2,150.000005722046,10|10|10,0:2|0:2|0:2,0:0:0:0:
495,156,16657,1,0,3:0:0:0:
495,156,16743,1,0,3:2:0:0:
495,156,17088,6,0,B|490:108|443:96|443:96|352:87|324:72|320:39|343:5|409:20|389:70|389:70|354:133|354:133|334:170|362:211,1,450.000017166138,14|8,0:1|0:2,0:0:0:0:
292,382,17778,1,0,3:0:0:0:
403,284,17950,6,0,B|410:223|410:223|247:257,1,200,2|2,3:2|3:2,0:0:0:0:
132,370,18467,2,0,B|182:377|182:377|210:328,1,100,10|0,0:2|0:0,0:0:0:0:
136,255,18812,1,2,3:2:0:0:
73,190,18985,2,0,B|97:147|97:147|147:154,1,100,2|10,3:2|0:2,0:0:0:0:
43,315,19329,6,0,B|34:227|34:227|27:219|27:219|16:112,1,200,2|0,0:2|0:0,0:0:0:0:
116,10,19847,2,0,B|112:62|167:91|185:51|254:101|232:171,1,200,10|0,0:1|3:2,0:0:0:0:
276,320,20364,1,2,3:2:0:0:
157,159,20536,1,10,0:2:0:0:
420,200,20709,6,0,B|365:196|329:163|329:163|320:211|264:250,1,200,2|2,0:0|0:0,0:0:0:0:
189,311,21226,1,8,0:0:0:0:
420,200,21398,6,0,P|413:132|358:215,1,225.000008583069,4|0,3:2|0:0,0:0:0:0:
388,270,21743,5,2,3:2:0:0:
305,55,21916,1,10,0:2:0:0:
5,339,22260,6,0,P|34:307|16:255,1,100,6|2,3:1|0:0,0:0:0:0:
116,171,22605,6,0,L|122:220,1,50,0|2,3:0|0:3,0:0:0:0:
55,117,22950,1,0,3:0:0:0:
186,146,23123,2,0,L|192:195,1,50,2|0,0:3|3:0,0:0:0:0:
131,93,23467,1,2,0:3:0:0:
254,116,23640,2,0,L|260:165,1,50,0|2,3:0|0:3,0:0:0:0:
321,84,23985,2,0,L|327:133,1,50,0|2,3:0|0:3,0:0:0:0:
258,41,24329,1,0,3:0:0:0:
390,53,24502,2,0,L|396:102,1,50,2|0,0:3|3:0,0:0:0:0:
328,6,24847,1,2,0:3:0:0:
457,9,25019,2,0,L|463:58,1,50,0|2,3:0|0:3,0:0:0:0:
378,198,25364,6,0,P|401:206|435:208,1,50,2|0,3:1|0:0,0:0:0:0:
491,156,25536,1,2,0:3:0:0:
486,147,25708,1,0,3:2:0:0:
271,161,25881,6,0,P|303:152|321:132,1,50,2|0,0:1|0:0,0:0:0:0:
384,33,26054,1,0,3:2:0:0:
374,29,26226,1,2,0:3:0:0:
160,162,26398,6,0,P|176:137|179:107,1,50,2|0,3:1|0:0,0:0:0:0:
223,49,26570,2,0,P|227:21|218:0,1,50,2|0,0:1|0:0,0:0:0:0:
137,0,26743,1,0,3:2:0:0:
78,207,26915,6,0,P|71:172|58:152,1,50,2|0,0:1|0:0,0:0:0:0:
12,60,27088,1,0,3:2:0:0:
5,71,27260,1,0,3:0:0:0:
152,172,27432,1,8,0:0:0:0:
160,162,27605,6,0,P|194:228|100:277,1,200,0|0,3:0|3:0,0:0:0:0:
0,378,28123,2,0,P|97:364|170:390,1,150.000005722046,10|0,0:1|0:0,0:0:0:0:
228,331,28381,1,0,3:0:0:0:
228,331,28467,2,0,P|264:360|337:363,1,100,0|0,3:0|3:0,0:0:0:0:
512,169,28812,1,8,0:0:0:0:
481,340,28985,6,0,B|428:369|378:336|412:304|355:265|290:301,1,200,0|0,3:0|3:0,0:0:0:0:
160,162,29502,2,0,P|260:159|315:123,1,150.000005722046,10|0,0:1|0:0,0:0:0:0:
363,214,29760,1,0,3:0:0:0:
363,214,29847,2,0,P|420:194|456:225,1,100,0|0,3:0|3:0,0:0:0:0:
304,294,30192,1,8,0:0:0:0:
200,263,30364,6,0,B|190:170|190:170|195:162|195:162|184:65,1,200,0|0,3:0|3:0,0:0:0:0:
261,4,30881,2,0,B|306:32|306:32|281:86,1,100,8|0,0:0|0:0,0:0:0:0:
48,130,31226,2,0,B|49:77|49:77|109:71,1,100,0|0,3:0|3:0,0:0:0:0:
274,277,31571,2,0,B|227:301|227:301|192:253,1,100,8|0,0:0|0:0,0:0:0:0:
372,0,31916,6,0,B|429:79|344:68|404:149,1,150.000005722046,2|0,3:1|0:0,0:0:0:0:
415,159,32174,1,0,3:0:0:0:
415,159,32260,1,8,0:0:0:0:
328,384,32433,2,0,P|230:353|155:334,1,150,6|0,3:1|0:0,0:0:0:0:
176,351,32778,1,2,3:1:0:0:
480,249,32950,2,0,P|524:234|474:242,1,150,10|0,0:1|0:0,0:0:0:0:
507,45,33295,6,0,P|478:77|496:129,1,100,6|2,3:1|0:0,0:0:0:0:
368,226,33640,6,0,P|356:201|327:182,1,50,0|2,3:0|0:3,0:0:0:0:
330,288,33985,1,0,3:0:0:0:
255,267,34157,2,0,P|266:245|268:215,1,50,2|0,0:3|3:0,0:0:0:0:
181,258,34502,1,2,0:3:0:0:
163,184,34675,2,0,P|194:180|223:156,1,50,0|2,3:0|0:3,0:0:0:0:
186,62,35020,2,0,P|199:81|234:98,1,50,0|2,3:0|0:3,0:0:0:0:
241,10,35364,1,0,3:0:0:0:
320,23,35537,2,0,P|306:45|302:73,1,50,2|0,0:3|3:0,0:0:0:0:
395,30,35882,1,2,0:3:0:0:
406,104,36054,2,0,P|385:104|348:133,1,50,0|2,3:0|0:3,0:0:0:0:
134,186,36398,6,0,P|111:178|77:176,1,50,2|0,3:1|0:0,0:0:0:0:
5,198,36571,1,2,0:3:0:0:
10,207,36743,1,0,3:2:0:0:
241,223,36916,6,0,P|209:232|190:251,1,50,2|0,0:1|0:0,0:0:0:0:
128,351,37089,1,0,3:2:0:0:
138,355,37261,1,2,0:3:0:0:
352,222,37433,6,0,P|336:247|332:276,1,50,2|0,3:1|0:0,0:0:0:0:
289,335,37605,2,0,P|285:363|293:384,1,50,2|0,0:1|0:0,0:0:0:0:
375,384,37778,1,0,3:2:0:0:
434,177,37950,6,0,P|440:211|453:231,1,50,2|0,0:1|0:0,0:0:0:0:
504,312,38123,1,0,3:2:0:0:
510,298,38295,1,0,3:0:0:0:
354,213,38467,1,8,0:0:0:0:
352,222,38640,6,0,B|323:270|323:270|164:249,1,200,0|0,3:0|3:0,0:0:0:0:
18,194,39157,2,0,P|29:110|91:53,1,150.000005722046,10|0,0:1|0:0,0:0:0:0:
101,78,39416,1,0,3:0:0:0:
101,78,39502,1,0,3:0:0:0:
220,166,39674,2,0,B|188:207|188:207|130:185,1,100,0|8,3:0|0:0,0:0:0:0:
198,50,40019,6,0,B|233:-4|233:-4|370:30,1,200,0|0,3:0|3:0,0:0:0:0:
512,124,40536,2,0,P|451:182|426:257,1,150.000005722046,10|0,0:1|0:0,0:0:0:0:
459,314,40795,1,0,3:0:0:0:
459,314,40881,2,0,L|346:331,1,100,0|0,3:0|3:0,0:0:0:0:
511,375,41226,1,8,0:0:0:0:
427,242,41398,6,0,B|282:262|282:262|236:204,1,200,0|0,3:0|3:0,0:0:0:0:
237,100,41916,2,0,P|278:102|294:172,1,100,8|0,0:0|0:0,0:0:0:0:
248,219,42174,1,0,3:0:0:0:
239,226,42260,5,0,3:0:0:0:
159,192,42433,1,0,3:0:0:0:
9,326,42605,1,8,0:0:0:0:
159,384,42778,1,0,0:0:0:0:
20,228,42950,6,0,B|19:296|19:296|27:305|27:305|183:267,1,225.000008583069,10|0,0:1|0:0,0:0:0:0:
181,279,43295,1,8,0:0:0:0:
390,304,43467,6,0,B|391:372|391:372|383:381|383:381|227:343,1,225.000008583069,10|0,0:1|0:0,0:0:0:0:
230,355,43812,1,10,0:1:0:0:
108,123,43985,6,0,P|78:58|193:57,1,225.000008583069,10|0,0:1|0:0,0:0:0:0:
251,97,44329,5,4,3:2:0:0:
251,97,44674,6,0,B|273:86|273:86|322:108|322:108|326:119|326:119|392:145|392:145|418:133,1,179.999994506836,2|0,3:2|0:0,0:0:0:0:
480,128,45019,2,0,B|491:150|491:150|469:199|469:199|458:203|458:203|432:269|432:269|444:295,1,179.999994506836,2|0,3:2|0:0,0:0:0:0:
458,358,45364,2,0,B|436:369|436:369|387:347|387:347|383:336|383:336|317:310|317:310|291:322,1,179.999994506836,2|0,3:2|0:0,0:0:0:0:
331,235,45709,2,0,B|309:224|309:224|260:246|260:246|256:257|256:257|190:283|190:283|164:271,1,179.999994506836,2|0,3:2|0:0,0:0:0:0:
90,314,46054,2,0,B|101:292|101:292|79:243|79:243|68:239|68:239|42:173|42:173|54:147,1,179.999994506836,2|0,3:2|0:0,0:0:0:0:
0,75,46398,2,0,B|22:86|22:86|71:64|71:64|75:53|75:53|141:27|141:27|167:39,1,179.999994506836,2|0,3:2|0:0,0:0:0:0:
244,0,46743,2,0,B|233:22|233:22|255:71|255:71|266:75|266:75|292:141|292:141|282:164|282:164,1,179.999994506836,10|0,0:2|0:0,0:0:0:0:
195,170,47088,5,2,3:2:0:0:
201,157,47260,1,2,0:2:0:0:
319,260,47433,1,2,3:2:0:0:
323,272,47605,1,2,0:2:0:0:
233,376,47778,1,2,3:2:0:0:
228,384,47950,2,0,L|137:377,1,75.0000028610231,2|0,0:0|3:2,0:0:0:0:
87,172,48295,1,2,0:2:0:0:
156,297,48467,6,0,L|148:223,1,75.0000028610231,2|0,3:2|0:0,0:0:0:0:
233,298,48812,1,0,3:0:0:0:
70,337,48985,2,0,L|59:242,1,75.0000028610231,2|0,0:2|3:0,0:0:0:0:
0,384,49329,1,2,0:0:0:0:
276,372,49502,6,0,B|341:355|341:355|353:340|353:340|342:271|342:271|349:258|349:258|421:240,1,225.000008583069,10|0,0:1|0:0,0:0:0:0:
416,248,49847,1,6,3:1:0:0:
416,248,50192,6,0,B|457:210|439:164|439:164|430:157|430:157|417:108|461:81,1,179.999994506836,2|0,3:2|0:0,0:0:0:0:
399,29,50536,2,0,B|345:12|314:51|314:51|313:62|313:62|277:98|231:73,1,179.999994506836,2|0,3:2|0:0,0:0:0:0:
217,164,50881,2,0,B|229:218|278:225|278:225|288:221|288:221|337:234|339:286,1,179.999994506836,2|0,3:2|0:0,0:0:0:0:
289,334,51226,2,0,B|235:317|204:356|204:356|203:367|203:367|167:403|121:378,1,179.999994506836,2|0,3:2|0:0,0:0:0:0:
60,349,51571,2,0,B|100:311|83:264|83:264|73:258|73:258|61:209|104:182,1,179.999994506836,2|0,3:2|0:0,0:0:0:0:
111,117,51916,2,0,B|132:84|114:29|114:29|131:78|188:102,2,179.999994506836,2|2|2,3:2|0:2|3:2,0:0:0:0:
93,190,52605,6,0,B|202:208|202:208|215:205|215:205|330:225,1,225.000008583069,2|0,3:1|0:0,0:0:0:0:
327,227,52950,2,0,B|352:194|352:194|337:160,1,75.0000028610231,8|0,0:0|0:0,0:0:0:0:
378,9,53295,6,0,B|399:42|381:97|381:97|398:48|455:24,1,179.999994506836,0|0,3:0|0:0,0:0:0:0:
437,155,53640,2,0,L|452:220,1,59.9999981689454,8|0,0:0|0:0,0:0:0:0:
512,99,53812,6,0,B|409:115|409:115|400:110|400:110|276:130,1,225.000008583069,6|0,3:1|0:0,0:0:0:0:
280,119,54157,1,0,3:0:0:0:
30,61,54329,2,0,B|62:8|115:29|115:29|92:44|89:76,1,150,8|0,0:0|0:0,0:0:0:0:
163,87,54674,6,0,B|207:136|175:186|135:158|125:205|148:253,1,179.999994506836,0|0,3:0|0:0,0:0:0:0:
202,339,55019,5,8,0:0:0:0:
227,273,55105,1,8,0:0:0:0:
249,208,55192,2,0,L|363:184,1,112.500004291535,6|0,3:1|0:0,0:0:0:0:
365,198,55536,1,0,3:0:0:0:
511,76,55709,6,0,B|495:132|389:140|440:53|333:59|315:128,1,225.000008583069,10|0,0:1|0:0,0:0:0:0:
302,381,56054,2,0,B|261:339|307:243|357:331|405:235|354:185,1,225.000008583069,10|0,0:1|0:0,0:0:0:0:
149,49,56398,2,0,B|205:34|265:122|164:121|223:211|292:192,1,225.000008583069,10|0,0:1|0:0,0:0:0:0:
320,113,56743,6,0,P|342:115|323:109,1,66.6666666666667,10|0,0:1|0:0,0:0:0:0:
276,194,56973,2,0,P|292:215|280:193,1,79.9999975585938,10|0,0:1|0:0,0:0:0:0:
151,202,57203,2,0,P|144:233|155:205,1,100.000003814697,10|0,0:1|0:0,0:0:0:0:
41,126,57433,6,0,P|8:145|41:130,1,113.333335494995,10|0,0:1|0:0,0:0:0:0:
94,293,57663,2,0,P|82:334|98:296,1,133.333333333333,10|0,0:1|0:0,0:0:0:0:
312,339,57893,2,0,P|333:376|316:338,1,133.333333333333,10|0,0:1|0:0,0:0:0:0:
206,299,58123,5,10,0:1:0:0:
210,313,58237,1,8,0:0:0:0:
22,333,58467,6,0,P|50:342|83:352,1,60,2|0,0:0|0:0,0:0:0:0:
161,369,59674,5,2,0:0:0:0:
169,377,59847,1,2,0:0:0:0:
182,381,60019,1,2,0:0:0:0:
192,375,60192,1,2,0:0:0:0:
197,364,60364,1,2,0:0:0:0:
195,269,60536,6,0,P|187:240|197:210,1,59.9999981689454,8|0,0:0|0:0,0:0:0:0:
51,139,60709,6,0,P|80:119|237:109,1,179.999994506836,4|0,3:1|0:0,0:0:0:0:
226,113,61054,1,0,3:0:0:0:
167,262,61226,2,0,P|174:235|203:209,1,59.9999981689454,8|0,0:0|0:0,0:0:0:0:
373,149,61398,6,0,B|364:110|395:79|395:79|336:28|249:93|251:161|299:230,1,300.000011444092,2|2,0:1|0:2,0:0:0:0:
392,257,61916,2,0,P|438:238|444:317,1,150.000005722046,10|2,0:2|0:2,0:0:0:0:
352,356,62174,1,0,3:0:0:0:
352,356,62260,6,0,P|288:337|174:360,1,179.999994506836,2|0,3:2|0:0,0:0:0:0:
177,369,62605,1,10,0:0:0:0:
50,349,62778,6,0,B|74:366|74:366|148:338|148:338|160:314|160:314|132:214,1,225.000008583069,2|0,0:1|0:0,0:0:0:0:
260,99,63123,2,0,P|227:83|195:100,1,75.0000028610231,2|0,3:1|0:0,0:0:0:0:
265,259,63295,2,0,B|276:296|276:296|258:254,1,75.0000028610231,8|0,0:0|0:0,0:0:0:0:
10,212,63467,6,0,B|129:191|129:191|136:195|136:195|275:167,1,225.000008583069,2|0,3:1|0:0,0:0:0:0:
305,195,63812,2,0,L|371:210,1,59.9999981689454,2|0,3:2|0:0,0:0:0:0:
512,29,63985,2,0,L|439:14,1,60,10|0,0:2|0:0,0:0:0:0:
477,179,64157,6,0,B|486:163|486:163|436:91|436:91|421:97|421:97|382:280,1,300.000011444092,2|2,0:1|0:2,0:0:0:0:
84,384,64674,2,0,P|41:356|110:294,1,150.000005722046,10|2,0:2|0:2,0:0:0:0:
210,371,64933,1,0,3:0:0:0:
210,371,65019,6,0,P|274:345|396:366,1,179.999994506836,2|0,3:2|0:0,0:0:0:0:
396,356,65364,1,10,0:0:0:0:
254,186,65536,2,0,B|282:140|282:140|295:139|295:139|334:187|334:187|334:200|334:200|309:241,1,179.999994506836,2|0,0:1|0:0,0:0:0:0:
147,231,65881,2,0,B|111:203|111:203|192:220,1,119.999996337891,2|8,3:1|0:0,0:0:0:0:
508,329,66226,6,0,B|567:311|554:232|485:199|384:232|380:330|401:369,1,300.000011444092,2|2,3:1|3:2,0:0:0:0:
306,236,66743,2,0,B|327:268|327:268|316:231,1,75.0000028610231,10|0,0:2|0:0,0:0:0:0:
471,28,66916,6,0,B|425:65|433:132|433:132|387:80|316:89,1,225.000008583069,2|0,0:2|0:0,0:0:0:0:
330,100,67260,1,2,0:2:0:0:
184,209,67433,1,10,0:2:0:0:
1,0,67605,6,0,B|85:-19|116:40|70:53|126:109|196:75,1,225.000008583069,2|0,3:2|0:0,0:0:0:0:
203,66,67950,1,2,3:2:0:0:
14,145,68123,2,0,B|3:109|3:109|24:141,1,75.0000028610231,10|0,0:2|0:0,0:0:0:0:
53,338,68296,6,0,B|97:301|89:234|89:234|135:286|185:279,1,225.000008583069,2|0,3:2|0:0,0:0:0:0:
196,286,68640,1,2,3:2:0:0:
389,222,68812,2,0,B|412:182|412:182|431:305,1,150.000005722046,10|2,0:2|3:2,0:0:0:0:
335,357,69071,1,0,3:0:0:0:
270,384,69157,6,0,B|243:372|258:316|296:327|296:327|370:345|370:345|375:351|375:351|432:363|432:363|487:373|492:307,1,300,6|0,3:1|0:0,0:0:0:0:
486,202,69502,2,0,B|442:209|442:209|436:214|436:214|389:221,1,100,10|0,0:0|0:0,0:0:0:0:
425,9,69674,6,0,B|453:-4|481:46|446:67|446:67|385:111|385:111|378:112|378:112|332:148|332:148|294:180|321:212,1,300,6|0,3:1|0:0,0:0:0:0:
317,207,70019,2,0,B|336:157|336:157|289:121,1,100,2|0,3:2|0:0,0:0:0:0:
80,142,70192,1,8,0:0:0:0:
150,167,70278,1,8,0:0:0:0:
139,95,70364,6,0,B|95:135|111:200|111:200|122:206|122:206|151:272|89:316,1,239.999992675781,6|10,3:1|0:2,0:0:0:0:
9,353,70881,2,0,P|123:347|217:388,1,200,2|2,3:2|0:2,0:0:0:0:
284,331,71140,1,0,3:0:0:0:
284,331,71226,2,0,P|342:333|362:288,1,100,10|0,0:1|0:0,0:0:0:0:
282,22,71398,6,0,L|272:104,1,75,10|0,0:1|0:0,0:0:0:0:
264,112,71743,6,0,B|340:98|340:98|366:65|366:65|454:51,1,179.999994506836,4|0,3:1|0:0,0:0:0:0:
437,62,72088,1,0,3:0:0:0:
297,236,72260,2,0,P|302:197|332:172,1,59.9999981689454,8|0,0:0|0:0,0:0:0:0:
501,318,72433,6,0,B|506:361|506:361|493:370|493:370|403:348|403:348|396:352|396:352|310:332|310:332|300:337|300:337|292:397|292:397,1,300.000011444092,2|2,0:1|0:2,0:0:0:0:
51,384,72950,2,0,L|209:358,1,150.000005722046,10|2,0:2|0:2,0:0:0:0:
213,268,73209,1,0,3:0:0:0:
213,268,73295,6,0,P|214:218|116:247,1,179.999994506836,2|0,3:2|0:0,0:0:0:0:
125,240,73640,1,10,0:0:0:0:
51,384,73812,6,0,P|77:298|48:158,1,225.000008583069,2|0,0:1|0:0,0:0:0:0:
0,57,74157,2,0,P|5:25|61:20,1,75.0000028610231,2|0,3:1|0:0,0:0:0:0:
259,106,74329,2,0,L|153:124,1,75.0000028610231,8|0,0:0|0:0,0:0:0:0:
52,167,74502,6,0,B|33:138|33:138|87:66|184:109|176:192,1,225.000008583069,2|0,3:1|0:0,0:0:0:0:
247,188,74847,2,0,P|249:224|255:273,1,59.9999981689454,2|0,3:2|0:0,0:0:0:0:
339,384,75019,1,10,0:2:0:0:
56,370,75192,6,0,B|94:358|109:319|109:319|276:345|276:345|299:310|342:305,1,300.000011444092,2|2,0:1|0:2,0:0:0:0:
459,301,75709,2,0,B|486:336|453:369|453:369|387:354|421:290,1,150.000005722046,10|2,0:2|0:2,0:0:0:0:
455,192,75967,1,0,3:0:0:0:
455,192,76054,6,0,P|361:214|332:134,1,179.999994506836,2|0,3:2|0:0,0:0:0:0:
341,139,76398,1,10,0:0:0:0:
150,115,76571,6,0,P|177:22|261:37,1,179.999994506836,2|0,0:1|0:0,0:0:0:0:
257,36,76916,2,0,L|246:107,1,59.9999981689454,2|0,3:1|0:0,0:0:0:0:
238,173,77088,1,8,0:0:0:0:
123,311,77260,6,0,B|196:290|196:290|228:312|228:312|307:290,1,179.999994506836,4|0,3:1|0:0,0:0:0:0:
303,302,77605,1,2,3:2:0:0:
512,332,77778,6,0,B|457:344|433:302|465:285|433:242|371:255,1,150.000005722046,10|2,0:2|3:2,0:0:0:0:
331,144,78036,1,0,3:0:0:0:
325,227,78123,5,10,0:2:0:0:
164,2,78295,1,2,3:2:0:0:
336,222,78467,5,10,0:2:0:0:
83,32,78640,1,2,3:2:0:0:
347,219,78812,5,10,0:2:0:0:
29,97,78985,1,2,3:2:0:0:
358,216,79157,5,10,0:2:0:0:
0,171,79329,1,2,3:2:0:0:
119,379,79502,6,0,P|171:359|170:324,1,75.0000028610231,8|0,0:0|0:0,0:0:0:0:
82,303,79674,1,0,3:0:0:0:
80,313,79760,1,0,3:0:0:0:
1,300,79847,6,0,B|-17:250|-17:250|71:272,1,125,8|0,0:0|0:0,0:0:0:0:
185,275,80019,6,0,B|238:226|228:156|154:143|112:186|172:229,1,179.999994506836,6|0,3:1|0:0,0:0:0:0:
133,208,80364,1,2,3:2:0:0:
274,368,80536,6,0,B|308:365|345:390|345:390|383:344|458:337,1,150.000005722046,10|2,0:2|3:2,0:0:0:0:
411,259,80795,1,0,3:0:0:0:
335,300,80881,5,10,0:2:0:0:
473,59,81054,1,2,3:2:0:0:
141,1,81226,5,10,0:2:0:0:
124,15,81312,1,10,3:2:0:0:
97,87,81398,1,10,3:2:0:0:
141,157,81485,1,10,3:2:0:0:
227,152,81571,6,0,B|205:176|158:161|187:135|134:112|105:139,1,133.333333333333,10|0,0:1|0:0,0:0:0:0:
155,338,81801,2,0,B|146:308|180:275|191:313|237:278|229:240,1,133.333333333333,10|0,0:1|0:0,0:0:0:0:
33,184,82031,2,0,B|65:191|76:237|38:227|45:285|83:297,1,133.333333333333,10|0,0:1|0:0,0:0:0:0:
181,98,82260,6,0,B|153:96|138:70|138:70|93:93|109:139,1,133.333333333333,10|0,0:1|0:0,0:0:0:0:
226,326,82490,2,0,B|241:302|271:302|271:302|274:252|226:243,1,133.333333333333,10|0,0:1|0:0,0:0:0:0:
9,250,82720,2,0,B|21:275|6:301|6:301|48:328|80:291,1,133.333333333333,10|0,0:1|0:0,0:0:0:0:
144,221,82950,5,6,3:1:0:0:
135,174,85192,5,0,3:0:0:0:
142,189,85278,1,0,3:0:0:0:
79,240,85364,2,0,L|212:214,1,100,8|0,0:0|3:0,0:0:0:0:
251,193,85623,1,0,3:0:0:0:
266,195,85709,5,6,3:1:0:0:
406,222,85881,2,0,B|436:234|439:282|439:282|430:294|430:294|386:280|357:313,1,150,10|0,0:1|0:0,0:0:0:0:
276,189,86226,5,6,3:1:0:0:
324,92,86398,2,0,B|344:67|391:79|391:79|399:91|399:91|372:128|395:166,1,150,10|0,0:1|0:0,0:0:0:0:
284,179,86743,5,6,3:1:0:0:
181,102,86916,2,0,B|163:74|189:34|189:34|203:29|203:29|231:66|274:57,1,150,10|0,0:1|0:0,0:0:0:0:
285,165,87260,5,6,3:1:0:0:
165,260,87433,2,0,B|133:267|103:230|103:230|103:215|103:215|147:201|151:157,1,150,10|0,0:1|3:0,0:0:0:0:
274,156,87692,5,0,3:0:0:0:
285,165,87778,2,0,P|296:189|295:232,1,50,2|0,3:1|3:0,3:1:0:0:
244,370,87950,1,10,0:1:0:0:
