osu file format v14

[General]
AudioFilename: audio.mp3
AudioLeadIn: 0
PreviewTime: 58391
Countdown: 0
SampleSet: Soft
StackLeniency: 0.5
Mode: 0
LetterboxInBreaks: 0
WidescreenStoryboard: 1

[Editor]
DistanceSpacing: 1.5
BeatDivisor: 4
GridSize: 32
TimelineZoom: 1

[Metadata]
Title:Taiga yo Tomo ni Naitekure (TV Size)
TitleUnicode:大河よ共に泣いてくれ (TV Size)
Artist:Franchouchou
ArtistUnicode:フランシュシュ
Creator:KwAIMSuckASFuk
Version:Insane
Source:ゾンビランドサガ リベンジ
Tags:jpop pop j-pop gou op Saggin Zombieland Saga Revenge Furanshushu 山田たえ Yamada Tae 0号 Zero-gō Number 0 源さくら Minamoto Sakura 1号 Ichi-gō Number 1 二階堂サキ Nikaidō Saki Nikaidou 2号 Ni-gō Number 2 水野愛 Mizuno Ai 3号 San-gō Number 3 紺野純子 Konno Junko 4号 Yon-gō Number 4 ゆうぎり Yūgiri Yuugiri 5号 Go-gō Number 5 星川リリィ Hoshikawa Lily Ririi 6号 Roku-gō Number 6 三石琴乃 Mitsuishi Kotono 本渡楓 Hondo Kaede 田野アサミ Tano Asami 種田梨沙 Taneda Risa 河瀬茉希 Kawase Maki 衣川里佳 Kinugawa Rika 田中美海 Tanaka Minami ZombielandSaga Zombie land Saga Special Producer: 巽幸太郎 Tatsumi Kōtarō Koutarou 宮野真守 Miyano Mamoru Japanese Anime Opening
BeatmapID:2958201
BeatmapSetID:1436901

[Difficulty]
HPDrainRate:5
CircleSize:4
OverallDifficulty:7
ApproachRate:8.7
SliderMultiplier:1.5
SliderTickRate:1

[Events]
//Background and Video events
0,0,"bg.jpg",0,0
Video,-425,"video.mp4"
//Break Periods
//Storyboard Layer 0 (Background)
//Storyboard Layer 1 (Fail)
//Storyboard Layer 2 (Pass)
//Storyboard Layer 3 (Foreground)
//Storyboard Layer 4 (Overlay)
//Storyboard Sound Samples

[TimingPoints]
192,344.827586206897,4,2,1,30,1,0
192,-133.333333333333,4,2,1,35,0,0
1571,-133.333333333333,4,2,1,40,0,0
2950,-133.333333333333,4,2,1,45,0,0
4329,-133.333333333333,4,2,1,50,0,0
5192,-76.9230769230769,4,2,1,60,0,0
6054,-133.333333333333,4,2,1,60,0,0
6916,-76.9230769230769,4,2,1,60,0,0
7433,-133.333333333333,4,2,1,60,0,0
8467,-76.9230769230769,4,2,1,60,0,0
12433,-100,4,2,1,60,0,0
15192,-76.9230769230769,4,2,1,60,0,0
15881,-100,4,2,1,60,0,0
17088,-76.9230769230769,4,2,1,60,0,0
17605,-100,4,2,1,60,0,0
22260,-133.333333333333,4,2,5,50,0,0
22347,-133.333333333333,4,2,1,50,0,0
27605,-100,4,2,1,50,0,0
33295,-133.333333333333,4,2,5,50,0,0
33381,-133.333333333333,4,2,1,50,0,0
38640,-100,4,2,1,50,0,0
44674,-100,4,2,1,60,0,0
55709,-76.9230769230769,4,2,1,60,0,0
58123,-76.9230769230769,4,2,2,60,0,0
58209,-76.9230769230769,4,2,1,60,0,0
60709,-83.3333333333333,4,2,3,70,0,1
60795,-83.3333333333333,4,2,1,70,0,1
69157,-71.4285714285714,4,2,1,70,0,1
71226,-71.4285714285714,4,2,3,70,0,1
71485,-71.4285714285714,4,2,1,70,0,1
71743,-83.3333333333333,4,2,3,70,0,1
71829,-83.3333333333333,4,2,1,70,0,1
77260,-83.3333333333333,4,2,3,70,0,1
77347,-83.3333333333333,4,2,1,70,0,1
81571,-76.9230769230769,4,2,1,70,0,1
82950,-66.6666666666667,4,2,1,60,0,0
85364,-100,4,2,1,60,0,0

[Colours]
Combo1 : 255,150,45
Combo2 : 255,128,192
Combo3 : 128,128,255
Combo4 : 255,255,2

[HitObjects]
82,261,192,5,2,0:0:0:0:
34,207,536,1,2,0:0:0:0:
69,145,881,1,2,0:0:0:0:
139,161,1226,1,2,0:0:0:0:
182,246,1571,5,2,0:0:0:0:
149,165,1915,1,2,0:0:0:0:
214,108,2260,1,2,0:0:0:0:
286,156,2605,1,2,0:0:0:0:
300,260,2950,5,2,0:0:0:0:
296,155,3294,1,2,0:0:0:0:
392,117,3639,1,2,0:0:0:0:
454,201,3984,1,2,0:0:0:0:
412,284,4329,6,0,P|378:286|349:292,1,56.2500021457673,2|0,0:0|0:0,0:0:0:0:
291,359,4674,2,0,P|249:348|214:345,1,56.2500021457673,2|0,0:0|0:0,0:0:0:0:
178,271,5019,1,2,0:0:0:0:
265,267,5192,5,10,0:1:0:0:
157,364,5364,1,10,0:1:0:0:
76,163,5536,6,0,B|133:123|179:157|156:183|209:213|266:174,1,194.999991073609,10|0,0:1|0:0,0:0:0:0:
214,55,6054,2,0,L|225:119,1,56.2500021457673,2|0,3:2|0:0,0:0:0:0:
341,167,6398,2,0,L|330:231,1,56.2500021457673,2|0,3:2|0:0,0:0:0:0:
305,92,6743,1,10,0:2:0:0:
436,276,6916,6,0,B|376:324|327:281|353:264|304:236|248:272,1,194.999991073609,10|0,0:1|0:0,0:0:0:0:
198,343,7433,2,0,L|129:355,1,56.2500021457673,2|0,3:2|0:0,0:0:0:0:
85,201,7778,1,2,3:2:0:0:
48,343,7950,1,8,0:2:0:0:
48,343,8036,1,0,3:0:0:0:
48,343,8123,2,0,L|54:385,2,28.1250010728836,8|0|0,0:2|3:2|3:2,0:0:0:0:
111,128,8467,6,0,P|186:136|189:212,1,146.249993305207,14|0,0:1|0:0,0:0:0:0:
147,249,8812,2,0,P|130:291|222:315,1,146.249993305207,10|0,0:1|0:0,0:0:0:0:
260,277,9157,6,0,P|328:291|411:310,2,146.249993305207,10|10|10,0:1|0:1|0:1,0:0:0:0:
293,100,9847,5,0,3:0:0:0:
360,268,10019,1,0,3:0:0:0:
407,74,10192,1,0,3:0:0:0:
260,277,10364,6,0,P|273:198|347:193,1,146.249993305207,10|0,0:1|0:0,0:0:0:0:
345,191,10709,1,10,0:1:0:0:
274,351,10881,1,10,0:1:0:0:
193,182,11054,2,0,B|187:133|187:133|190:128|190:128|183:76,1,97.4999955368044,10|0,0:1|3:2,0:0:0:0:
184,86,11571,6,0,B|159:149|159:149|300:113,1,194.999991073609,14|0,0:1|0:0,0:0:0:0:
333,48,12002,1,0,3:0:0:0:
333,48,12088,2,0,P|377:42|414:89,1,97.4999955368044,10|0,0:1|0:0,0:0:0:0:
345,191,12433,6,0,L|367:360,1,150,0|0,3:0|0:0,0:0:0:0:
264,354,12950,2,0,L|183:336,1,75,10|0,0:2|0:0,0:0:0:0:
117,186,13295,1,2,3:2:0:0:
61,286,13467,2,0,L|148:265,1,75,2|8,0:2|0:0,0:0:0:0:
199,142,13812,6,0,B|251:158|251:158|275:193|275:193|347:210,1,150,2|0,0:0|0:0,0:0:0:0:
449,68,14329,2,0,P|395:52|357:124,1,150,10|0,0:1|3:0,0:0:0:0:
417,282,14847,2,0,L|431:368,1,75,2|10,3:2|0:2,0:0:0:0:
504,184,15192,6,0,B|459:158|420:184|420:184|412:197|412:197|367:227|316:200,1,194.999991073609,2|2,0:0|0:2,0:0:0:0:
176,212,15709,1,10,0:2:0:0:
288,129,15881,2,0,P|297:205|306:298,1,150,6|10,3:2|0:2,0:0:0:0:
227,384,16398,1,10,0:2:0:0:
355,337,16571,1,10,0:2:0:0:
184,296,16743,1,0,3:2:0:0:
184,296,17088,6,0,P|110:269|55:356,1,194.999991073609,14|0,0:1|3:2,0:0:0:0:
140,381,17605,1,8,0:0:0:0:
10,251,17778,1,0,0:0:0:0:
184,296,17950,6,0,B|247:284|247:284|269:253|269:253|347:240,1,150,2|2,3:2|3:2,0:0:0:0:
385,315,18467,2,0,L|469:330,1,75,10|0,0:2|0:0,0:0:0:0:
486,116,18812,1,2,3:2:0:0:
380,177,18985,2,0,L|285:160,1,75,2|10,3:2|0:2,0:0:0:0:
215,65,19329,6,0,P|269:29|310:99,1,150,2|0,0:2|0:0,0:0:0:0:
207,160,19847,2,0,L|227:329,1,150,10|0,0:1|3:2,0:0:0:0:
297,381,20364,1,2,3:2:0:0:
367,273,20536,1,10,0:2:0:0:
224,308,20709,6,0,P|201:338|209:384,1,75,2|0,0:0|3:2,0:0:0:0:
438,311,21054,1,2,0:0:0:0:
293,219,21226,1,8,0:0:0:0:
297,381,21398,2,0,L|377:370,1,75,2|0,3:2|0:0,0:0:0:0:
477,227,21743,1,2,3:2:0:0:
380,161,21916,2,0,P|371:235|365:289,1,112.5,10|0,0:2|0:0,0:0:0:0:
356,288,22260,5,6,3:1:0:0:
421,83,22605,2,0,P|387:69|358:85,1,56.2500021457673,0|2,3:2|0:3,0:0:0:0:
287,49,22950,1,0,3:2:0:0:
287,49,23123,2,0,P|252:72|229:71,1,56.2500021457673,2|0,0:3|3:2,0:0:0:0:
161,26,23467,1,2,0:3:0:0:
93,88,23640,6,0,P|105:153|110:205,1,112.500004291535,0|0,3:2|3:2,0:0:0:0:
86,376,24329,2,0,P|119:364|143:355,1,56.2500021457673,0|2,3:2|0:3,0:0:0:0:
197,287,24674,2,0,P|237:297|264:302,1,56.2500021457673,0|2,3:2|0:3,0:0:0:0:
321,358,25019,1,0,3:2:0:0:
321,358,25364,6,0,L|386:345,1,56.2500021457673,2|2,3:1|0:3,0:0:0:0:
445,242,25709,1,0,3:2:0:0:
445,242,25881,2,0,L|510:229,1,56.2500021457673,2|0,0:1|3:2,0:0:0:0:
373,139,26226,1,2,0:3:0:0:
304,220,26398,5,2,3:1:0:0:
272,100,26571,2,0,L|266:32,1,56.2500021457673,2|0,0:1|3:2,0:0:0:0:
373,139,26916,2,0,L|379:207,1,56.2500021457673,2|0,0:1|3:2,0:0:0:0:
163,253,27260,1,0,3:0:0:0:
212,174,27433,1,8,0:0:0:0:
250,314,27605,6,0,P|317:325|410:343,1,150,0|0,3:0|3:0,0:0:0:0:
502,293,28123,2,0,B|520:256|520:256|482:212,1,75,10|0,0:1|0:0,0:0:0:0:
373,139,28467,1,0,3:0:0:0:
364,229,28640,1,0,3:0:0:0:
457,139,28812,1,8,0:0:0:0:
283,145,28985,6,0,P|223:150|129:164,1,150,0|0,3:0|3:0,0:0:0:0:
62,246,29502,2,0,B|66:286|66:286|114:312,1,75,10|0,0:1|0:0,0:0:0:0:
260,332,29847,1,0,3:0:0:0:
277,226,30019,1,0,3:0:0:0:
176,350,30191,1,8,0:0:0:0:
331,302,30364,6,0,B|375:279|416:306|397:327|445:347|489:309,1,150,0|0,3:0|3:0,0:0:0:0:
496,228,30881,2,0,L|486:147,1,75,8|0,0:0|0:0,0:0:0:0:
400,58,31226,2,0,L|390:139,1,75,0|0,3:0|3:0,0:0:0:0:
277,226,31571,2,0,L|267:145,1,75,8|0,0:0|0:0,0:0:0:0:
177,29,31916,6,0,P|163:103|153:162,1,112.5,2|0,3:1|0:0,0:0:0:0:
143,147,32260,1,8,0:0:0:0:
277,226,32433,2,0,P|331:227|365:285,1,112.5,6|0,3:1|0:0,0:0:0:0:
355,284,32778,1,2,3:1:0:0:
239,336,32950,2,0,L|163:350,1,75,10|0,0:1|0:0,0:0:0:0:
312,384,33295,5,6,3:1:0:0:
474,246,33640,2,0,L|461:173,1,56.2500021457673,0|2,3:2|0:3,0:0:0:0:
389,149,33985,1,0,3:2:0:0:
389,149,34157,2,0,L|397:78,1,56.2500021457673,2|0,0:3|3:2,0:0:0:0:
356,10,34502,1,2,0:3:0:0:
266,16,34674,2,0,P|238:44|260:114,1,112.500004291535,0|0,3:2|3:2,0:0:0:0:
308,247,35364,2,0,L|242:259,1,56.2500021457673,0|2,3:2|0:3,0:0:0:0:
202,189,35709,2,0,L|136:177,1,56.2500021457673,0|2,3:2|0:3,0:0:0:0:
72,267,36054,5,0,3:2:0:0:
72,267,36398,2,0,L|6:281,1,56.2500021457673,2|2,3:1|0:3,0:0:0:0:
67,120,36743,1,0,3:2:0:0:
67,120,36916,2,0,L|1:134,1,56.2500021457673,2|0,0:1|3:2,0:0:0:0:
128,58,37260,1,2,0:3:0:0:
146,178,37433,5,2,3:1:0:0:
239,79,37605,2,0,L|230:13,1,56.2500021457673,2|0,0:1|3:2,0:0:0:0:
146,178,37950,2,0,L|155:244,1,56.2500021457673,2|0,0:1|3:2,0:0:0:0:
291,237,38295,1,0,3:0:0:0:
184,322,38467,1,8,0:0:0:0:
349,308,38640,6,0,P|403:280|397:181,1,150,0|0,3:0|3:0,0:0:0:0:
352,82,39157,2,0,B|315:68|315:68|282:98,1,75,10|0,0:1|0:0,0:0:0:0:
332,164,39502,1,0,3:0:0:0:
473,114,39674,1,0,3:0:0:0:
361,5,39847,1,8,0:0:0:0:
409,197,40019,6,0,P|397:252|380:359,1,150,0|0,3:0|3:0,0:0:0:0:
269,345,40536,2,0,B|239:318|239:318|255:279,1,75,10|0,0:1|0:0,0:0:0:0:
332,164,40881,1,0,3:0:0:0:
355,273,41054,1,0,3:0:0:0:
240,141,41226,1,8,0:0:0:0:
191,308,41398,6,0,B|136:321|136:321|106:297|106:297|45:311,1,150,0|0,3:0|3:0,0:0:0:0:
10,185,41916,2,0,P|62:187|91:217,1,75,8|0,0:0|0:0,0:0:0:0:
158,77,42260,1,0,3:0:0:0:
157,169,42433,1,0,3:0:0:0:
212,10,42605,1,8,0:0:0:0:
240,141,42778,1,0,0:0:0:0:
312,19,42950,6,0,L|398:35,1,75,10|0,0:1|0:0,0:0:0:0:
424,226,43295,1,8,0:0:0:0:
475,163,43467,2,0,B|439:133|439:133|360:162,1,112.5,10|0,0:1|0:0,0:0:0:0:
367,147,43812,1,10,0:1:0:0:
300,269,43985,2,0,B|269:303|269:303|181:279,1,112.5,10|0,0:1|0:0,0:0:0:0:
194,272,44329,5,4,3:2:0:0:
74,74,44674,1,2,3:2:0:0:
21,150,44847,1,0,0:0:0:0:
131,143,45019,2,0,P|188:119|251:102,1,112.5,2|0,3:2|0:0,0:0:0:0:
248,85,45364,2,0,P|297:100|362:107,1,112.5,2|0,3:2|0:0,0:0:0:0:
426,134,45709,6,0,B|441:102|441:102|420:68,1,75,2|0,3:2|0:0,0:0:0:0:
295,176,46054,2,0,B|279:207|279:207|300:241,1,75,2|0,3:2|0:0,0:0:0:0:
399,309,46398,1,2,3:2:0:0:
455,234,46571,1,0,0:0:0:0:
300,241,46743,2,0,L|167:263,1,112.5,10|0,0:2|0:0,0:0:0:0:
179,265,47088,5,2,3:2:0:0:
132,342,47260,1,2,0:2:0:0:
92,242,47433,2,0,L|103:156,1,75,2|2,3:2|0:2,0:0:0:0:
20,104,47778,1,2,3:2:0:0:
84,54,47950,2,0,P|130:48|158:85,1,75,2|0,0:2|3:2,0:0:0:0:
264,7,48295,1,2,0:2:0:0:
317,86,48467,6,0,P|304:143|286:241,1,150,2|0,3:2|3:2,0:0:0:0:
356,338,48985,1,2,0:2:0:0:
379,247,49157,1,2,3:2:0:0:
262,326,49329,1,2,0:2:0:0:
453,288,49502,2,0,B|464:241|464:241|457:220|457:220|468:165,1,112.5,10|0,0:1|0:0,0:0:0:0:
476,169,49847,5,6,3:1:0:0:
302,93,50192,1,2,3:2:0:0:
384,40,50364,1,0,0:0:0:0:
261,21,50536,2,0,P|206:24|174:86,1,112.5,2|0,3:2|0:0,0:0:0:0:
163,82,50881,2,0,P|187:142|202:214,1,112.5,2|0,3:2|0:0,0:0:0:0:
140,238,51226,6,0,L|46:258,1,75,2|0,3:2|0:0,0:0:0:0:
224,354,51571,2,0,L|297:369,1,75,2|0,3:2|0:0,0:0:0:0:
406,279,51916,2,0,P|401:246|315:257,1,112.5,2|2,3:2|0:2,0:0:0:0:
319,242,52260,1,10,3:2:0:0:
216,265,52433,1,2,3:2:0:0:
296,123,52605,6,0,P|367:138|452:156,1,150,2|8,3:1|0:0,0:0:0:0:
221,5,53295,2,0,P|181:23|193:89,1,112.5,0|0,3:0|0:0,0:0:0:0:
201,86,53640,1,8,0:0:0:0:
87,136,53812,6,0,L|62:300,1,150,6|0,3:1|3:0,0:0:0:0:
141,368,54329,2,0,P|186:358|220:353,1,75,8|0,0:0|0:0,0:0:0:0:
292,204,54674,1,0,3:0:0:0:
333,311,54847,1,0,3:0:0:0:
184,221,55019,1,8,0:0:0:0:
184,221,55105,1,8,0:0:0:0:
184,221,55192,6,0,B|194:157|194:157|217:140|217:140|227:77,1,150,6|0,3:1|3:0,0:0:0:0:
471,149,55709,6,0,P|417:139|395:230,1,146.249993305207,10|0,0:1|0:0,0:0:0:0:
471,294,56054,2,0,P|498:263|459:290,1,146.249993305207,10|0,0:1|0:0,0:0:0:0:
412,345,56398,2,0,B|346:374|354:287|264:333,1,146.249993305207,10|0,0:1|0:0,0:0:0:0:
199,344,56743,6,0,B|209:281|209:281|218:273|218:273|229:206,2,129.999994049073,10|10|10,0:1|0:1|0:1,0:0:0:0:
113,143,57433,2,0,B|104:89|104:89|95:81|95:81|85:18,2,129.999994049073,10|10|10,0:1|0:1|0:1,0:0:0:0:
83,236,58123,6,0,L|167:221,1,64.9999970245363,10|8,0:1|0:0,0:0:0:0:
364,146,60536,1,8,0:0:0:0:
361,22,60709,6,0,P|293:56|296:169,1,179.999994506836,4|0,3:1|3:0,0:0:0:0:
366,325,61226,1,8,0:0:0:0:
414,242,61398,2,0,P|298:231|267:228,1,134.999995880127,2|0,0:1|0:0,0:0:0:0:
274,239,61743,1,2,0:2:0:0:
168,371,61916,1,10,0:2:0:0:
280,328,62088,1,2,0:2:0:0:
131,226,62260,6,0,P|109:256|124:313,1,89.9999972534181,2|0,3:2|0:0,0:0:0:0:
153,43,62605,1,10,0:0:0:0:
196,136,62778,2,0,P|146:142|92:152,1,89.9999972534181,2|0,0:1|3:0,0:0:0:0:
292,145,63123,1,2,3:1:0:0:
313,10,63295,1,8,0:0:0:0:
397,121,63467,6,0,P|387:175|381:225,1,89.9999972534181,2|0,3:1|0:0,0:0:0:0:
411,340,63812,1,2,3:2:0:0:
483,239,63985,1,10,0:2:0:0:
329,279,64157,2,0,B|279:284|279:284|256:312|256:312|175:321,1,134.999995880127,2|0,0:1|0:0,0:0:0:0:
195,309,64502,1,2,0:2:0:0:
126,153,64674,1,10,0:2:0:0:
219,222,64847,1,2,0:2:0:0:
47,195,65019,6,0,L|35:94,1,89.9999972534181,2|0,3:2|0:0,0:0:0:0:
59,275,65364,1,10,0:0:0:0:
126,153,65536,2,0,B|154:116|154:116|216:137,1,89.9999972534181,2|0,0:1|3:0,0:0:0:0:
375,174,65881,1,2,3:1:0:0:
312,287,66054,1,8,0:0:0:0:
279,133,66226,6,0,L|266:26,1,89.9999972534181,2|0,3:1|0:0,0:0:0:0:
453,194,66571,1,2,3:2:0:0:
498,78,66743,1,10,0:2:0:0:
375,174,66916,2,0,P|366:213|403:255,1,89.9999972534181,2|0,0:2|3:0,0:0:0:0:
233,316,67260,5,2,0:2:0:0:
188,199,67433,1,10,0:2:0:0:
312,287,67605,2,0,P|322:335|293:371,1,89.9999972534181,2|0,3:2|0:0,0:0:0:0:
176,118,67950,5,2,3:2:0:0:
111,231,68123,1,10,0:2:0:0:
255,134,68295,2,0,P|253:78|221:52,1,89.9999972534181,2|0,3:2|3:0,0:0:0:0:
100,145,68640,1,2,3:2:0:0:
267,215,68812,2,0,L|372:197,1,89.9999972534181,10|2,0:2|3:2,0:0:0:0:
227,381,69157,6,0,B|253:341|216:295|198:326|168:270|201:219,1,157.499995193482,6|0,3:1|0:0,0:0:0:0:
181,220,69502,1,10,0:0:0:0:
234,59,69674,2,0,B|341:41|341:41|325:100,1,157.499995193482,6|0,3:1|0:0,0:0:0:0:
319,99,70019,1,2,3:2:0:0:
155,42,70192,1,8,0:0:0:0:
267,215,70364,6,0,B|332:227|332:227|349:247|349:247|423:259,1,157.499995193482,6|0,3:1|0:0,0:0:0:0:
430,249,70709,1,10,0:2:0:0:
384,162,70881,1,2,3:2:0:0:
357,332,71054,1,2,0:2:0:0:
476,173,71226,5,10,0:1:0:0:
271,297,71398,1,10,0:1:0:0:
271,297,71743,6,0,P|201:289|81:278,1,179.999994506836,4|0,3:1|3:0,0:0:0:0:
16,219,72260,1,8,0:0:0:0:
121,94,72433,2,0,P|154:111|137:197,1,134.999995880127,2|0,0:1|0:0,0:0:0:0:
124,201,72778,1,2,0:2:0:0:
35,127,72950,1,10,0:2:0:0:
188,42,73123,1,2,0:2:0:0:
26,6,73295,6,0,L|128:19,1,89.9999972534181,2|0,3:2|0:0,0:0:0:0:
272,163,73640,1,10,0:0:0:0:
321,51,73812,2,0,P|267:63|254:99,1,89.9999972534181,2|0,0:1|3:0,0:0:0:0:
334,271,74157,1,2,3:1:0:0:
392,187,74329,1,8,0:0:0:0:
234,247,74502,6,0,L|126:263,1,89.9999972534181,2|0,3:1|0:0,0:0:0:0:
49,106,74847,1,2,3:2:0:0:
0,214,75019,1,10,0:2:0:0:
159,168,75192,2,0,P|195:111|131:81,1,134.999995880127,2|0,0:1|0:0,0:0:0:0:
140,86,75536,1,2,0:2:0:0:
78,207,75709,2,0,P|70:266|62:320,1,89.9999972534181,10|2,0:2|0:2,0:0:0:0:
151,370,76054,6,0,B|218:361|218:361|243:323|243:323|314:313,1,179.999994506836,2|10,3:2|0:0,0:0:0:0:
388,361,76571,1,2,0:1:0:0:
341,206,76743,1,0,3:0:0:0:
309,313,76916,1,2,3:1:0:0:
432,210,77088,1,8,0:0:0:0:
259,188,77260,6,0,P|209:224|216:263,1,89.9999972534181,4|0,3:1|0:0,0:0:0:0:
309,313,77605,1,2,3:2:0:0:
356,128,77778,5,10,0:2:0:0:
232,68,77950,1,2,3:2:0:0:
341,206,78123,1,10,0:2:0:0:
416,53,78295,1,2,3:2:0:0:
259,188,78467,2,0,L|165:179,1,89.9999972534181,10|2,0:2|3:2,0:0:0:0:
125,293,78812,5,10,0:2:0:0:
72,152,78985,1,2,3:2:0:0:
48,356,79157,1,10,0:2:0:0:
211,260,79329,1,2,3:2:0:0:
10,232,79502,1,8,0:0:0:0:
163,359,79674,2,0,L|212:365,2,44.999998626709,0|0|8,3:0|3:0|0:0,0:0:0:0:
72,152,80019,6,0,P|65:107|54:46,1,89.9999972534181,6|0,3:1|0:0,0:0:0:0:
158,201,80364,1,2,3:2:0:0:
256,49,80536,5,10,0:2:0:0:
289,196,80709,1,2,3:2:0:0:
166,62,80881,1,10,0:2:0:0:
359,110,81054,1,2,3:2:0:0:
228,273,81226,1,10,0:2:0:0:
228,273,81312,1,10,3:2:0:0:
228,273,81398,1,10,3:2:0:0:
228,273,81485,1,10,3:2:0:0:
228,273,81571,6,0,B|293:281|293:281|300:292|300:292|378:300,2,129.999994049073,10|10|10,0:1|0:1|0:1,0:0:0:0:
359,110,82260,2,0,B|424:102|424:102|431:91|431:91|510:81,2,129.999994049073,10|10|10,0:1|0:1|0:1,0:0:0:0:
304,42,82950,5,6,3:1:0:0:
304,42,85364,6,0,L|316:141,1,75,8|0,0:0|3:0,0:0:0:0:
337,167,85623,1,0,3:0:0:0:
337,167,85709,5,6,3:1:0:0:
238,205,85881,1,10,0:1:0:0:
45,52,86226,5,6,3:1:0:0:
170,90,86398,1,10,0:1:0:0:
332,309,86743,5,6,3:1:0:0:
179,351,86916,1,10,0:1:0:0:
24,189,87260,5,6,3:1:0:0:
165,232,87433,1,10,0:1:0:0:
441,139,87778,5,6,3:1:0:0:
267,188,87950,1,10,0:1:0:0:
