osu file format v14

[General]
AudioFilename: audio.mp3
AudioLeadIn: 0
PreviewTime: 58391
Countdown: 0
SampleSet: Soft
StackLeniency: 0.5
Mode: 0
LetterboxInBreaks: 0
WidescreenStoryboard: 1

[Editor]
DistanceSpacing: 1.5
BeatDivisor: 4
GridSize: 32
TimelineZoom: 1

[Metadata]
Title:Taiga yo Tomo ni Naitekure (TV Size)
TitleUnicode:大河よ共に泣いてくれ (TV Size)
Artist:Franchouchou
ArtistUnicode:フランシュシュ
Creator:KwAIMSuckASFuk
Version:Expert
Source:ゾンビランドサガ リベンジ
Tags:jpop pop j-pop gou op Saggin Zombieland Saga Revenge Furanshushu 山田たえ Yamada Tae 0号 Zero-gō Number 0 源さくら Minamoto Sakura 1号 Ichi-gō Number 1 二階堂サキ Nikaidō Saki Nikaidou 2号 Ni-gō Number 2 水野愛 Mizuno Ai 3号 San-gō Number 3 紺野純子 Konno Junko 4号 Yon-gō Number 4 ゆうぎり Yūgiri Yuugiri 5号 Go-gō Number 5 星川リリィ Hoshikawa Lily Ririi 6号 Roku-gō Number 6 三石琴乃 Mitsuishi Kotono 本渡楓 Hondo Kaede 田野アサミ Tano Asami 種田梨沙 Taneda Risa 河瀬茉希 Kawase Maki 衣川里佳 Kinugawa Rika 田中美海 Tanaka Minami ZombielandSaga Zombie land Saga Special Producer: 巽幸太郎 Tatsumi Kōtarō Koutarou 宮野真守 Miyano Mamoru Japanese Anime Opening
BeatmapID:2957971
BeatmapSetID:1436901

[Difficulty]
HPDrainRate:5.5
CircleSize:4
OverallDifficulty:8.5
ApproachRate:9.1
SliderMultiplier:1.6
SliderTickRate:1

[Events]
//Background and Video events
0,0,"bg.jpg",0,0
Video,-425,"video.mp4"
//Break Periods
//Storyboard Layer 0 (Background)
//Storyboard Layer 1 (Fail)
//Storyboard Layer 2 (Pass)
//Storyboard Layer 3 (Foreground)
//Storyboard Layer 4 (Overlay)
//Storyboard Sound Samples

[TimingPoints]
192,344.827586206897,4,2,1,30,1,0
192,-133.333333333333,4,2,1,35,0,0
1571,-133.333333333333,4,2,1,40,0,0
2950,-133.333333333333,4,2,1,45,0,0
4329,-133.333333333333,4,2,1,50,0,0
5192,-100,4,2,1,60,0,0
8467,-58.8235294117647,4,2,1,60,0,0
11226,-333.333333333333,4,2,1,60,0,0
11571,-66.6666666666667,4,2,1,60,0,0
12433,-100,4,2,1,60,0,0
16743,-333.333333333333,4,2,1,60,0,0
17088,-66.6666666666667,4,2,1,60,0,0
17605,-100,4,2,1,60,0,0
21398,-66.6666666666667,4,2,1,60,0,0
22260,-133.333333333333,4,2,5,50,0,0
22347,-133.333333333333,4,2,1,50,0,0
27605,-100,4,2,1,50,0,0
28123,-66.6666666666667,4,2,1,50,0,0
28985,-100,4,2,1,50,0,0
29502,-66.6666666666667,4,2,1,50,0,0
30364,-100,4,2,1,50,0,0
32433,-66.6666666666667,4,2,1,50,0,0
33295,-133.333333333333,4,2,5,50,0,0
33381,-133.333333333333,4,2,1,50,0,0
38640,-100,4,2,1,50,0,0
39157,-66.6666666666667,4,2,1,50,0,0
40019,-100,4,2,1,50,0,0
40536,-66.6666666666667,4,2,1,50,0,0
41398,-100,4,2,1,50,0,0
42950,-66.6666666666667,4,2,1,50,0,0
44674,-83.3333333333333,4,2,1,60,0,0
44933,-83.3333333333333,4,2,1,5,0,0
45019,-83.3333333333333,4,2,1,60,0,0
45278,-83.3333333333333,4,2,1,5,0,0
45364,-83.3333333333333,4,2,1,60,0,0
45623,-83.3333333333333,4,2,1,5,0,0
45709,-83.3333333333333,4,2,1,60,0,0
45967,-83.3333333333333,4,2,1,5,0,0
46054,-83.3333333333333,4,2,1,60,0,0
46312,-83.3333333333333,4,2,1,5,0,0
46398,-83.3333333333333,4,2,1,60,0,0
46657,-83.3333333333333,4,2,1,5,0,0
46743,-66.6666666666667,4,2,1,60,0,0
47002,-66.6666666666667,4,2,1,5,0,0
47088,-133.333333333333,4,2,1,60,0,0
49157,-83.3333333333333,4,2,1,60,0,0
50450,-83.3333333333333,4,2,1,5,0,0
50536,-83.3333333333333,4,2,1,60,0,0
50795,-83.3333333333333,4,2,1,5,0,0
50881,-83.3333333333333,4,2,1,60,0,0
51140,-83.3333333333333,4,2,1,5,0,0
51226,-83.3333333333333,4,2,1,60,0,0
51485,-83.3333333333333,4,2,1,5,0,0
51571,-83.3333333333333,4,2,1,60,0,0
51829,-83.3333333333333,4,2,1,5,0,0
51916,-83.3333333333333,4,2,1,60,0,0
52605,-66.6666666666667,4,2,1,60,0,0
53295,-100,4,2,1,60,0,0
53812,-66.6666666666667,4,2,1,60,0,0
54329,-100,4,2,1,60,0,0
55192,-333.333333333333,4,2,1,60,0,0
55709,-66.6666666666667,4,2,1,60,0,0
58123,-66.6666666666667,4,2,2,60,0,0
58209,-66.6666666666667,4,2,1,60,0,0
58467,-1000,4,2,1,60,0,0
59502,-200,4,2,1,60,0,0
60709,-90.9090909090909,4,2,3,70,0,1
60795,-90.9090909090909,4,2,1,70,0,1
61398,-66.6666666666667,4,2,1,70,0,1
62260,-90.9090909090909,4,2,1,70,0,1
64157,-66.6666666666667,4,2,1,70,0,1
65019,-90.9090909090909,4,2,1,70,0,1
69157,-66.6666666666667,4,2,1,70,0,1
70709,-90.9090909090909,4,2,1,70,0,1
71226,-90.9090909090909,4,2,3,70,0,1
71485,-90.9090909090909,4,2,1,70,0,1
71743,-90.9090909090909,4,2,3,70,0,1
71829,-90.9090909090909,4,2,1,70,0,1
72433,-66.6666666666667,4,2,1,70,0,1
73295,-90.9090909090909,4,2,1,70,0,1
75192,-66.6666666666667,4,2,1,70,0,1
76054,-90.9090909090909,4,2,1,70,0,1
77260,-66.6666666666667,4,2,3,70,0,1
77347,-66.6666666666667,4,2,1,70,0,1
79502,-90.9090909090909,4,2,1,70,0,1
80019,-66.6666666666667,4,2,1,70,0,1
82950,-66.6666666666667,4,2,1,60,0,0
85364,-100,4,2,1,60,0,0

[Colours]
Combo1 : 255,150,45
Combo2 : 255,128,192
Combo3 : 128,128,255
Combo4 : 255,255,2

[HitObjects]
305,21,192,6,0,L|301:94,1,60.0000022888184,2|0,0:0|0:0,0:0:0:0:
203,21,536,2,0,L|207:94,1,60.0000022888184,2|0,0:0|0:0,0:0:0:0:
305,156,881,2,0,L|301:229,1,60.0000022888184,2|0,0:0|0:0,0:0:0:0:
203,156,1225,2,0,L|207:229,1,60.0000022888184,2|0,0:0|0:0,0:0:0:0:
316,368,1571,6,0,L|312:295,1,60.0000022888184,2|0,0:0|0:0,0:0:0:0:
196,368,1916,2,0,L|200:295,1,60.0000022888184,2|0,0:0|0:0,0:0:0:0:
318,225,2260,2,0,L|314:152,1,60.0000022888184,2|0,0:0|0:0,0:0:0:0:
194,225,2605,2,0,L|198:152,1,60.0000022888184,2|0,0:0|0:0,0:0:0:0:
336,21,2950,6,0,L|342:93,1,60.0000022888184,2|0,0:0|0:0,0:0:0:0:
176,21,3295,2,0,L|170:93,1,60.0000022888184,2|0,0:0|0:0,0:0:0:0:
333,163,3640,2,0,L|339:235,1,60.0000022888184,2|0,0:0|0:0,0:0:0:0:
173,163,3985,2,0,L|167:235,1,60.0000022888184,2|0,0:0|0:0,0:0:0:0:
351,378,4329,6,0,L|357:306,1,60.0000022888184,2|0,0:0|0:0,0:0:0:0:
158,379,4674,2,0,L|152:307,1,60.0000022888184,2|0,0:0|0:0,0:0:0:0:
256,255,5019,1,2,0:0:0:0:
343,183,5192,6,0,L|336:238,1,40,10|0,0:1|0:0,0:0:0:0:
168,222,5364,2,0,L|161:167,1,40,10|0,0:1|0:0,0:0:0:0:
256,91,5536,6,0,B|299:111|345:76|314:60|365:32|425:58,1,160,10|0,0:1|0:0,0:0:0:0:
428,178,6054,2,0,B|444:218|444:218|412:254,1,80,2|0,3:2|0:0,0:0:0:0:
256,91,6398,5,2,3:2:0:0:
168,222,6571,1,0,0:0:0:0:
253,78,6743,1,10,0:2:0:0:
296,244,6916,2,0,L|254:241,1,40,10|0,0:1|0:0,0:0:0:0:
133,86,7088,6,0,B|112:124|112:124|133:170,1,80,2|0,3:2|0:0,0:0:0:0:
341,162,7433,2,0,B|359:126|359:126|338:80,1,80,2|0,3:2|0:0,0:0:0:0:
155,346,7778,5,2,3:2:0:0:
207,152,7950,1,8,0:2:0:0:
13,218,8123,2,0,L|20:269,2,40,8|0|0,0:2|3:2|3:2,0:0:0:0:
256,295,8467,6,0,B|314:304|314:304|352:273|352:273|353:265|353:265|385:236|385:236|461:245,1,204.000003890991,14|0,0:1|0:0,0:0:0:0:
504,187,8812,2,0,B|508:149|508:149|458:120|383:183|434:246,1,204.000003890991,10|0,0:1|0:0,0:0:0:0:
435,340,9157,6,0,B|382:367|345:322|366:301|314:256|242:302,2,204.000003890991,10|10|10,0:1|0:1|0:1,0:0:0:0:
216,198,9847,5,0,3:0:0:0:
296,370,10019,1,0,3:0:0:0:
329,153,10192,1,0,3:0:0:0:
146,366,10364,6,0,B|134:337|111:322|111:322|266:293,1,204.000003890991,10|0,0:1|0:0,0:0:0:0:
262,284,10709,1,10,0:1:0:0:
355,53,10881,1,10,0:1:0:0:
142,202,11054,1,10,0:1:0:0:
363,297,11226,6,0,L|372:259,1,35.9999989013672,0|0,3:2|0:0,0:0:0:0:
387,258,11571,6,0,B|415:270|427:231|400:218|400:218|315:181|315:181|278:165|296:111|336:132,1,240.000009155274,14|0,0:1|0:0,0:0:0:0:
467,59,12002,1,0,3:0:0:0:
467,59,12088,2,0,P|447:121|391:100,1,120.000004577637,10|0,0:1|0:0,0:0:0:0:
355,53,12347,1,0,3:0:0:0:
355,53,12433,6,0,L|273:65,1,80,0|0,3:0|0:0,0:0:0:0:
197,259,12778,1,2,3:2:0:0:
106,117,12950,2,0,P|137:113|177:180,1,120,10|0,0:2|0:0,0:0:0:0:
165,188,13295,1,2,3:2:0:0:
275,41,13467,2,0,L|371:55,1,80,2|8,0:2|0:0,0:0:0:0:
197,259,13812,6,0,B|129:271|129:271|117:284|117:284|30:299,1,160,2|0,0:0|0:0,0:0:0:0:
257,304,14329,2,0,P|276:274|266:228,1,80,10|0,0:1|0:0,0:0:0:0:
194,55,14674,1,0,3:0:0:0:
119,173,14847,1,2,3:2:0:0:
292,114,15019,1,10,0:2:0:0:
90,97,15192,6,0,L|9:107,1,80,2|0,0:0|3:0,0:0:0:0:
258,305,15536,1,2,0:2:0:0:
126,257,15709,1,10,0:2:0:0:
311,189,15881,2,0,L|438:206,1,120,6|0,3:2|0:0,0:0:0:0:
435,220,16226,1,10,0:2:0:0:
228,150,16398,1,10,0:2:0:0:
466,76,16571,1,10,0:2:0:0:
396,318,16743,6,0,L|403:362,1,35.9999989013672,0|0,3:2|0:0,0:0:0:0:
419,356,17088,6,0,P|439:283|318:292,1,240.000009155274,14|0,0:1|3:2,0:0:0:0:
275,374,17605,1,8,0:0:0:0:
242,205,17778,1,0,0:0:0:0:
179,384,17950,6,0,B|192:309|192:309|203:299|203:299|216:216,1,160,2|2,3:2|3:2,0:0:0:0:
65,159,18467,2,0,P|48:213|111:238,1,120,10|0,0:2|0:0,0:0:0:0:
105,250,18812,1,2,3:2:0:0:
118,76,18985,1,2,3:2:0:0:
0,275,19157,1,10,0:2:0:0:
250,253,19329,6,0,P|218:159|149:158,1,160,2|0,2:2|2:0,2:0:0:0:
189,377,19847,2,0,B|293:386|235:301|346:330,1,160,10|0,0:1|3:2,0:0:0:0:
398,134,20364,1,2,3:2:0:0:
506,319,20536,1,10,0:2:0:0:
368,234,20709,6,0,L|237:255,1,120,2|0,0:0|0:0,0:0:0:0:
236,261,21054,1,2,0:0:0:0:
261,61,21226,1,8,0:0:0:0:
79,194,21398,2,0,P|96:147|203:190,1,180.000006866455,2|0,3:2|0:0,0:0:0:0:
193,177,21743,1,2,3:2:0:0:
75,370,21916,1,10,0:2:0:0:
286,352,22088,1,0,3:0:0:0:
291,341,22174,1,0,3:0:0:0:
298,330,22260,5,6,3:1:0:0:
245,57,22605,2,0,P|265:92|259:124,1,60.0000022888184,0|2,3:2|0:3,0:0:0:0:
338,169,22950,1,0,3:2:0:0:
338,169,23123,2,0,P|322:203|325:243,1,60.0000022888184,2|0,0:3|3:2,0:0:0:0:
223,264,23467,1,2,0:3:0:0:
223,264,23640,2,0,P|249:321|241:388,1,120.000004577637,0|0,3:2|3:2,0:0:0:0:
245,376,24329,2,0,P|213:357|181:364,1,60.0000022888184,0|2,3:2|0:3,0:0:0:0:
73,345,24674,2,0,P|109:333|129:296,1,60.0000022888184,0|2,3:2|0:3,0:0:0:0:
129,232,25019,5,0,3:2:0:0:
129,232,25364,2,0,L|114:108,1,120.000004577637,2|0,3:1|3:2,0:0:0:0:
302,161,25881,2,0,L|287:37,1,120.000004577637,2|2,0:1|0:3,0:0:0:0:
220,197,26398,1,2,3:1:0:0:
220,197,26571,2,0,L|210:124,1,60.0000022888184,2|0,0:1|3:2,0:0:0:0:
380,135,26916,2,0,L|370:62,1,60.0000022888184,2|0,0:1|3:2,0:0:0:0:
337,241,27260,5,0,3:0:0:0:
292,102,27433,1,8,0:0:0:0:
203,282,27605,6,0,B|264:290|264:290|289:317|289:317|367:332,1,160,0|0,3:0|3:0,0:0:0:0:
437,277,28123,6,0,B|423:208|423:208|411:223|411:223|421:283,1,120.000004577637,10|0,0:1|0:0,0:0:0:0:
423,358,28467,1,0,3:0:0:0:
507,212,28640,1,0,3:0:0:0:
347,288,28812,1,8,0:0:0:0:
422,110,28985,6,0,B|361:118|361:118|336:145|336:145|258:160,1,160,0|0,3:0|3:0,0:0:0:0:
188,105,29503,6,0,B|202:36|202:36|214:51|214:51|204:111,1,120.000004577637,10|0,0:1|0:0,0:0:0:0:
226,220,29847,1,0,3:0:0:0:
294,74,30019,1,0,3:0:0:0:
336,250,30192,1,8,0:0:0:0:
188,105,30364,6,0,B|150:88|117:113|141:137|83:156|42:125,1,160,0|0,3:0|3:0,0:0:0:0:
294,74,30881,2,0,L|304:163,1,80,8|0,0:0|0:0,0:0:0:0:
234,299,31226,2,0,L|224:210,1,80,0|0,3:0|3:0,0:0:0:0:
377,48,31571,2,0,L|395:187,1,120,8|0,0:0|0:0,0:0:0:0:
408,181,31916,5,2,3:1:0:0:
256,141,32088,1,0,0:0:0:0:
409,324,32260,1,8,0:0:0:0:
225,219,32433,6,0,B|149:229|149:229|131:249|131:249|28:264,1,180.000006866455,6|0,3:1|0:0,0:0:0:0:
43,268,32778,1,2,3:1:0:0:
213,112,32950,2,0,B|264:81|264:81|253:155,1,120.000004577637,10|0,0:1|0:0,0:0:0:0:
139,382,33295,5,6,3:1:0:0:
355,364,33640,2,0,P|325:363|296:344,1,60.0000022888184,0|2,3:2|0:3,0:0:0:0:
432,279,33985,1,0,3:2:0:0:
432,279,34158,2,0,P|470:279|493:292,1,60.0000022888184,2|0,0:3|3:2,0:0:0:0:
331,168,34502,1,2,0:3:0:0:
331,168,34675,2,0,P|339:224|349:292,1,120.000004577637,0|0,3:2|3:2,0:0:0:0:
348,286,35364,2,0,L|281:276,1,60.0000022888184,0|2,3:2|0:3,0:0:0:0:
224,207,35709,2,0,L|158:213,1,60.0000022888184,0|2,3:2|0:3,0:0:0:0:
71,296,36054,5,0,3:2:0:0:
71,296,36399,2,0,L|195:311,1,120.000004577637,2|0,3:1|3:2,0:0:0:0:
142,123,36916,2,0,L|266:138,1,120.000004577637,2|2,0:1|0:3,0:0:0:0:
105,205,37433,1,2,3:1:0:0:
105,205,37606,2,0,L|178:215,1,60.0000022888184,2|0,0:1|3:2,0:0:0:0:
168,45,37951,2,0,L|241:55,1,60.0000022888184,2|0,0:1|3:2,0:0:0:0:
315,224,38295,5,0,3:0:0:0:
394,87,38468,1,8,0:0:0:0:
449,262,38640,6,0,B|356:243|400:312|298:305,1,160,0|0,3:0|3:0,0:0:0:0:
166,259,39157,6,0,P|156:294|170:264,1,120.000004577637,10|0,0:1|0:0,0:0:0:0:
232,329,39502,1,0,3:0:0:0:
257,177,39674,1,0,3:0:0:0:
321,340,39847,1,8,0:0:0:0:
117,139,40019,6,0,B|210:158|166:89|268:96,1,160,0|0,3:0|3:0,0:0:0:0:
374,55,40536,6,0,P|384:20|370:50,1,120.000004577637,10|0,0:1|0:0,0:0:0:0:
257,177,40881,1,0,3:0:0:0:
298,26,41054,1,0,3:0:0:0:
356,219,41226,1,8,0:0:0:0:
192,57,41398,6,0,B|161:106|161:106|287:93,1,160,0|0,3:0|3:0,0:0:0:0:
177,280,41916,2,0,B|191:236|191:236|141:193,1,80,8|0,0:0|0:0,0:0:0:0:
87,80,42260,2,0,B|73:124|73:124|123:167,1,80,0|0,3:0|3:0,0:0:0:0:
262,188,42605,1,8,0:0:0:0:
59,243,42778,1,0,0:0:0:0:
291,307,42950,6,0,L|430:294,1,120.000004577637,10|0,0:1|0:0,0:0:0:0:
429,314,43209,1,0,3:0:0:0:
429,314,43295,1,8,0:0:0:0:
475,119,43467,6,0,P|412:118|397:231,1,180.000006866455,10|0,0:1|0:0,0:0:0:0:
398,215,43812,1,10,0:1:0:0:
225,59,43985,6,0,P|290:103|245:195,1,180.000006866455,10|0,0:1|0:0,0:0:0:0:
249,183,44329,5,4,3:2:0:0:
23,366,44674,6,0,P|48:301|121:317,1,143.999995605469,2|0,3:2|0:0,0:0:0:0:
148,375,45019,2,0,P|222:354|314:339,1,143.999995605469,2|0,3:2|0:0,0:0:0:0:
354,381,45364,2,0,P|387:358|377:255,1,143.999995605469,2|0,3:2|0:0,0:0:0:0:
337,207,45709,6,0,B|294:205|278:244|306:252|245:295|187:259,1,143.999995605469,2|0,3:2|0:0,0:0:0:0:
162,216,46054,2,0,B|185:179|159:146|138:166|131:92|191:60,1,143.999995605469,2|0,3:2|0:0,0:0:0:0:
240,57,46398,2,0,B|259:95|301:89|294:61|362:92|360:160,1,143.999995605469,2|0,3:2|0:0,0:0:0:0:
427,156,46743,2,0,P|407:234|396:343,1,180.000006866455,10|0,0:2|0:0,0:0:0:0:
406,340,47088,5,2,3:2:0:0:
363,254,47260,1,2,0:2:0:0:
318,384,47433,1,2,3:2:0:0:
293,284,47605,1,2,0:2:0:0:
203,378,47778,1,2,3:2:0:0:
219,258,47950,2,0,L|229:177,1,60.0000022888184,2|0,0:2|3:2,0:0:0:0:
99,333,48295,1,2,0:2:0:0:
147,222,48467,6,0,L|138:141,1,60.0000022888184,2|2,3:2|0:2,0:0:0:0:
42,206,48812,1,0,3:2:0:0:
229,82,48985,2,0,L|238:4,1,60.0000022888184,2|0,0:2|3:2,0:2:0:0:
41,73,49329,1,2,0:2:0:0:
219,258,49502,2,0,L|366:236,1,143.999995605469,10|0,0:1|0:0,0:0:0:0:
373,248,49847,5,6,3:1:0:0:
503,104,50192,6,0,P|460:54|386:103,1,143.999995605469,2|0,3:2|0:0,0:0:0:0:
435,146,50536,2,0,P|448:222|459:311,1,143.999995605469,2|0,3:2|0:0,0:0:0:0:
404,347,50881,2,0,P|339:328|270:375,1,143.999995605469,2|0,3:2|0:0,0:0:0:0:
201,383,51226,6,0,P|240:327|170:312,1,143.999995605469,2|0,3:2|0:0,0:0:0:0:
117,264,51571,2,0,P|62:230|103:181,1,143.999995605469,2|0,3:2|0:0,0:0:0:0:
177,209,51916,2,0,P|246:190|337:174,2,143.999995605469,2|2|2,3:2|0:2|3:2,0:0:0:0:
194,107,52605,6,0,P|244:157|271:276,1,180.000006866455,2|0,3:1|0:0,0:0:0:0:
264,267,52950,1,8,0:0:0:0:
136,309,53123,1,0,0:0:0:0:
327,362,53295,2,0,L|431:344,1,80,0|0,3:0|3:0,0:0:0:0:
512,157,53640,1,8,0:0:0:0:
433,261,53812,6,0,P|383:211|356:92,1,180.000006866455,6|0,3:1|0:0,0:0:0:0:
366,101,54157,1,0,3:0:0:0:
228,196,54329,2,0,L|140:213,1,80,8|0,0:0|0:0,0:0:0:0:
302,239,54674,1,0,3:0:0:0:
240,47,54847,1,0,3:0:0:0:
176,293,55019,1,8,0:0:0:0:
176,293,55105,1,8,0:0:0:0:
176,293,55192,6,0,L|184:346,1,47.9999985351563,6|0,3:1|3:0,0:0:0:0:
164,353,55709,6,0,P|79:332|102:248,1,180.000006866455,10|0,0:1|0:0,0:0:0:0:
133,176,56054,2,0,B|177:169|208:209|208:209|209:221|209:221|256:251|308:225,1,180.000006866455,10|0,0:1|0:0,0:0:0:0:
407,155,56398,2,0,P|373:113|372:190,1,180.000006866455,10|0,0:1|0:0,0:0:0:0:
368,265,56743,6,0,P|412:253|465:240,1,80.0000030517579,10|0,0:1|0:0,0:0:0:0:
299,364,56973,2,0,P|343:376|396:389,1,80.0000030517579,10|0,0:1|0:0,0:0:0:0:
162,281,57203,2,0,P|206:269|259:256,1,80.0000030517579,10|0,0:1|0:0,0:0:0:0:
133,176,57433,6,0,P|89:188|36:201,1,80.0000030517579,10|0,0:1|0:0,0:0:0:0:
202,77,57663,2,0,P|158:65|105:52,1,80.0000030517579,10|0,0:1|0:0,0:0:0:0:
339,160,57893,2,0,P|295:172|242:185,1,80.0000030517579,10|0,0:1|0:0,0:0:0:0:
408,81,58123,5,10,0:1:0:0:
411,92,58237,1,8,0:0:0:0:
433,216,58467,6,0,P|413:234|432:215,1,80,2|2,0:0|0:0,0:0:0:0:
167,366,60536,1,8,0:0:0:0:
157,256,60709,6,0,B|218:265|218:265|252:313|252:313|346:324,1,176.000005371094,4|0,3:1|3:0,0:0:0:0:
512,263,61226,1,8,0:0:0:0:
356,142,61398,6,0,P|379:237|403:333,1,180.000006866455,2|0,0:1|0:0,0:0:0:0:
395,327,61743,1,2,0:2:0:0:
508,133,61916,1,10,0:2:0:0:
300,233,62088,1,2,0:2:0:0:
493,34,62260,6,0,P|428:29|423:94,1,132.00000402832,2|0,3:2|0:0,0:0:0:0:
428,95,62605,1,10,0:0:0:0:
229,132,62778,2,0,B|195:98|195:98|213:56,1,88.000002685547,2|0,0:1|3:0,0:0:0:0:
231,289,63123,1,2,3:1:0:0:
337,47,63295,1,8,0:0:0:0:
219,210,63467,6,0,B|160:220|160:220|132:256|132:256|52:270,1,176.000005371094,2|2,3:1|3:2,0:0:0:0:
13,133,63985,1,10,0:2:0:0:
159,322,64157,6,0,P|231:334|353:355,1,180.000006866455,2|0,0:1|0:0,0:0:0:0:
344,368,64502,1,2,0:2:0:0:
455,142,64674,1,10,0:2:0:0:
496,336,64847,1,2,0:2:0:0:
291,269,65019,6,0,P|308:222|397:238,1,132.00000402832,2|0,3:2|0:0,0:0:0:0:
381,231,65364,1,10,0:0:0:0:
198,231,65536,2,0,B|186:184|186:184|229:163,1,88.000002685547,2|0,0:1|3:0,0:0:0:0:
275,0,65881,1,2,3:1:0:0:
439,80,66054,1,8,0:0:0:0:
221,166,66226,6,0,B|149:154|149:154|125:122|125:122|48:101,1,176.000005371094,2|2,3:1|3:2,0:0:0:0:
158,5,66743,1,10,0:2:0:0:
300,134,66916,2,0,B|335:227|262:195|304:297,1,132.00000402832,2|0,0:2|0:0,0:0:0:0:
309,271,67260,1,2,0:2:0:0:
150,378,67433,1,10,0:2:0:0:
390,309,67605,6,0,B|413:269|413:269|380:231,1,88.000002685547,2|0,3:2|0:0,0:0:0:0:
153,164,67950,1,2,3:2:0:0:
209,290,68123,1,10,0:2:0:0:
224,105,68295,1,2,3:2:0:0:
109,277,68467,5,0,3:0:0:0:
139,41,68640,1,2,3:2:0:0:
331,166,68812,2,0,L|236:183,1,88.000002685547,10|2,0:2|3:2,0:0:0:0:
34,105,69157,6,0,B|10:62|10:62|152:38,1,180.000006866455,6|0,3:1|0:0,0:0:0:0:
153,57,69502,1,10,0:0:0:0:
405,214,69674,6,0,B|429:257|429:257|287:281,1,180.000006866455,6|0,3:1|0:0,0:0:0:0:
274,280,70019,1,2,3:2:0:0:
53,180,70192,1,8,0:0:0:0:
263,8,70364,6,0,B|253:90|253:90|243:96|243:96|229:206,1,180.000006866455,6|0,3:1|0:0,0:0:0:0:
241,187,70709,1,10,0:2:0:0:
368,346,70881,2,0,L|372:301,2,44.0000013427735,2|0|2,3:2|0:0|0:2,0:0:0:0:
461,219,71226,5,10,0:1:0:0:
186,283,71398,1,10,0:1:0:0:
13,52,71743,6,0,P|67:37|87:138,1,176.000005371094,4|0,3:1|3:0,0:0:0:0:
11,312,72260,1,8,0:0:0:0:
64,223,72433,6,0,P|154:205|266:181,1,180.000006866455,2|0,0:1|0:0,0:0:0:0:
254,194,72778,1,2,0:2:0:0:
190,5,72950,1,10,0:2:0:0:
159,235,73123,1,2,0:2:0:0:
346,68,73295,6,0,B|422:76|385:129|480:124,1,132.00000402832,2|0,3:2|0:0,0:0:0:0:
477,111,73640,1,10,0:0:0:0:
343,290,73812,2,0,P|323:247|349:206,1,88.000002685547,2|0,0:1|3:0,0:0:0:0:
441,384,74157,1,2,3:1:0:0:
227,338,74329,1,8,0:0:0:0:
486,305,74502,6,0,P|503:221|437:252,1,176.000005371094,2|2,3:1|3:2,0:0:0:0:
441,384,75019,1,10,0:2:0:0:
339,213,75192,6,0,P|256:196|151:172,1,180.000006866455,2|0,0:1|0:0,0:0:0:0:
150,188,75536,1,2,0:2:0:0:
401,148,75709,1,10,0:2:0:0:
188,72,75881,1,2,0:2:0:0:
299,342,76054,6,0,B|372:333|342:392|425:374,1,132.00000402832,2|0,3:2|0:0,0:0:0:0:
441,384,76398,1,10,0:0:0:0:
339,213,76571,2,0,P|381:246|376:291,1,88.000002685547,2|0,0:1|3:0,0:0:0:0:
213,364,76916,1,2,3:1:0:0:
153,111,77088,1,8,0:0:0:0:
339,213,77260,6,0,B|374:271|374:271|188:248,1,240.000009155274,4|2,3:1|3:2,0:0:0:0:
183,32,77778,5,10,0:2:0:0:
119,263,77950,1,2,3:2:0:0:
191,22,78123,5,10,0:2:0:0:
287,296,78295,1,2,3:2:0:0:
267,69,78467,5,10,0:2:0:0:
202,297,78640,1,2,3:2:0:0:
322,13,78812,5,10,0:2:0:0:
401,301,78985,1,2,3:2:0:0:
394,69,79157,5,10,0:2:0:0:
294,338,79329,1,2,3:2:0:0:
208,140,79502,5,8,0:0:0:0:
208,140,79588,1,0,3:0:0:0:
208,140,79674,2,0,P|228:159|238:193,2,44.0000013427735,0|0|8,3:0|3:0|0:0,0:0:0:0:
91,214,80019,6,0,B|71:144|71:144|265:179,1,240.000009155274,6|2,3:1|3:2,0:0:0:0:
311,20,80536,5,10,0:2:0:0:
350,268,80709,1,2,3:2:0:0:
203,12,80881,5,10,0:2:0:0:
162,302,81054,1,2,3:2:0:0:
445,187,81226,5,10,0:2:0:0:
445,187,81312,1,10,3:2:0:0:
445,187,81398,2,0,L|436:115,1,60.0000022888184,10|10,3:2|3:2,0:0:0:0:
360,86,81571,6,0,P|354:121|342:198,1,80.0000030517579,10|0,0:1|0:0,0:0:0:0:
252,262,81801,2,0,P|266:315|277:368,1,80.0000030517579,10|0,0:1|0:0,0:0:0:0:
447,279,82031,2,0,P|441:314|429:391,1,80.0000030517579,10|0,0:1|0:0,0:0:0:0:
162,302,82260,6,0,P|156:267|144:190,1,80.0000030517579,10|0,0:1|0:0,0:0:0:0:
26,145,82490,2,0,P|40:92|51:39,1,80.0000030517579,10|0,0:1|0:0,0:0:0:0:
247,78,82720,2,0,P|241:43|229:-34,1,80.0000030517579,10|0,0:1|0:0,0:0:0:0:
177,118,82950,5,6,3:1:0:0:
115,131,85364,2,0,P|163:180|161:215,1,80,8|0,0:0|3:0,0:0:0:0:
148,224,85623,1,0,3:0:0:0:
148,224,85709,5,6,3:1:0:0:
375,161,85881,1,10,0:1:0:0:
375,161,86226,5,6,3:1:0:0:
236,337,86398,1,10,0:1:0:0:
236,337,86743,5,6,3:1:0:0:
224,104,86916,1,10,0:1:0:0:
224,104,87260,5,6,3:1:0:0:
377,290,87433,1,10,0:1:0:0:
377,290,87519,1,0,3:0:0:0:
377,290,87605,2,0,L|328:276,1,40,0|0,3:0|3:0,0:0:0:0:
220,207,87778,5,6,3:1:0:0:
469,146,87950,1,10,0:1:0:0:
