osu file format v14

[General]
AudioFilename: audio.mp3
AudioLeadIn: 0
PreviewTime: 127237
Countdown: 0
SampleSet: Soft
StackLeniency: 0.9
Mode: 0
LetterboxInBreaks: 0
WidescreenStoryboard: 0

[Editor]
DistanceSpacing: 1
BeatDivisor: 3
GridSize: 32
TimelineZoom: 2.4

[Metadata]
Title:Saga Jihen
TitleUnicode:佐賀事変
Artist:Franchouchou
ArtistUnicode:フランシュシュ
Creator:Yudragen
Version:The jealous dance of a distressed butterfly
Source:ゾンビランドサガ
Tags:zombieland zombie land 山田たえ Yamada Tae 源さくら Minamoto Sakura 二階堂サキ Saki Nikaidou Nikaido Nikaidō 水野愛 Mizuno Ai 紺野純子 Konno Junko ゆうぎり Yuugiri Yugiri Yūgiri 星川リリィ Hoshikawa Lily Ririi 三石琴乃 Mitsuishi Kotono 本渡楓 Hondo Kaede 田野アサミ Tano Asami 種田梨沙 Taneda Risa 河瀬茉希 Kawase Maki 衣川里佳 Kinugawa Rika 田中美海 Tanaka Minami idols アイドル The Best furanshushu saga zelq frontier chaoticred jazz rock japanese
BeatmapID:2599592
BeatmapSetID:1250846

[Difficulty]
HPDrainRate:7
CircleSize:4.2
OverallDifficulty:8.8
ApproachRate:9.6
SliderMultiplier:1.7
SliderTickRate:1

[Events]
//Background and Video events
0,0,"975817.jpg",0,0
//Break Periods
//Storyboard Layer 0 (Background)
//Storyboard Layer 1 (Fail)
//Storyboard Layer 2 (Pass)
//Storyboard Layer 3 (Foreground)
//Storyboard Layer 4 (Overlay)
//Storyboard Sound Samples

[TimingPoints]
24556,606.060606060606,4,2,1,70,1,0
24639,568.181818181818,4,2,1,70,1,0
24916,267.857142857143,4,2,1,50,1,0
24916,-125,4,2,1,50,0,0
25541,-125,4,2,1,5,0,0
25630,-125,4,2,1,50,0,0
26701,-125,4,2,1,5,0,0
26791,-125,4,2,1,50,0,0
27237,-125,4,2,1,5,0,0
27327,-125,4,2,1,50,0,0
27505,-125,4,2,1,5,0,0
27595,-125,4,2,1,50,0,0
28041,-125,4,2,1,5,0,0
28131,-125,4,2,1,50,0,0
28755,-125,4,2,1,5,0,0
28845,-125,4,2,1,50,0,0
29112,-125,4,2,1,5,0,0
29202,-125,4,2,1,50,0,0
30183,-125,4,2,1,5,0,0
30273,-125,4,2,1,50,0,0
31344,-100,4,2,1,60,0,0
31701,-100,4,2,1,5,0,0
31791,-125,4,2,1,60,0,0
32058,-125,4,2,1,5,0,0
32148,-166.666666666667,4,2,1,60,0,0
32505,-166.666666666667,4,2,1,5,0,0
32594,-250,4,2,1,60,0,0
32862,-250,4,2,1,5,0,0
32951,-500,4,2,1,60,0,0
33487,-86.9565217391304,4,2,1,75,0,0
42058,-111.111111111111,4,2,1,60,0,0
43933,-83.3333333333333,4,2,1,60,0,0
44469,-111.111111111111,4,2,1,60,0,0
46076,-83.3333333333333,4,2,1,60,0,0
46612,-111.111111111111,4,2,1,60,0,0
48219,-83.3333333333333,4,2,1,60,0,0
48487,-111.111111111111,4,2,1,60,0,0
50362,-83.3333333333333,4,2,1,60,0,0
50630,-100,4,2,1,60,0,0
52505,-76.9230769230769,4,2,1,60,0,0
52773,-100,4,2,1,60,0,0
54648,-76.9230769230769,4,2,1,60,0,0
54916,-100,4,2,1,60,0,0
56791,-76.9230769230769,4,2,1,60,0,0
57058,-100,4,2,1,60,0,0
58130,-90.9090909090909,4,2,1,60,0,0
59201,-83.3333333333333,4,2,1,75,0,0
67773,-111.111111111111,4,2,1,60,0,0
69648,-83.3333333333333,4,2,1,60,0,0
69916,-111.111111111111,4,2,1,60,0,0
71791,-83.3333333333333,4,2,1,60,0,0
72059,-111.111111111111,4,2,1,60,0,0
73933,-83.3333333333333,4,2,1,60,0,0
74201,-111.111111111111,4,2,1,60,0,0
75273,-74.0740740740741,4,2,1,60,0,0
75451,-74.0740740740741,4,2,1,80,0,0
76344,-95.2380952380952,4,2,1,60,0,0
77416,-83.3333333333333,4,2,1,80,0,0
77951,-95.2380952380952,4,2,1,60,0,0
81701,-80,4,2,1,80,0,0
83219,-80,4,2,1,5,0,0
84826,-80,4,2,1,80,0,0
84927,267.857142857143,4,2,1,50,1,0
85094,267.857142857143,4,2,1,50,1,0
85183,267.857142857143,4,2,1,50,1,0
85987,267.857142857143,4,2,1,50,1,0
85987,-62.5,4,2,1,90,0,1
93666,-58.8235294117647,4,2,1,90,0,1
93933,-55.5555555555556,4,2,1,90,0,1
94201,-52.6315789473684,4,2,1,90,0,1
94469,-50,4,2,1,100,0,1
94737,-62.5,4,2,1,90,0,1
100987,-86.9565217391304,4,2,1,70,0,0
105005,-74.0740740740741,4,2,1,70,0,0
105273,-86.9565217391304,4,2,1,70,0,0
109291,-74.0740740740741,4,2,1,70,0,0
109558,-125,4,2,1,50,0,0
115719,-90.9090909090909,4,2,1,50,0,0
115987,-100,4,2,1,70,0,0
117058,-83.3333333333333,4,2,1,75,0,0
119201,-71.4285714285714,4,2,1,80,0,0
120273,-80,4,2,1,70,0,0
122416,-71.4285714285714,4,2,1,70,0,0
123487,-80,4,2,1,80,0,0
124558,-74.0740740740741,4,2,1,80,0,0
125630,-74.0740740740741,4,2,1,50,0,0
126701,-68.9655172413793,4,2,1,80,0,0
127772,-62.5,4,2,1,90,0,1
135005,-58.8235294117647,4,2,1,90,0,1
135719,-55.5555555555556,4,2,1,90,0,1
135987,-52.6315789473684,4,2,1,90,0,1
136255,-50,4,2,1,100,0,1
136612,-62.5,4,2,1,90,0,1
142772,-83.3333333333333,4,2,1,70,0,0
151344,-100,4,2,1,60,0,0
158844,-76.9230769230769,4,2,1,70,0,0
159916,-95.2380952380952,4,2,1,60,0,0
162058,-71.4285714285714,4,2,1,80,0,0
164112,-71.4285714285714,4,2,1,5,0,0
164201,-95.2380952380952,4,2,1,60,0,0
166344,-71.4285714285714,4,2,1,80,0,0
168487,-95.2380952380952,4,2,1,60,0,0
170629,-71.4285714285714,4,2,1,90,0,1
172772,-71.4285714285714,4,2,1,90,0,0
175987,-100,4,2,1,60,0,0
177058,-83.3333333333333,4,2,1,80,0,0
178308,-66.6666666666667,4,2,1,80,0,0
179201,-66.6666666666667,4,2,1,5,0,0
181344,-100,4,2,1,60,0,0
185630,-142.857142857143,4,2,1,60,0,0
189916,-117.647058823529,4,2,1,60,0,0
191523,-100,4,2,1,60,0,0
192058,-76.9230769230769,4,2,1,60,0,0
192594,-90.9090909090909,4,2,1,60,0,0
193130,-111.111111111111,4,2,1,60,0,0
193666,-142.857142857143,4,2,1,60,0,0
194201,-66.6666666666667,4,2,1,60,0,0
195808,-333.333333333333,4,2,1,60,0,0
196344,-60.6060606060606,4,2,1,90,0,1
204558,-250.000000000001,4,2,1,90,0,1
204737,-250.000000000001,4,2,1,5,0,1
204826,-48.780487804878,4,2,1,100,0,1
205183,-60.6060606060606,4,2,1,90,0,1
213487,-71.4285714285714,4,2,1,90,0,1
215629,-54.054054054054,4,2,1,100,0,0
215898,-60.6060606060606,4,2,1,5,0,0
217505,-200,4,2,1,60,0,0
217773,-83.3333333333333,4,2,1,60,0,0
226344,-71.4285714285714,4,2,1,70,0,0
230630,-66.6666666666667,4,2,1,80,0,0
234648,-62.5,4,2,1,80,0,0
235183,-62.5,4,2,1,5,0,0

[Colours]
Combo1 : 182,73,228
Combo2 : 233,97,63
Combo3 : 99,247,91
Combo4 : 182,104,244
Combo5 : 247,65,38
Combo6 : 90,241,78

[HitObjects]
435,64,24555,5,0,3:0:0:0:
492,129,24639,1,8,3:2:0:0:
492,129,24916,6,0,P|439:104|361:82,1,136,4|4,3:2|3:0,0:0:0:0:
151,36,25451,2,0,P|113:56|83:65,1,45.3333333333333,0|0,3:0|0:0,0:0:0:0:
62,120,25630,1,4,3:0:0:0:
62,120,25719,1,4,3:0:0:0:
203,384,25987,6,0,P|176:330|158:243,1,136,4|0,3:0|3:0,0:0:0:0:
340,273,26433,1,0,3:0:0:0:
340,273,26523,2,0,P|396:301|426:324,1,90.6666666666667,4|0,3:0|0:0,0:0:0:0:
502,272,26791,1,4,3:0:0:0:
207,77,27058,6,0,P|165:141|181:188,1,90.6666666666667,4|0,3:0|0:0,0:0:0:0:
229,211,27326,2,0,P|271:147|255:100,1,90.6666666666667,4|0,3:0|0:0,0:0:0:0:
200,65,27594,5,0,3:0:0:0:
317,300,27773,1,0,3:0:0:0:
317,300,27862,2,0,P|261:321|207:357,1,90.6666666666667,4|0,3:0|0:0,0:0:0:0:
110,384,28130,6,0,P|69:317|95:266,1,136,4|0,3:0|3:0,0:0:0:0:
235,197,28576,1,4,3:0:0:0:
235,197,28666,2,0,P|277:179|303:163,1,45.3333333333333,0|0,3:0|0:0,0:0:0:0:
340,116,28844,1,0,3:0:0:0:
340,116,28933,2,0,P|353:59|378:9,1,90.6666666666667,4|0,3:0|0:0,0:0:0:0:
282,1,29201,5,0,3:0:0:0:
466,145,29469,1,4,3:0:0:0:
371,325,29737,1,0,3:0:0:0:
257,279,29916,1,0,3:0:0:0:
257,279,30005,2,0,P|201:303|137:317,1,90.6666666666667,4|0,3:0|0:0,0:0:0:0:
104,370,30273,5,2,3:0:0:0:
0,204,30541,2,0,P|24:153|31:100,1,90.6666666666667,4|0,3:0|3:0,0:0:0:0:
112,31,30808,5,2,3:2:0:0:
180,38,30898,1,2,3:2:0:0:
210,98,30987,1,2,3:2:0:0:
261,161,31076,5,2,3:2:0:0:
329,154,31166,1,2,3:2:0:0:
359,94,31255,1,2,3:2:0:0:
411,29,31344,6,0,P|481:36|498:179,1,226.666666666667,6|0,3:1|0:0,0:0:0:0:
405,219,31791,6,0,B|468:296|392:282|464:355,1,136,2|0,0:1|0:0,0:0:0:0:
354,376,32148,6,0,P|301:354|205:345,1,135.99999584961,2|0,0:1|0:0,0:0:0:0:
109,305,32594,6,0,P|96:284|117:298,1,68,2|0,0:1|0:0,0:0:0:0:
17,384,32951,5,2,0:1:0:0:
17,384,33219,1,2,0:1:0:0:
17,384,33487,6,0,P|55:325|47:232,1,130.333335819244,4|0,3:2|0:0,0:0:0:0:
172,147,33755,2,0,P|281:195|327:210,1,130.333335819244,4|2,3:0|3:2,0:0:0:0:
464,264,34023,2,0,P|490:235|477:179,1,65.1666679096222,0|0,3:0|0:0,0:0:0:0:
401,100,34201,1,0,3:0:0:0:
352,154,34291,2,0,B|314:189|314:189|348:305,1,130.333335819244,2|0,3:2|0:0,0:0:0:0:
407,380,34558,6,0,B|286:353|378:284|195:257,1,195.500003728867,4|4,3:0|3:0,0:0:0:0:
102,369,35005,2,0,P|26:326|77:220,1,195.500003728867,2|0,3:2|3:0,0:0:0:0:
272,147,35362,6,0,B|213:167|213:167|166:117,1,130.333335819244,2|0,3:2|0:0,0:0:0:0:
168,41,35630,1,2,3:2:0:0:
328,227,35898,2,0,B|386:247|386:247|433:197,1,130.333335819244,2|0,3:2|0:0,0:0:0:0:
432,121,36166,1,2,3:2:0:0:
181,267,36433,2,0,B|122:287|122:287|75:237,1,130.333335819244,2|0,3:2|0:0,0:0:0:0:
77,161,36701,1,2,3:2:0:0:
237,347,36969,2,0,B|295:367|295:367|342:317,1,130.333335819244,2|0,3:2|3:0,0:0:0:0:
341,241,37237,1,2,3:2:0:0:
181,113,37416,5,4,3:0:0:0:
211,184,37505,2,0,B|228:94|248:144|263:44,1,130.333335819244,8|0,3:2|0:0,0:0:0:0:
174,0,37773,6,0,B|61:27|132:84|-6:130,1,195.500003728867,6|4,3:2|3:0,0:0:0:0:
165,316,38219,1,2,0:0:0:0:
231,275,38308,2,0,P|302:309|403:338,1,130.333335819244,0|0,3:0|3:0,0:0:0:0:
474,376,38576,2,0,P|525:311|479:255,1,130.333335819244,4|0,3:0|0:0,0:0:0:0:
397,180,38844,6,0,B|440:94|378:138|430:25,1,130.333335819244,2|0,3:2|0:0,0:0:0:0:
512,0,39112,1,4,3:0:0:0:
288,50,39291,1,2,3:2:0:0:
227,4,39380,2,0,P|165:8|143:86,1,130.333335819244,0|0,3:0|3:0,0:0:0:0:
28,159,39648,6,0,P|54:246|78:318,1,130.333335819244,10|0,3:2|0:0,0:0:0:0:
33,358,39916,1,2,3:2:0:0:
218,124,40183,2,0,P|191:211|167:283,1,130.333335819244,2|0,3:2|0:0,0:0:0:0:
213,323,40451,1,2,3:2:0:0:
326,185,40719,2,0,P|352:272|376:344,1,130.333335819244,2|0,3:2|0:0,0:0:0:0:
331,384,40987,1,2,3:2:0:0:
512,127,41255,2,0,P|485:214|461:286,1,130.333335819244,2|0,3:2|0:0,0:0:0:0:
507,326,41523,1,2,3:2:0:0:
315,182,41701,5,0,3:0:0:0:
378,138,41791,2,0,P|395:89|310:37,1,130.333335819244,8|0,3:2|0:0,0:0:0:0:
176,0,42058,5,4,3:2:0:0:
75,87,42237,1,2,0:0:0:0:
75,87,42326,2,0,P|96:146|114:213,1,101.999996887207,2|2,3:2|0:0,0:0:0:0:
47,265,42594,2,0,B|143:288|80:323|204:355,1,152.999995330811,2|2,3:2|3:2,0:0:0:0:
242,299,42996,1,2,0:0:0:0:
349,383,43130,1,2,3:2:0:0:
405,273,43308,6,0,P|426:198|459:143,1,101.999996887207,2|0,0:0|0:0,0:0:0:0:
500,130,43576,2,0,P|511:72|432:38,1,152.999995330811,2|4,3:2|3:0,0:0:0:0:
325,0,43933,6,0,P|296:57|220:75,1,135.99999584961,10|0,3:2|3:0,0:0:0:0:
157,48,44201,2,0,P|221:47|247:169,1,203.999993774414,2|2,3:2|3:2,0:0:0:0:
147,245,44648,5,2,0:0:0:0:
147,245,44737,2,0,P|81:224|39:218,1,101.999996887207,2|0,3:2|3:0,0:0:0:0:
0,360,45005,2,0,P|66:339|108:333,1,101.999996887207,2|2,3:2|0:0,0:0:0:0:
191,382,45273,5,2,3:2:0:0:
288,284,45451,2,0,P|272:252|221:190,1,101.999996887207,2|0,0:0|0:0,0:0:0:0:
186,67,45719,2,0,P|266:113|330:137,1,152.999995330811,2|4,3:2|3:0,0:0:0:0:
512,9,46076,6,0,P|494:82|455:165,1,135.99999584961,10|0,3:2|3:0,0:0:0:0:
455,223,46344,2,0,P|421:101|367:-8,1,203.999993774414,2|2,3:2|3:2,0:0:0:0:
304,142,46791,5,2,3:2:0:0:
304,142,46880,2,0,P|256:118|200:98,1,101.999996887207,2|0,3:2|3:0,0:0:0:0:
148,47,47148,1,2,3:2:0:0:
47,175,47326,1,2,0:0:0:0:
47,175,47416,2,0,P|53:204|74:237,1,50.9999984436036,2|0,3:2|0:0,0:0:0:0:
46,304,47594,2,0,P|63:263|167:249,1,152.999995330811,0|2,3:1|3:2,0:0:0:0:
203,311,47951,1,4,3:0:0:0:
388,379,48130,5,2,3:0:0:0:
433,315,48219,2,0,B|423:237|413:294|396:186,1,135.99999584961,8|0,3:2|0:0,0:0:0:0:
333,61,48487,6,0,P|402:52|447:141,1,152.999995330811,2|4,3:2|3:0,0:0:0:0:
258,264,49023,2,0,P|211:242|162:228,1,101.999996887207,2|0,3:2|3:0,0:0:0:0:
87,260,49291,1,4,3:0:0:0:
202,0,49558,6,0,B|259:90|196:68|254:150,1,152.999995330811,2|4,3:2|3:0,0:0:0:0:
381,198,50005,1,0,3:0:0:0:
381,198,50094,2,0,P|362:230|356:263,1,50.9999984436036,0|0,3:0|0:0,0:0:0:0:
222,355,50273,5,4,3:0:0:0:
160,312,50362,2,0,P|196:273|293:314,1,135.99999584961,8|0,3:2|0:0,0:0:0:0:
420,369,50630,5,6,3:2:0:0:
175,190,50898,1,2,3:2:0:0:
473,54,51166,2,0,P|505:115|518:183,1,113.333333333333,2|2,3:2|3:2,0:0:0:0:
422,168,51433,2,0,P|394:217|381:265,1,85,2|2,3:2|0:0,0:0:0:0:
345,367,51701,6,0,P|312:362|270:341,1,56.6666666666667,2|0,3:2|0:0,0:0:0:0:
258,251,51880,2,0,P|204:267|123:325,1,113.333333333333,2|0,0:0|0:0,0:0:0:0:
53,365,52148,2,0,P|-6:328|30:229,1,170,2|0,3:2|3:0,0:0:0:0:
141,152,52505,6,0,P|152:86|183:3,1,147.333326588949,8|0,3:2|3:0,0:0:0:0:
271,105,52773,6,0,B|391:131|299:182|446:212,1,170,2|4,3:2|3:0,0:0:0:0:
220,267,53308,2,0,B|151:296|208:307|109:346,1,113.333333333333,2|0,3:2|3:0,0:0:0:0:
61,373,53576,1,4,3:0:0:0:
320,360,53844,6,0,B|440:334|348:283|495:253,1,170,2|4,3:2|3:0,0:0:0:0:
269,198,54291,1,4,3:0:0:0:
269,198,54379,2,0,B|200:169|257:158|158:119,1,113.333333333333,0|0,3:0|3:0,0:0:0:0:
45,48,54648,6,0,P|90:-9|165:6,1,147.333326588949,8|0,3:2|3:0,0:0:0:0:
244,27,54916,5,2,3:2:0:0:
67,175,55183,2,0,P|42:239|35:315,1,113.333333333333,2|0,3:2|0:0,0:0:0:0:
128,365,55451,2,0,P|156:349|190:344,1,56.6666666666667,2|0,3:2|0:0,0:0:0:0:
290,370,55630,1,2,3:2:0:0:
290,370,55719,2,0,P|314:317|251:272,1,113.333333333333,2|0,3:2|0:0,0:0:0:0:
216,197,55987,6,0,P|236:157|242:108,1,56.6666666666667,2|0,3:2|0:0,0:0:0:0:
318,29,56166,2,0,P|342:117|365:153,1,113.333333333333,2|0,0:0|0:0,0:0:0:0:
496,169,56433,2,0,B|398:212|471:243|359:292,1,170,2|4,3:2|3:0,0:0:0:0:
274,362,56791,6,0,B|255:327|243:294|243:294|212:308|162:324,1,147.333326588949,8|2,3:2|3:2,0:0:0:0:
55,261,57058,6,0,P|5:215|40:149,1,113.333333333333,2|0,3:2|0:0,0:0:0:0:
91,118,57326,2,0,P|140:163|105:229,1,113.333333333333,2|0,3:2|3:0,0:0:0:0:
0,166,57594,1,2,3:2:0:0:
154,12,57773,1,4,3:0:0:0:
154,12,57862,2,0,P|216:43|280:61,1,113.333333333333,2|0,3:2|0:0,0:0:0:0:
411,43,58130,6,0,B|371:126|422:89|367:196,1,124.666670471192,2|0,3:2|3:0,0:0:0:0:
443,242,58398,2,0,P|463:287|474:336,2,93.5000028533936,8|8|2,3:2|3:2|0:0,0:0:0:0:
200,263,58844,5,8,3:2:0:0:
170,335,58934,1,4,3:0:0:0:
318,299,59112,5,4,3:0:0:0:
349,372,59201,2,0,B|412:260|319:304|388:172,1,203.999993774414,4|4,3:2|3:0,0:0:0:0:
91,43,59648,2,0,P|160:46|190:187,1,203.999993774414,2|0,3:2|3:0,0:0:0:0:
193,275,60005,2,0,P|145:272|125:176,1,135.99999584961,2|0,3:2|0:0,0:0:0:0:
314,113,60273,6,0,P|383:155|479:186,1,135.99999584961,4|0,3:0|0:0,0:0:0:0:
512,149,60541,1,4,3:0:0:0:
345,266,60719,2,0,B|233:293|316:360|164:390,1,203.999993774414,2|0,3:2|3:0,0:0:0:0:
25,258,61076,6,0,P|69:221|64:142,1,135.99999584961,10|0,3:2|0:0,0:0:0:0:
3,98,61344,1,2,3:2:0:0:
242,40,61612,2,0,P|198:77|203:156,1,135.99999584961,2|0,3:2|0:0,0:0:0:0:
264,200,61880,1,2,3:2:0:0:
270,374,62148,2,0,P|314:337|309:258,1,135.99999584961,2|0,3:2|0:0,0:0:0:0:
248,214,62416,1,2,3:2:0:0:
487,156,62684,2,0,P|443:193|448:272,1,135.99999584961,2|0,3:2|3:0,0:0:0:0:
509,316,62952,1,2,3:2:0:0:
306,159,63130,5,4,3:0:0:0:
306,159,63219,2,0,P|247:185|171:204,1,135.99999584961,8|0,3:2|0:0,0:0:0:0:
33,293,63487,6,0,B|73:213|14:247|73:117,1,135.99999584961,6|0,3:2|0:0,0:0:0:0:
5,96,63755,1,4,3:0:0:0:
146,2,63933,2,0,P|235:19|221:111,1,135.99999584961,2|0,0:0|0:0,0:0:0:0:
317,169,64201,1,0,3:0:0:0:
317,169,64291,2,0,P|406:152|392:60,1,135.99999584961,4|0,3:0|0:0,0:0:0:0:
342,53,64558,6,0,P|306:138|301:282,1,203.999993774414,2|4,3:2|3:0,0:0:0:0:
465,380,65005,1,2,3:2:0:0:
465,380,65094,2,0,P|483:332|402:288,1,135.99999584961,0|0,3:0|3:0,0:0:0:0:
286,338,65362,6,0,P|209:360|138:389,1,135.99999584961,10|0,3:2|0:0,0:0:0:0:
83,347,65630,1,2,3:2:0:0:
178,221,65898,2,0,P|255:199|326:170,1,135.99999584961,2|0,3:2|0:0,0:0:0:0:
381,212,66166,1,2,3:2:0:0:
280,327,66433,2,0,P|203:349|132:378,1,135.99999584961,2|0,3:2|0:0,0:0:0:0:
77,336,66701,1,2,3:2:0:0:
185,230,66969,2,0,P|262:208|333:179,1,135.99999584961,2|8,3:2|3:2,0:0:0:0:
388,221,67237,1,2,3:2:0:0:
512,41,67416,5,0,3:0:0:0:
445,79,67505,2,0,P|406:66|367:43,1,67.9999979248048,8|0,3:2|0:0,0:0:0:0:
199,65,67683,5,4,3:0:0:0:
238,0,67773,2,0,B|199:90|254:69|198:171,1,152.999995330811,4|2,3:2|3:2,0:0:0:0:
40,269,68219,1,2,0:0:0:0:
40,269,68308,2,0,P|41:249|132:229,1,101.999996887207,2|4,3:2|3:0,0:0:0:0:
183,259,68576,2,0,P|182:279|91:299,1,101.999996887207,2|0,3:2|3:0,0:0:0:0:
112,202,68844,5,2,3:2:0:0:
290,333,69023,2,0,P|335:306|401:297,1,101.999996887207,2|0,0:0|0:0,0:0:0:0:
454,229,69291,1,2,3:2:0:0:
454,229,69380,2,0,P|469:157|489:90,1,101.999996887207,4|0,3:0|3:0,0:0:0:0:
480,8,69648,6,0,B|393:39|468:54|348:98,1,135.99999584961,10|0,3:2|3:0,0:0:0:0:
297,212,69916,6,0,B|210:181|275:152|165:122,1,152.999995330811,2|2,3:2|3:2,0:0:0:0:
6,30,70362,1,2,0:0:0:0:
6,30,70451,2,0,P|42:93|58:146,1,101.999996887207,2|4,3:2|3:0,0:0:0:0:
105,206,70719,2,0,P|69:269|53:322,1,101.999996887207,2|2,3:2|3:2,0:0:0:0:
175,359,70987,6,0,P|218:373|244:363,1,50.9999984436036,2|0,3:2|0:0,0:0:0:0:
292,326,71166,2,0,P|313:269|251:206,1,152.999995330811,2|2,0:0|3:2,0:0:0:0:
202,141,71523,1,4,3:0:0:0:
410,16,71701,5,4,3:0:0:0:
440,81,71791,2,0,P|415:148|406:211,1,101.999996887207,8|0,3:2|3:0,0:0:0:0:
512,326,72058,5,2,3:2:0:0:
379,360,72237,1,2,0:0:0:0:
379,360,72326,2,0,P|318:340|240:334,1,101.999996887207,2|2,3:2|3:2,0:0:0:0:
223,276,72594,1,2,3:2:0:0:
61,370,72773,1,2,3:2:0:0:
61,370,72862,2,0,P|44:331|22:305,1,50.9999984436036,2|0,3:2|0:0,0:0:0:0:
90,247,73041,5,2,3:2:0:0:
90,247,73130,1,2,3:2:0:0:
0,81,73308,2,0,P|69:115|120:131,1,101.999996887207,2|0,0:0|0:0,0:0:0:0:
182,89,73576,2,0,P|224:26|303:40,1,152.999995330811,2|4,3:2|3:0,0:0:0:0:
432,2,73933,6,0,P|409:75|372:179,1,135.99999584961,10|0,3:2|3:0,0:0:0:0:
283,202,74201,6,0,B|378:231|316:268|436:313,2,152.999995330811,2|2|2,3:2|3:2|3:2,0:0:0:0:
177,84,74916,1,0,3:0:0:0:
177,84,75005,2,0,P|130:110|133:174,1,101.999996887207,2|0,3:2|3:0,0:0:0:0:
171,215,75273,1,0,3:0:0:0:
0,384,75451,6,0,B|94:355|14:314|166:279,1,153.000000583649,8|0,3:2|0:0,0:0:0:0:
273,187,75719,2,0,B|367:216|287:257|439:292,1,153.000000583649,8|0,3:2|0:0,0:0:0:0:
512,61,75987,1,10,3:2:0:0:
458,4,76076,2,0,P|415:3|371:99,1,153.000000583649,10|0,3:2|3:0,0:0:0:0:
512,277,76344,6,0,P|445:238|293:216,1,178.499994552612,6|4,3:2|3:0,0:0:0:0:
213,322,76880,2,0,P|159:356|102:370,1,118.999996368408,2|0,3:2|3:0,0:0:0:0:
34,340,77148,1,4,3:0:0:0:
222,213,77416,6,0,B|307:144|314:13|196:-37|132:40|138:100|180:122,1,339.999989624024,6|4,3:2|3:0,0:0:0:0:
41,133,77951,6,0,P|40:60|105:38,1,118.999996368408,2|4,3:2|3:0,0:0:0:0:
153,109,78219,1,10,3:2:0:0:
312,0,78487,6,0,P|383:33|455:45,1,118.999996368408,2|0,3:2|0:0,0:0:0:0:
502,127,78755,2,0,P|444:142|391:168,1,118.999996368408,2|0,3:2|0:0,0:0:0:0:
308,367,79023,2,0,P|288:340|300:306,1,59.4999981842042,2|0,3:2|0:0,0:0:0:0:
372,269,79201,1,2,3:2:0:0:
372,269,79291,2,0,P|392:296|380:330,1,59.4999981842042,2|0,3:2|0:0,0:0:0:0:
296,379,79469,5,2,0:0:0:0:
296,379,79558,2,0,P|256:363|211:354,1,59.4999981842042,2|0,3:2|3:0,0:0:0:0:
121,300,79737,2,0,P|152:230|155:139,1,118.999996368408,2|0,3:2|3:0,0:0:0:0:
80,29,80005,2,0,P|13:48|21:172,1,178.499994552612,6|4,3:2|3:0,0:0:0:0:
226,123,80362,2,0,P|279:138|272:236,1,118.999996368408,10|0,3:2|0:0,0:0:0:0:
133,311,80630,6,0,P|116:201|86:121,1,178.499994552612,2|4,3:2|3:0,0:0:0:0:
261,13,81166,2,0,P|307:37|344:49,1,59.4999981842042,2|0,3:2|0:0,0:0:0:0:
456,64,81344,1,0,3:0:0:0:
456,64,81433,2,0,P|412:78|410:168,1,118.999996368408,4|0,3:0|0:0,0:0:0:0:
507,278,81701,6,0,L|421:252,1,70.8333333333333,6|0,3:2|0:0,0:0:0:0:
289,186,81880,2,0,L|118:237,1,141.666666666667,4|0,3:0|0:0,0:0:0:0:
58,365,82148,1,4,3:0:0:0:
0,313,82237,2,0,P|-3:290|45:250,1,70.8333333333333,10|0,3:2|0:0,0:0:0:0:
123,127,82415,5,2,3:2:0:0:
188,83,82504,1,2,3:2:0:0:
168,9,82593,1,2,3:2:0:0:
89,4,82683,1,2,3:2:0:0:
62,77,82773,2,0,B|253:112|128:237|350:295,1,354.166666666667,6|0,3:2|0:0,0:0:0:0:
130,92,84826,5,4,3:0:0:0:
93,161,84927,1,8,3:2:0:0:
254,52,85094,5,4,3:0:0:0:
333,265,85362,5,0,3:0:0:0:
399,301,85451,1,4,3:0:0:0:
471,273,85541,1,4,3:0:0:0:
503,204,85630,5,2,3:2:0:0:
427,194,85719,1,2,3:2:0:0:
357,224,85808,1,4,3:0:0:0:
320,292,85898,1,2,3:2:0:0:
355,366,85987,6,0,B|336:239|307:339|276:141,1,181.333333333333,6|0,3:2|0:0,0:0:0:0:
360,7,86255,2,0,P|457:36|412:148,1,181.333333333333,10|0,3:2|0:0,0:0:0:0:
213,40,86523,2,0,P|152:24|95:-18,1,90.6666666666667,2|0,3:2|0:0,0:0:0:0:
0,154,86701,1,4,3:0:0:0:
72,199,86791,2,0,P|112:178|156:169,1,90.6666666666667,10|0,3:2|0:0,0:0:0:0:
346,328,86969,5,2,3:2:0:0:
271,364,87058,2,0,P|232:342|224:299,1,90.6666666666667,6|0,3:2|0:0,0:0:0:0:
451,274,87237,2,0,P|524:231|511:146,1,181.333333333333,2|0,0:2|3:0,0:0:0:0:
294,0,87505,2,0,B|366:37|348:89|329:107|316:121|288:190|368:231,1,272,6|4,3:2|3:0,0:0:0:0:
512,122,87862,6,0,P|472:144|428:154,1,90.6666666666667,10|0,3:2|0:0,0:0:0:0:
219,76,88041,1,2,0:0:0:0:
219,76,88130,2,0,P|132:50|43:-15,1,181.333333333333,0|0,3:0|0:0,0:0:0:0:
55,124,88398,6,0,P|94:146|138:156,1,90.6666666666667,10|0,3:2|0:0,0:0:0:0:
348,78,88577,1,2,3:2:0:0:
348,78,88666,2,0,P|435:52|524:-13,1,181.333333333333,0|4,3:0|3:0,0:0:0:0:
508,132,88933,6,0,P|468:154|424:164,1,90.6666666666667,10|0,3:2|0:0,0:0:0:0:
215,86,89112,1,2,0:0:0:0:
215,86,89201,2,0,P|128:60|39:-5,1,181.333333333333,0|4,0:0|3:0,0:0:0:0:
58,135,89469,6,0,P|97:157|141:167,1,90.6666666666667,10|0,3:2|0:0,0:0:0:0:
351,89,89648,1,2,3:2:0:0:
351,89,89737,2,0,P|438:63|527:-2,1,181.333333333333,0|2,3:0|0:2,0:0:0:0:
340,202,90005,2,0,B|280:291|369:277|289:396,1,181.333333333333,10|2,3:2|0:0,0:0:0:0:
123,240,90273,6,0,B|57:143|146:157|86:68,1,181.333333333333,6|0,3:2|0:0,0:0:0:0:
222,4,90541,1,10,3:2:0:0:
300,24,90630,1,2,0:0:0:0:
344,92,90719,1,2,0:0:0:0:
312,166,90808,2,0,P|258:192|217:232,1,90.6666666666667,2|0,3:2|0:0,0:0:0:0:
9,274,90987,1,0,3:0:0:0:
50,339,91076,2,0,P|104:365|145:405,1,90.6666666666667,10|0,3:2|0:0,0:0:0:0:
380,215,91255,5,2,3:2:0:0:
305,175,91344,2,0,P|236:194|210:291,1,181.333333333333,6|2,3:2|0:0,0:0:0:0:
326,384,91612,2,0,P|357:343|340:297,1,90.6666666666667,10|0,3:2|0:0,0:0:0:0:
95,211,91791,2,0,P|59:150|237:47,1,272,6|0,3:2|3:0,0:0:0:0:
312,132,92148,6,0,P|284:229|266:273,1,90.6666666666667,10|0,3:2|0:0,0:0:0:0:
338,295,92326,1,2,0:0:0:0:
338,295,92416,2,0,P|418:336|505:391,1,181.333333333333,0|4,3:2|3:0,0:0:0:0:
488,105,92683,6,0,P|516:202|534:246,1,90.6666666666667,10|0,3:2|0:0,0:0:0:0:
462,268,92861,1,2,0:0:0:0:
462,268,92951,2,0,P|382:309|295:364,1,181.333333333333,0|4,3:0|3:0,0:0:0:0:
302,118,93219,6,0,P|274:215|256:259,1,90.6666666666667,10|0,3:2|0:0,0:0:0:0:
150,366,93397,1,2,3:2:0:0:
94,315,93487,2,0,P|83:270|69:227,1,90.6666666666667,8|0,3:2|0:0,0:0:0:0:
0,5,93666,5,4,3:0:0:0:
60,54,93755,2,0,B|126:73|60:93|214:131,1,96.3333351707459,8|0,3:2|0:0,0:0:0:0:
328,105,93933,2,0,B|209:151|311:199|144:257,1,203.999993774414,6|0,3:2|0:0,0:0:0:0:
0,241,94201,2,0,B|119:287|17:335|184:393,1,215.333327583313,6|0,3:2|0:0,0:0:0:0:
310,290,94469,6,0,B|223:244|252:164|287:148|326:120|341:42|239:-11,1,340,6|2,3:2|0:0,0:0:0:0:
130,112,94826,6,0,P|111:168|80:207,1,90.6666666666667,10|0,3:2|0:0,0:0:0:0:
235,322,95005,1,2,3:2:0:0:
309,306,95094,2,0,P|381:278|482:226,1,181.333333333333,2|4,3:2|3:0,0:0:0:0:
356,33,95362,2,0,P|318:78|340:132,1,90.6666666666667,10|0,3:2|0:0,0:0:0:0:
423,283,95541,5,2,3:2:0:0:
477,213,95630,2,0,P|474:168|441:139,1,90.6666666666667,2|0,3:2|0:0,0:0:0:0:
184,141,95808,1,2,0:0:0:0:
115,107,95898,2,0,P|65:93|3:55,1,90.6666666666667,10|0,3:2|0:0,0:0:0:0:
266,0,96076,2,0,P|294:144|347:272,1,272,6|2,3:2|3:2,0:0:0:0:
96,384,96433,2,0,P|79:345|165:263,1,181.333333333333,10|2,3:2|3:2,0:0:0:0:
216,331,96701,5,4,3:0:0:0:
379,75,96880,1,2,3:2:0:0:
312,36,96969,2,0,L|211:64,1,90.6666666666667,10|0,3:2|0:0,0:0:0:0:
0,188,97148,1,2,0:0:0:0:
67,143,97237,2,0,P|156:163|247:194,1,181.333333333333,2|4,3:2|3:0,0:0:0:0:
330,362,97505,2,0,L|354:263,1,90.6666666666667,10|0,3:2|0:0,0:0:0:0:
393,67,97683,5,2,0:0:0:0:
454,113,97773,2,0,P|400:165|358:147,1,90.6666666666667,2|0,3:2|0:0,0:0:0:0:
237,180,97951,1,2,0:0:0:0:
176,226,98041,2,0,P|230:278|272:260,1,90.6666666666667,10|0,3:2|0:0,0:0:0:0:
265,0,98219,2,0,B|105:26|214:99|28:165,1,272,6|0,3:2|0:0,0:0:0:0:
0,292,98576,6,0,P|56:310|129:375,1,90.6666666666667,10|0,3:2|0:0,0:0:0:0:
215,384,98755,1,2,0:0:0:0:
215,384,98844,2,0,P|269:346|402:328,1,181.333333333333,4|0,3:2|3:0,0:0:0:0:
447,137,99112,6,0,P|391:155|318:220,1,90.6666666666667,10|0,3:2|0:0,0:0:0:0:
232,229,99291,1,2,0:0:0:0:
232,229,99380,2,0,P|178:191|45:173,1,181.333333333333,0|4,3:0|3:0,0:0:0:0:
46,0,99648,6,0,P|102:18|175:83,1,90.6666666666667,10|0,3:2|0:0,0:0:0:0:
261,92,99827,1,2,0:0:0:0:
261,92,99916,2,0,P|315:54|448:36,1,181.333333333333,2|4,3:2|3:0,0:0:0:0:
503,166,100183,2,0,P|423:186|446:289,1,181.333333333333,14|2,3:2|3:2,0:0:0:0:
225,365,100451,5,4,3:0:0:0:
280,308,100540,1,4,3:0:0:0:
275,229,100629,1,4,3:0:0:0:
211,180,100718,1,4,3:0:0:0:
173,112,100808,1,4,3:0:0:0:
201,37,100897,1,4,3:0:0:0:
267,91,100987,6,0,P|180:113|68:187,1,195.500003728867,4|4,3:2|3:0,0:0:0:0:
25,360,101433,1,2,3:2:0:0:
100,332,101523,2,0,P|154:345|230:381,1,130.333335819244,0|0,3:0|3:0,0:0:0:0:
324,325,101791,2,0,P|355:268|269:220,1,130.333335819244,2|0,3:2|0:0,0:0:0:0:
170,56,102058,6,0,P|207:133|230:214,1,130.333335819244,4|0,3:0|0:0,0:0:0:0:
197,254,102326,1,4,3:0:0:0:
360,103,102505,1,2,3:2:0:0:
418,156,102594,2,0,P|463:158|499:73,1,130.333335819244,0|0,3:0|3:0,0:0:0:0:
286,0,102862,6,0,B|207:22|271:46|136:88,1,130.333335819244,10|0,3:2|0:0,0:0:0:0:
108,36,103130,1,2,3:2:0:0:
0,157,103398,2,0,B|79:179|15:203|150:245,1,130.333335819244,2|0,3:2|0:0,0:0:0:0:
178,193,103666,1,2,3:2:0:0:
280,12,103933,2,0,B|201:34|265:58|130:100,1,130.333335819244,2|0,3:2|0:0,0:0:0:0:
102,48,104201,1,2,3:2:0:0:
7,167,104469,2,0,B|86:189|22:213|157:255,1,130.333335819244,2|0,3:2|3:0,0:0:0:0:
185,203,104737,1,2,3:2:0:0:
329,373,104916,5,4,3:0:0:0:
371,309,105005,2,0,P|360:241|315:147,1,153.000000583649,8|0,3:2|0:0,0:0:0:0:
283,20,105273,6,0,P|382:22|410:121,1,195.500003728867,6|4,3:2|3:0,0:0:0:0:
191,284,105719,1,2,0:0:0:0:
124,251,105808,2,0,P|62:228|0:213,1,130.333335819244,0|0,3:0|3:0,0:0:0:0:
120,157,106076,2,0,B|138:147|201:137|142:111|253:90,1,130.333335819244,4|0,3:0|0:0,0:0:0:0:
394,21,106344,6,0,P|360:114|348:185,1,130.333335819244,2|0,3:2|0:0,0:0:0:0:
422,219,106612,2,0,P|440:257|448:302,1,65.1666679096222,4|0,3:0|0:0,0:0:0:0:
334,373,106791,1,2,3:2:0:0:
278,324,106880,2,0,P|224:317|181:391,1,130.333335819244,0|0,3:0|3:0,0:0:0:0:
18,265,107148,6,0,B|63:177|3:228|73:95,1,130.333335819244,10|0,3:2|0:0,0:0:0:0:
124,168,107416,1,2,3:2:0:0:
289,371,107683,2,0,B|243:283|303:334|233:201,1,130.333335819244,2|0,3:2|0:0,0:0:0:0:
183,274,107951,1,2,3:2:0:0:
10,256,108219,2,0,B|55:168|-4:219|65:86,1,130.333335819244,2|0,3:2|0:0,0:0:0:0:
116,159,108487,1,2,3:2:0:0:
278,364,108755,2,0,B|232:276|292:327|222:194,1,130.333335819244,2|0,3:2|0:0,0:0:0:0:
172,267,109023,1,2,3:2:0:0:
213,103,109201,5,0,3:0:0:0:
287,133,109291,2,0,P|349:106|437:57,1,153.000000583649,8|4,3:2|3:0,0:0:0:0:
264,0,109558,5,4,3:2:0:0:
77,123,109737,1,2,0:0:0:0:
77,123,109826,2,0,P|103:185|112:226,1,90.6666666666667,2|0,0:3|0:0,0:0:0:0:
53,274,110094,2,0,P|34:309|61:363,1,90.6666666666667,2|0,0:2|0:0,0:0:0:0:
132,378,110362,2,0,P|188:357|237:353,1,90.6666666666667,2|0,0:2|0:0,0:0:0:0:
331,308,110630,6,0,B|349:279|349:279|322:203,1,90.6666666666667,2|0,0:2|0:0,0:0:0:0:
258,182,110898,2,0,B|240:153|240:153|267:77,1,90.6666666666667,2|0,0:2|0:0,0:0:0:0:
218,30,111166,1,2,0:2:0:0:
376,87,111344,6,0,B|458:111|401:132|508:164,1,136,4|0,3:0|0:0,0:0:0:0:
510,254,111701,6,0,P|480:285|481:353,1,90.6666666666667,2|0,0:0|0:0,0:0:0:0:
397,384,111969,2,0,P|390:339|360:307,1,90.6666666666667,2|0,0:0|0:0,0:0:0:0:
285,265,112237,2,0,P|231:294|144:319,2,136,2|2|2,0:0|0:0|0:0,0:0:0:0:
157,161,112951,5,4,3:0:0:0:
200,99,113041,2,0,P|241:133|237:188,1,90.6666666666667,2|2,3:2|0:0,0:0:0:0:
302,256,113308,1,0,3:0:0:0:
506,111,113487,6,0,B|453:131|492:142|410:169,1,90.6666666666667,4|0,3:0|0:0,0:0:0:0:
315,48,113755,1,0,3:0:0:0:
377,0,113844,2,0,P|359:61|339:153,1,136,4|2,3:0|0:0,0:0:0:0:
193,243,114380,6,0,P|154:258|109:292,1,90.6666666666667,2|0,0:0|0:0,0:0:0:0:
29,268,114648,2,0,P|3:222|26:173,1,90.6666666666667,2|0,0:0|0:0,0:0:0:0:
0,81,114916,6,0,B|43:69|43:69|76:111,1,90.6666666666667,2|0,0:0|0:0,0:0:0:0:
151,121,115183,2,0,B|194:133|194:133|227:91,1,90.6666666666667,2|0,0:0|0:0,0:0:0:0:
292,52,115451,1,2,3:2:0:0:
437,247,115630,5,0,3:0:0:0:
512,191,115719,2,0,P|444:167|389:136,1,124.666670471192,8|0,3:2|0:0,0:0:0:0:
234,0,115987,6,0,B|140:91|270:103|154:213,1,226.666666666667,6|0,3:1|0:0,0:0:0:0:
17,115,116433,2,0,B|85:183|-8:192|91:298,1,170,2|0,0:1|0:0,0:0:0:0:
253,279,116791,2,0,B|210:337|261:327|196:406,1,113.333333333333,2|0,0:1|0:0,0:0:0:0:
157,194,117058,6,0,P|177:159|227:153,1,67.9999979248048,10|0,3:2|0:0,0:0:0:0:
268,86,117237,1,0,3:0:0:0:
268,86,117326,2,0,P|305:91|335:200,1,135.99999584961,4|0,3:0|0:0,0:0:0:0:
494,306,117594,5,4,3:0:0:0:
447,250,117683,1,4,3:0:0:0:
375,250,117772,1,4,3:0:0:0:
319,296,117861,1,4,3:0:0:0:
274,355,117951,1,4,3:0:0:0:
204,376,118040,1,4,3:0:0:0:
142,341,118129,5,4,3:2:0:0:
17,217,119201,6,0,B|77:205|137:120|97:-37|-17:-44|-80:92|-10:142|63:134|154:62,1,396.666654561361,4|0,0:2|0:0,0:0:0:0:
160,67,119737,2,0,B|217:2|318:26|326:147|296:136|272:120|330:245|441:236|462:150,1,396.666654561361,4|0,0:2|0:2,0:2:0:0:
451,98,120273,6,0,P|380:102|352:205,1,141.666666666667,6|0,3:2|0:0,0:0:0:0:
385,323,120541,2,0,P|314:319|286:216,1,141.666666666667,10|0,3:2|0:0,0:0:0:0:
177,138,120808,2,0,P|144:122|87:112,1,70.8333333333333,2|0,3:2|0:0,0:0:0:0:
0,244,120987,1,2,3:2:0:0:
70,276,121076,2,0,P|104:267|136:251,1,70.8333333333333,10|0,3:2|0:0,0:0:0:0:
321,79,121255,5,2,3:2:0:0:
363,145,121344,2,0,L|333:244,1,70.8333333333333,2|0,3:2|0:0,0:0:0:0:
312,381,121523,2,0,B|293:299|266:346|246:245,1,141.666666666667,2|0,0:0|0:0,0:0:0:0:
434,22,121791,2,0,P|358:16|341:113,1,141.666666666667,2|0,3:2|0:0,0:0:0:0:
181,175,122058,1,4,3:0:0:0:
142,241,122148,2,0,P|66:247|49:150,1,141.666666666667,10|0,3:2|0:0,0:0:0:0:
188,11,122416,5,4,3:2:0:0:
45,78,123442,5,4,3:0:0:0:
45,78,123487,2,0,P|107:95|117:141,1,106.25,4|0,3:2|3:0,0:0:0:0:
14,357,123889,5,0,3:0:0:0:
168,309,124023,2,0,P|95:292|25:262,1,106.25,12|0,3:2|0:0,0:0:0:0:
237,104,124291,5,2,3:2:0:0:
295,153,124380,1,2,3:2:0:0:
253,217,124469,1,2,3:2:0:0:
306,287,124558,6,0,B|393:305|351:340|461:383,1,153.000000583649,6|0,3:1|0:0,0:0:0:0:
55,128,125630,5,2,0:2:0:0:
55,128,125898,1,2,0:2:0:0:
55,128,126076,1,2,0:2:0:0:
55,128,126166,1,2,0:2:0:0:
55,128,126433,1,2,0:2:0:0:
175,59,126612,5,0,3:0:0:0:
175,59,126657,1,0,3:0:0:0:
175,59,126701,2,0,L|298:102,1,123.250003761292,8|0,3:2|3:0,0:0:0:0:
476,212,126969,2,0,L|337:263,1,123.250003761292,8|0,3:2|3:0,0:0:0:0:
45,361,127237,5,4,3:0:0:0:
91,305,127326,1,4,3:0:0:0:
85,233,127415,1,4,3:0:0:0:
22,182,127505,5,4,3:0:0:0:
14,272,127594,1,4,3:0:0:0:
73,340,127683,1,4,3:0:0:0:
173,342,127773,6,0,P|253:278|206:198,1,181.333333333333,6|0,3:2|0:0,0:0:0:0:
48,50,128041,2,0,P|82:145|102:253,1,181.333333333333,10|0,3:2|0:0,0:0:0:0:
346,262,128308,2,0,P|370:212|333:161,1,90.6666666666667,2|0,3:2|0:0,0:0:0:0:
247,0,128487,1,4,3:0:0:0:
179,38,128576,2,0,P|154:87|191:138,1,90.6666666666667,10|0,3:2|0:0,0:0:0:0:
472,142,128755,5,2,3:2:0:0:
456,59,128844,2,0,P|414:76|374:97,1,90.6666666666667,6|0,3:2|0:0,0:0:0:0:
257,205,129023,2,0,P|340:239|428:261,1,181.333333333333,2|0,0:2|0:0,0:0:0:0:
271,384,129291,2,0,B|106:341|244:261|30:220,1,272,6|4,3:2|3:0,0:0:0:0:
3,70,129648,6,0,P|41:46|75:16,1,90.6666666666667,10|0,3:2|0:0,0:0:0:0:
156,83,129826,1,2,0:0:0:0:
156,83,129916,2,0,P|211:139|262:252,1,181.333333333333,0|0,3:0|0:0,0:0:0:0:
361,151,130183,6,0,P|322:127|288:97,1,90.6666666666667,10|0,3:2|0:0,0:0:0:0:
208,164,130361,1,2,3:2:0:0:
208,164,130451,2,0,P|153:220|102:333,1,181.333333333333,0|4,3:0|3:0,0:0:0:0:
5,87,130719,6,0,P|43:63|77:33,1,90.6666666666667,10|0,3:2|0:0,0:0:0:0:
158,100,130897,1,2,0:0:0:0:
158,100,130987,2,0,P|213:156|264:269,1,181.333333333333,0|4,0:0|3:0,0:0:0:0:
368,166,131255,6,0,P|329:142|295:112,1,90.6666666666667,10|0,3:2|0:0,0:0:0:0:
215,179,131433,1,2,3:2:0:0:
215,179,131523,2,0,P|160:235|109:348,1,181.333333333333,0|2,3:0|0:2,0:0:0:0:
360,367,131791,2,0,P|371:313|258:260,1,181.333333333333,10|2,3:2|0:0,0:0:0:0:
84,171,132058,6,0,P|3:141|1:56,1,181.333333333333,6|0,3:2|0:0,0:0:0:0:
288,244,132326,1,10,3:2:0:0:
350,205,132416,1,2,0:0:0:0:
361,134,132505,1,2,0:0:0:0:
328,70,132594,2,0,P|254:48|154:-3,1,181.333333333333,2|0,3:2|3:0,0:0:0:0:
72,179,132862,2,0,P|60:222|43:264,1,90.6666666666667,10|0,3:2|0:0,0:0:0:0:
249,384,133041,5,2,3:2:0:0:
297,320,133130,2,0,P|280:277|268:234,1,90.6666666666667,6|0,3:2|0:0,0:0:0:0:
427,65,133308,2,0,P|478:77|502:205,1,181.333333333333,2|0,0:0|0:0,0:0:0:0:
265,118,133576,2,0,B|218:73|208:0|208:0|178:66|97:104,1,272,6|0,3:2|3:0,0:0:0:0:
2,228,133933,6,0,P|40:236|58:294,1,90.6666666666667,10|0,3:2|0:0,0:0:0:0:
106,381,134112,1,2,0:0:0:0:
106,381,134201,2,0,P|76:323|168:268,1,181.333333333333,0|4,3:2|3:0,0:0:0:0:
383,164,134469,6,0,P|345:172|327:230,1,90.6666666666667,10|0,3:2|0:0,0:0:0:0:
279,317,134648,1,2,0:0:0:0:
279,317,134737,2,0,P|309:259|217:204,1,181.333333333333,0|4,3:0|3:0,0:0:0:0:
73,93,135005,6,0,P|117:78|178:35,1,96.3333351707459,10|0,3:2|0:0,0:0:0:0:
317,206,135183,1,2,3:2:0:0:
386,149,135273,2,0,P|430:164|491:207,1,96.3333351707459,8|0,3:2|0:0,0:0:0:0:
337,375,135451,5,4,3:0:0:0:
268,318,135541,2,0,P|224:333|163:376,1,96.3333351707459,8|0,3:2|0:0,0:0:0:0:
0,266,135719,2,0,B|75:166|-36:187|65:57,1,203.999993774414,6|0,3:2|0:0,0:0:0:0:
286,0,135987,2,0,P|381:47|338:172,1,215.333327583313,6|0,3:2|0:0,0:0:0:0:
111,147,136255,6,0,P|183:152|393:323,1,340,6|2,3:2|0:0,0:0:0:0:
492,69,136612,6,0,P|437:53|408:171,1,181.333333333333,10|2,3:2|3:2,0:0:0:0:
265,224,136880,2,0,B|165:252|242:304|93:342,1,181.333333333333,2|4,3:2|3:0,0:0:0:0:
44,200,137148,2,0,P|18:179|46:82,1,90.6666666666667,10|0,3:2|0:0,0:0:0:0:
198,7,137326,5,2,3:2:0:0:
271,64,137416,2,0,P|218:86|177:116,1,90.6666666666667,2|0,3:2|0:0,0:0:0:0:
135,329,137594,1,2,0:0:0:0:
198,383,137683,2,0,P|224:362|196:265,1,90.6666666666667,10|0,3:2|0:0,0:0:0:0:
401,140,137862,2,0,B|332:185|399:279|420:255|440:238|500:324|420:381,1,272,6|2,3:2|3:2,0:0:0:0:
249,226,138219,2,0,P|224:170|217:126,1,90.6666666666667,10|0,3:2|0:0,0:0:0:0:
497,71,138398,6,0,P|455:-3|371:10,1,181.333333333333,2|2,3:2|3:2,0:0:0:0:
119,0,138666,1,2,3:2:0:0:
194,40,138755,2,0,P|250:65|294:72,1,90.6666666666667,10|0,3:2|0:0,0:0:0:0:
429,168,138933,1,2,0:0:0:0:
355,210,139022,2,0,P|299:235|255:242,1,90.6666666666667,2|0,3:2|0:0,0:0:0:0:
65,378,139201,1,4,3:0:0:0:
141,347,139291,2,0,B|202:243|104:284|185:142,1,181.333333333333,10|2,3:2|0:0,0:0:0:0:
237,0,139558,6,0,P|271:38|268:76,1,90.6666666666667,2|0,3:2|0:0,0:0:0:0:
62,170,139737,1,2,0:0:0:0:
0,120,139826,2,0,P|-1:75|31:44,1,90.6666666666667,10|0,3:2|0:0,0:0:0:0:
261,191,140005,2,0,B|427:229|315:305|485:355,1,272,6|0,3:2|0:0,0:0:0:0:
446,165,140362,6,0,P|397:172|369:268,1,90.6666666666667,10|0,3:2|0:0,0:0:0:0:
293,304,140541,1,2,0:0:0:0:
293,304,140630,2,0,P|185:365|135:290,1,181.333333333333,4|0,3:2|3:0,0:0:0:0:
4,279,140898,6,0,P|53:272|81:176,1,90.6666666666667,10|0,3:2|0:0,0:0:0:0:
157,140,141077,1,2,0:0:0:0:
157,140,141166,2,0,P|265:79|315:154,1,181.333333333333,0|4,3:0|3:0,0:0:0:0:
446,180,141433,6,0,P|397:187|369:283,1,90.6666666666667,10|0,3:2|0:0,0:0:0:0:
293,319,141612,1,2,0:0:0:0:
293,319,141701,2,0,P|185:380|135:305,1,181.333333333333,2|4,3:2|3:0,0:0:0:0:
241,170,141969,2,0,B|318:67|206:94|317:-49,1,181.333333333333,14|2,3:2|3:2,0:0:0:0:
114,207,142237,5,4,3:0:0:0:
45,184,142327,1,4,3:0:0:0:
0,129,142416,1,4,3:0:0:0:
66,77,142505,5,4,3:0:0:0:
104,154,142595,1,4,3:0:0:0:
96,238,142684,1,4,3:0:0:0:
43,303,142773,6,0,P|104:262|253:255,1,203.999993774414,4|4,3:2|3:0,0:0:0:0:
468,364,143219,2,0,B|419:286|485:314|420:208,1,135.99999584961,2|0,3:2|0:0,0:0:0:0:
511,134,143487,1,0,3:0:0:0:
451,93,143576,2,0,P|358:144|301:154,1,135.99999584961,2|0,3:2|0:0,0:0:0:0:
130,134,143844,6,0,P|168:203|195:358,1,203.999993774414,4|4,3:0|3:0,0:0:0:0:
79,208,144291,2,0,B|161:77|43:143|158:-36,1,203.999993774414,2|0,3:2|3:0,0:0:0:0:
258,125,144648,6,0,P|312:139|356:47,1,135.99999584961,10|0,3:2|0:0,0:0:0:0:
315,27,144916,1,2,3:2:0:0:
156,186,145183,2,0,P|102:200|58:108,1,135.99999584961,2|0,3:2|0:0,0:0:0:0:
99,88,145451,1,2,3:2:0:0:
375,256,145719,2,0,P|429:270|473:178,1,135.99999584961,2|0,3:2|0:0,0:0:0:0:
432,158,145987,1,2,3:2:0:0:
280,360,146255,2,0,P|226:374|182:282,1,135.99999584961,2|0,3:2|3:0,0:0:0:0:
223,262,146523,1,2,3:2:0:0:
432,366,146701,5,4,3:0:0:0:
467,301,146791,2,0,P|441:228|416:150,1,135.99999584961,8|0,3:2|0:0,0:0:0:0:
493,0,147058,6,0,B|412:19|469:52|346:91,1,135.99999584961,6|0,3:2|0:0,0:0:0:0:
306,47,147326,2,0,P|242:24|194:10,1,67.9999979248048,4|0,3:0|0:0,0:0:0:0:
94,120,147505,2,0,P|156:118|187:208,1,135.99999584961,2|0,0:0|0:0,0:0:0:0:
224,344,147773,1,0,3:0:0:0:
286,299,147862,2,0,B|321:206|276:239|327:131,1,135.99999584961,4|0,3:0|0:0,0:0:0:0:
391,87,148130,5,2,3:2:0:0:
99,28,148398,2,0,P|131:18|160:0,1,67.9999979248048,4|0,3:0|0:0,0:0:0:0:
225,107,148576,2,0,P|199:169|157:223,1,135.99999584961,2|0,3:2|0:0,0:0:0:0:
0,155,148844,5,0,3:0:0:0:
54,218,148933,2,0,B|174:247|96:319|248:358,1,203.999993774414,10|6,3:2|3:2,0:0:0:0:
49,0,151344,5,4,3:2:0:0:
162,92,151612,1,4,3:0:0:0:
97,173,151880,1,0,3:0:0:0:
151,243,152058,1,0,3:0:0:0:
151,243,152148,2,0,P|132:300|115:356,1,113.333333333333,4|0,3:0|3:0,0:0:0:0:
37,384,152416,5,0,3:0:0:0:
264,297,152683,1,4,3:0:0:0:
202,179,152862,1,4,3:0:0:0:
202,179,152951,1,0,3:0:0:0:
308,161,153130,1,0,3:0:0:0:
308,161,153219,2,0,P|368:192|414:217,1,113.333333333333,4|0,3:0|3:0,0:0:0:0:
441,299,153487,5,0,3:2:0:0:
512,182,153755,1,4,3:0:0:0:
416,113,154023,1,0,3:0:0:0:
483,32,154201,1,0,3:0:0:0:
483,32,154291,2,0,P|423:11|362:9,1,113.333333333333,4|0,3:0|3:0,0:0:0:0:
274,56,154558,5,0,3:0:0:0:
74,164,154826,1,4,3:0:0:0:
176,85,155005,1,4,3:0:0:0:
176,85,155094,1,0,3:0:0:0:
86,24,155273,1,0,3:0:0:0:
86,24,155362,1,4,3:0:0:0:
278,161,155541,5,0,3:0:0:0:
348,119,155630,1,4,3:2:0:0:
277,287,155898,1,4,3:0:0:0:
339,109,156166,1,0,3:0:0:0:
440,181,156344,1,0,3:0:0:0:
440,181,156433,2,0,P|390:207|347:251,1,113.333333333333,4|0,3:0|3:0,0:0:0:0:
204,144,156701,5,0,3:0:0:0:
117,328,156969,1,4,3:0:0:0:
230,287,157148,1,4,3:0:0:0:
230,287,157237,1,0,3:0:0:0:
93,140,157416,1,0,3:0:0:0:
93,140,157505,1,4,3:0:0:0:
313,5,157773,5,0,3:0:0:0:
195,154,158041,1,4,3:0:0:0:
414,282,158308,1,0,3:0:0:0:
308,108,158487,5,4,3:0:0:0:
308,108,158576,1,0,3:0:0:0:
48,193,158755,5,0,3:0:0:0:
48,193,158844,2,0,P|91:176|130:141,1,73.6666632944744,4|0,3:0|0:0,0:0:0:0:
292,91,159023,2,0,P|240:88|207:190,1,147.333326588949,8|0,3:2|0:0,0:0:0:0:
211,181,159246,1,8,3:2:0:0:
379,353,159380,1,4,3:0:0:0:
379,353,159447,1,4,3:0:0:0:
379,353,159514,1,8,3:2:0:0:
486,246,159648,1,8,3:2:0:0:
311,185,159782,1,0,3:0:0:0:
408,26,159916,5,6,3:2:0:0:
454,99,160183,1,2,3:2:0:0:
367,103,160451,1,2,3:2:0:0:
416,23,160719,5,2,3:2:0:0:
460,103,160853,1,2,0:0:0:0:
360,110,160987,1,2,3:2:0:0:
410,15,161255,5,0,3:0:0:0:
471,113,161433,1,4,3:0:0:0:
471,113,161523,1,0,3:0:0:0:
348,117,161701,1,4,3:0:0:0:
346,117,161791,2,0,L|209:76,1,118.999996368408,8|0,3:2|0:0,0:0:0:0:
56,16,162058,6,0,P|117:83|149:204,1,158.666661824544,2|0,3:1|0:0,0:0:0:0:
382,195,162326,2,0,P|305:213|226:205,1,158.666661824544,2|0,3:1|0:0,0:0:0:0:
93,357,162594,2,0,P|115:281|160:224,1,118.999996368408,2|0,3:1|0:0,0:0:0:0:
274,113,162862,1,2,3:1:0:0:
42,160,163041,5,2,0:1:0:0:
1,97,163130,1,2,3:1:0:0:
218,196,163331,2,0,P|163:226|101:244,1,118.999996368408,2|0,0:1|3:0,0:0:0:0:
99,89,163576,2,0,B|362:154|170:304|469:357,1,475.999985473633,2|2,3:1|0:1,0:0:0:0:
508,287,164201,5,2,3:2:0:0:
415,196,164469,1,2,3:2:0:0:
489,175,164603,1,2,0:0:0:0:
463,106,164737,1,2,3:2:0:0:
250,20,165005,5,2,3:2:0:0:
331,6,165139,1,2,0:0:0:0:
341,85,165272,1,2,3:2:0:0:
293,172,165451,1,2,0:0:0:0:
293,172,165541,1,2,3:2:0:0:
166,82,165719,6,0,P|80:126|62:132,1,59.4999981842042,2|0,3:2|3:2,0:0:0:0:
94,235,165898,1,4,3:0:0:0:
49,176,165987,2,0,P|33:163|-9:141,1,59.4999981842042,8|2,3:2|3:0,0:0:0:0:
227,377,166344,6,0,B|276:278|191:314|263:197,1,158.666661824544,2|0,3:1|0:0,0:0:0:0:
338,72,166612,1,4,3:0:0:0:
408,101,166702,1,4,3:0:0:0:
376,165,166791,1,4,3:0:0:0:
436,235,166880,2,0,B|388:139|456:170|399:52,1,158.666661824544,2|0,3:1|0:0,0:0:0:0:
240,0,167148,1,4,3:0:0:0:
170,29,167238,1,4,3:0:0:0:
202,93,167327,1,4,3:0:0:0:
142,163,167416,2,0,B|189:67|121:98|179:-20,1,158.666661824544,2|4,3:1|3:0,0:0:0:0:
280,151,167683,2,0,P|292:201|320:259,1,79.3333309122722,2|0,3:1|0:0,0:0:0:0:
435,264,167862,2,0,B|331:292|413:333|267:380,1,158.666661824544,2|0,3:1|0:0,0:0:0:0:
222,330,168130,1,4,3:0:0:0:
222,330,168219,1,4,3:0:0:0:
486,138,168487,5,6,3:2:0:0:
371,87,168666,1,2,0:0:0:0:
371,87,168755,2,0,P|322:117|238:139,1,118.999996368408,2|0,3:2|0:0,0:0:0:0:
91,41,169023,2,0,P|131:55|139:155,1,118.999996368408,2|0,3:2|3:0,0:0:0:0:
88,185,169291,1,2,3:2:0:0:
193,343,169469,5,2,0:0:0:0:
193,343,169558,2,0,P|231:331|254:319,1,59.4999981842042,2|0,3:2|0:0,0:0:0:0:
330,285,169737,2,0,P|396:313|427:368,1,118.999996368408,2|0,0:0|0:0,0:0:0:0:
492,277,170005,2,0,B|473:193|462:251|444:149,1,118.999996368408,2|4,3:2|3:0,0:0:0:0:
355,0,170273,5,8,3:2:0:0:
307,57,170362,2,0,P|338:130|355:205,1,118.999996368408,0|0,3:2|0:0,0:0:0:0:
99,357,170629,5,2,3:1:0:0:
25,327,170719,1,4,3:0:0:0:
9,249,170808,1,4,3:0:0:0:
44,177,170897,1,2,3:1:0:0:
121,162,170987,1,4,3:0:0:0:
192,195,171076,1,4,3:0:0:0:
248,260,171165,5,2,3:1:0:0:
320,226,171255,1,4,3:0:0:0:
337,148,171344,1,4,3:0:0:0:
289,85,171433,1,2,3:1:0:0:
209,75,171523,1,4,3:0:0:0:
151,128,171612,1,2,3:1:0:0:
101,189,171701,5,2,3:1:0:0:
116,222,171791,1,4,3:0:0:0:
179,269,171880,5,2,3:1:0:0:
166,303,171969,1,4,3:0:0:0:
151,337,172058,1,4,3:0:0:0:
71,340,172148,5,2,3:1:0:0:
154,376,172237,1,4,3:0:0:0:
237,340,172326,1,4,3:0:0:0:
273,254,172415,1,4,3:0:0:0:
316,173,172505,1,4,3:0:0:0:
402,143,172594,1,4,3:0:0:0:
477,195,172683,1,4,3:0:0:0:
401,260,172772,5,12,3:2:0:0:
119,109,175987,6,0,L|72:96,22,28.3333333333333,2|0|0|0|0|0|0|0|0|0|0|0|0|0|0|0|0|0|0|0|0|0|0,0:0|0:0|0:0|0:0|0:0|0:0|0:0|0:0|0:0|0:0|0:0|0:0|0:0|0:0|0:0|0:0|0:0|0:0|0:0|0:0|0:0|0:0|0:0,0:0:0:0:
194,64,177058,6,0,B|373:155|210:223|432:332,1,339.999989624024,4|0,3:2|3:0,0:0:0:0:
509,101,177594,2,0,B|418:135|487:164|359:201,1,135.99999584961,10|0,3:2|0:0,0:0:0:0:
174,336,177862,5,4,3:0:0:0:
137,263,177951,1,4,3:0:0:0:
194,204,178041,1,4,3:0:0:0:
274,213,178130,1,8,3:0:0:0:
34,23,178308,6,0,B|112:112|15:89|114:206,1,170.000006484986,2|0,0:1|0:0,0:0:0:0:
15,367,178576,2,0,B|333:307|95:83|470:42,1,595.00002269745,2|0,3:1|0:0,0:0:0:0:
49,83,181344,5,2,0:3:0:0:
96,150,181880,1,2,0:3:0:0:
163,103,182416,1,2,0:3:0:0:
116,36,182862,1,2,0:3:0:0:
38,81,183487,5,2,0:3:0:0:
96,164,183666,1,2,0:0:0:0:
96,164,183755,1,2,0:0:0:0:
171,108,184023,1,2,0:3:0:0:
119,27,184201,1,2,0:0:0:0:
119,27,184291,1,2,0:0:0:0:
25,79,184558,5,2,0:0:0:0:
92,173,184737,1,2,3:2:0:0:
185,111,185005,1,2,3:2:0:0:
125,18,185273,1,0,3:0:0:0:
125,18,185362,1,4,3:0:0:0:
512,198,185630,6,0,P|431:228|304:359,1,237.999992736817,4|4,0:0|3:0,0:0:0:0:
7,208,186701,2,0,P|77:257|166:417,1,237.999992736817,0|4,3:0|3:0,0:0:0:0:
394,0,187773,2,0,P|338:66|294:243,1,237.999992736817,0|4,3:0|3:0,0:0:0:0:
143,0,188844,2,0,P|179:78|176:260,1,237.999992736817,0|4,3:0|3:0,0:0:0:0:
416,81,189916,6,0,P|368:111|297:126,1,96.3333351707459,4|2,0:0|0:0,0:0:0:0:
279,26,190183,2,0,P|224:98|211:188,1,144.500002756119,2|2,0:0|3:2,0:0:0:0:
396,342,190719,2,0,P|409:317|339:281,1,96.3333351707459,2|0,0:0|0:0,0:0:0:0:
293,227,190987,6,0,B|212:260|264:290|178:329,1,144.500002756119,2|0,0:1|0:0,0:0:0:0:
30,307,191344,1,2,0:0:0:0:
2,273,191433,1,2,0:0:0:0:
23,234,191523,2,0,B|215:267|81:357|300:396,1,283.333333333333,6|0,3:2|0:0,0:0:0:0:
372,285,192058,6,0,P|409:220|426:62,1,220.999989883423,6|0,3:1|0:0,0:0:0:0:
164,0,192416,1,2,0:1:0:0:
164,0,192505,1,2,0:1:0:0:
164,0,192594,2,0,P|127:65|110:223,1,187.000005706787,2|0,0:1|0:0,0:0:0:0:
273,269,192951,1,2,0:1:0:0:
273,269,193040,1,2,0:1:0:0:
272,268,193130,2,0,P|302:214|316:84,1,152.999995330811,2|0,0:1|0:0,0:0:0:0:
249,63,193487,1,2,0:1:0:0:
249,63,193576,1,2,0:1:0:0:
249,63,193666,2,0,P|226:102|216:198,1,118.999996368408,2|0,0:1|0:0,0:0:0:0:
356,34,194000,6,0,L|330:18,2,29.7499990921021,4|4|4,3:0|3:0|3:0,3:0:0:0:
441,51,194201,6,0,P|477:92|476:130,1,85.0000032424928,10|0,3:2|0:0,0:0:0:0:
512,203,194380,2,0,P|502:243|469:269,1,85.0000032424928,10|0,3:2|0:0,0:0:0:0:
415,340,194558,2,0,P|361:350|329:330,1,85.0000032424928,10|0,3:2|0:0,0:0:0:0:
247,324,194737,2,0,P|215:296|208:255,1,85.0000032424928,10|0,3:2|0:0,0:0:0:0:
176,170,194916,2,0,P|193:118|226:100,1,85.0000032424928,10|0,3:2|0:0,0:0:0:0:
289,149,195094,5,14,3:2:0:0:
33,22,195808,6,0,P|72:46|117:60,1,93.4999971466065,12|0,3:0|0:0,0:0:0:0:
125,66,196344,6,0,P|46:102|51:227,1,187.000001783371,6|0,3:2|0:0,0:0:0:0:
151,352,196612,2,0,P|177:252|214:166,1,187.000001783371,10|0,3:2|0:0,0:0:0:0:
335,29,196880,2,0,B|370:93|327:66|378:155,1,93.5000008916855,2|0,3:2|0:0,0:0:0:0:
448,322,197058,1,4,3:0:0:0:
512,286,197148,2,0,P|495:258|428:243,1,93.5000008916855,10|0,3:2|0:0,0:0:0:0:
229,376,197326,5,2,3:2:0:0:
158,338,197416,2,0,P|175:310|242:295,1,93.5000008916855,6|0,3:2|0:0,0:0:0:0:
326,384,197594,2,0,B|384:277|283:318|375:178,1,187.000001783371,2|0,0:0|0:0,0:0:0:0:
447,7,197862,2,0,B|375:-26|323:51|323:51|330:53|330:53|274:123|205:98,1,280.500002675057,6|4,3:2|3:0,0:0:0:0:
0,3,198219,6,0,P|23:47|49:120,1,93.5000008916855,10|0,3:2|0:0,0:0:0:0:
0,203,198398,1,2,0:0:0:0:
0,203,198487,2,0,P|35:123|123:133,1,187.000001783371,0|0,3:0|0:0,0:0:0:0:
209,384,198755,6,0,P|186:340|160:267,1,93.5000008916855,10|0,3:2|0:0,0:0:0:0:
208,181,198934,1,2,3:2:0:0:
208,181,199023,2,0,P|173:261|86:254,1,187.000001783371,0|4,3:0|3:0,0:0:0:0:
7,6,199291,6,0,P|30:50|56:123,1,93.5000008916855,10|0,3:2|0:0,0:0:0:0:
5,206,199470,1,2,0:0:0:0:
5,206,199559,2,0,P|42:126|130:136,1,187.000001783371,0|4,0:0|3:0,0:0:0:0:
217,375,199827,6,0,P|194:331|168:258,1,93.5000008916855,10|0,3:2|0:0,0:0:0:0:
216,172,200004,1,2,3:2:0:0:
216,172,200095,2,0,P|180:252|93:244,1,187.000001783371,0|2,3:0|0:2,0:0:0:0:
192,0,200362,2,0,B|317:35|224:73|372:115,1,187.000001783371,10|2,3:2|0:0,0:0:0:0:
512,0,200630,6,0,P|458:111|457:250,1,187.000001783371,6|0,3:2|0:0,0:0:0:0:
233,364,200898,1,10,3:2:0:0:
195,299,200987,1,2,0:0:0:0:
233,235,201076,1,2,0:0:0:0:
305,212,201166,2,0,P|347:235|405:260,1,93.5000008916855,2|0,3:2|0:0,0:0:0:0:
502,81,201344,1,0,3:0:0:0:
428,45,201433,2,0,P|385:64|344:86,1,93.5000008916855,10|0,3:2|0:0,0:0:0:0:
112,174,201612,5,2,3:2:0:0:
72,106,201701,2,0,B|115:49|67:68|125:-15,1,93.5000008916855,6|0,3:2|0:0,0:0:0:0:
260,138,201880,2,0,B|328:254|239:223|316:342,1,187.000001783371,2|0,0:0|0:0,0:0:0:0:
20,384,202148,2,0,P|7:318|202:253,1,280.500002675057,6|0,3:2|3:0,0:0:0:0:
362,186,202505,6,0,P|409:179|451:139,1,93.5000008916855,10|0,3:2|0:0,0:0:0:0:
413,67,202683,1,2,0:0:0:0:
413,67,202773,2,0,P|329:71|241:142,1,187.000001783371,0|4,3:2|3:0,0:0:0:0:
81,282,203041,6,0,P|34:275|-8:235,1,93.5000008916855,10|0,3:2|0:0,0:0:0:0:
19,163,203219,1,2,0:0:0:0:
19,163,203309,2,0,P|102:167|190:238,1,187.000001783371,0|4,3:0|3:0,0:0:0:0:
285,345,203576,2,0,P|357:287|449:280,1,187.000001783371,10|2,3:2|3:2,0:0:0:0:
503,130,203844,5,8,3:2:0:0:
445,82,203933,1,4,3:0:0:0:
370,96,204023,1,4,3:0:0:0:
319,177,204112,5,8,3:2:0:0:
261,225,204201,1,0,3:0:0:0:
176,236,204291,2,0,P|150:136|115:20,1,187.000001783371,6|0,3:2|0:0,0:0:0:0:
233,12,204558,6,0,P|225:39|216:71,1,56.6666666666667,6|0,3:2|0:0,0:0:0:0:
241,149,204826,6,0,B|417:184|336:319|532:350,1,348.500005317688,6|2,3:2|0:0,0:0:0:0:
512,116,205183,6,0,P|452:151|402:161,1,93.5000008916855,10|0,3:2|0:0,0:0:0:0:
259,333,205362,1,2,3:2:0:0:
188,294,205451,2,0,P|162:261|263:163,1,187.000001783371,2|4,3:2|3:0,0:0:0:0:
372,79,205719,2,0,P|395:53|369:-12,1,93.5000008916855,10|0,3:2|0:0,0:0:0:0:
194,85,205898,5,2,3:2:0:0:
230,166,205987,2,0,L|335:209,1,93.5000008916855,2|0,3:2|0:0,0:0:0:0:
448,315,206166,1,2,0:0:0:0:
512,263,206255,2,0,L|482:174,1,93.5000008916855,10|0,3:2|0:0,0:0:0:0:
280,92,206433,2,0,P|163:146|60:181,1,187.000001783371,6|0,3:2|0:0,0:0:0:0:
0,324,206701,1,2,3:2:0:0:
71,274,206791,2,0,B|186:300|113:354|232:389,1,187.000001783371,10|2,3:2|3:2,0:0:0:0:
292,339,207058,6,0,B|312:297|312:297|272:244,1,93.5000008916855,4|0,3:0|0:0,0:0:0:0:
101,57,207237,1,2,3:2:0:0:
158,0,207326,2,0,P|195:84|214:176,1,187.000001783371,10|2,3:2|0:0,0:0:0:0:
468,212,207594,2,0,P|457:125|371:112,1,187.000001783371,2|4,3:2|3:0,0:0:0:0:
290,323,207862,2,0,P|245:312|204:289,1,93.5000008916855,10|0,3:2|0:0,0:0:0:0:
0,146,208041,5,2,0:0:0:0:
67,99,208130,2,0,P|113:110|154:133,1,93.5000008916855,2|0,3:2|0:0,0:0:0:0:
65,372,208308,1,2,0:0:0:0:
0,328,208398,2,0,P|-14:303|10:242,1,93.5000008916855,10|0,3:2|0:0,0:0:0:0:
234,189,208576,2,0,P|275:129|117:49,1,280.500002675057,6|0,3:2|0:0,0:0:0:0:
108,256,208933,6,0,P|172:284|241:327,1,93.5000008916855,10|0,3:2|0:0,0:0:0:0:
265,373,209112,1,2,0:0:0:0:
265,373,209201,2,0,B|381:354|298:293|443:264,1,187.000001783371,4|0,3:2|3:0,0:0:0:0:
501,77,209469,6,0,P|437:105|368:148,1,93.5000008916855,10|0,3:2|0:0,0:0:0:0:
344,194,209648,1,2,0:0:0:0:
344,194,209737,2,0,B|228:175|311:114|166:85,1,187.000001783371,0|4,3:0|3:0,0:0:0:0:
109,267,210005,6,0,P|173:295|242:338,1,93.5000008916855,10|0,3:2|0:0,0:0:0:0:
266,384,210184,1,2,0:0:0:0:
266,384,210273,2,0,B|382:365|299:304|444:275,1,187.000001783371,2|4,3:2|3:0,0:0:0:0:
493,87,210541,6,0,P|429:115|360:158,1,93.5000008916855,14|0,3:2|0:0,0:0:0:0:
336,204,210720,1,2,3:2:0:0:
336,204,210809,2,0,B|220:185|303:124|158:95,1,187.000001783371,4|4,3:0|3:0,0:0:0:0:
27,0,211076,6,0,P|84:117|95:217,1,187.000001783371,10|2,3:2|0:0,0:0:0:0:
25,384,211344,2,0,P|5:361|106:302,1,187.000001783371,0|0,3:0|0:0,0:0:0:0:
382,361,211612,6,0,P|350:315|341:270,1,93.5000008916855,6|0,3:2|0:0,0:0:0:0:
272,121,211791,2,0,P|249:211|196:287,1,187.000001783371,2|0,0:0|0:0,0:0:0:0:
14,206,212058,1,4,3:0:0:0:
85,170,212148,2,0,P|117:124|126:79,1,93.5000008916855,10|0,3:2|0:0,0:0:0:0:
288,0,212326,5,2,3:2:0:0:
352,58,212416,2,0,B|464:96|383:152|546:197,1,187.000001783371,4|0,3:0|0:0,0:0:0:0:
267,253,212683,2,0,P|220:253|179:306,1,93.5000008916855,14|0,3:2|0:0,0:0:0:0:
21,123,212862,5,4,3:0:0:0:
98,91,212951,1,4,3:0:0:0:
179,113,213041,1,4,3:0:0:0:
238,171,213130,1,4,3:0:0:0:
276,245,213219,1,4,3:0:0:0:
331,308,213308,1,4,3:0:0:0:
412,329,213398,1,4,3:0:0:0:
480,289,213487,6,0,B|540:232|513:150|453:98|429:145|401:212|292:83|327:13|410:-8,1,396.666654561361,6|0,3:1|0:0,0:0:0:0:
481,33,214023,2,0,B|533:60|563:119|443:239|421:169|401:120|337:168|303:246|358:308,1,396.666654561361,6|0,0:1|0:0,0:0:0:0:
392,384,214558,2,0,B|376:281|255:293|263:315|272:337|170:394|128:262,1,317.333323649089,6|0,0:1|0:0,0:0:0:0:
185,220,215005,1,4,3:0:0:0:
185,220,215094,2,0,B|223:184|260:37|171:-20|74:18|85:145|146:174|247:138|288:106,1,396.666654561361,6|0,3:2|0:0,0:0:0:0:
328,129,215630,6,0,P|200:129|75:-20,1,314.499998800278,6|0,1:0|0:0,0:0:0:0:
53,59,217505,6,0,P|71:51|58:69,1,56.6666666666667,4|0,3:0|0:0,0:0:0:0:
0,143,217773,6,0,B|87:164|33:197|154:233,1,135.99999584961,4|0,3:2|0:0,0:0:0:0:
162,274,218041,1,4,3:0:0:0:
294,112,218219,1,2,3:2:0:0:
231,70,218308,1,0,3:0:0:0:
390,244,218487,1,0,3:0:0:0:
453,200,218576,2,0,P|467:138|500:52,1,135.99999584961,2|0,3:2|0:0,0:0:0:0:
284,123,218844,6,0,B|347:253|244:209|325:336,1,203.999993774414,4|4,3:0|3:0,0:0:0:0:
91,216,219291,2,0,P|68:123|150:75,1,203.999993774414,2|0,3:2|3:0,0:0:0:0:
210,0,219648,6,0,P|272:26|337:45,1,135.99999584961,10|0,3:2|0:0,0:0:0:0:
418,23,219915,1,2,3:2:0:0:
510,114,220183,2,0,P|447:140|382:159,1,135.99999584961,2|0,3:2|0:0,0:0:0:0:
302,137,220450,1,2,3:2:0:0:
182,231,220719,2,0,P|244:257|309:276,1,135.99999584961,2|0,3:2|0:0,0:0:0:0:
390,254,220986,1,2,3:2:0:0:
489,339,221255,2,0,P|426:365|361:384,1,135.99999584961,2|0,3:2|3:0,0:0:0:0:
281,362,221523,1,2,3:2:0:0:
505,125,221701,5,4,3:0:0:0:
451,70,221791,2,0,P|397:76|380:182,1,135.99999584961,8|0,3:2|0:0,0:0:0:0:
254,228,222058,6,0,P|175:212|77:184,1,135.99999584961,6|0,3:2|0:0,0:0:0:0:
47,235,222326,1,4,3:0:0:0:
63,43,222505,2,0,P|114:-9|188:13,1,135.99999584961,2|0,0:0|0:0,0:0:0:0:
240,68,222773,1,0,3:0:0:0:
306,28,222862,2,0,P|379:50|476:73,1,135.99999584961,4|0,3:0|0:0,0:0:0:0:
512,165,223130,6,0,B|425:242|546:286|428:357,1,203.999993774414,2|4,3:2|3:0,0:0:0:0:
291,253,223576,2,0,B|191:194|312:150|226:73,1,203.999993774414,2|0,3:2|3:0,0:0:0:0:
146,40,223933,6,0,P|77:77|1:97,1,135.99999584961,10|0,3:2|0:0,0:0:0:0:
35,7,224201,1,2,3:2:0:0:
250,199,224469,2,0,P|319:236|395:256,1,135.99999584961,2|0,3:2|0:0,0:0:0:0:
361,166,224737,1,2,3:2:0:0:
143,51,225005,2,0,P|74:88|-2:108,1,135.99999584961,2|0,3:2|0:0,0:0:0:0:
32,18,225273,1,2,3:2:0:0:
242,211,225541,2,0,P|311:248|387:268,1,135.99999584961,2|8,3:2|3:2,0:0:0:0:
361,173,225808,5,4,3:0:0:0:
318,113,225897,1,4,3:0:0:0:
329,41,225986,1,0,3:0:0:0:
389,0,226075,1,2,3:1:0:0:
460,10,226165,1,4,3:0:0:0:
503,69,226254,1,4,3:0:0:0:
492,141,226344,6,0,B|378:174|467:202|333:246,1,158.666661824544,4|0,3:2|0:0,0:0:0:0:
260,337,226612,2,0,P|211:310|150:309,1,79.3333309122722,8|0,3:2|0:0,0:0:0:0:
17,360,226791,1,0,3:0:0:0:
61,300,226880,2,0,B|101:214|24:245|86:126,1,158.666661824544,4|0,3:0|0:0,0:0:0:0:
27,0,227148,2,0,P|118:50|190:59,1,158.666661824544,8|0,3:2|3:0,0:0:0:0:
359,18,227416,6,0,P|299:60|304:155,1,158.666661824544,4|0,3:0|0:0,0:0:0:0:
362,226,227683,2,0,P|398:184|384:145,1,79.3333309122722,8|0,3:2|0:0,0:0:0:0:
177,157,227862,2,0,P|111:198|28:230,1,158.666661824544,2|0,3:2|0:0,0:0:0:0:
144,361,228130,1,0,3:0:0:0:
200,307,228219,2,0,P|239:299|315:385,1,158.666661824544,10|2,3:2|0:0,0:0:0:0:
493,310,228487,6,0,B|471:214|440:280|415:144,1,158.666661824544,2|0,3:2|0:0,0:0:0:0:
376,12,228755,2,0,B|356:119|325:53|303:149,1,158.666661824544,10|2,3:2|3:2,0:0:0:0:
176,184,229023,2,0,P|133:202|90:241,1,79.3333309122722,2|0,3:2|0:0,0:0:0:0:
7,45,229201,1,0,3:0:0:0:
72,2,229291,2,0,P|121:38|263:78,1,158.666661824544,10|2,3:2|0:0,0:0:0:0:
429,88,229558,6,0,P|349:94|324:199,1,158.666661824544,2|0,3:2|0:0,0:0:0:0:
342,274,229826,2,0,P|386:263|403:230,1,79.3333309122722,10|0,3:2|0:0,0:0:0:0:
214,84,230005,1,0,3:0:0:0:
158,148,230094,2,0,P|130:256|130:339,1,158.666661824544,2|4,3:2|3:0,0:0:0:0:
30,154,230362,2,0,P|22:75|0:0,1,158.666661824544,8|0,3:2|0:0,0:0:0:0:
224,92,230630,6,0,P|276:119|327:134,1,85.0000032424928,2|0,3:1|0:0,0:0:0:0:
503,238,230808,1,8,3:2:0:0:
453,182,230898,2,0,P|389:195|365:301,1,170.000006484986,4|2,3:1|0:1,0:0:0:0:
199,341,231166,2,0,B|97:315|179:267|38:230,1,170.000006484986,8|0,3:2|3:0,0:0:0:0:
0,148,231433,2,0,P|62:129|132:80,1,85.0000032424928,6|0,3:1|0:0,0:0:0:0:
311,75,231612,5,8,3:0:0:0:
261,5,231701,2,0,P|237:39|226:111,1,85.0000032424928,2|0,3:1|0:0,0:0:0:0:
377,186,231880,1,8,3:0:0:0:
428,112,231969,2,0,P|464:156|466:283,1,170.000006484986,10|2,3:2|3:1,0:0:0:0:
176,360,232237,5,4,3:0:0:0:
97,330,232326,1,4,3:0:0:0:
70,255,232415,1,4,3:0:0:0:
106,178,232504,1,4,3:0:0:0:
137,100,232594,1,4,3:0:0:0:
97,30,232683,1,4,3:0:0:0:
18,0,232772,5,4,3:2:0:0:
458,28,234648,6,0,B|147:80|360:291|25:371,1,544,6|0,3:1|0:1,0:0:0:0:
