osu file format v14

[General]
AudioFilename: audio.mp3
AudioLeadIn: 0
PreviewTime: 127237
Countdown: 0
SampleSet: Soft
StackLeniency: 0.9
Mode: 0
LetterboxInBreaks: 0
WidescreenStoryboard: 1

[Editor]
DistanceSpacing: 1
BeatDivisor: 3
GridSize: 32
TimelineZoom: 2.4

[Metadata]
Title:Saga Jihen
TitleUnicode:佐賀事変
Artist:Franchouchou
ArtistUnicode:フランシュシュ
Creator:Yudragen
Version:Hard
Source:ゾンビランドサガ
Tags:zombieland zombie land 山田たえ Yamada Tae 源さくら Minamoto Sakura 二階堂サキ Saki Nikaidou Nikaido Nikaidō 水野愛 Mizuno Ai 紺野純子 Konno Junko ゆうぎり Yuugiri Yugiri Yūgiri 星川リリィ Hoshikawa Lily Ririi 三石琴乃 Mitsuishi Kotono 本渡楓 Hondo Kaede 田野アサミ Tano Asami 種田梨沙 Taneda Risa 河瀬茉希 Kawase Maki 衣川里佳 Kinugawa Rika 田中美海 Tanaka Minami idols アイドル The Best furanshushu saga zelq frontier chaoticred jazz rock japanese
BeatmapID:2850776
BeatmapSetID:1250846

[Difficulty]
HPDrainRate:5
CircleSize:3.5
OverallDifficulty:6
ApproachRate:8.7
SliderMultiplier:1.1
SliderTickRate:1

[Events]
//Background and Video events
0,0,"975817.jpg",0,0
//Break Periods
2,142973,149201
//Storyboard Layer 0 (Background)
//Storyboard Layer 1 (Fail)
//Storyboard Layer 2 (Pass)
//Storyboard Layer 3 (Foreground)
//Storyboard Layer 4 (Overlay)
//Storyboard Sound Samples

[TimingPoints]
24556,606.060606060606,4,2,1,70,1,0
24639,568.181818181818,4,2,1,70,1,0
24916,267.857142857143,4,2,1,50,1,0
24916,-95.2380952380952,4,2,1,50,0,0
25541,-95.2380952380952,4,2,1,5,0,0
25630,-95.2380952380952,4,2,1,50,0,0
26701,-95.2380952380952,4,2,1,5,0,0
26791,-95.2380952380952,4,2,1,50,0,0
27237,-95.2380952380952,4,2,1,5,0,0
27327,-95.2380952380952,4,2,1,50,0,0
27505,-95.2380952380952,4,2,1,5,0,0
27595,-95.2380952380952,4,2,1,50,0,0
28041,-95.2380952380952,4,2,1,5,0,0
28131,-95.2380952380952,4,2,1,50,0,0
28755,-95.2380952380952,4,2,1,5,0,0
28845,-95.2380952380952,4,2,1,50,0,0
29112,-95.2380952380952,4,2,1,5,0,0
29202,-95.2380952380952,4,2,1,50,0,0
30183,-95.2380952380952,4,2,1,5,0,0
30273,-95.2380952380952,4,2,1,50,0,0
31344,-105.263157894737,4,2,1,60,0,0
31701,-105.263157894737,4,2,1,5,0,0
31791,-105.263157894737,4,2,1,60,0,0
32058,-105.263157894737,4,2,1,5,0,0
32148,-105.263157894737,4,2,1,60,0,0
32505,-105.263157894737,4,2,1,5,0,0
32594,-105.263157894737,4,2,1,60,0,0
32862,-105.263157894737,4,2,1,5,0,0
32951,-105.263157894737,4,2,1,60,0,0
33487,-80,4,2,1,75,0,0
42058,-111.111111111111,4,2,1,60,0,0
59201,-80,4,2,1,75,0,0
67773,-111.111111111111,4,2,1,60,0,0
75451,-99.9999999999999,4,2,1,80,0,0
76344,-111.111111111111,4,2,1,60,0,0
77416,-111.111111111111,4,2,1,80,0,0
77951,-111.111111111111,4,2,1,60,0,0
81701,-111.111111111111,4,2,1,80,0,0
81835,-99.9999999999999,4,2,1,80,0,0
84826,-99.9999999999999,4,2,1,80,0,0
84927,267.857142857143,4,2,1,50,1,0
84927,-85.4700854700855,4,2,1,80,0,0
85094,267.857142857143,4,2,1,50,1,0
85183,267.857142857143,4,2,1,50,1,0
85361,-90.9090909090909,4,2,1,80,0,0
85987,267.857142857143,4,2,1,50,1,0
85987,-74.0740740740741,4,2,1,90,0,1
94469,-74.0740740740741,4,2,1,100,0,1
94737,-74.0740740740741,4,2,1,90,0,1
100987,-80,4,2,1,70,0,0
109558,-117.647058823529,4,2,1,50,0,0
115987,-105.263157894737,4,2,1,70,0,0
117058,-105.263157894737,4,2,1,75,0,0
119201,-95.2380952380954,4,2,1,80,0,0
120273,-86.9565217391304,4,2,1,70,0,0
123487,-83.3333333333333,4,2,1,80,0,0
125630,-142.857142857143,4,2,1,50,0,0
126701,-76.9230769230769,4,2,1,80,0,0
127772,-74.0740740740741,4,2,1,90,0,1
136255,-74.0740740740741,4,2,1,100,0,1
136612,-74.0740740740741,4,2,1,90,0,1
142772,-74.0740740740741,4,2,1,70,0,0
151344,-100,4,2,1,60,0,0
158844,-100,4,2,1,70,0,0
159916,-100,4,2,1,60,0,0
162058,-83.3333333333333,4,2,1,80,0,0
164201,-100,4,2,1,60,0,0
166344,-83.3333333333333,4,2,1,80,0,0
168487,-100,4,2,1,60,0,0
170630,-83.3333333333333,4,2,1,90,0,0
172773,-100,4,2,1,90,0,0
175987,-100,4,2,1,60,0,0
177058,-86.9565217391304,4,2,1,80,0,0
179201,-86.9565217391304,4,2,1,5,0,0
181344,-86.9565217391304,4,2,1,60,0,0
183487,-117.647058823529,4,2,1,60,0,0
185630,-105.263157894737,4,2,1,60,0,0
189916,-95.2380952380954,4,2,1,60,0,0
192058,-86.9565217391304,4,2,1,60,0,0
194201,-80,4,2,1,60,0,0
195808,-133.333333333333,4,2,1,60,0,0
196344,-71.4285714285714,4,2,1,90,0,1
204826,-71.4285714285714,4,2,1,100,0,1
205183,-71.4285714285714,4,2,1,90,0,1
215629,-74.0740740740741,4,2,1,100,0,0
215898,-74.0740740740741,4,2,1,5,0,0
217505,-74.0740740740741,4,2,1,60,0,0
217773,-80,4,2,1,60,0,0
226344,-76.9230769230769,4,2,1,70,0,0
230630,-76.9230769230769,4,2,1,80,0,0
234648,-90.9090909090909,4,2,1,80,0,0
235183,-90.9090909090909,4,2,1,5,0,0

[Colours]
Combo1 : 182,73,228
Combo2 : 233,97,63
Combo3 : 99,247,91
Combo4 : 182,104,244
Combo5 : 247,65,38
Combo6 : 90,241,78

[HitObjects]
467,134,24555,5,4,3:0:0:0:
477,126,24639,1,8,3:2:0:0:
477,126,24916,6,0,P|424:101|369:86,1,115.49999647522,4|4,3:2|3:0,0:0:0:0:
272,148,25451,2,0,P|252:89|250:51,1,76.9999976501466,0|4,3:0|3:0,0:0:0:0:
267,38,25719,1,4,3:0:0:0:
153,18,25987,6,0,P|93:41|23:64,1,115.49999647522,4|0,3:0|3:0,0:0:0:0:
8,126,26433,2,0,P|63:145|117:166,1,115.49999647522,0|0,3:0|0:0,0:0:0:0:
143,193,26791,1,4,3:0:0:0:
65,277,27058,6,0,P|17:331|39:386,1,115.49999647522,4|4,3:0|3:0,0:0:0:0:
139,354,27594,2,0,P|184:343|228:333,1,76.9999976501466,0|0,3:0|3:0,0:0:0:0:
245,313,27862,1,4,3:0:0:0:
350,360,28130,6,0,P|358:301|367:235,1,115.49999647522,4|0,3:0|3:0,0:0:0:0:
296,210,28576,2,0,P|304:151|313:85,1,115.49999647522,4|0,3:0|3:0,0:0:0:0:
294,60,28933,1,4,3:0:0:0:
190,111,29201,6,0,P|125:140|69:159,1,115.49999647522,0|4,3:0|3:0,0:0:0:0:
12,246,29737,2,0,P|39:303|55:344,1,76.9999976501466,0|0,3:0|3:0,0:0:0:0:
38,354,30005,1,4,3:0:0:0:
136,292,30273,6,0,B|184:278|223:329|217:331|210:333|243:390|297:383,1,192.499994125366,2|0,3:0|3:0,0:0:0:0:
324,363,30808,2,0,P|354:373|375:381,2,38.4999988250733,2|2|2,3:2|3:2|3:2,0:0:0:0:
316,324,31076,2,0,P|346:314|367:306,2,38.4999988250733,2|2|2,3:2|3:2|3:2,0:0:0:0:
296,294,31344,6,0,P|270:221|253:138,1,139.333329612732,6|0,3:1|0:0,0:0:0:0:
273,130,31791,2,0,P|347:125|394:194,1,139.333329612732,2|2,0:1|0:1,0:0:0:0:
233,246,32594,6,0,P|158:271|108:291,1,104.499997209549,2|0,0:1|0:0,0:0:0:0:
107,302,32951,2,0,P|82:252|80:233,1,69.666664806366,2|0,0:1|0:0,0:0:0:0:
95,207,33219,1,2,0:1:0:0:
23,102,33487,6,0,P|63:81|163:71,1,137.5,4|4,3:2|3:0,0:0:0:0:
228,122,33933,2,0,P|286:150|355:160,1,91.6666666666667,2|0,3:2|0:0,0:0:0:0:
395,116,34291,2,0,P|439:97|504:99,1,91.6666666666667,2|0,3:2|0:0,0:0:0:0:
505,134,34558,6,0,B|463:207|519:181|464:279,1,137.5,4|4,3:0|3:0,0:0:0:0:
389,306,35005,2,0,P|338:290|277:350,1,137.5,2|0,3:2|3:0,0:0:0:0:
289,370,35362,6,0,P|234:353|200:344,1,91.6666666666667,2|0,3:2|0:0,0:0:0:0:
160,367,35630,1,2,3:2:0:0:
129,232,35898,2,0,P|74:215|40:206,1,91.6666666666667,2|0,3:2|0:0,0:0:0:0:
5,235,36166,1,2,3:2:0:0:
65,111,36433,2,0,P|120:94|154:85,1,91.6666666666667,2|0,3:2|0:0,0:0:0:0:
188,114,36701,1,2,3:2:0:0:
295,28,36969,2,0,P|350:11|384:2,1,91.6666666666667,2|0,3:2|3:0,0:0:0:0:
421,28,37237,1,2,3:2:0:0:
319,118,37505,1,8,3:2:0:0:
446,169,37773,6,0,P|499:212|483:282,1,137.5,6|4,3:2|3:0,0:0:0:0:
419,333,38219,2,0,P|372:307|284:293,1,137.5,2|0,0:0|3:0,0:0:0:0:
245,305,38576,2,0,P|183:330|151:329,1,91.6666666666667,4|0,3:0|0:0,0:0:0:0:
133,291,38844,6,0,B|97:233|97:233|138:162,1,137.5,2|0,3:2|0:0,0:0:0:0:
131,75,39291,2,0,P|176:57|260:24,1,137.5,2|0,3:2|3:0,0:0:0:0:
297,49,39648,6,0,P|279:114|274:142,1,91.6666666666667,10|0,3:2|0:0,0:0:0:0:
296,178,39916,1,2,3:2:0:0:
416,112,40183,2,0,P|434:177|439:205,1,91.6666666666667,2|0,3:2|0:0,0:0:0:0:
414,240,40451,1,2,3:2:0:0:
277,260,40719,2,0,P|295:325|300:353,1,91.6666666666667,2|0,3:2|0:0,0:0:0:0:
270,384,40987,1,2,3:2:0:0:
134,363,41255,2,0,P|152:298|157:270,1,91.6666666666667,2|0,3:2|0:0,0:0:0:0:
145,229,41523,1,2,3:2:0:0:
68,189,41701,5,0,3:0:0:0:
68,189,41791,2,0,P|53:135|87:113,1,91.6666666666667,8|0,3:2|0:0,0:0:0:0:
99,93,42058,6,0,P|154:111|216:132,1,98.9999969787599,4|2,3:2|3:2,0:0:0:0:
281,78,42594,2,0,P|320:63|400:38,1,98.9999969787599,2|2,3:2|3:2,0:0:0:0:
450,109,43130,6,0,P|436:180|433:197,1,65.9999979858399,2|2,3:2|0:0,0:0:0:0:
394,262,43576,2,0,P|354:238|291:254,1,98.9999969787599,2|4,3:2|3:0,0:0:0:0:
283,271,43933,1,10,3:2:0:0:
201,326,44201,6,0,P|189:272|171:211,1,98.9999969787599,2|2,3:2|3:2,0:0:0:0:
77,225,44737,2,0,P|89:171|107:110,1,98.9999969787599,2|2,3:2|3:2,0:0:0:0:
170,57,45273,6,0,L|253:35,1,65.9999979858399,2|2,3:2|0:0,0:0:0:0:
323,82,45719,2,0,P|369:123|364:169,1,98.9999969787599,2|4,3:2|3:0,0:0:0:0:
350,184,46076,1,10,3:2:0:0:
286,260,46344,6,0,P|230:282|187:297,1,98.9999969787599,2|2,3:2|3:2,0:0:0:0:
115,357,46880,2,0,P|71:318|77:262,1,98.9999969787599,2|2,3:2|3:2,0:0:0:0:
123,197,47416,6,0,P|109:146|96:117,1,65.9999979858399,2|0,3:2|3:1,0:0:0:0:
36,59,47862,1,2,3:2:0:0:
127,20,48130,1,2,3:0:0:0:
127,20,48219,2,0,P|186:52|213:62,1,65.9999979858399,8|0,3:2|0:0,0:0:0:0:
215,38,48487,5,2,3:2:0:0:
311,15,48755,1,4,3:0:0:0:
293,112,49023,1,2,3:2:0:0:
386,145,49291,1,4,3:0:0:0:
330,226,49558,6,0,P|313:283|302:349,2,98.9999969787599,2|4|0,3:2|3:0|3:0,0:0:0:0:
250,203,50273,1,4,3:0:0:0:
250,203,50362,2,0,P|202:229|168:243,1,65.9999979858399,8|0,3:2|0:0,0:0:0:0:
168,257,50630,6,0,P|138:218|144:160,1,98.9999969787599,6|2,3:2|3:2,0:0:0:0:
73,95,51166,2,0,P|103:60|137:56,1,65.9999979858399,2|2,3:2|3:2,0:0:0:0:
146,34,51433,2,0,P|191:42|201:56,1,49.4999984893799,2|2,3:2|0:0,0:0:0:0:
247,76,51701,6,0,P|292:89|325:98,1,65.9999979858399,2|2,3:2|0:0,0:0:0:0:
394,64,52148,2,0,P|411:134|411:168,1,98.9999969787599,2|0,3:2|3:0,0:0:0:0:
401,192,52505,1,8,3:2:0:0:
469,263,52773,6,0,P|409:284|359:309,1,98.9999969787599,2|4,3:2|3:0,0:0:0:0:
299,360,53308,2,0,P|253:339|207:323,1,98.9999969787599,2|4,3:2|3:0,0:0:0:0:
115,363,53844,2,0,P|77:316|90:253,1,98.9999969787599,2|4,3:2|3:0,0:0:0:0:
132,197,54380,2,0,P|156:147|145:117,1,65.9999979858399,0|0,3:0|3:0,0:0:0:0:
137,110,54648,1,8,3:2:0:0:
206,39,54916,6,0,P|254:55|311:68,1,98.9999969787599,2|2,3:2|3:2,0:0:0:0:
388,113,55451,2,0,P|363:141|350:183,1,65.9999979858399,2|2,3:2|3:2,0:0:0:0:
320,177,55719,2,0,P|322:214|342:253,1,65.9999979858399,2|0,3:2|0:0,0:0:0:0:
361,258,55987,6,0,P|396:270|437:284,1,65.9999979858399,2|2,3:2|0:0,0:0:0:0:
355,351,56433,2,0,P|285:365|242:373,1,98.9999969787599,2|4,3:2|3:0,0:0:0:0:
224,373,56791,1,8,3:2:0:0:
147,310,57058,6,0,P|131:285|131:242,1,65.9999979858399,2|0,3:2|0:0,0:0:0:0:
149,223,57326,2,0,P|163:177|160:140,1,65.9999979858399,2|0,3:2|3:0,0:0:0:0:
147,130,57594,2,0,P|77:158|34:173,1,98.9999969787599,2|2,3:2|3:2,0:0:0:0:
5,252,58130,5,2,3:2:0:0:
95,292,58398,1,8,3:2:0:0:
145,353,58576,1,8,3:2:0:0:
145,353,58666,2,0,P|186:334|211:333,1,65.9999979858399,2|8,0:0|3:2,0:0:0:0:
231,311,58933,2,0,P|263:315|292:331,1,65.9999979858399,4|4,3:0|3:0,0:0:0:0:
329,358,59201,6,0,P|369:300|342:224,1,137.5,4|4,3:2|3:0,0:0:0:0:
285,176,59648,2,0,P|252:116|240:40,1,137.5,2|0,3:2|3:0,0:0:0:0:
206,16,60005,2,0,P|158:4|95:3,1,91.6666666666667,2|0,3:2|0:0,0:0:0:0:
85,36,60273,6,0,B|66:88|66:88|72:110|72:110|46:186,1,137.5,4|4,3:0|3:0,0:0:0:0:
109,238,60719,2,0,P|178:266|167:326,1,137.5,2|0,3:2|3:0,0:0:0:0:
156,361,61076,6,0,P|215:373|248:380,1,91.6666666666667,10|0,3:2|0:0,0:0:0:0:
287,357,61344,1,2,3:2:0:0:
380,256,61612,2,0,P|439:268|472:275,1,91.6666666666667,2|0,3:2|0:0,0:0:0:0:
512,261,61880,1,2,3:2:0:0:
510,123,62148,2,0,P|451:135|418:142,1,91.6666666666667,2|0,3:2|0:0,0:0:0:0:
376,126,62416,1,2,3:2:0:0:
263,46,62684,2,0,P|204:58|171:65,1,91.6666666666667,2|0,3:2|3:0,0:0:0:0:
130,47,62952,1,2,3:2:0:0:
72,171,63219,1,8,3:2:0:0:
172,265,63487,6,0,B|258:298|207:317|294:345,1,137.5,6|4,3:2|3:0,0:0:0:0:
367,376,63933,2,0,P|420:319|417:245,1,137.5,2|0,0:0|3:0,0:0:0:0:
445,223,64291,2,0,P|442:187|401:146,1,91.6666666666667,4|0,3:0|0:0,0:0:0:0:
362,163,64558,6,0,P|308:148|217:122,1,137.5,2|4,3:2|3:0,0:0:0:0:
161,63,65005,2,0,P|101:94|82:179,1,137.5,2|0,3:2|3:0,0:0:0:0:
111,189,65362,6,0,P|91:257|78:297,1,91.6666666666667,10|0,3:2|0:0,0:0:0:0:
97,321,65630,1,2,3:2:0:0:
227,364,65898,2,0,P|207:296|194:256,1,91.6666666666667,2|0,3:2|0:0,0:0:0:0:
213,231,66166,1,2,3:2:0:0:
337,172,66433,2,0,P|317:240|304:280,1,91.6666666666667,2|0,3:2|0:0,0:0:0:0:
324,303,66701,1,2,3:2:0:0:
437,380,66969,1,2,3:2:0:0:
495,309,67148,1,8,3:2:0:0:
495,309,67237,2,0,P|477:253|468:215,1,91.6666666666667,2|0,3:2|3:0,0:0:0:0:
448,179,67505,2,0,P|458:133|463:75,1,91.6666666666667,8|4,3:2|3:0,0:0:0:0:
444,60,67773,5,4,3:2:0:0:
360,23,68041,2,0,P|319:50|258:81,1,98.9999969787599,2|2,3:2|3:2,0:0:0:0:
200,138,68576,2,0,P|147:117|114:109,1,65.9999979858399,2|0,3:2|3:0,0:0:0:0:
108,128,68844,6,0,P|74:180|66:197,1,65.9999979858399,2|2,3:2|0:0,0:0:0:0:
12,262,69291,2,0,P|62:269|102:330,1,98.9999969787599,2|0,3:2|3:0,0:0:0:0:
102,334,69648,1,10,3:2:0:0:
195,365,69916,6,0,P|250:335|304:322,1,98.9999969787599,2|2,3:2|3:2,0:0:0:0:
378,356,70451,2,0,P|417:309|405:258,1,98.9999969787599,2|2,3:2|3:2,0:0:0:0:
339,208,70987,6,0,P|329:170|322:136,1,65.9999979858399,2|2,3:2|0:0,0:0:0:0:
361,52,71433,2,0,P|309:22|268:26,1,98.9999969787599,2|4,3:2|3:0,0:0:0:0:
245,46,71791,1,8,3:2:0:0:
151,15,72058,6,0,P|112:45|93:105,1,98.9999969787599,2|2,3:2|3:2,0:0:0:0:
37,172,72594,2,0,P|57:212|66:249,1,65.9999979858399,2|2,3:2|3:2,0:0:0:0:
92,246,72862,2,0,P|77:288|58:320,1,65.9999979858399,2|2,3:2|3:2,0:0:0:0:
77,338,73130,5,2,3:2:0:0:
149,377,73308,2,0,P|196:359|259:356,1,98.9999969787599,2|2,0:0|3:2,0:0:0:0:
315,285,73844,1,4,3:0:0:0:
315,285,73933,2,0,B|294:214,1,65.9999979858399,10|0,3:2|3:0,0:0:0:0:
263,220,74201,5,2,3:2:0:0:
229,126,74469,1,2,3:2:0:0:
147,181,74737,1,2,3:2:0:0:
107,90,75005,1,2,3:2:0:0:
43,166,75273,5,0,3:0:0:0:
6,229,75451,2,0,P|26:294|32:322,1,73.3333333333333,8|0,3:2|0:0,0:0:0:0:
57,320,75719,2,0,P|106:338|141:356,1,73.3333333333333,8|0,3:2|0:0,0:0:0:0:
160,336,75987,1,10,3:2:0:0:
160,336,76076,2,0,P|210:323|245:309,1,73.3333333333333,10|0,3:2|3:0,0:0:0:0:
260,329,76344,6,0,P|288:278|266:222,1,98.9999969787599,6|4,3:2|3:0,0:0:0:0:
200,180,76880,2,0,P|179:134|181:100,1,65.9999979858399,2|0,3:2|3:0,0:0:0:0:
192,89,77148,1,4,3:0:0:0:
265,23,77416,6,0,B|379:59|299:74|421:110,1,164.9999949646,6|4,3:2|3:0,0:0:0:0:
436,97,77951,1,2,3:2:0:0:
493,177,78219,2,0,P|485:221|481:260,1,65.9999979858399,10|0,3:2|0:0,0:0:0:0:
495,272,78487,5,2,3:2:0:0:
411,324,78755,1,2,3:2:0:0:
321,281,79023,2,0,B|277:269|238:253,1,65.9999979858399,2|2,3:2|3:2,0:0:0:0:
232,282,79291,2,0,B|213:290|169:302,1,65.9999979858399,2|2,3:2|0:0,0:0:0:0:
144,323,79558,5,2,3:2:0:0:
92,267,79737,2,0,P|59:261|-13:305,2,98.9999969787599,2|6|4,3:2|3:2|3:0,0:0:0:0:
113,241,80362,2,0,P|117:209|108:168,1,65.9999979858399,10|0,3:2|0:0,0:0:0:0:
86,153,80630,6,0,P|128:131|187:99,1,98.9999969787599,2|4,3:2|3:0,0:0:0:0:
226,22,81166,2,0,P|268:44|327:76,1,98.9999969787599,2|4,3:2|3:0,0:0:0:0:
411,51,81701,5,6,3:2:0:0:
454,112,81880,2,0,P|481:180|481:226,1,110,4|4,3:0|3:0,0:0:0:0:
470,251,82237,2,0,P|404:288|376:303,1,73.3333333333333,10|2,3:2|3:2,0:0:0:0:
376,309,82505,2,0,L|309:290,2,36.6666666666667,2|2|2,3:2|3:2|3:2,0:0:0:0:
397,338,82773,5,6,3:2:0:0:
65,303,84826,5,4,3:0:0:0:
65,303,84927,2,0,L|82:217,1,80.6666691284181,8|4,3:2|3:0,0:0:0:0:
162,133,85361,5,0,3:0:0:0:
162,133,85450,2,0,L|140:81,2,40.333334564209,4|4|2,3:0|3:0|3:2,0:0:0:0:
198,151,85718,2,0,L|182:188,2,40.333334564209,2|4|2,3:2|3:0|3:2,0:0:0:0:
241,134,85987,6,0,P|293:120|357:101,1,99.0000003776551,6|0,3:2|0:0,0:0:0:0:
375,76,86255,2,0,P|432:112|432:167,1,99.0000003776551,10|0,3:2|0:0,0:0:0:0:
422,186,86523,1,2,3:2:0:0:
495,315,86791,1,10,3:2:0:0:
409,361,86969,5,2,3:2:0:0:
409,361,87058,2,0,P|336:335|284:328,1,99.0000003776551,6|2,3:2|0:0,0:0:0:0:
266,344,87326,1,8,3:2:0:0:
175,304,87505,2,0,B|214:207|153:254|196:145,1,148.500000566483,6|4,3:2|3:0,0:0:0:0:
167,115,87862,6,0,P|211:79|263:83,1,99.0000003776551,10|2,3:2|0:0,0:0:0:0:
295,101,88130,1,0,3:0:0:0:
381,221,88398,2,0,P|337:185|285:189,1,99.0000003776551,10|2,3:2|3:2,0:0:0:0:
264,222,88666,1,0,3:0:0:0:
147,313,88933,2,0,P|183:269|179:217,1,99.0000003776551,10|2,3:2|0:0,0:0:0:0:
155,187,89201,1,0,3:0:0:0:
28,109,89469,2,0,P|64:153|60:205,1,99.0000003776551,10|2,3:2|3:2,0:0:0:0:
34,233,89737,1,0,3:0:0:0:
115,357,90005,1,10,3:2:0:0:
276,359,90273,6,0,P|312:326|288:258,1,99.0000003776551,6|0,3:2|0:0,0:0:0:0:
269,248,90541,2,0,P|233:215|236:168,1,99.0000003776551,10|2,3:2|0:0,0:0:0:0:
274,136,90808,2,0,P|325:158|379:177,1,99.0000003776551,2|0,3:2|3:0,0:0:0:0:
415,169,91076,1,10,3:2:0:0:
474,89,91255,5,2,3:2:0:0:
474,89,91344,2,0,P|430:45|382:53,1,99.0000003776551,6|2,3:2|0:0,0:0:0:0:
356,76,91612,1,10,3:2:0:0:
283,8,91791,2,0,B|183:33|258:54|141:82,1,148.500000566483,6|0,3:2|3:0,0:0:0:0:
112,54,92148,6,0,B|79:100|79:100|101:153,1,99.0000003776551,10|2,3:2|0:0,0:0:0:0:
120,182,92416,1,0,3:2:0:0:
16,287,92683,2,0,B|39:338|39:338|96:346,1,99.0000003776551,10|2,3:2|0:0,0:0:0:0:
131,344,92951,1,0,3:0:0:0:
274,382,93219,2,0,B|330:387|330:387|365:342,1,99.0000003776551,10|2,3:2|3:2,0:0:0:0:
380,310,93487,6,0,P|357:254|344:208,1,99.0000003776551,8|4,3:2|3:0,0:0:0:0:
369,172,93755,1,8,3:2:0:0:
449,114,93933,1,6,3:2:0:0:
319,41,94201,2,0,P|264:68|205:86,1,99.0000003776551,6|0,3:2|0:0,0:0:0:0:
179,91,94469,6,0,P|234:120|222:232,1,148.500000566483,6|2,3:2|0:0,0:0:0:0:
214,238,94826,1,10,3:2:0:0:
68,208,95094,2,0,P|89:282|97:317,1,99.0000003776551,2|4,3:2|3:0,0:0:0:0:
84,352,95362,1,10,3:2:0:0:
179,378,95541,5,2,3:2:0:0:
179,378,95630,2,0,P|234:349|272:344,1,99.0000003776551,2|2,3:2|0:0,0:0:0:0:
315,323,95898,1,10,3:2:0:0:
408,354,96076,2,0,P|420:298|403:162,1,148.500000566483,6|2,3:2|3:2,0:0:0:0:
379,172,96433,1,10,3:2:0:0:
506,96,96701,5,4,3:0:0:0:
377,21,96969,2,0,P|305:61|279:71,1,99.0000003776551,10|2,3:2|0:0,0:0:0:0:
250,98,97237,2,0,P|192:86|167:20,1,99.0000003776551,2|4,3:2|3:0,0:0:0:0:
177,6,97505,1,10,3:2:0:0:
80,119,97773,6,0,P|59:191|53:237,1,99.0000003776551,2|2,3:2|0:0,0:0:0:0:
26,255,98041,1,10,3:2:0:0:
102,316,98219,2,0,P|160:332|287:370,1,148.500000566483,6|0,3:2|0:0,0:0:0:0:
292,344,98576,6,0,P|304:314|265:257,1,99.0000003776551,10|2,3:2|0:0,0:0:0:0:
223,249,98844,1,4,3:2:0:0:
79,209,99112,2,0,P|67:179|106:122,1,99.0000003776551,10|2,3:2|0:0,0:0:0:0:
148,114,99380,1,0,3:0:0:0:
262,19,99648,2,0,P|292:7|349:46,1,99.0000003776551,10|2,3:2|0:0,0:0:0:0:
357,88,99916,1,2,3:2:0:0:
468,184,100183,2,0,P|480:214|441:271,1,99.0000003776551,14|2,3:2|3:2,0:0:0:0:
399,279,100451,2,0,L|379:215,2,49.5000001888275,4|4|4,3:0|3:0|3:0,0:0:0:0:
368,318,100719,2,0,L|353:365,2,49.5000001888275,4|4|4,3:0|3:0|3:0,0:0:0:0:
329,292,100987,6,0,P|269:274|168:247,1,137.5,4|4,3:2|3:0,0:0:0:0:
116,299,101433,2,0,P|91:258|132:157,1,137.5,2|0,3:2|3:0,0:0:0:0:
150,152,101791,1,2,3:2:0:0:
37,73,102058,6,0,P|102:63|179:35,1,137.5,4|4,3:0|3:0,0:0:0:0:
250,83,102505,2,0,B|291:88|321:114|314:116|306:117|340:148|394:154,1,137.5,2|0,3:2|3:0,0:0:0:0:
413,139,102862,6,0,P|435:188|458:231,1,91.6666666666667,10|0,3:2|0:0,0:0:0:0:
484,254,103130,1,2,3:2:0:0:
403,365,103398,2,0,P|381:316|358:273,1,91.6666666666667,2|0,3:2|0:0,0:0:0:0:
332,250,103666,1,2,3:2:0:0:
199,283,103933,2,0,P|221:234|244:191,1,91.6666666666667,2|0,3:2|0:0,0:0:0:0:
270,168,104201,1,2,3:2:0:0:
189,57,104469,2,0,P|167:106|144:149,1,91.6666666666667,2|0,3:2|3:0,0:0:0:0:
118,172,104737,1,2,3:2:0:0:
27,275,105005,1,8,3:2:0:0:
148,338,105273,6,0,P|219:309|292:295,1,137.5,6|4,3:2|3:0,0:0:0:0:
356,344,105719,2,0,P|399:303|369:214,1,137.5,2|0,0:0|3:0,0:0:0:0:
347,208,106076,2,0,P|326:168|328:119,1,91.6666666666667,4|0,3:0|0:0,0:0:0:0:
363,94,106344,6,0,B|426:58|426:58|486:128,1,137.5,2|4,3:2|3:0,0:0:0:0:
503,192,106791,2,0,P|431:219|341:254,1,137.5,2|0,3:2|3:0,0:0:0:0:
339,271,107148,6,0,B|298:248|298:248|292:188,1,91.6666666666667,10|0,3:2|0:0,0:0:0:0:
313,161,107416,1,2,3:2:0:0:
176,149,107683,2,0,B|163:103|163:103|201:57,1,91.6666666666667,2|0,3:2|0:0,0:0:0:0:
236,54,107951,1,2,3:2:0:0:
99,37,108219,2,0,B|58:60|58:60|52:120,1,91.6666666666667,2|0,3:2|0:0,0:0:0:0:
73,147,108487,1,2,3:2:0:0:
1,263,108754,2,0,B|-11:308|-11:308|26:354,1,91.6666666666667,2|0,3:2|0:0,0:0:0:0:
61,358,109023,1,2,3:2:0:0:
139,310,109201,1,0,3:0:0:0:
139,310,109291,2,0,P|213:337|247:348,1,91.6666666666667,8|4,3:2|3:0,0:0:0:0:
254,352,109558,6,0,P|241:307|225:233,2,93.500001783371,4|2|2,3:2|0:3|0:2,0:0:0:0:
333,301,110362,2,0,P|361:291|406:312,1,62.3333345222473,2|0,0:2|0:0,0:0:0:0:
421,290,110630,2,0,P|403:375|398:406,2,93.500001783371,2|2|2,0:2|0:2|0:2,0:0:0:0:
486,247,111344,2,0,P|498:197|461:155,1,93.500001783371,4|0,3:0|0:0,0:0:0:0:
455,140,111701,6,0,P|464:71|470:26,2,93.500001783371,2|2|2,0:0|0:0|0:0,0:0:0:0:
372,94,112505,2,0,P|317:83|284:78,1,62.3333345222473,2|0,0:0|0:0,0:0:0:0:
281,93,112773,1,2,0:0:0:0:
209,56,112951,2,0,P|154:59|113:125,1,124.666669044495,4|0,3:0|3:0,0:0:0:0:
163,180,113487,2,0,P|178:232|193:296,1,93.500001783371,4|0,3:0|3:0,0:0:0:0:
170,296,113844,6,0,P|95:278|58:272,2,93.500001783371,4|2|2,3:0|0:0|0:0,0:0:0:0:
240,357,114648,2,0,P|279:341|308:328,1,62.3333345222473,2|0,0:0|0:0,0:0:0:0:
328,338,114916,2,0,P|318:291|317:226,2,93.500001783371,2|2|2,0:0|0:0|3:2,0:0:0:0:
405,369,115630,1,0,3:0:0:0:
405,369,115719,2,0,P|442:345|486:338,1,62.3333345222473,8|0,3:2|0:0,0:0:0:0:
480,311,115987,6,0,P|468:246|403:206,1,139.333329612732,6|0,3:1|0:0,0:0:0:0:
394,176,116433,2,0,P|344:155|281:193,1,104.499997209549,2|0,0:1|0:0,0:0:0:0:
275,198,116791,1,2,0:1:0:0:
188,255,117058,6,0,P|154:247|120:236,1,69.666664806366,10|0,3:2|3:0,0:0:0:0:
45,171,117505,1,0,0:0:0:0:
45,171,117594,2,0,L|30:115,2,34.833332403183,4|4|4,3:0|3:0|3:0,0:0:0:0:
27,201,117862,2,0,L|17:234,2,34.833332403183,4|4|4,3:0|3:0|3:0,0:0:0:0:
0,186,118130,5,4,3:2:0:0:
398,60,119201,6,0,B|294:93|359:130|236:163,1,192.499994125366,4|0,0:2|0:0,0:0:0:0:
211,187,119737,2,0,P|182:267|249:344,1,192.499994125366,4|0,0:2|0:0,0:0:0:0:
279,368,120273,6,0,P|330:349|396:338,1,84.3333349418641,6|0,3:2|0:0,0:0:0:0:
401,348,120541,1,10,3:2:0:0:
452,232,120808,2,0,P|432:191|412:133,1,84.3333349418641,2|2,3:2|3:2,0:0:0:0:
394,120,121076,2,0,P|342:97|314:82,1,84.3333349418641,10|2,3:2|3:2,0:0:0:0:
275,89,121344,6,0,P|217:101|144:106,1,126.500002412796,2|0,3:2|0:0,0:0:0:0:
82,157,121791,2,0,P|44:201|67:288,1,126.500002412796,2|4,3:2|3:0,0:0:0:0:
82,292,122148,2,0,P|132:312|163:331,1,84.3333349418641,10|0,3:2|0:0,0:0:0:0:
190,354,122416,5,4,3:2:0:0:
494,20,123487,6,0,P|479:79|471:112,1,65.9999979858399,4|0,3:2|0:0,0:0:0:0:
297,167,124023,6,0,P|261:149|219:139,1,43.9999986572266,12|0,3:2|3:0,0:0:0:0:
223,171,124201,1,0,3:0:0:0:
223,171,124291,2,0,P|163:199|104:210,1,87.9999973144532,2|2,3:2|3:2,0:0:0:0:
99,193,124558,5,6,3:1:0:0:
366,346,125630,6,0,P|316:328|274:322,3,76.9999976501466,2|2|2|2,0:2|0:2|0:2|0:2,0:0:0:0:
141,351,126701,6,0,P|160:283|165:223,1,95.3333289693199,8|0,3:2|0:0,0:0:0:0:
131,222,126969,2,0,P|112:154|107:94,1,95.3333289693199,8|0,3:2|0:0,0:0:0:0:
130,86,127237,2,0,P|122:63|107:28,2,47.6666644846599,4|4|4,3:0|3:0|3:0,0:0:0:0:
176,98,127505,2,0,P|184:121|199:156,2,47.6666644846599,4|4|4,3:0|3:0|3:0,0:0:0:0:
217,70,127772,6,0,P|269:57|326:32,1,99.0000003776551,6|0,3:2|0:0,0:0:0:0:
359,50,128041,2,0,P|422:109|410:152,1,99.0000003776551,10|0,3:2|0:0,0:0:0:0:
401,158,128308,1,2,3:2:0:0:
275,236,128576,1,10,3:2:0:0:
328,319,128755,5,2,3:2:0:0:
328,319,128844,2,0,P|299:360|226:359,1,99.0000003776551,6|2,3:2|0:0,0:0:0:0:
210,343,129112,1,8,3:2:0:0:
116,376,129291,2,0,B|99:319|99:319|103:296|103:296|77:221,1,148.500000566483,6|4,3:2|3:0,0:0:0:0:
40,205,129648,6,0,P|27:179|64:110,1,99.0000003776551,10|2,3:2|0:0,0:0:0:0:
86,83,129916,1,0,3:0:0:0:
227,125,130183,2,0,P|236:97|311:74,1,99.0000003776551,10|2,3:2|3:2,0:0:0:0:
345,71,130451,1,0,3:0:0:0:
459,165,130719,2,0,P|472:191|435:260,1,99.0000003776551,10|2,3:2|0:0,0:0:0:0:
413,287,130987,1,0,3:0:0:0:
272,245,131254,2,0,P|262:272|187:295,1,99.0000003776551,10|2,3:2|3:2,0:0:0:0:
154,299,131522,1,0,3:0:0:0:
50,191,131791,2,0,P|63:147|92:52,1,99.0000003776551,10|2,3:2|0:0,0:0:0:0:
59,50,132058,6,0,P|127:17|172:41,1,99.0000003776551,6|0,3:2|0:0,0:0:0:0:
187,48,132326,2,0,P|259:94|296:105,1,99.0000003776551,10|2,3:2|0:0,0:0:0:0:
318,82,132594,1,2,3:2:0:0:
395,144,132773,1,0,3:0:0:0:
395,144,132862,2,0,P|371:203|360:247,1,99.0000003776551,10|2,3:2|3:2,0:0:0:0:
392,276,133130,6,0,B|327:293|361:304|285:330,1,99.0000003776551,6|2,3:2|0:0,0:0:0:0:
268,355,133398,1,8,3:2:0:0:
184,301,133576,2,0,P|160:238|211:169,1,148.500000566483,6|0,3:2|3:0,0:0:0:0:
250,173,133933,6,0,B|266:126|266:126|238:68,1,99.0000003776551,10|2,3:2|0:0,0:0:0:0:
218,39,134201,1,0,3:2:0:0:
110,141,134469,2,0,B|88:96|88:96|27:75,1,99.0000003776551,10|2,3:2|0:0,0:0:0:0:
0,83,134737,1,0,3:0:0:0:
0,226,135005,2,0,B|-16:273|-16:273|12:331,1,99.0000003776551,10|2,3:2|3:2,0:0:0:0:
32,360,135273,6,0,P|97:339|144:326,1,99.0000003776551,8|4,3:2|3:0,0:0:0:0:
166,300,135541,1,8,3:2:0:0:
252,346,135719,1,6,3:2:0:0:
370,256,135987,2,0,B|384:209|384:209|337:163,1,99.0000003776551,6|0,3:2|0:0,0:0:0:0:
300,158,136255,6,0,B|269:88|269:88|344:24,1,148.500000566483,6|2,3:2|0:0,0:0:0:0:
373,37,136612,1,10,3:2:0:0:
479,140,136880,2,0,P|508:181|492:260,1,99.0000003776551,2|4,3:2|3:0,0:0:0:0:
489,274,137148,1,10,3:2:0:0:
422,346,137326,5,2,3:2:0:0:
422,346,137416,2,0,P|377:329|314:325,1,99.0000003776551,2|2,3:2|0:0,0:0:0:0:
281,344,137683,1,10,3:2:0:0:
207,277,137862,2,0,P|142:270|85:349,1,148.500000566483,6|2,3:2|3:2,0:0:0:0:
102,374,138219,1,10,3:2:0:0:
1,264,138487,5,4,3:0:0:0:
110,163,138755,2,0,P|128:110|126:48,1,99.0000003776551,10|2,3:2|0:0,0:0:0:0:
164,31,139023,2,0,P|225:6|284:13,1,99.0000003776551,2|4,3:2|3:0,0:0:0:0:
299,32,139291,1,10,3:2:0:0:
419,118,139558,6,0,P|372:142|332:165,1,99.0000003776551,2|2,3:2|0:0,0:0:0:0:
282,169,139826,1,10,3:2:0:0:
232,255,140005,2,0,P|299:266|317:361,1,148.500000566483,6|0,3:2|0:0,0:0:0:0:
289,368,140362,6,0,P|224:348|159:336,1,99.0000003776551,10|2,3:2|0:0,0:0:0:0:
149,364,140630,1,4,3:2:0:0:
138,215,140898,2,0,P|73:235|8:247,1,99.0000003776551,10|2,3:2|0:0,0:0:0:0:
0,219,141166,1,0,3:0:0:0:
86,98,141433,2,0,P|151:118|216:130,1,99.0000003776551,10|2,3:2|0:0,0:0:0:0:
226,102,141701,1,2,3:2:0:0:
237,251,141969,2,0,P|302:231|367:219,1,99.0000003776551,14|2,3:2|3:2,0:0:0:0:
375,247,142237,2,0,L|358:294,2,49.5000001888275,4|4|4,3:0|3:0|3:0,0:0:0:0:
417,221,142505,2,0,L|400:174,2,49.5000001888275,4|4|4,3:0|3:0|3:0,0:0:0:0:
462,241,142773,5,4,3:2:0:0:
341,153,151344,6,0,P|270:137|204:123,1,110,4|4,3:2|3:0,0:0:0:0:
139,186,151880,2,0,L|162:266,1,73.3333333333333,0|0,3:0|3:0,0:0:0:0:
150,292,152148,1,4,3:0:0:0:
239,356,152416,6,0,P|301:333|351:313,1,110,0|4,3:0|3:0,0:0:0:0:
418,339,152862,2,0,P|456:294|436:225,1,110,4|0,3:0|3:0,0:0:0:0:
427,217,153219,1,4,3:0:0:0:
356,132,153487,5,0,3:2:0:0:
454,82,153755,1,4,3:0:0:0:
372,8,154023,2,0,P|309:26|281:38,1,73.3333333333333,0|0,3:0|3:0,0:0:0:0:
275,55,154291,1,4,3:0:0:0:
166,37,154558,6,0,P|108:59|81:112,1,110,0|4,3:0|3:0,0:0:0:0:
73,177,155005,2,0,P|131:199|158:252,1,110,4|0,3:0|3:0,0:0:0:0:
150,274,155362,1,4,3:0:0:0:
88,365,155630,6,0,P|188:377|228:383,1,110,4|4,3:2|3:0,0:0:0:0:
291,320,156166,1,0,3:0:0:0:
366,352,156344,1,0,3:0:0:0:
366,352,156433,2,0,P|378:299|363:252,1,73.3333333333333,4|0,3:0|0:0,0:0:0:0:
359,247,156701,5,0,3:0:0:0:
441,173,156969,1,4,3:0:0:0:
393,109,157148,2,0,P|328:128|277:141,1,110,4|0,3:0|3:0,0:0:0:0:
254,156,157505,1,4,3:0:0:0:
163,92,157773,6,0,P|101:94|63:155,1,110,0|4,3:0|3:0,0:0:0:0:
11,219,158308,2,0,P|30:274|40:312,1,73.3333333333333,0|4,3:0|3:0,0:0:0:0:
26,324,158576,1,0,3:0:0:0:
96,371,158755,5,0,3:0:0:0:
96,371,158844,2,0,P|143:350|173:340,1,73.3333333333333,4|8,3:0|3:2,0:0:0:0:
225,252,159291,1,8,3:2:0:0:
225,252,159380,2,0,P|272:273|302:283,1,73.3333333333333,4|0,3:0|0:0,0:0:0:0:
317,307,159648,2,0,P|358:289|386:280,1,55,8|0,3:2|3:0,0:0:0:0:
405,244,159916,5,6,3:2:0:0:
358,144,160183,1,2,3:2:0:0:
451,85,160451,1,2,3:2:0:0:
361,21,160719,2,0,P|314:33|261:50,1,73.3333333333333,2|0,3:2|0:0,0:0:0:0:
265,67,160987,5,2,3:2:0:0:
160,31,161255,1,0,3:0:0:0:
105,93,161433,2,0,P|91:149|85:225,1,110,4|4,3:0|3:0,0:0:0:0:
98,235,161791,1,8,3:2:0:0:
180,337,162058,6,0,P|215:290|271:305,1,87.9999973144532,2|0,3:1|0:0,0:0:0:0:
262,249,162326,2,0,P|319:240|348:290,1,87.9999973144532,2|0,3:1|0:0,0:0:0:0:
375,231,162594,2,0,P|422:266|407:322,1,87.9999973144532,2|0,3:1|0:0,0:0:0:0:
455,323,162862,1,2,3:1:0:0:
510,203,163130,6,0,P|491:147|485:106,1,87.9999973144532,2|0,3:1|0:0,0:0:0:0:
507,79,163398,1,0,3:0:0:0:
435,28,163576,2,0,B|342:51|417:68|291:96,1,131.99999597168,2|0,3:1|0:0,0:0:0:0:
287,118,163933,2,0,P|237:98|179:86,1,87.9999973144532,0|2,3:0|0:1,0:0:0:0:
169,102,164201,5,2,3:2:0:0:
90,179,164469,2,0,P|108:249|111:271,1,73.3333333333333,2|0,3:2|0:0,0:0:0:0:
95,284,164737,1,2,3:2:0:0:
176,358,165005,2,0,P|209:342|266:333,1,73.3333333333333,2|0,3:2|0:0,0:0:0:0:
272,309,165273,6,0,P|318:297|359:275,1,73.3333333333333,2|2,3:2|0:0,0:0:0:0:
376,298,165541,1,2,3:2:0:0:
438,240,165719,2,0,P|449:195|396:143,1,110,4|8,3:0|3:2,0:0:0:0:
376,156,166076,1,0,3:0:0:0:
262,87,166344,6,0,P|180:115|144:130,1,87.9999973144532,2|0,3:1|0:0,0:0:0:0:
136,100,166612,2,0,L|151:57,2,43.9999986572266,4|4|4,3:0|3:0|3:0,0:0:0:0:
105,131,166880,2,0,P|134:215|146:247,1,87.9999973144532,2|0,3:1|0:0,0:0:0:0:
119,256,167148,2,0,L|67:274,2,43.9999986572266,4|4|4,3:0|3:0|3:0,0:0:0:0:
159,274,167416,6,0,P|207:291|261:311,1,87.9999973144532,2|4,3:1|3:0,0:0:0:0:
272,335,167683,1,2,3:1:0:0:
348,291,167862,2,0,P|387:245|365:161,1,131.99999597168,2|4,3:1|3:0,0:0:0:0:
346,147,168219,1,4,3:0:0:0:
257,82,168487,6,0,P|195:106|158:115,1,73.3333333333333,6|2,3:2|0:0,0:0:0:0:
152,100,168755,1,2,3:2:0:0:
71,175,169023,1,2,3:2:0:0:
138,262,169291,2,0,P|193:281|228:305,1,73.3333333333333,2|2,3:2|0:0,0:0:0:0:
233,312,169558,5,2,3:2:0:0:
303,357,169737,1,2,0:0:0:0:
387,286,170005,2,0,P|405:242|364:184,1,110,2|8,3:2|3:2,0:0:0:0:
341,180,170362,1,0,3:2:0:0:
266,71,170630,6,0,L|284:15,2,43.9999986572266,2|4|4,3:1|3:0|3:0,0:0:0:0:
235,103,170898,2,0,L|248:144,2,43.9999986572266,2|4|4,3:1|3:0|3:0,0:0:0:0:
199,76,171166,2,0,P|143:51|81:53,1,87.9999973144532,2|4,3:1|3:0,0:0:0:0:
85,78,171433,1,2,3:1:0:0:
94,169,171612,5,2,3:1:0:0:
94,169,171701,2,0,P|40:194|-19:209,2,87.9999973144532,2|2|4,3:1|3:1|3:0,0:0:0:0:
131,192,172148,2,0,P|182:257|167:315,1,131.99999597168,2|4,3:1|3:0,0:0:0:0:
144,332,172505,1,4,3:0:0:0:
246,371,172773,5,12,3:2:0:0:
144,119,175987,6,0,L|132:93,22,18.3333333333333,2|0|0|0|0|0|0|0|0|0|0|0|0|0|0|0|0|0|0|0|0|0|0,0:0|0:0|0:0|0:0|0:0|0:0|0:0|0:0|0:0|0:0|0:0|0:0|0:0|0:0|0:0|0:0|0:0|0:0|0:0|0:0|0:0|0:0|0:0,0:0:0:0:
182,136,177058,6,0,P|255:108|401:69,1,210.83333735466,4|0,3:2|3:0,0:0:0:0:
422,86,177594,1,10,3:2:0:0:
370,201,177862,6,0,P|395:208|424:221,2,42.166667470932,4|4|4,3:0|3:0|3:0,0:0:0:0:
330,217,178130,1,8,3:0:0:0:
263,268,178308,2,0,P|213:286|172:297,1,84.3333349418641,2|0,0:1|0:0,0:0:0:0:
153,325,178576,6,0,B|208:274|172:173|146:193|122:221|54:122|136:61,1,295.166672296524,2|0,3:1|0:0,0:0:0:0:
427,58,181344,5,2,0:3:0:0:
345,83,181880,1,2,0:3:0:0:
370,165,182416,1,2,0:3:0:0:
452,140,182862,1,2,0:3:0:0:
322,274,183487,6,0,P|282:284|245:297,1,62.3333345222473,2|2,0:3|0:0,0:0:0:0:
240,313,183755,1,2,0:0:0:0:
175,244,184023,2,0,P|135:234|98:221,1,62.3333345222473,2|2,0:3|0:0,0:0:0:0:
93,205,184291,1,2,0:0:0:0:
41,127,184558,5,2,0:0:0:0:
102,80,184737,1,2,3:2:0:0:
195,71,185005,2,0,P|261:82|286:120,1,93.500001783371,2|0,3:2|3:0,0:0:0:0:
288,128,185362,1,4,3:0:0:0:
384,88,185630,6,0,P|432:125|430:263,1,208.999994419098,4|4,0:0|3:0,0:0:0:0:
248,365,186701,2,0,B|112:347|212:287|42:261,1,208.999994419098,0|4,3:0|3:0,0:0:0:0:
279,231,187773,2,0,B|305:71|305:71|294:100|274:122,1,208.999994419098,0|4,3:0|3:0,0:0:0:0:
79,160,188844,2,0,B|128:126|169:107|169:107|131:61|99:2,1,208.999994419098,0|4,3:0|3:0,0:0:0:0:
336,71,189916,6,0,P|379:104|426:119,1,76.9999976501466,4|2,0:0|0:0,0:0:0:0:
434,97,190183,1,2,0:0:0:0:
492,196,190451,2,0,P|474:261|461:343,1,115.49999647522,2|2,3:2|0:0,0:0:0:0:
361,360,190987,6,0,P|307:341|294:301,1,76.9999976501466,2|0,0:1|0:0,0:0:0:0:
316,292,191255,2,0,P|341:281|370:274,2,38.4999988250733,0|2|2,0:0|0:0|0:0,0:0:0:0:
292,260,191523,2,0,B|230:262|200:304|208:308|216:311|185:355|108:364,1,192.499994125366,6|0,3:2|0:0,0:0:0:0:
94,350,192058,5,6,3:1:0:0:
78,195,192416,2,0,P|92:156|97:130,1,42.166667470932,2|2,0:1|0:1,0:0:0:0:
85,113,192594,2,0,P|127:54|195:54,1,126.500002412796,2|0,0:1|0:0,0:0:0:0:
215,64,192951,2,0,P|264:86|282:91,1,42.166667470932,2|2,0:1|0:1,0:0:0:0:
294,75,193130,5,2,0:1:0:0:
425,180,193487,2,0,P|387:198|367:221,1,42.166667470932,2|2,0:1|0:1,0:0:0:0:
365,234,193666,2,0,B|274:263|339:273|230:308,1,126.500002412796,2|0,0:1|0:0,0:0:0:0:
226,270,194000,2,0,L|236:228,2,31.625000603199,4|4|4,3:0|3:0|3:0,0:0:0:0:
184,289,194201,5,10,3:2:0:0:
103,244,194380,1,10,3:2:0:0:
77,154,194558,1,10,3:2:0:0:
122,71,194737,1,10,3:2:0:0:
212,44,194916,1,10,3:2:0:0:
294,88,195094,1,14,3:2:0:0:
294,88,195808,6,0,P|352:66|450:45,1,137.500005245209,12|0,3:0|0:0,0:0:0:0:
467,74,196344,6,0,P|501:149|475:187,1,102.666663533529,6|0,3:2|0:0,0:0:0:0:
458,197,196612,2,0,P|407:210|343:228,1,102.666663533529,10|0,3:2|0:0,0:0:0:0:
317,254,196880,2,0,P|280:301|291:362,1,102.666663533529,2|4,3:2|3:0,0:0:0:0:
246,380,197148,1,10,3:2:0:0:
157,328,197326,5,2,3:2:0:0:
157,328,197416,2,0,P|84:339|36:365,1,102.666663533529,6|2,3:2|0:0,0:0:0:0:
8,336,197683,1,0,0:0:0:0:
55,244,197862,2,0,B|80:134|16:207|63:70,1,153.999995300293,6|4,3:2|3:0,0:0:0:0:
91,58,198219,6,0,P|143:85|204:100,1,102.666663533529,10|2,3:2|0:0,0:0:0:0:
231,73,198487,1,0,3:0:0:0:
217,226,198755,2,0,P|269:199|330:184,1,102.666663533529,10|2,3:2|3:2,0:0:0:0:
357,211,199023,1,0,3:0:0:0:
471,108,199291,2,0,P|464:43|405:7,1,102.666663533529,10|2,3:2|0:0,0:0:0:0:
388,10,199558,1,0,0:0:0:0:
234,21,199826,2,0,P|227:86|168:122,1,102.666663533529,10|2,3:2|3:2,0:0:0:0:
151,119,200093,1,0,3:0:0:0:
13,189,200362,1,10,3:2:0:0:
127,292,200630,6,0,P|208:326|232:354,1,102.666663533529,6|0,3:2|0:0,0:0:0:0:
264,313,200898,2,0,P|257:275|256:249,2,51.3333317667644,10|2|2,3:2|0:0|0:0,0:0:0:0:
312,330,201166,2,0,P|373:295|413:296,1,102.666663533529,2|0,3:2|3:0,0:0:0:0:
452,309,201433,1,10,3:2:0:0:
491,214,201612,5,2,3:2:0:0:
491,214,201701,2,0,P|465:153|467:104,1,102.666663533529,6|2,3:2|0:0,0:0:0:0:
488,71,201969,1,0,0:0:0:0:
393,30,202148,2,0,P|299:34|272:117,1,153.999995300293,6|0,3:2|3:0,0:0:0:0:
293,125,202505,6,0,P|327:190|336:230,1,102.666663533529,10|2,3:2|0:0,0:0:0:0:
325,269,202773,1,0,3:2:0:0:
193,188,203041,2,0,P|159:253|150:293,1,102.666663533529,10|2,3:2|0:0,0:0:0:0:
161,332,203309,1,0,3:0:0:0:
40,236,203576,2,0,P|6:171|-3:131,1,102.666663533529,10|2,3:2|3:2,0:0:0:0:
8,92,203844,6,0,P|66:73|120:51,1,102.666663533529,8|4,3:2|3:0,0:0:0:0:
145,25,204112,1,8,3:2:0:0:
237,70,204291,2,0,P|211:90|196:116,2,51.3333317667644,6|0|0,3:2|3:2|0:0,0:0:0:0:
285,53,204558,2,0,P|354:54|408:80,1,102.666663533529,6|0,3:2|0:0,0:0:0:0:
422,101,204826,6,0,P|395:183|386:283,1,153.999995300293,6|2,3:2|0:0,0:0:0:0:
419,289,205183,1,10,3:2:0:0:
285,365,205451,2,0,P|236:337|155:328,1,102.666663533529,2|4,3:2|3:0,0:0:0:0:
144,349,205719,1,10,3:2:0:0:
62,286,205898,5,2,3:2:0:0:
62,286,205987,2,0,P|53:226|71:159,1,102.666663533529,2|2,3:2|0:0,0:0:0:0:
97,149,206255,1,10,3:2:0:0:
28,72,206433,2,0,P|74:30|169:47,1,153.999995300293,6|2,3:2|3:2,0:0:0:0:
197,76,206791,1,10,3:2:0:0:
343,30,207058,5,4,3:0:0:0:
395,174,207326,2,0,P|368:220|361:287,1,102.666663533529,10|2,3:2|0:0,0:0:0:0:
395,305,207594,2,0,P|346:332|309:370,1,102.666663533529,2|4,3:2|3:0,0:0:0:0:
261,357,207862,1,10,3:2:0:0:
169,310,208041,5,2,0:0:0:0:
169,310,208130,2,0,P|106:344|63:332,1,102.666663533529,2|2,3:2|0:0,0:0:0:0:
32,315,208398,1,10,3:2:0:0:
85,228,208576,2,0,B|118:125|60:180|110:55,1,153.999995300293,6|0,3:2|0:0,0:0:0:0:
76,32,208933,6,0,P|126:2|184:29,1,102.666663533529,10|2,3:2|0:0,0:0:0:0:
206,45,209201,1,4,3:2:0:0:
355,6,209469,2,0,P|405:34|411:98,1,102.666663533529,10|2,3:2|0:0,0:0:0:0:
408,125,209737,1,0,3:0:0:0:
511,238,210005,2,0,P|511:296|459:333,1,102.666663533529,10|2,3:2|0:0,0:0:0:0:
434,344,210273,1,2,3:2:0:0:
280,334,210541,2,0,P|229:363|171:337,1,102.666663533529,14|2,3:2|3:2,0:0:0:0:
150,321,210809,1,4,3:0:0:0:
220,247,210987,1,4,3:0:0:0:
220,247,211076,2,0,P|234:172|224:113,1,102.666663533529,10|2,3:2|0:0,0:0:0:0:
195,109,211344,1,0,3:0:0:0:
48,155,211612,6,0,B|27:106|27:106|86:43,1,102.666663533529,6|2,3:2|0:0,0:0:0:0:
100,36,211880,1,0,0:0:0:0:
252,11,212148,2,0,B|301:-10|301:-10|364:49,1,102.666663533529,10|2,3:2|3:2,0:0:0:0:
371,63,212416,1,4,3:0:0:0:
468,181,212683,2,0,B|489:230|489:230|430:293,1,102.666663533529,14|4,3:2|3:0,0:0:0:0:
403,272,212951,2,0,L|379:225,2,51.3333317667644,4|4|4,3:0|3:0|3:0,0:0:0:0:
360,301,213219,2,0,L|336:348,2,51.3333317667644,4|4|4,3:0|3:0|3:0,0:0:0:0:
318,270,213487,6,0,P|265:230|92:310,1,256.666658833822,6|0,3:1|0:0,0:0:0:0:
71,330,214023,2,0,P|10:276|31:108,1,256.666658833822,6|0,0:1|0:0,0:0:0:0:
66,84,214558,5,6,0:1:0:0:
371,46,215094,2,0,B|214:91|327:145|127:198,1,256.666658833822,6|0,3:2|0:0,0:0:0:0:
134,226,215630,6,0,P|204:237|223:307,1,148.500000566483,6|0,1:1|0:0,0:0:0:0:
429,261,217505,5,4,3:0:0:0:
429,261,217773,2,0,P|359:225|279:210,1,137.5,4|4,3:2|3:0,0:0:0:0:
238,145,218219,2,0,P|179:156|116:210,1,137.5,2|0,3:2|3:0,0:0:0:0:
78,224,218576,2,0,P|11:181|-1:141,1,91.6666666666667,2|0,3:2|0:0,0:0:0:0:
10,126,218844,5,4,3:0:0:0:
107,29,219112,1,4,3:0:0:0:
188,70,219291,2,0,B|284:92|214:107|335:135,1,137.5,2|0,3:2|3:0,0:0:0:0:
350,150,219648,6,0,P|365:117|377:48,1,91.6666666666667,10|0,3:2|0:0,0:0:0:0:
356,21,219916,1,2,3:2:0:0:
468,98,220183,2,0,P|483:131|495:200,1,91.6666666666667,2|0,3:2|0:0,0:0:0:0:
474,227,220451,1,2,3:2:0:0:
470,364,220719,2,0,P|437:349|368:337,1,91.6666666666667,2|0,3:2|0:0,0:0:0:0:
341,358,220987,1,2,3:2:0:0:
260,246,221255,2,0,P|227:261|158:273,1,91.6666666666667,2|0,3:2|3:0,0:0:0:0:
131,252,221523,1,2,3:2:0:0:
179,174,221701,1,4,3:0:0:0:
179,174,221791,2,0,P|191:106|191:45,1,91.6666666666667,8|0,3:2|0:0,0:0:0:0:
162,48,222058,6,0,P|108:49|38:135,1,137.5,6|4,3:2|3:0,0:0:0:0:
15,188,222505,2,0,P|32:247|42:344,1,137.5,2|0,0:0|3:0,0:0:0:0:
28,366,222862,1,4,3:0:0:0:
141,288,223130,6,0,P|197:316|266:341,1,91.6666666666667,2|0,3:2|0:0,0:0:0:0:
266,308,223398,1,4,3:0:0:0:
343,355,223576,2,0,B|385:268|331:313|386:203,1,137.5,2|0,3:2|3:0,0:0:0:0:
416,200,223933,6,0,P|440:151|417:120,1,91.6666666666667,10|0,3:2|0:0,0:0:0:0:
384,97,224201,1,2,3:2:0:0:
256,45,224469,2,0,P|225:0|187:4,1,91.6666666666667,2|0,3:2|0:0,0:0:0:0:
150,21,224737,1,2,3:2:0:0:
73,135,225005,2,0,P|18:138|3:174,1,91.6666666666667,2|0,3:2|0:0,0:0:0:0:
0,215,225273,1,2,3:2:0:0:
131,255,225541,2,0,P|106:304|129:335,1,91.6666666666667,2|8,3:2|3:2,0:0:0:0:
166,346,225808,2,0,P|181:302|186:282,2,45.8333333333333,4|4|0,3:0|3:0|3:0,0:0:0:0:
211,340,226076,2,0,P|217:361|225:383,2,45.8333333333333,2|4|4,3:1|3:0|3:0,0:0:0:0:
252,316,226344,6,0,P|326:288|388:274,1,142.99999345398,4|8,3:2|3:2,0:0:0:0:
466,218,226791,2,0,P|471:141|388:107,1,142.99999345398,0|0,3:0|0:0,0:0:0:0:
375,115,227148,1,8,3:2:0:0:
258,32,227416,6,0,P|210:82|149:91,1,95.3333289693199,4|0,3:0|0:0,0:0:0:0:
141,76,227683,1,8,3:2:0:0:
76,146,227862,2,0,P|50:205|33:310,1,142.99999345398,2|0,3:2|3:0,0:0:0:0:
63,319,228219,6,0,P|140:340|171:358,1,95.3333289693199,10|2,3:2|0:0,0:0:0:0:
194,371,228487,1,2,3:2:0:0:
186,228,228755,2,0,P|263:207|294:189,1,95.3333289693199,10|2,3:2|3:2,0:0:0:0:
317,176,229023,1,2,3:2:0:0:
441,246,229291,2,0,P|462:169|480:138,1,95.3333289693199,10|2,3:2|0:0,0:0:0:0:
493,115,229559,1,2,3:2:0:0:
360,60,229827,2,0,P|283:39|252:21,1,95.3333289693199,10|0,3:2|3:0,0:0:0:0:
231,8,230095,1,2,3:2:0:0:
116,93,230362,1,8,3:2:0:0:
228,181,230630,5,2,3:1:0:0:
166,253,230808,1,8,3:2:0:0:
166,253,230898,2,0,P|199:319|209:373,1,95.3333289693199,4|2,3:1|0:1,0:0:0:0:
242,368,231166,1,8,3:2:0:0:
377,323,231433,2,0,P|391:277|415:236,1,95.3333289693199,6|8,3:1|3:0,0:0:0:0:
458,215,231701,5,2,3:1:0:0:
405,134,231880,1,8,3:0:0:0:
405,134,231969,2,0,P|344:107|290:81,1,95.3333289693199,10|2,3:2|3:1,0:0:0:0:
275,71,232237,2,0,P|281:43|305:9,2,47.6666644846599,4|4|4,3:0|3:0|3:0,0:0:0:0:
228,81,232505,2,0,P|238:102|242:125,2,47.6666644846599,4|4|4,3:0|3:0|3:0,0:0:0:0:
184,61,232773,5,4,3:2:0:0:
42,156,234648,6,0,B|195:185|113:251|276:283,1,242.000007385254,6|0,3:1|0:1,0:0:0:0:
