osu file format v14

[General]
AudioFilename: audio.mp3
AudioLeadIn: 0
PreviewTime: 49644
Countdown: 0
SampleSet: Normal
StackLeniency: 0.7
Mode: 1
LetterboxInBreaks: 0
WidescreenStoryboard: 1

[Editor]
Bookmarks: 2780,25502,51064,72366
DistanceSpacing: 0.9
BeatDivisor: 2
GridSize: 32
TimelineZoom: 0.5

[Metadata]
Title:Hikari e (TV Size)
TitleUnicode:光へ (TV Size)
Artist:Franchouchou
ArtistUnicode:フランシュシュ
Creator:CrayZeei
Version:Futsuu
Source:ゾンビランドサガ
Tags:zombieland saga 山田たえ anime ending ed japanese Yamada Tae 源さくら Minamoto Sakura 二階堂サキ Saki Nikaidou Nikaido Nikaidō 水野愛 Mizuno Ai 紺野純子 Konno Junko ゆうぎり Yuugiri Yugiri Yūgiri 星川リリィ Hoshikawa Lily Ririi 三石琴乃 Mitsuishi Kotono 本渡楓 Hondo Kaede 田野アサミ Tano Asami 種田梨沙 Taneda Risa 河瀬茉希 Kawase Maki 衣川里佳 Kinugawa Rika 田中美海 Tanaka Minami idols アイドル
BeatmapID:2506047
BeatmapSetID:1203470

[Difficulty]
HPDrainRate:8
CircleSize:5
OverallDifficulty:3
ApproachRate:5
SliderMultiplier:1.4
SliderTickRate:1

[Events]
//Background and Video events
0,0,"bg.jpg",0,50
//Break Periods
//Storyboard Layer 0 (Background)
//Storyboard Layer 1 (Fail)
//Storyboard Layer 2 (Pass)
//Storyboard Layer 3 (Foreground)
//Storyboard Layer 4 (Overlay)
//Storyboard Sound Samples

[TimingPoints]
-60,710.059171597633,4,1,0,40,1,8
2070,-111.111111111111,4,1,0,40,0,0
2780,710.059171597633,4,1,0,40,1,0
2780,-111.111111111111,4,1,0,40,0,0
13075,-108.108108108108,4,1,0,40,0,0
13430,-105.263157894737,4,1,0,40,0,0
13785,-102.564102564103,4,1,0,40,0,0
14140,-100,4,1,0,40,0,0
25501,-95.2380952380952,4,1,0,40,0,0
50353,-90.9090909090909,4,1,0,40,0,0
51064,710.059171597633,4,1,0,60,1,1
51064,-86.9565217391304,4,1,0,60,0,1
72365,-86.9565217391304,4,1,0,50,0,0
73785,-111.111111111111,4,1,0,50,0,0

[HitObjects]
256,192,2070,5,0,0:0:0:0:
256,192,2780,1,2,0:0:0:0:
256,192,4200,1,0,0:0:0:0:
256,192,5620,1,2,0:0:0:0:
256,192,7040,1,2,0:0:0:0:
256,192,7750,1,0,0:0:0:0:
256,192,8460,1,2,0:0:0:0:
256,192,9880,1,0,0:0:0:0:
256,192,11300,1,2,0:0:0:0:
256,192,12721,1,2,0:0:0:0:
256,192,13076,1,2,0:0:0:0:
256,192,13431,1,0,0:0:0:0:
256,192,13786,1,2,0:0:0:0:
256,192,14141,1,0,0:0:0:0:
256,192,14851,1,2,0:0:0:0:
256,192,15561,1,0,0:0:0:0:
256,192,16271,1,2,0:0:0:0:
256,192,16981,1,2,0:0:0:0:
256,192,17691,1,2,0:0:0:0:
256,192,18046,1,0,0:0:0:0:
256,192,18401,1,2,0:0:0:0:
256,192,19111,1,0,0:0:0:0:
256,192,19821,1,2,0:0:0:0:
256,192,20531,1,2,0:0:0:0:
256,192,20886,1,2,0:0:0:0:
256,192,21241,1,0,0:0:0:0:
256,192,22661,1,0,0:0:0:0:
256,192,23371,1,0,0:0:0:0:
256,192,24082,1,2,0:0:0:0:
256,192,25502,1,0,0:0:0:0:
256,192,26212,1,0,0:0:0:0:
256,192,26922,1,2,0:0:0:0:
256,192,27632,1,0,0:0:0:0:
256,192,27987,1,0,0:0:0:0:
256,192,28342,1,2,0:0:0:0:
256,192,29052,1,2,0:0:0:0:
256,192,29762,1,0,0:0:0:0:
256,192,31182,1,2,0:0:0:0:
256,192,31892,1,2,0:0:0:0:
256,192,32602,1,0,0:0:0:0:
256,192,33312,1,2,0:0:0:0:
256,192,33667,1,2,0:0:0:0:
256,192,34022,1,0,0:0:0:0:
256,192,35442,1,0,0:0:0:0:
256,192,36153,1,2,0:0:0:0:
256,192,36508,1,2,0:0:0:0:
256,192,36863,1,0,0:0:0:0:
256,192,37573,1,0,0:0:0:0:
256,192,38283,1,2,0:0:0:0:
256,192,38993,1,2,0:0:0:0:
256,192,39703,1,0,0:0:0:0:
256,192,40413,1,2,0:0:0:0:
256,192,40768,1,0,0:0:0:0:
256,192,41123,1,0,0:0:0:0:
256,192,42543,1,2,0:0:0:0:
256,192,43253,1,2,0:0:0:0:
256,192,43963,1,0,0:0:0:0:
256,192,45383,1,2,0:0:0:0:
256,192,46093,1,2,0:0:0:0:
256,192,46803,1,0,0:0:0:0:
256,192,47513,1,0,0:0:0:0:
256,192,48224,1,2,0:0:0:0:
256,192,49644,1,4,0:0:0:0:
256,192,50354,1,6,0:0:0:0:
256,192,51064,1,6,0:0:0:0:
256,192,51774,1,2,0:0:0:0:
256,192,52129,1,0,0:0:0:0:
256,192,52484,1,0,0:0:0:0:
256,192,53194,1,2,0:0:0:0:
256,192,53904,1,0,0:0:0:0:
256,192,54259,1,0,0:0:0:0:
256,192,54614,1,2,0:0:0:0:
256,192,55324,1,2,0:0:0:0:
256,192,55679,1,0,0:0:0:0:
256,192,56034,1,2,0:0:0:0:
256,192,56744,1,0,0:0:0:0:
256,192,57454,1,2,0:0:0:0:
256,192,58164,1,0,0:0:0:0:
256,192,58519,1,0,0:0:0:0:
256,192,58874,1,2,0:0:0:0:
256,192,59584,1,0,0:0:0:0:
256,192,60295,1,0,0:0:0:0:
256,192,61005,1,2,0:0:0:0:
256,192,61715,1,2,0:0:0:0:
256,192,62425,1,2,0:0:0:0:
256,192,62780,1,0,0:0:0:0:
256,192,63135,1,2,0:0:0:0:
256,192,63845,1,2,0:0:0:0:
256,192,64555,1,0,0:0:0:0:
256,192,64910,1,0,0:0:0:0:
256,192,65265,1,2,0:0:0:0:
256,192,65975,1,2,0:0:0:0:
256,192,66685,1,2,0:0:0:0:
256,192,67395,1,0,0:0:0:0:
256,192,67750,1,0,0:0:0:0:
256,192,68105,1,2,0:0:0:0:
256,192,68815,1,2,0:0:0:0:
256,192,69525,1,2,0:0:0:0:
256,192,69880,1,0,0:0:0:0:
256,192,70235,1,2,0:0:0:0:
256,192,70945,1,0,0:0:0:0:
256,192,71300,1,0,0:0:0:0:
256,192,71655,1,2,0:0:0:0:
256,192,72011,1,2,0:0:0:0:
256,192,72366,1,2,0:0:0:0:
256,192,73786,1,2,0:0:0:0:
256,192,74141,1,2,0:0:0:0:
256,192,74496,1,0,0:0:0:0:
256,192,75206,1,2,0:0:0:0:
256,192,75916,1,2,0:0:0:0:
256,192,76626,1,2,0:0:0:0:
256,192,76981,1,0,0:0:0:0:
256,192,77336,1,2,0:0:0:0:
256,192,78046,1,2,0:0:0:0:
256,192,79466,1,2,0:0:0:0:
256,192,79821,1,2,0:0:0:0:
256,192,80176,1,0,0:0:0:0:
256,192,80886,1,2,0:0:0:0:
256,192,81596,1,2,0:0:0:0:
256,192,82306,1,0,0:0:0:0:
256,192,82661,1,0,0:0:0:0:
256,192,83016,1,2,0:0:0:0:
256,192,83371,1,0,0:0:0:0:
256,192,83726,1,2,0:0:0:0:
256,192,84437,1,0,0:0:0:0:
256,192,85147,1,2,0:0:0:0:
