osu file format v14

[General]
AudioFilename: audio.mp3
AudioLeadIn: 0
PreviewTime: 48548
Countdown: 0
SampleSet: Soft
StackLeniency: 0.2
Mode: 0
LetterboxInBreaks: 0
WidescreenStoryboard: 1

[Editor]
Bookmarks: 88705
DistanceSpacing: 1
BeatDivisor: 8
GridSize: 32
TimelineZoom: 3.199999

[Metadata]
Title:Adabana Necromancy (TV Size)
TitleUnicode:徒花ネクロマンシー (TV Size)
Artist:Franchouchou
ArtistUnicode:フランシュシュ
Creator:-Aqua
Version:Yonaka's Expert
Source:ゾンビランドサガ
Tags:Zombieland Saga Furanshushu 山田たえ Yamada Tae 0号 Zero-gō Number 0 源さくら Minamoto Sakura 1号 Ichi-gō Number 1 二階堂サキ Nikaidō Saki Nikaidou 2号 Ni-gō Number 2 水野愛 Mizuno Ai 3号 San-gō Number 3 紺野純子 Konno Junko 4号 Yon-gō Number 4 ゆうぎり Yūgiri Yuugiri 5号 Go-gō Number 5 星川リリィ Hoshikawa Lily Ririi 6号 Roku-gō Number 6 三石琴乃 Mitsuishi Kotono 本渡楓 Hondo Kaede 田野アサミ Tano Asami 種田梨沙 Taneda Risa 河瀬茉希 Kawase Maki 衣川里佳 Kinugawa Rika 田中美海 Tanaka Minami ZombielandSaga Zombie land Saga Special Producer: 巽幸太郎 Tatsumi Kōtarō Koutarou 宮野真守 Miyano Mamoru Japanese Anime Opening Rolniczy Rolni KwAIMSuckASFuk Yonaka-
BeatmapID:2026418
BeatmapSetID:926295

[Difficulty]
HPDrainRate:6.3
CircleSize:4
OverallDifficulty:9
ApproachRate:9.4
SliderMultiplier:1.6
SliderTickRate:1

[Events]
//Background and Video events
Video,-86,"zls banana.mp4"
0,0,"the hot junko.jpg",0,0
//Break Periods
//Storyboard Layer 0 (Background)
//Storyboard Layer 1 (Fail)
//Storyboard Layer 2 (Pass)
//Storyboard Layer 3 (Foreground)
//Storyboard Layer 4 (Overlay)
//Storyboard Sound Samples

[TimingPoints]
496,348.837209302326,4,2,1,65,1,0
1019,-200,4,2,1,65,0,0
2065,-100,4,2,1,65,0,0
2414,-200,4,2,1,65,0,0
3286,-50,4,2,1,65,0,0
4507,-200,4,2,1,65,0,0
5379,-100,4,2,1,65,0,0
6077,-400,4,2,1,65,0,0
7472,-100,4,2,1,75,0,1
7559,-100,4,2,1,75,0,0
14449,-100,4,2,1,75,0,1
14536,-100,4,2,1,75,0,0
20263,-100,4,2,1,75,0,1
20379,-100,4,2,1,75,0,0
20496,-100,4,2,1,75,0,1
20612,-100,4,2,1,75,0,0
20728,-100,4,2,1,75,0,1
20844,-100,4,2,1,75,0,0
20961,-100,4,2,1,75,0,1
21077,-100,4,2,1,75,0,0
21193,-100,4,2,1,75,0,1
21309,-100,4,2,1,75,0,0
21600,-100,4,2,1,60,0,0
22821,-133.333333333333,4,2,1,60,0,0
41484,-100,4,2,1,60,0,0
43751,-100,4,2,1,70,0,0
45496,-66.6666666666667,4,2,1,70,0,0
47850,-50,4,2,1,70,0,0
48199,-133.333333333333,4,2,1,70,0,0
48635,-200,4,2,1,70,0,0
50728,-200,4,2,1,85,0,1
51251,-66.6666666666667,4,2,1,85,0,1
52123,-40,4,2,1,85,0,1
53344,-66.6666666666667,4,2,1,85,0,1
61804,-66.6666666666667,4,2,1,85,0,0
61891,-66.6666666666667,4,2,1,85,0,1
63025,-40,4,2,1,85,0,1
64507,-66.6666666666667,4,2,1,85,0,1
71484,-40,4,2,1,85,0,1
73054,-100,4,2,1,70,0,0
77763,-40,4,2,1,70,0,0
78112,-100,4,2,1,70,0,0
78461,-66.6666666666667,4,2,1,80,0,1
81251,-66.6666666666667,4,2,1,85,0,1
82472,-66.6666666666667,4,2,1,85,0,0
82821,-66.6666666666667,4,2,1,85,0,1
82865,-66.6666666666667,4,2,1,85,0,0
82908,-66.6666666666667,4,2,1,85,0,1
82952,-66.6666666666667,4,2,1,85,0,0
82996,-66.6666666666667,4,2,1,85,0,1
83039,-66.6666666666667,4,2,1,85,0,0
83083,-66.6666666666667,4,2,1,85,0,1
83126,-66.6666666666667,4,2,1,85,0,0
83170,-66.6666666666667,4,2,1,85,0,1
83214,-66.6666666666667,4,2,1,85,0,0
83519,-40,4,2,1,85,0,1
83606,-40,4,2,1,85,0,0
83693,-40,4,2,1,85,0,1
83780,-40,4,2,1,85,0,0
85612,-40,4,2,1,70,0,0
88402,-40,4,2,1,40,0,0

[Colours]
Combo1 : 226,150,235
Combo2 : 249,198,241
Combo3 : 245,185,131
Combo4 : 177,220,252
Combo5 : 202,202,202
Combo6 : 255,125,125
Combo7 : 255,255,162

[HitObjects]
1,190,496,5,0,1:0:0:0:
6,195,583,1,0,1:0:0:0:
11,200,670,2,0,L|56:207,1,40,0|0,1:0|1:0,2:0:0:0:
249,238,844,1,8,2:0:0:0:
97,328,1019,6,0,P|69:338|39:342,1,60,4|0,1:2|2:0,2:0:0:0:
188,228,1368,5,0,3:0:0:0:
218,233,1455,1,0,3:0:0:0:
249,238,1542,2,0,L|312:247,1,60,0|0,1:0|2:0,2:0:0:0:
396,384,1891,5,0,1:0:0:0:
391,379,1978,1,0,1:0:0:0:
385,374,2065,2,0,L|378:329,1,40,0|0,1:0|1:0,2:0:0:0:
348,136,2239,1,8,2:0:0:0:
367,139,2327,1,0,1:0:0:0:
386,142,2414,6,0,L|445:152,1,60,4|0,1:2|2:0,2:0:0:0:
308,247,2763,5,0,3:0:0:0:
260,261,2850,1,0,3:0:0:0:
223,252,2937,1,0,1:0:0:0:
200,234,3025,1,0,1:0:0:0:
188,215,3112,1,0,1:0:0:0:
183,199,3199,1,0,1:0:0:0:
181,187,3286,6,0,B|185:154|185:154|182:145|182:145|188:103,1,80,4|0,1:2|2:0,2:0:0:0:
308,247,3635,2,0,B|304:280|304:280|307:288|307:288|301:331,1,80,4|0,1:2|2:0,2:0:0:0:
181,187,3984,6,0,B|141:175|141:175|105:192,1,80,4|0,1:2|2:0,2:0:0:0:
308,247,4246,6,0,B|318:287|318:287|350:309,1,80,4|0,1:2|2:0,2:0:0:0:
297,108,4507,6,0,B|303:64|303:64|313:52|313:52|319:8,1,100,4|0,1:2|2:0,2:0:0:0:
385,100,5030,5,0,3:0:0:0:
388,119,5118,1,0,3:0:0:0:
220,42,5292,1,0,3:0:0:0:
217,23,5379,2,0,B|196:32|196:32|184:110|184:110|164:119,2,120,0|0|0,3:0|2:0|2:0,2:0:0:0:
106,169,6077,6,0,P|96:155|91:88,1,80,4|0,1:0|2:0,2:0:0:0:
167,117,6949,5,0,1:0:0:0:
208,250,7123,1,8,2:0:0:0:
226,172,7298,1,2,1:2:0:0:
149,39,7472,6,0,P|179:39|269:54,1,120,4|0,1:2|2:0,2:0:0:0:
297,67,7821,1,8,2:0:0:0:
512,121,7996,6,0,P|491:121|431:131,1,80,0|0,1:0|2:0,2:0:0:0:
386,195,8344,1,0,1:0:0:0:
427,262,8519,1,8,2:0:0:0:
422,274,8868,6,0,P|392:274|302:289,1,120,0|0,1:0|2:0,2:0:0:0:
274,302,9217,1,8,2:0:0:0:
117,384,9391,6,0,P|131:358|164:272,1,120,0|0,1:0|2:0,2:0:0:0:
166,242,9740,1,0,1:0:0:0:
274,302,9914,5,8,2:0:0:0:
246,226,10089,1,2,2:0:0:0:
440,186,10263,6,0,P|410:186|320:171,1,120,0|0,1:0|2:0,2:0:0:0:
292,158,10612,1,8,2:0:0:0:
256,86,10786,1,0,1:0:0:0:
262,76,11135,5,0,1:0:0:0:
183,91,11309,1,8,2:0:0:0:
118,138,11484,1,0,1:0:0:0:
55,13,11658,6,0,P|55:43|40:133,1,120,0|0,1:0|2:0,2:0:0:0:
27,161,12007,1,8,2:0:0:0:
90,210,12182,1,0,1:0:0:0:
95,222,12530,5,0,1:0:0:0:
241,199,12705,1,8,2:0:0:0:
173,242,12879,1,0,1:0:0:0:
305,332,13054,1,0,1:0:0:0:
279,301,13141,1,2,2:0:0:0:
242,283,13228,1,2,2:0:0:0:
379,182,13402,1,0,1:0:0:0:
358,205,13489,1,0,2:0:0:0:
330,219,13576,1,4,1:2:0:0:
312,222,13926,5,0,1:0:0:0:
291,127,14100,1,4,1:2:0:0:
286,115,14187,1,2,2:0:0:0:
297,111,14275,1,2,2:0:0:0:
302,122,14362,1,2,2:0:0:0:
245,183,14449,6,0,P|215:172|83:157,1,120.000004577637,4|0,1:2|2:0,2:0:0:0:
98,159,14798,1,8,2:0:0:0:
386,78,14972,6,0,P|370:83|299:91,1,80,0|0,1:0|2:0,2:0:0:0:
228,80,15321,1,0,1:0:0:0:
157,42,15496,1,8,2:0:0:0:
147,35,15844,6,0,P|117:46|-15:61,1,120.000004577637,0|0,1:0|2:0,2:0:0:0:
0,59,16193,1,8,2:0:0:0:
98,159,16368,2,0,P|107:218|64:284,1,120,0|0,1:0|2:0,2:0:0:0:
56,289,16716,1,0,1:0:0:0:
129,255,16891,1,8,2:0:0:0:
233,268,17065,1,2,2:0:0:0:
372,384,17240,6,0,P|361:354|346:222,1,120.000004577637,0|0,1:0|2:0,2:0:0:0:
348,237,17589,1,8,2:0:0:0:
233,268,17763,6,0,P|244:238|255:166,1,80,0|0,1:0|2:0,2:0:0:0:
456,232,18112,2,0,P|437:205|408:139,1,80,0|8,1:0|2:0,2:0:0:0:
323,111,18461,1,0,1:0:0:0:
476,44,18635,5,0,1:0:0:0:
402,71,18751,5,0,1:0:0:0:
341,23,18868,6,0,P|330:24|280:34,1,53.3333333333333,0|8,1:0|2:0,2:0:0:0:
216,65,19158,1,0,1:0:0:0:
207,75,19507,5,0,1:0:0:0:
253,140,19682,2,0,P|223:129|102:114,1,120,8|0,2:0|1:0,2:0:0:0:
106,116,20031,1,0,1:2:0:0:
413,216,20263,1,4,1:2:0:0:
106,316,20496,5,2,1:2:0:0:
297,55,20728,5,2,1:2:0:0:
297,379,20961,5,2,1:2:0:0:
106,116,21193,5,2,1:2:0:0:
413,216,21426,5,4,1:2:0:0:
360,276,21600,1,2,2:0:0:0:
285,304,21775,1,2,2:0:0:0:
206,289,21949,1,2,1:2:0:0:
146,238,22123,5,2,2:0:0:0:
273,151,22385,5,2,2:0:0:0:
285,304,22647,5,2,2:0:0:0:
206,289,22821,6,0,P|266:277|326:254,1,120.000004577637,2|8,1:2|2:0,2:0:0:0:
475,221,23344,2,0,P|442:214|408:201,1,60.0000022888184,2|0,1:2|2:0,2:0:0:0:
273,151,23693,2,0,P|306:144|339:131,1,60.0000022888184,2|8,1:2|2:0,2:0:0:0:
388,83,24042,1,2,2:0:0:0:
316,9,24216,5,2,1:2:0:0:
245,46,24333,5,0,2:0:0:0:
174,17,24449,6,0,P|156:19|127:25,1,40.000001525879,0|8,2:0|2:0,2:0:0:0:
71,75,24740,1,0,1:0:0:0:
65,87,25089,5,0,1:0:0:0:
177,120,25263,1,8,2:0:0:0:
9,187,25437,1,2,2:0:0:0:
108,302,25612,5,2,1:2:0:0:
118,276,25699,1,2,2:0:0:0:
122,249,25786,2,0,P|122:232|117:205,1,30.0000011444092,2|0,2:0|1:0,2:0:0:0:
65,87,25961,1,8,2:0:0:0:
180,8,26135,5,2,1:2:0:0:
170,34,26222,1,2,2:0:0:0:
166,61,26309,2,0,P|166:78|178:122,1,60.0000022888184,2|0,2:0|1:0,2:0:0:0:
225,307,26658,5,10,2:0:0:0:
235,281,26745,1,2,2:0:0:0:
239,254,26832,2,0,P|239:237|234:210,1,30.0000011444092,2|0,2:0|2:0,2:0:0:0:
176,119,27007,5,4,1:2:0:0:
248,147,27182,1,2,2:0:0:0:
324,135,27356,1,10,2:0:0:0:
384,86,27530,1,2,1:2:0:0:
412,14,27705,5,2,2:0:0:0:
398,163,27966,5,2,2:0:0:0:
276,76,28228,5,2,2:0:0:0:
384,86,28402,6,0,P|437:88|486:41,1,120.000004577637,2|8,1:2|2:0,2:0:0:0:
412,14,28926,5,2,1:2:0:0:
398,5,29275,5,2,1:2:0:0:
381,0,29623,5,2,2:0:0:0:
276,76,29798,2,0,P|264:72|202:60,1,60.0000022888184,2|2,1:2|2:0,2:0:0:0:
205,62,30059,1,0,2:0:0:0:
192,61,30147,1,8,2:0:0:0:
136,227,30321,5,0,1:0:0:0:
148,221,30408,1,0,2:0:0:0:
160,215,30496,6,0,P|179:210|223:204,1,60.0000022888184,2|0,2:0|1:0,2:0:0:0:
382,236,30844,5,8,2:0:0:0:
360,218,30931,1,2,2:0:0:0:
343,197,31019,1,2,2:0:0:0:
276,76,31193,5,2,1:2:0:0:
485,197,31455,5,2,2:0:0:0:
275,317,31716,5,2,1:2:0:0:
264,310,32065,5,0,1:0:0:0:
190,282,32240,1,8,2:0:0:0:
115,306,32414,1,2,2:0:0:0:
64,364,32589,1,6,1:2:0:0:
130,224,32763,2,0,P|107:215|17:204,1,90.0000034332277,2|0,2:0|2:0,2:0:0:0:
9,201,33112,1,2,1:2:0:0:
19,188,33461,5,0,1:0:0:0:
46,176,33548,1,2,2:0:0:0:
67,155,33635,1,8,2:0:0:0:
82,129,33722,1,2,2:0:0:0:
89,99,33809,1,2,2:0:0:0:
130,224,33984,5,4,1:2:0:0:
337,158,34246,5,2,1:2:0:0:
290,370,34507,5,4,1:2:0:0:
282,355,34855,5,0,1:0:0:0:
345,309,35030,2,0,P|370:301|422:296,1,60.0000022888184,8|2,2:0|2:0,2:0:0:0:
480,312,35379,5,6,1:2:0:0:
359,225,35554,2,0,P|350:202|339:112,1,90.0000034332277,2|0,1:2|2:0,2:0:0:0:
336,104,35903,1,4,1:2:0:0:
337,90,36251,5,0,1:0:0:0:
320,106,36338,1,2,2:0:0:0:
293,123,36425,1,8,2:0:0:0:
255,133,36513,1,2,2:0:0:0:
203,121,36600,1,2,2:0:0:0:
94,60,36775,5,6,1:2:0:0:
214,200,37036,5,2,2:0:0:0:
32,233,37298,6,0,P|55:235|142:263,1,90.0000034332277,6|0,1:2|2:0,2:0:0:0:
150,262,37647,1,2,1:2:0:0:
200,321,37821,1,10,2:0:0:0:
272,347,37996,1,2,2:0:0:0:
347,333,38170,1,6,1:2:0:0:
464,210,38344,6,0,P|459:177|459:173,1,30.0000011444092,2|0,2:0|2:0,2:0:0:0:
259,268,38519,2,0,P|265:244|269:142,1,120.000004577637,2|0,2:0|2:0,2:0:0:0:
241,76,39042,1,2,1:2:0:0:
180,26,39216,1,10,2:0:0:0:
102,13,39391,1,2,2:0:0:0:
29,41,39565,6,0,P|34:61|39:103,1,60.0000022888184,6|0,1:2|2:0,2:0:0:0:
49,110,39827,1,0,2:0:0:0:
59,120,39914,2,0,P|54:140|49:182,1,60.0000022888184,8|0,2:0|1:0,2:0:0:0:
67,255,40263,5,2,2:0:0:0:
266,165,40525,5,2,2:0:0:0:
244,382,40786,5,2,2:0:0:0:
174,285,40961,6,0,P|191:280|286:273,1,90.0000034332277,6|0,1:2|2:0,2:0:0:0:
294,278,41309,1,8,2:0:0:0:
411,335,41484,6,0,P|389:259|395:209,1,120,0|0,1:0|2:0,2:0:0:0:
446,145,41833,2,0,P|445:126|441:105,1,40,0|0,1:0|2:0,2:0:0:0:
376,47,42007,1,8,2:0:0:0:
338,33,42094,1,8,2:0:0:0:
298,36,42181,1,8,2:0:0:0:
262,52,42268,1,8,2:0:0:0:
235,82,42355,5,0,1:2:0:0:
228,96,42705,6,0,P|236:139|238:187,1,80,4|2,1:2|2:0,2:0:0:0:
161,289,43054,1,2,2:0:0:0:
143,211,43228,1,2,1:2:0:0:
309,291,43402,1,2,1:2:0:0:
333,214,43576,1,2,1:2:0:0:
336,200,43664,1,0,1:0:0:0:
338,185,43751,6,0,P|332:129|298:64,1,120,4|0,1:2|2:0,2:0:0:0:
282,50,44100,1,8,2:0:0:0:
418,104,44275,1,0,1:0:0:0:
427,115,44623,6,0,P|431:70|459:18,1,80,0|8,1:0|2:0,2:0:0:0:
485,233,44972,1,0,1:0:0:0:
467,220,45059,1,0,1:0:0:0:
449,212,45147,2,0,P|386:199|327:216,1,120,4|0,1:2|2:0,2:0:0:0:
236,286,45496,6,0,B|228:294|228:294|240:216,1,60.0000022888184,4|0,1:2|2:0,2:0:0:0:
325,81,45670,2,0,B|311:60|311:60|333:217,1,180.000006866455,4|0,1:2|2:0,2:0:0:0:
441,344,46019,2,0,B|427:365|427:365|449:208,1,180.000006866455,4|0,1:2|1:0,2:0:0:0:
452,181,46368,1,8,2:0:0:0:
456,151,46455,1,8,2:0:0:0:
460,121,46542,6,0,L|469:60,1,60.0000022888184,4|0,1:2|2:0,2:0:0:0:
341,272,47065,6,0,L|332:211,1,60.0000022888184,4|0,1:2|2:0,2:0:0:0:
204,120,47589,6,0,L|213:61,1,60.0000022888184,4|0,1:2|2:0,2:0:0:0:
122,0,47850,6,0,B|130:63|130:63|104:101|104:101|120:231,1,240,0|0,2:0|2:0,2:0:0:0:
25,295,48199,6,0,B|90:287|72:327|144:312,1,120.000004577637,0|0,2:0|2:0,2:0:0:0:
214,363,48635,6,0,P|227:306|202:253,1,120,2|0,2:0|2:0,2:0:0:0:
314,334,49333,2,0,P|282:284|226:264,1,120,2|0,2:0|2:0,2:0:0:0:
363,242,50030,2,0,P|305:229|252:254,1,120,2|0,2:0|2:0,2:0:0:0:
214,363,50728,5,6,1:2:0:0:
143,216,50902,1,2,2:0:0:0:
314,334,51077,1,10,2:0:0:0:
63,276,51251,6,0,B|48:290|48:290|6:200|67:133,1,180.000006866455,6|0,1:2|2:0,2:0:0:0:
218,137,51600,2,0,P|188:130|161:117,1,60.0000022888184,8|0,2:0|2:0,2:0:0:0:
117,46,51775,1,0,1:0:0:0:
428,15,51949,2,0,P|398:21|371:34,1,60.0000022888184,8|0,2:0|2:0,2:0:0:0:
334,115,52123,6,0,B|418:129|418:129|421:139|421:139|419:129|419:129|468:137|468:137|513:117,1,200,4|2,1:2|2:0,2:0:0:0:
428,15,52472,1,2,2:0:0:0:
501,226,52647,1,6,1:2:0:0:
334,115,52821,5,2,2:0:0:0:
425,225,52996,1,10,2:0:0:0:
256,229,53170,5,2,1:2:0:0:
360,262,53344,2,0,P|343:220|336:130,1,120.000004577637,2|4,2:0|1:2,2:0:0:0:
428,15,53693,1,2,2:0:0:0:
334,115,53868,2,0,P|308:130|251:138,1,60.0000022888184,2|0,2:0|2:0,2:0:0:0:
120,231,54042,6,0,B|106:216|106:216|196:174|263:235,1,180.000006866455,4|0,1:2|2:0,2:0:0:0:
337,317,54391,2,0,P|359:262|369:248,1,60.0000022888184,8|0,2:0|2:0,2:0:0:0:
512,214,54565,6,0,B|495:223|495:223|454:211,1,60.0000022888184,2|0,1:2|2:0,2:0:0:0:
334,115,54740,2,0,B|351:106|351:106|392:118,1,60.0000022888184,2|0,1:2|2:0,2:0:0:0:
255,228,54914,2,0,P|241:171|202:102,1,120.000004577637,4|2,1:2|2:0,2:0:0:0:
141,70,55263,1,10,2:0:0:0:
252,40,55437,1,6,1:2:0:0:
62,183,55612,1,2,2:0:0:0:
334,115,55786,5,10,2:0:0:0:
305,158,55873,1,8,2:0:0:0:
263,189,55961,1,10,2:0:0:0:
212,204,56048,1,8,2:0:0:0:
172,169,56134,1,10,2:0:0:0:
147,123,56222,1,8,2:0:0:0:
141,70,56309,6,0,P|151:18|159:-3,1,60.0000022888184,4|0,1:2|2:0,2:0:0:0:
35,66,56484,2,0,P|53:123|61:182,1,120.000004577637,2|8,2:0|2:0,2:0:0:0:
35,350,56833,2,0,P|75:305|122:269,1,120.000004577637,2|0,2:0|1:0,2:0:0:0:
285,204,57182,2,0,P|226:191|171:168,1,120.000004577637,2|8,2:0|2:0,2:0:0:0:
182,370,57530,2,0,P|235:342|292:324,1,120.000004577637,2|0,2:0|1:0,2:0:0:0:
454,368,57879,2,0,P|417:320|389:267,1,120.000004577637,2|8,2:0|2:0,2:0:0:0:
441,47,58228,2,0,P|418:102|386:153,1,120.000004577637,2|0,2:0|1:0,2:0:0:0:
166,210,58577,2,0,P|225:202|285:204,1,120.000004577637,2|8,2:0|2:0,2:0:0:0:
389,267,58926,1,2,2:0:0:0:
110,36,59100,6,0,P|181:89|268:112,1,180.000006866455,6|0,1:2|2:0,2:0:0:0:
304,109,59449,1,10,2:0:0:0:
7,286,59623,6,0,P|78:232|165:209,1,180.000006866455,2|0,2:0|2:0,2:0:0:0:
201,213,59972,1,10,2:0:0:0:
492,202,60147,5,2,1:2:0:0:
474,228,60234,1,0,1:0:0:0:
442,253,60322,1,8,2:0:0:0:
389,267,60409,1,8,2:0:0:0:
332,254,60496,5,6,1:2:0:0:
493,87,60757,5,2,2:0:0:0:
265,16,61019,5,6,1:2:0:0:
271,31,61368,5,2,1:2:0:0:
336,64,61542,1,10,2:0:0:0:
409,40,61716,1,2,1:2:0:0:
198,55,61891,5,6,1:2:0:0:
392,160,62065,1,2,2:0:0:0:
101,107,62240,1,10,2:0:0:0:
298,252,62414,2,0,B|321:257|321:257|299:197|249:173|249:173|202:183|165:242,1,240.000009155274,6|8,1:2|2:0,2:0:0:0:
38,306,62937,5,0,1:0:0:0:
45,316,63025,2,0,B|70:333|88:345|88:345|111:318|127:309|127:309|139:317|159:323|159:323|179:314|179:314|197:318|197:318|216:312,1,200,0|0,2:0|2:0,2:0:0:0:
289,344,63286,2,0,B|300:328|300:328|287:267|287:267|297:252,1,100,4|0,1:2|2:0,2:0:0:0:
375,145,63461,1,2,2:0:0:0:
407,338,63635,5,2,2:0:0:0:
170,234,63809,1,6,1:2:0:0:
512,185,63984,5,2,2:0:0:0:
297,251,64158,1,10,2:0:0:0:
478,11,64333,5,2,1:2:0:0:
375,145,64507,2,0,P|318:124|259:119,1,120.000004577637,2|4,2:0|1:2,2:0:0:0:
64,195,64856,1,2,2:0:0:0:
170,234,65030,2,0,P|168:217|176:167,1,60.0000022888184,2|0,2:0|2:0,2:0:0:0:
232,315,65205,6,0,B|246:330|246:330|156:372|88:321,1,180.000006866455,4|0,1:2|2:0,2:0:0:0:
7,213,65554,2,0,P|36:207|63:194,1,60.0000022888184,8|0,2:0|2:0,2:0:0:0:
140,67,65728,5,2,1:2:0:0:
0,0,65902,1,10,2:0:0:0:
259,119,66077,6,0,P|239:62|235:2,1,120.000004577637,4|2,1:2|2:0,2:0:0:0:
331,170,66426,1,10,2:0:0:0:
211,200,66600,1,6,1:2:0:0:
441,58,66775,5,2,2:0:0:0:
512,274,66949,1,10,2:0:0:0:
483,317,67036,1,8,2:0:0:0:
441,348,67124,1,10,2:0:0:0:
390,363,67211,1,8,2:0:0:0:
350,328,67297,1,10,2:0:0:0:
325,282,67385,1,8,2:0:0:0:
319,229,67472,6,0,P|329:177|337:156,1,60.0000022888184,4|0,1:2|2:0,2:0:0:0:
441,58,67647,6,0,P|384:78|325:83,1,120.000004577637,2|8,2:0|2:0,2:0:0:0:
95,193,67996,2,0,P|152:209|203:240,1,120.000004577637,2|0,2:0|1:0,2:0:0:0:
453,286,68344,2,0,P|416:238|392:183,1,120.000004577637,2|8,2:0|2:0,2:0:0:0:
219,0,68693,2,0,P|221:59|207:117,1,120.000004577637,2|0,2:0|1:0,2:0:0:0:
239,370,69042,2,0,P|273:320|318:281,1,120.000004577637,2|8,2:0|2:0,2:0:0:0:
392,183,69391,6,0,P|285:179|218:132,1,180.000006866455,2|0,2:0|2:0,2:0:0:0:
207,117,69740,6,0,P|275:128|320:150,1,120.000004577637,2|8,2:0|2:0,2:0:0:0:
453,286,70089,1,2,2:0:0:0:
239,370,70263,6,0,P|245:299|345:274,1,180.000006866455,6|0,1:2|2:0,2:0:0:0:
364,285,70612,1,10,2:0:0:0:
133,356,70786,2,0,P|108:301|96:245,1,60.0000022888184,2|0,2:0|2:0,2:0:0:0:
95,108,70961,5,0,1:0:0:0:
242,267,71135,1,2,1:2:0:0:
0,227,71309,5,0,1:0:0:0:
337,148,71484,6,0,B|321:125|321:125|244:134,1,100,6|0,1:2|2:0,2:0:0:0:
346,174,71833,5,2,1:2:0:0:
503,200,72007,1,8,2:0:0:0:
87,349,72182,6,0,B|71:372|71:372|-6:363,1,100,6|0,1:2|2:0,2:0:0:0:
95,329,72530,5,2,1:2:0:0:
124,286,72617,1,8,2:0:0:0:
166,255,72705,1,8,2:0:0:0:
217,240,72792,1,8,2:0:0:0:
257,275,72878,1,10,2:0:0:0:
282,321,72966,1,8,2:0:0:0:
282,374,73054,6,0,P|357:354|371:354,1,80,4|0,1:2|2:0,2:0:0:0:
183,361,73402,2,0,P|116:322|102:318,1,80,10|0,1:2|2:0,2:0:0:0:
314,271,73751,2,0,P|368:216|381:209,1,80,0|0,1:0|2:0,2:0:0:0:
186,258,74100,2,0,P|147:190|137:180,1,80,10|0,2:0|2:0,2:0:0:0:
280,28,74449,6,0,P|281:43|269:149,1,120,0|0,1:0|2:0,2:0:0:0:
261,182,74798,1,10,2:0:0:0:
377,91,74972,6,0,P|452:71|466:71,1,80,2|0,2:0|1:0,2:0:0:0:
183,71,75321,2,0,P|115:32|102:28,1,80,2|8,2:0|2:0,2:0:0:0:
5,188,75670,2,0,P|60:173|162:169,1,160,2|0,2:0|2:0,2:0:0:0:
300,250,76193,6,0,P|261:182|257:169,1,80,10|0,2:0|2:0,2:0:0:0:
268,101,76542,1,2,1:2:0:0:
316,37,76716,2,0,P|361:27|434:33,1,120,2|0,2:0|2:0,2:0:0:0:
470,51,77065,2,0,P|448:80|432:125,1,80,2|0,2:0|1:0,2:0:0:0:
260,181,77414,2,0,P|296:184|343:176,1,80,2|8,2:0|2:0,2:0:0:0:
503,246,77763,6,0,B|519:260|519:260|412:244,1,100,2|0,2:0|2:0,2:0:0:0:
170,303,77937,2,0,B|154:289|154:289|261:305,1,100,6|0,1:2|2:0,2:0:0:0:
338,177,78112,6,0,L|194:193,1,120,6|0,1:2|2:0,2:0:0:0:
153,125,78461,6,0,P|184:43|268:22,1,180.000006866455,4|0,1:2|2:0,2:0:0:0:
344,67,78809,1,0,1:0:0:0:
245,117,78984,1,8,1:2:0:0:
441,248,79158,5,2,2:0:0:0:
338,177,79333,1,2,1:2:0:0:
512,144,79507,1,2,2:0:0:0:
267,281,79682,1,10,1:2:0:0:
512,364,79856,6,0,B|528:388|528:388|446:357|322:365,1,180.000006866455,6|0,1:2|2:0,2:0:0:0:
283,384,80205,1,2,1:2:0:0:
445,259,80379,1,2,1:2:0:0:
415,257,80466,1,0,1:0:0:0:
385,249,80554,2,0,P|347:226|314:198,1,60.0000022888184,0|0,1:0|2:0,2:0:0:0:
266,21,80728,5,0,1:0:0:0:
430,152,80902,1,10,2:0:0:0:
150,217,81077,5,0,1:0:0:0:
371,0,81251,2,0,P|359:37|341:124,1,120.000004577637,6|0,1:2|2:0,2:0:0:0:
447,260,81600,1,2,1:2:0:0:
243,129,81775,5,6,1:2:0:0:
469,44,81949,1,2,2:0:0:0:
151,50,82123,5,2,1:2:0:0:
430,152,82298,1,2,2:0:0:0:
226,266,82472,5,10,2:0:0:0:
212,250,82559,1,0,2:0:0:0:
202,227,82647,1,2,2:0:0:0:
202,192,82734,1,0,2:0:0:0:
243,129,82821,5,0,1:0:0:0:
307,162,82908,1,0,1:0:0:0:
366,119,82996,1,0,1:0:0:0:
430,152,83083,1,0,1:0:0:0:
489,109,83170,1,0,1:2:0:0:
489,109,83519,6,0,B|481:93|481:93|491:186,1,100,6|0,1:2|2:0,2:0:0:0:
225,331,83693,2,0,B|217:347|217:347|227:254,1,100,6|0,1:2|2:0,2:0:0:0:
256,192,84216,12,2,85612,2:0:0:0:
256,192,85699,12,2,88402,2:0:0:0:
