osu file format v14

[General]
AudioFilename: audio.mp3
AudioLeadIn: 0
PreviewTime:48548
Countdown: 0
SampleSet: Soft
StackLeniency: 0.7
Mode: 0
LetterboxInBreaks: 0
WidescreenStoryboard: 0

[Editor]
Bookmarks:88705
DistanceSpacing: 0.7
BeatDivisor: 4
GridSize: 32
TimelineZoom: 1

[Metadata]
Title:Adabana Necromancy (TV Size)
TitleUnicode:徒花ネクロマンシー (TV Size)
Artist:Franchouchou
ArtistUnicode:フランシュシュ
Creator:-Aqua
Version:Normal
Source:ゾンビランドサガ
Tags:Zombieland Saga Furanshushu 山田たえ Yamada Tae 0号 Zero-gō Number 0 源さくら Minamoto Sakura 1号 Ichi-gō Number 1 二階堂サキ Nikaidō Saki Nikaidou 2号 Ni-gō Number 2 水野愛 Mizuno Ai 3号 San-gō Number 3 紺野純子 Konno Junko 4号 Yon-gō Number 4 ゆうぎり Yūgiri Yuugiri 5号 Go-gō Number 5 星川リリィ Hoshikawa Lily Ririi 6号 Roku-gō Number 6 三石琴乃 Mitsuishi Kotono 本渡楓 Hondo Kaede 田野アサミ Tano Asami 種田梨沙 Taneda Risa 河瀬茉希 Kawase Maki 衣川里佳 Kinugawa Rika 田中美海 Tanaka Minami ZombielandSaga Zombie land Saga Special Producer: 巽幸太郎 Tatsumi Kōtarō Koutarou 宮野真守 Miyano Mamoru Japanese Anime Opening Rolniczy Rolni KwAIMSuckASFuk Yonaka-
BeatmapID:1934872
BeatmapSetID:926295

[Difficulty]
HPDrainRate:4
CircleSize:3.5
OverallDifficulty:4
ApproachRate:5
SliderMultiplier:1.2
SliderTickRate:1

[Events]
//Background and Video events
Video,-86,"zls banana.mp4"
0,0,"the hot junko.jpg",0,0
//Break Periods
//Storyboard Layer 0 (Background)
//Storyboard Layer 1 (Fail)
//Storyboard Layer 2 (Pass)
//Storyboard Layer 3 (Foreground)
//Storyboard Layer 4 (Overlay)
//Storyboard Sound Samples

[TimingPoints]
496,348.837209302326,4,2,1,65,1,0
7472,-100,4,2,1,75,0,1
7559,-100,4,2,1,75,0,0
14449,-100,4,2,1,75,0,1
14536,-100,4,2,1,75,0,0
21600,-100,4,2,1,60,0,0
43751,-100,4,2,1,70,0,0
50728,-100,4,2,1,85,0,1
61804,-100,4,2,1,85,0,0
61891,-100,4,2,1,85,0,1
73054,-100,4,2,1,70,0,0
78461,-100,4,2,1,80,0,0
81251,-100,4,2,1,85,0,0
84216,-100,4,2,1,75,0,0
85612,-100,4,2,1,70,0,0
88402,-100,4,2,1,40,0,0

[Colours]
Combo1 : 226,150,235
Combo2 : 249,198,241
Combo3 : 245,185,131
Combo4 : 177,220,252
Combo5 : 202,202,202
Combo6 : 255,125,125
Combo7 : 255,255,162

[HitObjects]
64,320,496,6,0,L|190:342,1,120,0|8,1:0|2:0,2:0:0:0:
209,372,1019,2,0,P|267:378|317:346,1,120,4|0,1:2|3:0,2:0:0:0:
338,310,1542,1,0,1:0:0:0:
418,332,1891,6,0,L|440:206,1,120,0|8,1:0|2:0,2:0:0:0:
479,203,2414,2,0,L|457:77,1,120,4|0,1:2|3:0,2:0:0:0:
446,44,2937,1,0,1:0:0:0:
365,19,3286,6,0,P|306:13|256:45,1,120,4|4,1:2|1:2,2:0:0:0:
189,95,3984,2,0,P|136:86|101:47,2,90,4|4|4,1:2|1:2|1:2,2:0:0:0:
256,192,4594,12,4,6077,1:0:0:0:
197,103,6949,6,0,L|207:162,2,60,0|8|2,1:0|2:0|1:2,2:0:0:0:
192,61,7472,6,0,P|241:92|300:87,1,120,4|8,1:2|2:0,2:0:0:0:
332,58,7996,2,0,L|458:80,1,120,0|0,1:0|1:0,2:0:0:0:
478,109,8519,1,8,2:0:0:0:
428,176,8868,2,0,L|369:186,2,60,0|0|8,1:0|1:0|2:0,2:0:0:0:
460,202,9391,2,0,P|491:251|486:310,1,120,0|0,1:0|1:0,2:0:0:0:
455,340,9914,1,8,2:0:0:0:
374,362,10263,6,0,L|248:384,1,120,0|8,1:0|2:0,2:0:0:0:
221,357,10786,2,0,L|102:336,1,120,0|0,1:0|1:0,2:0:0:0:
68,361,11309,1,8,2:0:0:0:
9,301,11658,2,0,L|-1:242,1,60,0|2,1:0|1:2,2:0:0:0:
45,171,12182,2,0,P|103:165|153:196,1,120,0|0,1:0|1:0,2:0:0:0:
177,231,12705,1,8,2:0:0:0:
256,203,13054,6,0,L|374:223,1,120,0|0,1:0|1:0,2:0:0:0:
402,255,13577,1,4,1:2:0:0:
481,229,13926,2,0,L|491:288,2,60,0|4|2,1:0|1:2|2:0,2:0:0:0:
507,196,14449,6,0,P|512:137|481:87,1,120,4|8,1:2|2:0,2:0:0:0:
446,62,14972,1,0,1:0:0:0:
365,86,15321,2,0,P|306:91|256:60,1,120,0|0,1:0|1:0,2:0:0:0:
222,34,15844,2,0,L|103:54,1,120,0|8,1:0|2:0,2:0:0:0:
73,83,16368,1,0,1:0:0:0:
124,148,16716,1,0,1:0:0:0:
118,189,16891,2,0,L|108:248,1,60,8|2,2:0|2:0,2:0:0:0:
79,278,17240,6,0,P|137:272|187:303,1,120,0|8,1:0|2:0,2:0:0:0:
220,329,17763,2,0,P|278:334|328:303,1,120,0|0,1:0|1:0,2:0:0:0:
353,268,18286,1,8,2:0:0:0:
294,207,18635,2,0,L|284:148,1,60,0|0,1:0|2:0,2:0:0:0:
326,75,19158,2,0,P|384:69|434:100,1,120,0|0,1:0|1:0,2:0:0:0:
453,138,19682,1,8,2:0:0:0:
411,210,20030,5,0,1:2:0:0:
432,250,20263,2,0,L|526:266,2,80,4|2|2,1:2|1:2|1:2,2:0:0:0:
399,296,20961,2,0,L|320:309,1,80,2|2,1:2|1:2,2:0:0:0:
279,270,21426,5,4,1:2:0:0:
251,238,21600,2,0,P|192:232|142:263,1,120,2|2,2:0|1:2,2:0:0:0:
109,289,22123,2,0,L|124:377,2,90,2|2|2,2:0|2:0|2:0,2:0:0:0:
69,273,22821,1,2,1:2:0:0:
98,194,23170,1,8,2:0:0:0:
71,161,23344,2,0,P|129:167|179:136,1,120,2|2,1:2|1:2,2:0:0:0:
205,101,23868,1,8,2:0:0:0:
277,142,24216,6,0,L|428:168,1,120,2|8,1:2|2:0,2:0:0:0:
395,78,24914,2,0,L|276:57,1,120,2|8,2:0|2:0,2:0:0:0:
205,101,25612,2,0,L|146:111,1,60,2|2,1:2|2:0,2:0:0:0:
185,184,26135,2,0,L|126:194,1,60,2|2,1:2|2:0,2:0:0:0:
170,264,26658,2,0,L|111:274,1,60,10|2,2:0|2:0,2:0:0:0:
81,304,27007,5,4,1:2:0:0:
40,292,27182,2,0,P|8:242|14:183,1,120,2|2,2:0|1:2,2:0:0:0:
50,163,27705,2,0,P|45:118|18:83,2,90,2|2|2,2:0|2:0|2:0,2:0:0:0:
89,177,28402,1,2,1:2:0:0:
147,116,28751,1,8,2:0:0:0:
180,141,28926,2,0,L|298:120,1,120,2|2,1:2|1:2,2:0:0:0:
339,113,29449,1,8,2:0:0:0:
409,158,29798,6,0,P|440:207|435:266,1,120,2|8,1:2|2:0,2:0:0:0:
369,318,30496,2,0,P|319:286|260:291,1,120,2|8,2:0|2:0,2:0:0:0:
192,340,31193,2,0,P|147:335|112:308,2,90,2|2|2,1:2|2:0|1:2,2:0:0:0:
260,291,32065,1,0,1:0:0:0:
287,258,32240,2,0,L|277:199,1,60,8|2,2:0|2:0,2:0:0:0:
244,171,32589,6,0,L|254:112,1,60,6|2,1:2|2:0,2:0:0:0:
272,29,33112,2,0,P|321:60|380:56,1,120,2|0,1:2|1:0,2:0:0:0:
419,39,33635,1,8,2:0:0:0:
497,88,33984,2,0,L|512:0,2,90,4|2|4,1:2|1:2|1:2,2:0:0:0:
442,151,34856,1,0,1:0:0:0:
425,189,35030,2,0,L|435:248,1,60,8|2,2:0|2:0,2:0:0:0:
471,268,35379,6,0,L|461:327,1,60,6|2,1:2|1:2,2:0:0:0:
390,372,35902,2,0,L|272:351,1,120,4|0,1:2|1:0,2:0:0:0:
231,363,36426,1,8,2:0:0:0:
179,296,36775,2,0,P|184:251|211:216,2,90,6|2|6,1:2|2:0|1:2,2:0:0:0:
104,334,37647,1,2,1:2:0:0:
70,308,37821,2,0,L|60:249,1,60,10|2,2:0|2:0,2:0:0:0:
90,219,38170,6,0,L|111:101,1,120,6|2,1:2|2:0,2:0:0:0:
95,61,38693,1,0,1:0:0:0:
163,12,39042,1,2,1:2:0:0:
199,32,39216,2,0,L|258:22,1,60,10|2,2:0|2:0,2:0:0:0:
289,49,39565,2,0,L|407:70,1,120,6|8,1:2|2:0,2:0:0:0:
490,78,40263,2,0,P|485:33|458:-1,2,90,2|2|2,2:0|2:0|2:0,2:0:0:0:
473,117,40961,6,0,P|442:166|446:225,1,120,6|8,1:2|2:0,2:0:0:0:
475,256,41484,1,0,1:0:0:0:
425,323,41833,2,0,L|307:302,1,120,0|8,1:0|2:0,2:0:0:0:
273,327,42356,1,0,1:2:0:0:
202,281,42705,1,4,1:2:0:0:
169,306,42879,2,0,L|110:296,1,60,2|2,2:0|2:0,2:0:0:0:
89,258,43228,2,0,L|30:268,2,60,2|2|2,1:2|1:2|1:2,2:0:0:0:
107,220,43751,6,0,P|111:161|80:111,1,120,4|8,1:2|2:0,2:0:0:0:
49,80,44275,1,0,1:0:0:0:
96,11,44623,2,0,L|214:32,1,120,0|0,1:0|1:0,2:0:0:0:
244,62,45147,2,0,L|303:52,2,60,4|8|4,1:2|2:0|1:2,2:0:0:0:
236,103,45670,6,0,P|232:162|263:212,1,120,4|4,1:2|1:2,2:0:0:0:
295,237,46193,2,0,L|285:296,1,60,0|8,1:0|2:0,2:0:0:0:
275,337,46542,2,0,P|341:280|425:301,1,180,4|4,1:2|1:2,2:0:0:0:
499,198,47589,1,4,1:2:0:0:
441,136,47937,2,0,P|390:104|331:108,1,120,4|0,1:2|2:0,2:0:0:0:
261,155,48635,6,0,P|210:186|151:182,1,120,2|0,2:0|2:0,2:0:0:0:
78,140,49333,2,0,L|57:258,1,120,2|0,2:0|2:0,2:0:0:0:
102,329,50030,2,0,P|160:324|211:356,1,120,2|0,2:0|2:0,2:0:0:0:
277,303,50728,5,6,1:2:0:0:
302,336,50902,2,0,L|361:346,1,60,2|10,2:0|2:0,2:0:0:0:
397,325,51251,2,0,P|402:267|370:216,1,120,6|8,1:2|2:0,2:0:0:0:
336,193,51775,1,0,1:0:0:0:
389,128,52123,5,4,1:2:0:0:
362,95,52298,2,0,L|372:36,2,60,2|2|6,2:0|2:0|1:2,2:0:0:0:
323,111,52821,2,0,P|265:116|214:84,1,120,2|2,2:0|1:2,2:0:0:0:
190,49,53344,2,0,L|72:70,1,120,2|2,2:0|2:0,2:0:0:0:
54,108,53868,1,2,2:0:0:0:
54,108,54042,1,4,1:2:0:0:
108,171,54391,1,8,2:0:0:0:
136,202,54565,2,0,L|126:261,1,60,2|2,1:2|1:2,2:0:0:0:
161,283,54914,5,4,1:2:0:0:
197,304,55089,2,0,L|207:363,2,60,2|10|6,2:0|2:0|1:2,2:0:0:0:
232,281,55612,2,0,L|242:222,2,60,2|10|10,2:0|2:0|2:0,2:0:0:0:
272,294,56135,6,0,P|330:299|380:268,1,120,10|2,2:0|2:0,2:0:0:0:
438,206,56833,2,0,L|417:88,1,120,2|2,2:0|2:0,2:0:0:0:
357,28,57530,2,0,L|239:7,1,120,2|2,2:0|2:0,2:0:0:0:
171,57,58228,2,0,P|202:107|196:165,1,120,2|2,2:0|2:0,2:0:0:0:
163,243,58926,1,2,2:0:0:0:
143,280,59100,6,0,L|25:301,1,120,6|10,1:2|2:0,2:0:0:0:
0,266,59623,2,0,P|-6:208|25:158,1,120,2|10,2:0|2:0,2:0:0:0:
62,136,60147,1,2,1:2:0:0:
129,85,60496,2,0,P|123:40|96:6,2,90,6|2|6,1:2|2:0|1:2,2:0:0:0:
206,116,61368,1,2,1:2:0:0:
237,88,61542,2,0,L|296:78,1,60,10|2,2:0|1:2,2:0:0:0:
314,116,61891,6,0,L|373:126,1,60,6|2,1:2|2:0,2:0:0:0:
414,133,62240,1,10,2:0:0:0:
445,160,62414,2,0,P|475:210|470:268,1,120,6|8,1:2|2:0,2:0:0:0:
435,294,62937,1,0,1:0:0:0:
360,254,63286,5,4,1:2:0:0:
331,284,63461,2,0,L|342:347,2,60,2|2|6,2:0|2:0|1:2,2:0:0:0:
290,273,63984,2,0,P|231:267|180:297,1,120,2|2,2:0|1:2,2:0:0:0:
154,329,64507,2,0,L|133:211,1,120,2|2,2:0|2:0,2:0:0:0:
158,177,65030,1,2,2:0:0:0:
158,177,65205,1,4,1:2:0:0:
101,114,65554,1,8,2:0:0:0:
118,76,65728,2,0,L|177:65,1,60,2|10,1:2|2:0,2:0:0:0:
219,63,66077,5,4,1:2:0:0:
252,88,66251,2,0,L|242:147,2,60,2|10|6,2:0|2:0|1:2,2:0:0:0:
297,64,66775,2,0,L|286:5,2,60,2|10|10,2:0|2:0|2:0,2:0:0:0:
337,75,67298,6,0,P|395:81|445:50,1,120,10|2,2:0|2:0,2:0:0:0:
497,115,67996,2,0,P|451:151|438:209,1,120,2|2,2:0|2:0,2:0:0:0:
440,293,68693,2,0,P|382:287|331:318,1,120,2|2,2:0|2:0,2:0:0:0:
277,383,69391,2,0,L|159:362,1,120,2|2,2:0|2:0,2:0:0:0:
105,296,70089,1,2,2:0:0:0:
77,327,70263,6,0,L|56:209,1,120,6|10,1:2|2:0,2:0:0:0:
92,187,70786,2,0,L|113:69,1,120,2|2,2:0|1:2,2:0:0:0:
188,30,71484,2,0,P|246:24|296:54,1,120,6|2,1:2|1:2,2:0:0:0:
333,131,72182,2,0,P|327:189|357:239,1,120,6|2,1:2|1:2,2:0:0:0:
435,272,72879,1,10,2:0:0:0:
435,272,73054,5,4,1:2:0:0:
494,213,73402,2,0,L|473:95,1,120,10|0,1:2|1:0,2:0:0:0:
419,29,74100,1,10,2:0:0:0:
351,78,74449,2,0,P|292:83|242:53,1,120,0|10,1:0|2:0,2:0:0:0:
209,26,74972,2,0,L|91:47,1,120,2|2,2:0|2:0,2:0:0:0:
23,97,75670,6,0,P|53:147|47:205,1,120,2|0,2:0|2:0,2:0:0:0:
28,243,76193,1,10,2:0:0:0:
64,318,76542,1,2,1:2:0:0:
96,343,76716,2,0,L|214:322,1,120,2|2,2:0|2:0,2:0:0:0:
296,304,77414,1,2,2:0:0:0:
347,370,77763,1,2,2:0:0:0:
385,353,77937,2,0,L|444:363,1,60,6|6,1:2|1:2,2:0:0:0:
504,302,78461,6,0,L|483:184,1,120,4|0,1:2|1:0,2:0:0:0:
447,161,78984,1,8,1:2:0:0:
374,203,79333,2,0,L|364:262,2,60,2|2|10,1:2|2:0|1:2,2:0:0:0:
337,181,79856,2,0,P|278:175|227:205,1,120,6|2,1:2|1:2,2:0:0:0:
201,237,80379,1,2,1:2:0:0:
170,265,80554,2,0,P|111:271|60:241,1,120,0|10,1:0|2:0,2:0:0:0:
12,172,81251,6,0,L|33:54,1,120,6|2,1:2|1:2,2:0:0:0:
56,17,81775,2,0,L|115:7,1,60,6|2,1:2|2:0,2:0:0:0:
137,42,82123,2,0,L|196:52,1,60,2|2,1:2|2:0,2:0:0:0:
234,34,82472,2,0,L|293:24,1,60,10|2,2:0|2:0,2:0:0:0:
328,47,82821,6,0,L|338:106,2,60,0|0|0,1:0|1:0|1:2,2:0:0:0:
400,3,83519,1,6,1:2:0:0:
400,3,83693,1,6,1:2:0:0:
511,61,84216,5,2,2:0:0:0:
256,192,84304,12,2,85612,2:0:0:0:
256,192,85699,12,2,88402,2:0:0:0:
