osu file format v14

[General]
AudioFilename: audio.mp3
AudioLeadIn: 0
PreviewTime: 48548
Countdown: 0
SampleSet: Soft
StackLeniency: 0.4
Mode: 0
LetterboxInBreaks: 0
WidescreenStoryboard: 1

[Editor]
Bookmarks: 88705
DistanceSpacing: 1
BeatDivisor: 4
GridSize: 32
TimelineZoom: 1.7

[Metadata]
Title:Adabana Necromancy (TV Size)
TitleUnicode:徒花ネクロマンシー (TV Size)
Artist:Franchouchou
ArtistUnicode:フランシュシュ
Creator:-Aqua
Version:Kw's SAGA
Source:ゾンビランドサガ
Tags:Zombieland Saga Furanshushu 山田たえ Yamada Tae 0号 Zero-gō Number 0 源さくら Minamoto Sakura 1号 Ichi-gō Number 1 二階堂サキ Nikaidō Saki Nikaidou 2号 Ni-gō Number 2 水野愛 Mizuno Ai 3号 San-gō Number 3 紺野純子 Konno Junko 4号 Yon-gō Number 4 ゆうぎり Yūgiri Yuugiri 5号 Go-gō Number 5 星川リリィ Hoshikawa Lily Ririi 6号 Roku-gō Number 6 三石琴乃 Mitsuishi Kotono 本渡楓 Hondo Kaede 田野アサミ Tano Asami 種田梨沙 Taneda Risa 河瀬茉希 Kawase Maki 衣川里佳 Kinugawa Rika 田中美海 Tanaka Minami ZombielandSaga Zombie land Saga Special Producer: 巽幸太郎 Tatsumi Kōtarō Koutarou 宮野真守 Miyano Mamoru Japanese Anime Opening Rolniczy Rolni KwAIMSuckASFuk Yonaka-
BeatmapID:1985081
BeatmapSetID:926295

[Difficulty]
HPDrainRate:6
CircleSize:4.2
OverallDifficulty:9
ApproachRate:9.4
SliderMultiplier:3.59999990463257
SliderTickRate:2

[Events]
//Background and Video events
Video,-86,"zls banana.mp4"
0,0,"the hot junko.jpg",0,0
//Break Periods
//Storyboard Layer 0 (Background)
//Storyboard Layer 1 (Fail)
//Storyboard Layer 2 (Pass)
//Storyboard Layer 3 (Foreground)
//Storyboard Layer 4 (Overlay)
//Storyboard Sound Samples

[TimingPoints]
496,348.837209302326,4,2,1,65,1,0
670,-200,4,2,1,65,0,0
1891,-100,4,2,1,65,0,0
2414,-200,4,2,1,65,0,0
3286,-100,4,2,1,65,0,0
4507,-500,4,2,1,65,0,0
5379,-83.3333333333333,4,2,1,65,0,0
5989,-83.3333333333333,4,2,1,65,0,0
5990,-66.6666666666667,4,2,1,65,0,0
6077,-200,4,2,1,65,0,0
6774,-200,4,2,1,65,0,0
6775,-200,4,2,1,65,0,0
6949,-100,4,2,1,65,0,0
7472,-100,4,2,1,75,0,0
7996,-166.666666666667,4,2,1,75,0,0
8344,-100,4,2,1,75,0,0
9391,-166.666666666667,4,2,1,75,0,0
9740,-100,4,2,1,75,0,0
10786,-166.666666666667,4,2,1,75,0,0
11135,-133.333333333333,4,2,1,75,0,0
11309,-100,4,2,1,75,0,0
11658,-100,4,2,1,75,0,0
12182,-166.666666666667,4,2,1,75,0,0
12530,-100,4,2,1,75,0,0
13577,-166.666666666667,4,2,1,75,0,0
13926,-100,4,2,1,75,0,0
14972,-166.666666666667,4,2,1,75,0,0
15321,-100,4,2,1,75,0,0
16368,-166.666666666667,4,2,1,75,0,0
16716,-100,4,2,1,75,0,0
18112,-100,4,2,1,75,0,0
18635,-166.666666666667,4,2,1,75,0,0
18984,-100,4,2,1,75,0,0
20263,-90.9090909090909,4,2,1,75,0,0
21426,-100,4,2,1,75,0,0
21600,-200.000000000001,4,2,1,60,0,0
25089,-100,4,2,1,60,0,0
27007,-200,4,2,1,60,0,0
30670,-100,4,2,1,60,0,0
31193,-100,4,2,1,60,0,0
31716,-100,4,2,1,60,0,0
32589,-166.666666666667,4,2,1,60,0,0
33112,-83.3333333333333,4,2,1,60,0,0
33461,-125,4,2,1,60,0,0
33984,-200,4,2,1,60,0,0
34246,-83.3333333333333,4,2,1,60,0,0
34507,-66.6666666666667,4,2,1,60,0,0
34856,-100,4,2,1,60,0,0
35379,-83.3333333333333,4,2,1,60,0,0
35728,-125,4,2,1,60,0,0
36775,-100,4,2,1,60,0,0
37036,-83.3333333333333,4,2,1,60,0,0
37298,-100,4,2,1,60,0,0
38344,-83.3333333333333,4,2,1,60,0,0
38693,-166.666666666667,4,2,1,60,0,0
39042,-100,4,2,1,60,0,0
39565,-200,4,2,1,60,0,0
40961,-100,4,2,1,60,0,0
41833,-100,4,2,1,60,0,0
42356,-166.666666666667,4,2,1,60,0,0
42705,-83.3333333333333,4,2,1,60,0,0
43751,-83.3333333333333,4,2,1,70,0,1
44100,-66.6666666666667,4,2,1,70,0,0
44275,-166.666666666667,4,2,1,70,0,0
44623,-83.3333333333333,4,2,1,70,0,0
45147,-66.6666666666667,4,2,1,70,0,1
45496,-66.6666666666667,4,2,1,70,0,0
45670,-166.666666666667,4,2,1,70,0,0
46019,-100,4,2,1,70,0,0
46368,-83.3333333333333,4,2,1,70,0,0
46542,-166.666666666667,4,2,1,70,0,0
47065,-100,4,2,1,70,0,0
47589,-66.6666666666667,4,2,1,70,0,0
47850,-166.666666666667,4,2,1,70,0,0
48635,-500,4,2,1,70,0,0
49333,-250,4,2,1,70,0,0
50030,-100,4,2,1,70,0,0
50728,-100,4,2,1,85,0,1
51251,-166.666666666667,4,2,1,85,0,1
51600,-83.3333333333333,4,2,1,85,0,1
54042,-166.666666666667,4,2,1,85,0,1
54391,-100,4,2,1,85,0,1
54565,-83.3333333333333,4,2,1,85,0,1
55263,-100,4,2,1,85,0,1
55437,-500,4,2,1,85,0,1
56746,-83.3333333333333,4,2,1,85,0,1
57356,-166.666666666667,4,2,1,85,0,1
57705,-100,4,2,1,85,0,1
58751,-100,4,2,1,85,0,1
59100,-83.3333333333333,4,2,1,85,0,1
59972,-100,4,2,1,85,0,1
60757,-83.3333333333333,4,2,1,85,0,1
61019,-100,4,2,1,85,0,1
61368,-66.6666666666667,4,2,1,85,0,1
61891,-100,4,2,1,85,0,1
62007,-100,4,2,1,85,0,1
62414,-125,4,2,1,85,0,1
62763,-100,4,2,1,85,0,1
63025,-83.3333333333333,4,2,1,85,0,1
63461,-200,4,2,1,85,0,1
63984,-100,4,2,1,85,0,1
64682,-83.3333333333333,4,2,1,85,0,1
65030,-100,4,2,1,85,0,1
65205,-166.666666666667,4,2,1,85,0,1
65554,-100,4,2,1,85,0,1
66077,-200,4,2,1,85,0,1
66426,-100,4,2,1,85,0,1
66600,-166.666666666667,4,2,1,85,0,1
66949,-100,4,2,1,85,0,1
67472,-133.333333333333,4,2,1,85,0,0
70263,-100,4,2,1,85,0,0
70961,-133.333333333333,4,2,1,85,0,0
71484,-100,4,2,1,85,0,0
71571,-100,4,2,1,85,0,0
71745,-100,4,2,1,5,0,0
71833,-83.3333333333333,4,2,1,85,0,0
71920,-83.3333333333333,4,2,1,85,0,0
72094,-83.3333333333333,4,2,1,5,0,0
72182,-66.6666666666667,4,2,1,85,0,0
72269,-66.6666666666667,4,2,1,85,0,0
72443,-66.6666666666667,4,2,1,5,0,0
72530,-66.6666666666667,4,2,1,85,0,0
73054,-66.6666666666667,4,2,1,70,0,0
73402,-125,4,2,1,70,0,0
73577,-125,4,2,1,70,0,0
73663,-125,4,2,1,5,0,0
73751,-125,4,2,1,70,0,0
73926,-125,4,2,1,70,0,0
74012,-125,4,2,1,5,0,0
74100,-125,4,2,1,70,0,0
74275,-125,4,2,1,70,0,0
74361,-125,4,2,1,5,0,0
74449,-200,4,2,1,70,0,0
74623,-200,4,2,1,70,0,0
74710,-200,4,2,1,5,0,0
74798,-66.6666666666667,4,2,1,70,0,0
74885,-66.6666666666667,4,2,1,70,0,0
74972,-125,4,2,1,70,0,0
75147,-125,4,2,1,70,0,0
75233,-125,4,2,1,5,0,0
75321,-133.333333333333,4,2,1,70,0,0
75408,-133.333333333333,4,2,1,70,0,0
75496,-133.333333333333,4,2,1,70,0,0
75583,-133.333333333333,4,2,1,70,0,0
75670,-133.333333333333,4,2,1,70,0,0
75844,-125,4,2,1,70,0,0
76019,-125,4,2,1,70,0,0
76105,-125,4,2,1,5,0,0
76193,-125,4,2,1,70,0,0
76368,-125,4,2,1,70,0,0
76454,-125,4,2,1,5,0,0
76542,-125,4,2,1,70,0,0
76629,-125,4,2,1,70,0,0
76716,-125,4,2,1,70,0,0
76891,-125,4,2,1,70,0,0
76977,-125,4,2,1,5,0,0
77065,-125,4,2,1,70,0,0
77240,-125,4,2,1,70,0,0
77589,-125,4,2,1,70,0,0
77763,-83.3333333333333,4,2,1,70,0,0
78461,-100,4,2,1,80,0,0
78984,-166.666666666667,4,2,1,80,0,0
79333,-100,4,2,1,80,0,0
80466,-66.6666666666667,4,2,1,80,0,0
80728,-100,4,2,1,80,0,0
81251,-125,4,2,1,85,0,0
82298,-100,4,2,1,85,0,0
82472,-83.3333333333333,4,2,1,85,0,0
82647,-83.3333333333333,4,2,1,85,0,0
82821,-100,4,2,1,85,0,0
83519,-66.6666666666667,4,2,1,85,0,1
83693,-50,4,2,1,85,0,1
83868,-50,4,2,1,85,0,0
84216,-250,4,2,1,75,0,0
84304,-250,4,2,1,75,0,0
85436,-250,4,2,1,5,0,0
85612,-500,4,2,1,70,0,0
85699,-769.230769230769,4,2,1,70,0,0
88402,-769.230769230769,4,2,1,40,0,0

[Colours]
Combo1 : 226,150,235
Combo2 : 249,198,241
Combo3 : 245,185,131
Combo4 : 177,220,252
Combo5 : 202,202,202
Combo6 : 255,125,125
Combo7 : 255,255,162

[HitObjects]
50,118,496,6,0,P|49:167|46:213,2,89.9999976158143,0|0|0,1:0|1:0|1:0,0:0:0:0:
137,120,757,1,0,1:0:0:0:
152,131,844,1,8,0:0:0:0:
325,161,1019,6,0,B|218:148|261:244|130:223,1,179.999995231629,4|0,1:2|3:0,0:0:0:0:
144,220,1455,1,0,3:0:0:0:
144,220,1542,2,0,L|153:116,1,89.9999976158143,0|0,1:0|0:0,0:0:0:0:
393,333,1891,6,0,P|446:334|506:325,2,89.9999976158143,0|0|0,1:0|1:0|1:0,0:0:0:0:
325,368,2152,1,0,1:0:0:0:
252,346,2240,1,8,0:0:0:0:
238,274,2327,1,0,1:0:0:0:
277,210,2414,6,0,B|325:186|366:216|366:216|415:221|446:180,1,179.999995231629,4|0,1:2|3:0,0:0:0:0:
475,113,2850,1,0,3:0:0:0:
470,100,2937,1,0,1:0:0:0:
465,86,3025,1,0,1:0:0:0:
460,73,3112,1,0,1:0:0:0:
156,262,3286,6,0,B|173:313|113:338|113:338|39:232|164:142,1,269.999992847443,4|0,1:2|0:0,0:0:0:0:
255,122,3635,6,0,B|290:81|340:128|340:128|287:238|147:175,1,269.999992847443,4|0,1:2|0:0,0:0:0:0:
102,101,3984,6,0,B|92:56|135:22|135:22|177:49|169:113,1,179.999995231629,4|0,1:2|0:0,0:0:0:0:
317,293,4246,2,0,B|327:338|284:372|284:372|242:345|250:281,1,179.999995231629,4|0,1:2|0:0,0:0:0:0:
460,73,4507,6,0,P|453:129|451:183,1,107.999997138977,4|0,1:2|3:0,0:0:0:0:
461,206,5118,1,0,3:0:0:0:
248,294,5292,1,0,3:0:0:0:
242,277,5379,1,0,3:0:0:0:
241,263,5466,6,0,B|290:169|231:83|147:115|145:191|172:253|172:253|191:313|124:344|71:304|106:216|106:216|6:226|-4:117,1,647.999963058473,0|0,1:0|0:0,0:0:0:0:
45,39,6077,6,0,B|99:100|66:188|66:188|28:219|28:219|-8:305|66:386,1,359.999990463257,4|0,1:0|0:0,0:0:0:0:
46,362,6949,6,0,B|96:350|96:350|130:324|130:324|166:347|166:347|235:353,2,179.999995231629,0|8|2,1:0|0:0|1:2,0:0:0:0:
292,248,7472,6,0,B|338:211|423:268|382:352|356:374|356:374|373:332|425:333,1,269.999992847443,4|0,1:2|0:0,0:0:0:0:
472,365,7821,1,8,0:0:0:0:
493,129,7996,2,0,B|447:143|425:179|425:179|432:138|406:89,1,161.999990764618,0|0,1:0|0:0,0:0:0:0:
398,92,8344,1,0,1:0:0:0:
472,365,8519,1,8,0:0:0:0:
507,219,8693,1,0,1:0:0:0:
327,298,8868,6,0,B|392:292|392:292|433:319|433:319|524:305,2,179.999995231629,0|0|8,1:0|1:0|0:0,0:0:0:0:
181,199,9391,2,0,P|236:225|233:148,1,161.999990764618,0|0,1:0|0:0,0:0:0:0:
206,128,9740,1,0,1:0:0:0:
55,324,9914,2,0,P|41:339|50:310,1,89.9999976158143,8|0,0:0|0:0,0:0:0:0:
201,383,10089,1,2,0:0:0:0:
270,361,10176,1,2,0:0:0:0:
339,339,10263,6,0,B|341:260|423:185|423:185|353:186|330:237,1,269.999992847443,0|0,1:0|0:0,0:0:0:0:
277,260,10612,1,8,0:0:0:0:
512,175,10786,2,0,P|452:104|377:115,1,161.999990764618,0|0,1:0|0:0,0:0:0:0:
360,104,11135,1,0,1:0:0:0:
257,347,11309,2,0,B|303:361|303:361|349:332,1,89.9999976158143,8|0,0:0|0:0,0:0:0:0:
317,171,11484,2,0,B|271:157|271:157|225:186,1,89.9999976158143,0|0,1:0|0:0,0:0:0:0:
465,376,11658,6,0,P|472:250|453:97,1,269.999992847443,0|0,1:0|0:0,0:0:0:0:
412,42,12007,1,8,0:0:0:0:
161,158,12182,2,0,B|249:126|229:211|342:161,1,161.999990764618,0|0,1:0|0:0,0:0:0:0:
336,142,12530,1,0,1:0:0:0:
101,42,12705,1,8,0:0:0:0:
41,102,12792,1,0,0:0:0:0:
79,179,12879,1,0,1:0:0:0:
296,276,13054,5,0,1:0:0:0:
229,324,13141,1,2,0:0:0:0:
142,300,13228,2,0,L|53:314,1,89.9999976158143,2|0,0:0|0:0,0:0:0:0:
247,127,13402,2,0,L|335:141,1,89.9999976158143,0|0,1:0|0:0,0:0:0:0:
492,349,13577,6,0,L|307:372,1,161.999990764618,4|0,1:2|0:0,0:0:0:0:
300,372,13926,1,0,1:0:0:0:
398,102,14100,1,4,1:2:0:0:
381,153,14187,1,2,0:0:0:0:
333,176,14275,1,2,0:0:0:0:
279,165,14362,1,2,0:0:0:0:
247,127,14449,6,0,B|200:81|144:115|144:115|147:155|105:180|105:180|79:140|1:134,1,269.999992847443,4|0,1:2|0:0,0:0:0:0:
0,201,14798,1,8,0:0:0:0:
164,375,14972,2,0,B|273:362|273:362|215:328,1,161.999990764618,0|0,1:0|0:0,0:0:0:0:
208,315,15321,1,0,1:0:0:0:
322,59,15496,1,8,0:0:0:0:
309,253,15670,1,0,1:0:0:0:
174,183,15844,6,0,B|135:167|92:202|92:202|40:213|-8:174,2,179.999995231629,0|0|8,1:0|1:0|0:0,0:0:0:0:
407,120,16368,2,0,B|369:160|374:199|374:199|406:241|383:310,1,161.999990764618,0|0,1:0|0:0,0:0:0:0:
377,298,16716,1,0,1:0:0:0:
488,118,16891,1,8,0:0:0:0:
283,332,17065,1,2,0:0:0:0:
283,332,17152,1,2,0:0:0:0:
283,332,17240,6,0,P|310:232|463:253,1,269.999992847443,0|0,1:0|0:0,0:0:0:0:
477,314,17589,1,8,0:0:0:0:
217,155,17763,2,0,B|310:139|343:207|343:207|408:273|484:223,1,269.999992847443,0|0,1:0|0:0,0:0:0:0:
512,189,18112,2,0,B|536:178|536:178|528:312|528:312|505:287,2,179.999995231629,0|8|0,1:0|0:0|1:0,0:0:0:0:
138,331,18635,6,0,P|188:324|239:341,2,71.9999958953859,0|0|0,1:0|1:0|1:0,0:0:0:0:
90,152,18984,1,8,0:0:0:0:
43,355,19158,2,0,B|37:267|112:241|112:241|190:209|169:106,1,269.999992847443,0|0,1:0|0:0,0:0:0:0:
136,74,19507,1,0,1:0:0:0:
322,262,19682,5,8,0:0:0:0:
392,279,19769,1,8,0:0:0:0:
457,249,19856,1,0,1:0:0:0:
483,182,19943,1,0,1:0:0:0:
464,113,20030,5,0,1:2:0:0:
114,159,20263,6,0,B|110:186|66:206|66:206|112:219|133:253,1,132.000000531515,4|0,1:2|0:0,0:0:0:0:
350,137,20496,2,0,B|344:105|361:71|361:71|322:88|295:73,1,132.000000531515,2|0,1:2|0:0,0:0:0:0:
169,293,20728,2,0,B|193:305|197:353|197:353|225:314|244:312,1,132.000000531515,2|0,1:2|0:0,0:0:0:0:
224,62,20961,2,0,B|197:67|165:30|165:30|168:69|152:91,1,132.000000531515,2|0,1:2|0:0,0:0:0:0:
318,281,21193,2,0,B|337:260|384:270|384:270|355:232|352:211,1,132.000000531515,2|0,1:2|0:0,0:0:0:0:
232,186,21426,5,4,1:2:0:0:
38,232,21949,1,2,1:2:0:0:
108,26,22298,5,0,1:0:0:0:
142,258,22472,2,0,L|126:160,1,89.9999976158143,8|2,0:0|0:0,0:0:0:0:
251,241,22821,5,2,1:2:0:0:
89,337,22996,1,0,0:0:0:0:
311,304,23170,1,8,0:0:0:0:
142,258,23344,1,2,1:2:0:0:
498,107,23693,5,2,1:2:0:0:
411,280,23868,2,0,L|420:373,1,89.9999976158143,8|2,0:0|0:0,0:0:0:0:
269,100,24216,5,2,1:2:0:0:
318,107,24304,1,2,0:2:0:0:
353,145,24391,1,2,0:2:0:0:
290,232,24565,5,8,0:0:0:0:
311,180,24653,1,2,0:2:0:0:
353,145,24740,1,0,1:0:0:0:
319,382,24914,5,2,0:2:0:0:
258,339,25001,1,2,0:2:0:0:
186,348,25089,1,0,1:0:0:0:
438,331,25263,5,8,0:0:0:0:
449,244,25350,1,2,0:2:0:0:
459,158,25437,1,2,0:2:0:0:
107,130,25612,5,2,1:2:0:0:
183,138,25699,1,2,0:0:0:0:
241,85,25786,1,2,0:0:0:0:
56,199,25961,1,8,0:0:0:0:
141,307,26135,5,2,1:2:0:0:
127,232,26222,1,2,0:0:0:0:
56,199,26309,1,2,0:0:0:0:
217,326,26484,1,0,1:0:0:0:
361,25,26658,5,10,0:0:0:0:
283,21,26746,1,2,0:0:0:0:
241,85,26833,1,2,0:0:0:0:
471,11,27007,5,4,1:2:0:0:
414,228,27182,2,0,L|401:75,1,89.9999976158143,2|10,0:0|0:0,0:0:0:0:
512,216,27530,1,2,1:2:0:0:
109,362,27879,5,0,1:0:0:0:
216,244,28054,2,0,L|305:236,1,89.9999976158143,10|2,0:0|0:0,0:0:0:0:
138,35,28402,5,2,1:2:0:0:
292,3,28577,1,0,0:0:0:0:
107,117,28751,1,8,0:0:0:0:
241,78,28926,1,2,1:2:0:0:
71,268,29275,5,2,1:2:0:0:
27,84,29449,2,0,L|22:188,1,89.9999976158143,8|2,0:0|0:0,0:0:0:0:
221,344,29798,6,0,P|188:354|149:343,1,44.9999988079071,2|2,1:2|0:2,0:0:0:0:
281,185,29972,1,2,0:2:0:0:
402,351,30147,6,0,P|435:361|474:350,1,44.9999988079071,8|2,0:0|0:2,0:0:0:0:
277,170,30321,1,0,1:0:0:0:
213,368,30496,6,0,P|180:378|141:367,1,44.9999988079071,2|2,0:2|0:2,0:0:0:0:
273,154,30670,1,0,1:0:0:0:
481,367,30844,5,8,0:0:0:0:
473,297,30932,1,2,0:2:0:0:
466,226,31019,1,2,0:2:0:0:
300,21,31193,6,0,P|365:85|358:180,1,179.999995231629,2|0,1:2|0:0,0:0:0:0:
273,243,31455,2,0,B|212:257|168:205|168:205|150:235|177:280,1,179.999995231629,2|0,0:0|0:0,0:0:0:0:
271,338,31716,2,0,B|388:326|386:165|272:152|272:152|226:111|254:45,1,359.999990463257,2|0,1:2|1:0,0:0:0:0:
429,97,32240,1,8,0:0:0:0:
89,141,32414,1,2,0:0:0:0:
361,53,32589,6,0,P|416:14|474:36,2,107.999993843079,6|2|8,1:2|0:0|0:0,0:0:0:0:
88,140,33112,6,0,P|130:12|221:112,1,323.999981529237,2|0,1:2|0:0,0:0:0:0:
188,204,33461,2,0,B|179:243|179:243|197:294,1,71.9999980926514,0|2,1:0|0:2,0:0:0:0:
403,244,33635,1,8,0:0:0:0:
333,214,33722,1,2,0:2:0:0:
262,240,33809,1,2,0:2:0:0:
459,188,33984,6,0,P|494:195|474:157,1,89.9999976158143,4|0,1:2|0:0,0:0:0:0:
434,88,34246,2,0,B|389:65|357:102|357:102|326:138|259:141|226:62,1,215.999987686158,2|0,1:2|0:0,0:0:0:0:
157,37,34507,6,0,B|95:-4|26:139|153:117|150:186|150:186|97:137|11:179|14:251|52:302,1,405.000004720688,4|0,1:2|0:0,0:0:0:0:
88,310,34856,1,0,1:0:0:0:
332,325,35030,2,0,B|349:281|349:281|296:212|296:212|241:281|241:281|266:336,1,269.999992847443,8|0,0:0|0:0,0:0:0:0:
405,217,35379,6,0,P|329:122|186:228,1,323.999981529237,6|0,1:2|0:0,0:0:0:0:
155,302,35728,2,0,B|140:339|140:339|127:293,1,71.9999980926514,0|0,1:0|0:0,0:0:0:0:
37,90,35902,6,0,B|92:123|137:109|137:109|177:52|248:47,1,215.999994277954,4|0,1:2|0:0,0:0:0:0:
309,56,36251,2,0,B|331:89|331:89|328:132,1,71.9999980926514,0|2,1:0|0:2,0:0:0:0:
136,220,36426,1,8,0:0:0:0:
199,178,36513,1,2,0:2:0:0:
275,176,36600,1,2,0:2:0:0:
29,343,36775,6,0,P|27:234|29:135,1,179.999995231629,6|0,1:2|0:0,0:0:0:0:
37,90,37036,1,2,0:0:0:0:
58,22,37123,1,8,0:0:0:0:
424,126,37298,2,0,P|419:234|339:152,1,269.999992847443,6|0,1:2|0:0,0:0:0:0:
349,89,37647,1,2,1:2:0:0:
465,328,37821,1,10,0:0:0:0:
480,74,37996,2,0,B|433:86|433:86|419:153,1,89.9999976158143,2|0,0:0|0:0,0:0:0:0:
306,300,38170,5,6,1:2:0:0:
364,357,38344,6,0,P|393:300|368:247,1,107.999993843079,2|0,0:0|0:0,0:0:0:0:
138,227,38519,2,0,P|109:284|134:337,1,107.999993843079,2|0,0:0|0:0,0:0:0:0:
306,300,38693,6,0,L|192:289,1,107.999993843079,0|0,1:0|0:0,0:0:0:0:
61,34,39042,1,2,1:2:0:0:
253,47,39216,1,10,0:0:0:0:
16,147,39391,1,2,0:0:0:0:
260,125,39565,6,0,L|385:140,1,89.9999976158143,6|0,1:2|0:0,0:0:0:0:
69,275,39914,1,8,0:0:0:0:
156,42,40089,1,0,1:0:0:0:
171,334,40263,1,2,0:0:0:0:
408,120,40437,1,0,1:0:0:0:
156,144,40612,2,0,P|144:185|177:248,1,89.9999976158143,8|2,0:0|0:0,0:0:0:0:
463,275,40961,5,6,1:2:0:0:
481,52,41135,1,0,0:0:0:0:
376,334,41309,1,8,0:0:0:0:
272,15,41484,2,0,B|272:92|334:132|334:132|387:182|358:274,1,269.999992847443,0|0,1:0|0:0,0:0:0:0:
292,281,41833,1,0,1:0:0:0:
21,196,42007,1,8,0:0:0:0:
70,136,42094,1,8,0:0:0:0:
140,109,42182,1,8,0:0:0:0:
212,137,42269,1,8,0:0:0:0:
263,190,42356,6,0,P|337:212|442:143,1,161.999990764618,0|0,1:2|0:0,0:0:0:0:
358,119,42705,2,0,B|312:176|360:236|360:236|405:257|405:257|458:335|360:400,1,323.999981529237,4|0,1:2|0:0,0:0:0:0:
306,361,43054,1,2,0:0:0:0:
396,45,43228,1,2,1:2:0:0:
469,196,43402,1,2,1:2:0:0:
452,191,43490,1,0,1:0:0:0:
437,187,43577,1,2,1:2:0:0:
423,185,43664,1,0,1:0:0:0:
412,181,43751,6,0,B|322:187|322:187|297:182|297:182|153:188|153:188,2,215.999987686158,4|0|8,1:2|0:0|0:0,0:0:0:0:
137,246,44275,2,0,P|114:168|140:133,1,107.999993843079,0|0,1:0|0:0,0:0:0:0:
295,68,44623,1,0,1:0:0:0:
241,321,44798,1,8,0:0:0:0:
491,195,44972,1,0,1:0:0:0:
477,123,45059,1,0,1:0:0:0:
459,53,45147,6,0,B|366:37|366:37|430:69,1,135.000001573563,4|0,1:2|0:0,0:0:0:0:
351,294,45321,2,0,B|411:221|411:221|351:260,1,135.000001573563,8|0,0:0|0:0,0:0:0:0:
186,82,45496,2,0,B|218:170|218:170|214:99,1,135.000001573563,4|0,1:2|0:0,0:0:0:0:
491,195,45670,2,0,P|451:142|353:151,1,161.999990764618,4|0,1:2|0:0,0:0:0:0:
343,168,46019,1,4,1:2:0:0:
143,347,46193,1,0,1:0:0:0:
144,357,46280,1,0,1:0:0:0:
145,366,46368,2,0,B|200:382|200:382|276:340,1,107.999993843079,8|8,0:0|0:0,0:0:0:0:
186,82,46542,6,0,P|193:165|194:309,1,215.999987686158,4|0,1:2|0:0,0:0:0:0:
271,94,47065,2,0,B|265:181|155:203|113:138|113:138|10:117|-14:234,1,359.999990463257,4|0,1:2|0:0,0:0:0:0:
21,270,47501,1,0,0:0:0:0:
87,309,47589,2,0,P|225:274|213:159,1,270.000003147125,4|0,1:2|0:0,0:0:0:0:
186,82,47850,6,0,P|156:88|132:98,1,53.9999969215394,0|4,0:0|1:2,0:0:0:0:
512,137,48635,6,0,P|471:129|431:132,1,71.9999980926514,2|0,0:0|0:0,0:0:0:0:
334,43,49333,2,0,P|347:82|355:196,1,143.999996185303,2|0,0:0|0:0,0:0:0:0:
239,173,50030,6,0,B|236:203|208:226|208:226|227:147|165:94|165:94|173:52|173:52|134:54|134:54|98:24|98:24|86:68|86:68|50:91|50:91|82:112|82:112|90:157|90:157|124:132|124:132,1,539.999985694885,2|0,0:0|0:0,0:0:0:0:
256,67,50728,5,6,1:2:0:0:
30,217,50902,1,2,0:0:0:0:
315,151,51077,1,10,0:0:0:0:
38,349,51251,2,0,P|122:322|188:356,1,161.999990764618,6|0,1:2|0:0,0:0:0:0:
226,358,51600,6,0,B|254:307|254:307|228:239,1,107.999993843079,8|0,0:0|0:0,0:0:0:0:
126,114,51775,1,0,1:0:0:0:
151,156,51862,1,0,0:0:0:0:
193,171,51949,1,8,0:0:0:0:
238,154,52036,1,0,0:0:0:0:
263,114,52123,1,4,1:2:0:0:
141,15,52298,5,2,0:0:0:0:
178,269,52472,1,2,0:0:0:0:
436,82,52647,1,6,1:2:0:0:
434,73,52734,1,0,0:0:0:0:
430,62,52821,2,0,P|369:60|335:97,1,107.999993843079,2|0,0:0|0:0,0:0:0:0:
410,303,52996,2,0,P|470:304|504:267,1,107.999993843079,10|0,0:0|0:0,0:0:0:0:
427,45,53170,2,0,P|366:43|332:80,1,107.999993843079,2|0,1:2|0:0,0:0:0:0:
182,304,53344,1,2,0:0:0:0:
182,304,53432,1,0,0:0:0:0:
182,304,53519,6,0,B|126:194|218:112|218:112|224:185|276:210,1,323.999981529237,4|0,1:2|0:0,0:0:0:0:
345,205,53868,1,2,0:0:0:0:
126,29,54042,2,0,B|133:106|66:109|83:198,1,161.999990764618,4|0,1:2|0:0,0:0:0:0:
72,215,54391,1,8,0:0:0:0:
338,342,54565,6,0,B|390:317|390:317|347:283,1,107.999993843079,2|0,1:2|0:0,0:0:0:0:
182,304,54740,2,0,B|177:361|177:361|228:341,1,107.999993843079,2|0,1:2|0:0,0:0:0:0:
270,189,54914,2,0,B|226:160|226:160|218:214,1,107.999993843079,4|0,1:2|0:0,0:0:0:0:
402,230,55089,5,2,0:0:0:0:
139,205,55263,1,10,0:0:0:0:
378,144,55437,1,6,1:2:0:0:
108,47,55612,1,2,0:0:0:0:
410,60,55786,1,10,0:0:0:0:
449,80,55873,1,8,0:0:0:0:
471,117,55961,1,10,0:0:0:0:
465,190,56048,1,8,0:0:0:0:
402,231,56135,1,10,0:0:0:0:
351,286,56222,1,8,0:0:0:0:
353,359,56309,5,4,1:2:0:0:
304,70,56484,1,2,0:0:0:0:
55,240,56658,5,8,0:0:0:0:
55,240,56746,2,0,P|61:269|19:246,1,107.999993843079,0|2,0:0|0:0,0:0:0:0:
56,86,56920,1,0,0:0:0:0:
114,28,57007,2,0,B|141:75|141:75|123:154,2,107.999993843079,0|0|2,1:0|0:0|0:0,0:0:0:0:
240,278,57356,2,0,P|212:270|174:198,1,107.999993843079,8|2,0:0|0:0,0:0:0:0:
433,190,57705,6,0,B|344:153|257:193|257:193|259:144|342:124,1,269.999992847443,0|0,1:0|0:0,0:0:0:0:
379,93,58054,1,8,0:0:0:0:
332,302,58228,1,2,0:0:0:0:
266,48,58402,1,0,1:0:0:0:
415,270,58577,1,2,0:0:0:0:
151,353,58751,2,0,P|126:300|134:253,1,89.9999976158143,8|0,0:0|0:0,0:0:0:0:
178,68,58926,2,0,P|203:121|195:168,1,89.9999976158143,2|0,0:0|0:0,0:0:0:0:
66,174,59100,6,0,B|46:289|-77:241|-49:135|25:92|164:140,1,323.999981529237,6|0,1:2|0:0,0:0:0:0:
200,151,59449,1,10,0:0:0:0:
248,359,59623,1,2,0:0:0:0:
277,152,59798,1,0,1:0:0:0:
48,310,59972,1,10,0:0:0:0:
393,384,60147,1,2,1:2:0:0:
408,339,60234,1,0,1:0:0:0:
414,290,60321,1,8,0:0:0:0:
410,242,60408,1,8,0:0:0:0:
400,197,60496,6,0,B|373:131|377:75|377:75|335:97|339:158,1,179.999995231629,6|0,1:2|0:0,0:0:0:0:
277,152,60757,2,0,B|257:202|257:202|310:236,1,107.999993843079,2|0,0:0|1:0,0:0:0:0:
454,37,61019,2,0,P|379:-5|299:29,1,179.999995231629,6|0,1:2|0:0,0:0:0:0:
302,231,61368,1,2,1:2:0:0:
511,83,61542,1,10,0:0:0:0:
454,37,61629,1,8,0:0:0:0:
388,73,61716,1,2,1:2:0:0:
315,328,61891,5,6,1:2:0:0:
479,166,62065,2,0,B|492:211|492:211|478:258,1,89.9999976158143,2|0,0:0|0:0,0:0:0:0:
191,190,62240,2,0,B|178:137|178:137|192:99,1,89.9999976158143,10|0,0:0|0:0,0:0:0:0:
388,73,62414,2,0,B|328:69|284:118|284:118|230:140|171:90,1,215.999994277954,6|0,1:2|0:0,0:0:0:0:
173,32,62763,1,8,0:0:0:0:
365,258,62937,5,0,1:0:0:0:
315,328,63025,2,0,B|276:291|276:291|209:311,2,107.999993843079,0|8|0,0:0|0:0|0:0,0:0:0:0:
255,382,63286,1,4,1:2:0:0:
265,81,63461,5,2,0:0:0:0:
136,301,63635,1,2,0:0:0:0:
365,53,63809,1,6,1:2:0:0:
432,257,63984,2,0,P|452:200|427:146,1,89.9999976158143,2|0,0:0|0:0,0:0:0:0:
211,139,64158,2,0,P|195:189|214:253,1,89.9999976158143,10|0,0:0|0:0,0:0:0:0:
265,81,64333,1,2,1:2:0:0:
231,53,64420,1,0,0:0:0:0:
183,45,64507,1,2,0:0:0:0:
138,65,64594,1,0,0:0:0:0:
111,95,64682,6,0,B|65:136|80:207|80:207|150:242|150:328|150:328|106:307|59:312,1,323.999981529237,4|0,1:2|0:0,0:0:0:0:
28,348,65030,1,2,0:0:0:0:
253,369,65205,2,0,P|279:305|227:222,1,161.999990764618,4|0,1:2|0:0,0:0:0:0:
199,224,65554,1,8,0:0:0:0:
0,262,65728,1,2,1:2:0:0:
309,308,65902,1,10,0:2:0:0:
168,314,66077,1,4,1:2:0:0:
356,166,66251,5,2,0:0:0:0:
412,370,66426,1,10,0:0:0:0:
277,182,66600,1,6,1:2:0:0:
445,99,66775,1,2,0:0:0:0:
334,269,66949,1,10,0:0:0:0:
309,308,67036,1,8,0:0:0:0:
241,335,67123,1,10,0:0:0:0:
168,314,67211,1,8,0:0:0:0:
113,257,67298,1,10,0:0:0:0:
43,278,67385,1,8,0:0:0:0:
20,354,67472,6,0,P|99:336|116:269,1,135.000001573563,4|2,1:2|0:0,0:0:0:0:
44,51,67821,1,8,0:0:0:0:
249,191,67996,2,0,P|179:183|112:183,1,135.000001573563,2|0,0:0|1:0,0:0:0:0:
401,243,68344,1,2,0:0:0:0:
432,57,68519,1,8,0:0:0:0:
328,151,68693,6,0,B|350:217|309:263|309:263|292:306|354:388,1,202.500002360344,2|0,0:0|0:0,0:0:0:0:
400,350,69042,1,2,0:0:0:0:
232,316,69216,1,8,0:0:0:0:
472,171,69391,2,0,P|496:230|453:297,1,135.000001573563,2|0,0:0|1:0,0:0:0:0:
278,76,69740,1,2,0:0:0:0:
407,225,69914,1,8,0:0:0:0:
167,115,70089,1,2,0:0:0:0:
504,101,70263,6,0,B|542:78|526:26|526:26|432:21|452:112|330:66,1,269.999992847443,6|0,1:2|0:0,0:0:0:0:
328,4,70612,1,10,0:0:0:0:
407,225,70786,1,2,0:0:0:0:
169,45,70961,6,0,P|160:87|175:126,1,67.5000007867814,0|0,1:0|0:0,0:0:0:0:
315,225,71135,2,0,P|283:196|242:189,1,67.5000007867814,2|0,1:2|0:0,0:0:0:0:
70,272,71309,2,0,P|110:258|136:229,1,67.5000007867814,0|0,1:0|0:0,0:0:0:0:
364,218,71484,6,0,P|243:209|243:330,1,269.999992847443,6|0,1:2|0:0,0:0:0:0:
314,364,71833,6,0,P|388:298|254:188,1,323.999981529237,2|0,1:2|0:0,0:0:0:0:
202,237,72182,6,0,P|213:331|389:212,1,405.000004720688,6|0,1:2|0:0,0:0:0:0:
391,135,72530,1,2,1:2:0:0:
358,110,72618,1,8,0:0:0:0:
310,95,72705,1,8,0:0:0:0:
236,91,72792,1,8,0:0:0:0:
168,120,72879,1,10,0:0:0:0:
122,180,72966,1,8,0:0:0:0:
111,254,73054,1,4,1:2:0:0:
402,120,73402,6,0,P|319:106|315:246,1,215.999994277954,10|0,1:2|0:0,0:0:0:0:
427,228,73751,2,0,P|426:129|283:121,1,215.999994277954,0|0,1:0|0:0,0:0:0:0:
292,247,74100,2,0,P|404:262|442:145,1,215.999994277954,10|0,0:0|0:0,0:0:0:0:
191,122,74449,6,0,B|270:117|230:175|308:172,1,134.999996423721,0|0,1:0|0:0,0:0:0:0:
341,167,74798,1,10,0:0:0:0:
62,88,74972,6,0,P|67:193|55:363,1,215.999994277954,2|0,0:0|0:0,0:0:0:0:
36,329,75321,1,2,0:0:0:0:
166,200,75496,1,8,0:0:0:0:
164,377,75670,1,2,0:0:0:0:
376,323,75844,6,0,P|438:248|312:216,1,215.999994277954,0|0,1:0|0:0,0:0:0:0:
303,308,76193,2,0,P|405:325|426:200,1,215.999994277954,10|0,0:0|0:0,0:0:0:0:
362,186,76542,1,2,1:2:0:0:
124,112,76716,2,0,P|195:41|194:128,1,215.999994277954,2|0,0:0|0:0,0:0:0:0:
198,138,77065,1,2,0:0:0:0:
58,319,77240,6,0,P|100:324|53:288,1,143.999996185303,0|2,1:0|0:0,0:0:0:0:
358,253,77589,1,8,0:0:0:0:
184,370,77763,1,2,0:0:0:0:
434,301,77937,2,0,B|461:247|461:247|431:186,1,107.999993843079,6|0,1:2|0:0,0:0:0:0:
283,26,78112,2,0,B|256:80|256:80|286:141,1,107.999993843079,6|0,1:2|0:0,0:0:0:0:
417,78,78286,1,8,0:0:0:0:
112,240,78461,6,0,B|35:188|121:104|226:144|198:317,1,269.999992847443,4|0,1:2|0:0,0:0:0:0:
155,331,78809,1,0,1:0:0:0:
68,90,78984,2,0,P|129:66|175:98,1,107.999993843079,8|2,1:2|0:0,0:0:0:0:
6,220,79333,1,2,1:2:0:0:
27,8,79507,1,2,0:0:0:0:
112,240,79682,1,10,1:2:0:0:
395,87,79856,6,0,B|246:69|317:187|146:172,1,269.999992847443,6|0,1:2|0:0,0:0:0:0:
79,162,80205,1,2,1:2:0:0:
261,271,80379,2,0,L|333:280,1,44.9999988079071,2|0,1:2|0:0,0:0:0:0:
270,289,80466,2,0,L|358:301,1,67.5000007867814,0|0,1:0|0:0,0:0:0:0:
104,78,80728,6,0,L|-3:94,1,89.9999976158143,0|0,1:0|0:0,0:0:0:0:
22,315,80902,2,0,L|138:333,1,89.9999976158143,10|0,0:0|0:0,0:0:0:0:
113,91,81077,2,0,L|6:107,1,89.9999976158143,0|0,1:0|0:0,0:0:0:0:
331,156,81251,6,0,P|286:76|206:154,1,215.999994277954,6|0,1:2|0:0,0:0:0:0:
207,208,81600,1,2,1:2:0:0:
415,118,81775,5,6,1:2:0:0:
401,348,81949,1,2,0:0:0:0:
505,68,82123,1,2,1:2:0:0:
494,314,82298,1,2,0:0:0:0:
234,61,82472,2,0,P|289:42|343:65,1,107.999993843079,10|0,0:0|0:0,0:0:0:0:
338,307,82647,2,0,P|283:326|229:303,1,107.999993843079,2|0,0:0|0:0,0:0:0:0:
26,20,82821,5,0,1:0:0:0:
20,91,82908,1,0,1:0:0:0:
14,163,82995,1,0,1:0:0:0:
8,234,83083,1,0,1:0:0:0:
3,307,83170,1,0,1:2:0:0:
273,12,83519,6,0,P|237:24|275:96,1,135.000001573563,6|0,1:2|0:0,0:0:0:0:
240,192,83693,2,0,P|319:138|265:100,1,179.999995231629,6|0,1:2|0:0,0:0:0:0:
247,358,84216,6,0,B|293:324|383:367|383:367|336:304|366:243|366:243|411:156|520:175|532:293|429:291|429:291,1,503.99998664856,2|0,0:0|0:0,0:0:0:0:
190,240,85612,6,0,B|126:284|91:183|136:143|249:163|284:233|284:233|298:166|388:120|388:120|339:62|319:137|261:102,1,575.999984741211,2|2,0:0|0:0,0:0:0:0:
