osu file format v14

[General]
AudioFilename: audio.mp3
AudioLeadIn: 0
PreviewTime: 43778
Countdown: 1
SampleSet: Normal
StackLeniency: 0.7
Mode: 1
LetterboxInBreaks: 0
WidescreenStoryboard: 0

[Editor]
Bookmarks: 623,7599,14576,25739,36901,43878,55040,66203,77366,88529
DistanceSpacing: 0.7
BeatDivisor: 4
GridSize: 32
TimelineZoom: 1

[Metadata]
Title:Adabana Necromancy
TitleUnicode:徒花ネクロマンシー
Artist:Franchouchou
ArtistUnicode:フランシュシュ
Creator:DakeDekaane
Version:Muzukashii
Source:ゾンビランドサガ
Tags:Zombieland Saga opening
BeatmapID:1861585
BeatmapSetID:890490

[Difficulty]
HPDrainRate:7
CircleSize:5
OverallDifficulty:5
ApproachRate:5
SliderMultiplier:1.4
SliderTickRate:1

[Events]
//Background and Video events
0,0,"71294940_p0.jpg",0,0
//Break Periods
//Storyboard Layer 0 (Background)
//Storyboard Layer 1 (Fail)
//Storyboard Layer 2 (Pass)
//Storyboard Layer 3 (Foreground)
//Storyboard Sound Samples

[TimingPoints]
623,348.837209302326,4,1,0,100,1,0
7600,348.837209302326,4,1,0,100,1,0
14576,348.837209302326,4,1,0,100,1,0
43878,348.837209302326,4,1,0,100,1,1
66203,-100,4,1,0,100,0,0

[HitObjects]
256,192,623,5,0,0:0:0:0:
256,192,710,1,0,0:0:0:0:
256,192,797,1,0,0:0:0:0:
256,192,1146,1,4,0:0:0:0:
256,192,2018,1,8,0:0:0:0:
256,192,2105,1,8,0:0:0:0:
256,192,2192,1,8,0:0:0:0:
256,192,2541,1,12,0:0:0:0:
256,192,3413,1,4,0:0:0:0:
256,192,3762,1,4,0:0:0:0:
256,192,4111,1,12,0:0:0:0:
256,192,4373,1,4,0:0:0:0:
256,192,4634,2,4,B|512:192|512:192|512:0|512:0|320:0,1,630
256,192,7599,5,4,0:0:0:0:
256,192,7948,1,8,0:0:0:0:
256,192,8123,1,0,0:0:0:0:
256,192,8472,1,0,0:0:0:0:
256,192,8820,1,0,0:0:0:0:
256,192,8995,1,8,0:0:0:0:
256,192,9169,1,0,0:0:0:0:
256,192,9344,1,0,0:0:0:0:
256,192,9518,1,8,0:0:0:0:
256,192,10390,1,0,0:0:0:0:
256,192,10739,1,8,0:0:0:0:
256,192,10913,1,0,0:0:0:0:
256,192,11262,1,0,0:0:0:0:
256,192,11437,1,8,0:0:0:0:
256,192,11611,1,8,0:0:0:0:
256,192,11786,1,0,0:0:0:0:
256,192,11960,12,0,13181,0:0:0:0:
256,192,14576,5,4,0:0:0:0:
256,192,15099,1,0,0:0:0:0:
256,192,15448,1,0,0:0:0:0:
256,192,15622,1,8,0:0:0:0:
256,192,15971,1,0,0:0:0:0:
256,192,16494,1,0,0:0:0:0:
256,192,16843,1,0,0:0:0:0:
256,192,17017,1,8,0:0:0:0:
256,192,17366,2,0,B|512:192|512:192|512:0|512:0|384:0,1,560
256,192,20157,1,0,0:0:0:0:
256,192,20680,1,8,0:0:0:0:
256,192,21029,1,0,0:0:0:0:
256,192,21203,1,8,0:0:0:0:
256,192,21552,1,0,0:0:0:0:
256,192,22076,1,8,0:0:0:0:
256,192,22424,1,0,0:0:0:0:
256,192,22599,1,8,0:0:0:0:
256,192,22948,2,0,B|512:192|512:192|512:0|512:0|384:0,1,560
256,192,25564,1,0,0:0:0:0:
256,192,25738,1,0,0:0:0:0:
256,192,25913,1,0,0:0:0:0:
256,192,26262,1,12,0:0:0:0:
256,192,27134,1,8,0:0:0:0:
256,192,27395,1,8,0:0:0:0:
256,192,27657,1,8,0:0:0:0:
256,192,28355,1,8,0:0:0:0:
256,192,28529,1,8,0:0:0:0:
256,192,28703,1,8,0:0:0:0:
256,192,29052,5,4,0:0:0:0:
256,192,29924,1,0,0:0:0:0:
256,192,30186,1,0,0:0:0:0:
256,192,30448,1,0,0:0:0:0:
256,192,31320,1,0,0:0:0:0:
256,192,31843,1,0,0:0:0:0:
256,192,32192,1,0,0:0:0:0:
256,192,32366,1,8,0:0:0:0:
256,192,32715,1,0,0:0:0:0:
256,192,33238,1,0,0:0:0:0:
256,192,33587,1,8,0:0:0:0:
256,192,33762,1,8,0:0:0:0:
256,192,34110,2,0,B|512:192|512:192|512:0|512:0|384:0,1,560
256,192,35855,5,12,0:0:0:0:
256,192,36901,6,0,B|512:192|512:192|512:0|512:0|384:0,2,560
256,192,40738,1,4,0:0:0:0:
256,192,41087,1,4,0:0:0:0:
256,192,41785,12,0,43180,0:0:0:0:
256,192,43878,5,4,0:0:0:0:
256,192,44052,1,0,0:0:0:0:
256,192,44226,1,0,0:0:0:0:
256,192,44401,1,4,0:0:0:0:
256,192,44750,1,0,0:0:0:0:
256,192,44924,1,8,0:0:0:0:
256,192,45273,1,4,0:0:0:0:
256,192,45447,1,0,0:0:0:0:
256,192,45622,1,0,0:0:0:0:
256,192,45796,1,4,0:0:0:0:
256,192,46145,1,8,0:0:0:0:
256,192,46319,1,8,0:0:0:0:
256,192,46668,1,4,0:0:0:0:
256,192,46843,1,0,0:0:0:0:
256,192,47017,1,0,0:0:0:0:
256,192,47191,1,4,0:0:0:0:
256,192,47540,1,0,0:0:0:0:
256,192,47715,1,8,0:0:0:0:
256,192,48064,1,4,0:0:0:0:
256,192,48238,1,0,0:0:0:0:
256,192,48412,1,0,0:0:0:0:
256,192,48587,1,4,0:0:0:0:
256,192,49110,1,8,0:0:0:0:
256,192,49284,1,0,0:0:0:0:
256,192,49372,1,0,0:0:0:0:
256,192,49459,1,0,0:0:0:0:
256,192,49808,1,8,0:0:0:0:
256,192,50157,1,0,0:0:0:0:
256,192,50331,1,0,0:0:0:0:
256,192,50505,1,8,0:0:0:0:
256,192,50854,1,0,0:0:0:0:
256,192,51203,1,8,0:0:0:0:
256,192,51552,1,0,0:0:0:0:
256,192,51726,1,0,0:0:0:0:
256,192,51901,1,8,0:0:0:0:
256,192,52250,1,0,0:0:0:0:
256,192,52598,1,8,0:0:0:0:
256,192,52773,1,0,0:0:0:0:
256,192,53122,1,8,0:0:0:0:
256,192,53296,1,8,0:0:0:0:
256,192,53645,1,4,0:0:0:0:
256,192,53907,1,4,0:0:0:0:
256,192,54168,1,4,0:0:0:0:
256,192,55040,5,12,0:0:0:0:
256,192,55215,1,0,0:0:0:0:
256,192,55389,1,0,0:0:0:0:
256,192,55564,1,12,0:0:0:0:
256,192,55912,1,0,0:0:0:0:
256,192,56087,1,8,0:0:0:0:
256,192,56436,1,12,0:0:0:0:
256,192,56610,1,0,0:0:0:0:
256,192,56784,1,0,0:0:0:0:
256,192,56959,1,12,0:0:0:0:
256,192,57308,1,8,0:0:0:0:
256,192,57482,1,8,0:0:0:0:
256,192,57831,1,12,0:0:0:0:
256,192,58005,1,0,0:0:0:0:
256,192,58180,1,0,0:0:0:0:
256,192,58354,1,12,0:0:0:0:
256,192,58703,1,0,0:0:0:0:
256,192,58878,1,8,0:0:0:0:
256,192,59226,1,12,0:0:0:0:
256,192,59401,1,0,0:0:0:0:
256,192,59575,1,0,0:0:0:0:
256,192,59750,1,12,0:0:0:0:
256,192,60273,1,8,0:0:0:0:
256,192,60447,1,0,0:0:0:0:
256,192,60534,1,0,0:0:0:0:
256,192,60622,1,0,0:0:0:0:
256,192,60971,1,8,0:0:0:0:
256,192,61319,1,0,0:0:0:0:
256,192,61494,1,0,0:0:0:0:
256,192,61668,1,8,0:0:0:0:
256,192,62017,1,0,0:0:0:0:
256,192,62366,1,8,0:0:0:0:
256,192,62715,1,0,0:0:0:0:
256,192,62889,1,0,0:0:0:0:
256,192,63064,1,8,0:0:0:0:
256,192,63412,1,0,0:0:0:0:
256,192,63761,1,8,0:0:0:0:
256,192,63936,1,0,0:0:0:0:
256,192,64284,1,0,0:0:0:0:
256,192,64459,1,8,0:0:0:0:
256,192,64633,1,4,0:0:0:0:
256,192,64982,1,4,0:0:0:0:
256,192,65331,1,4,0:0:0:0:
256,192,65680,1,4,0:0:0:0:
256,192,66029,1,12,0:0:0:0:
256,192,66552,1,8,0:0:0:0:
256,192,66901,1,0,0:0:0:0:
256,192,67250,1,8,0:0:0:0:
256,192,67598,1,0,0:0:0:0:
256,192,67947,1,8,0:0:0:0:
256,192,68122,1,0,0:0:0:0:
256,192,68471,1,0,0:0:0:0:
256,192,68645,1,8,0:0:0:0:
256,192,68994,1,0,0:0:0:0:
256,192,69168,1,0,0:0:0:0:
256,192,69343,1,8,0:0:0:0:
254,187,69691,1,0,0:0:0:0:
256,192,70040,1,8,0:0:0:0:
256,192,70215,1,0,0:0:0:0:
256,192,70564,1,0,0:0:0:0:
256,192,71087,1,4,0:0:0:0:
256,192,71261,1,4,0:0:0:0:
256,192,71610,1,4,0:0:0:0:
256,192,71959,1,0,0:0:0:0:
256,192,72133,1,8,0:0:0:0:
256,192,72482,1,0,0:0:0:0:
256,192,72831,1,8,0:0:0:0:
256,192,73005,1,4,0:0:0:0:
256,192,73354,1,8,0:0:0:0:
256,192,73529,1,8,0:0:0:0:
256,192,73703,1,0,0:0:0:0:
256,192,74052,1,8,0:0:0:0:
256,192,74401,1,4,0:0:0:0:
256,192,74750,1,4,0:0:0:0:
256,192,74924,1,4,0:0:0:0:
256,192,75098,1,4,0:0:0:0:
256,192,75273,1,4,0:0:0:0:
256,192,75447,1,4,0:0:0:0:
256,192,75622,1,4,0:0:0:0:
256,192,75796,1,12,0:0:0:0:
256,192,76668,5,4,0:0:0:0:
256,192,76843,1,4,0:0:0:0:
256,192,77366,6,0,B|512:192|512:192|512:0,1,420
256,192,78761,6,4,B|512:192|512:192|512:0|512:0|0:0|0:0|0:128,1,1050
256,192,83180,1,4,0:0:0:0:
256,192,83412,1,4,0:0:0:0:
256,192,83645,1,4,0:0:0:0:
256,192,83878,1,4,0:0:0:0:
256,192,84110,1,4,0:0:0:0:
256,192,84343,2,4,B|512:192|512:192|512:0,1,420
256,192,85738,1,4,0:0:0:0:
256,192,86087,1,0,0:0:0:0:
256,192,86261,1,0,0:0:0:0:
256,192,86348,1,0,0:0:0:0:
256,192,86436,1,0,0:0:0:0:
