osu file format v14

[General]
AudioFilename: Adabana Necromancy - TV Size.mp3
AudioLeadIn: 0
PreviewTime: 48886
Countdown: 0
SampleSet: None
StackLeniency: 0.7
Mode: 3
LetterboxInBreaks: 0
SpecialStyle: 0
WidescreenStoryboard: 0

[Editor]
DistanceSpacing: 0.8
BeatDivisor: 2
GridSize: 32
TimelineZoom: 1

[Metadata]
Title:Adabana Necromancy
TitleUnicode:徒花ネクロマンシー
Artist:FranChouChou
ArtistUnicode:フランシュシュ
Creator:Gekido-
Version:Challenge
Source:ゾンビランドサガ
Tags:zombieland saga anime op opening lemonguy dump stepmania etterna
BeatmapID:1846923
BeatmapSetID:883528

[Difficulty]
HPDrainRate:8
CircleSize:4
OverallDifficulty:8
ApproachRate:5
SliderMultiplier:1.4
SliderTickRate:1

[Events]
//Background and Video events
0,0,"bg.jpg",0,0
//Break Periods
//Storyboard Layer 0 (Background)
//Storyboard Layer 1 (Fail)
//Storyboard Layer 2 (Pass)
//Storyboard Layer 3 (Foreground)
//Storyboard Sound Samples

[TimingPoints]
747,348.837209,4,1,0,50,1,0

[HitObjects]
64,192,747,5,0,0:0:0:0:
192,192,747,1,0,0:0:0:0:
448,192,747,1,0,0:0:0:0:
448,192,834,1,0,0:0:0:0:
448,192,921,1,0,0:0:0:0:
64,192,1009,1,0,0:0:0:0:
192,192,1096,1,0,0:0:0:0:
320,192,1096,1,0,0:0:0:0:
192,192,1270,1,0,0:0:0:0:
320,192,1270,1,0,0:0:0:0:
448,192,1270,1,0,0:0:0:0:
64,192,1328,1,0,0:0:0:0:
192,192,1387,1,0,0:0:0:0:
448,192,1445,1,0,0:0:0:0:
64,192,1488,1,0,0:0:0:0:
320,192,1532,1,0,0:0:0:0:
448,192,1575,1,0,0:0:0:0:
192,192,1619,1,0,0:0:0:0:
320,192,1663,1,0,0:0:0:0:
192,192,1706,1,0,0:0:0:0:
64,192,1750,1,0,0:0:0:0:
448,192,1794,1,0,0:0:0:0:
320,192,1837,1,0,0:0:0:0:
192,192,1881,1,0,0:0:0:0:
448,192,1924,1,0,0:0:0:0:
320,192,1968,1,0,0:0:0:0:
64,192,2026,1,0,0:0:0:0:
192,192,2084,1,0,0:0:0:0:
64,192,2142,1,0,0:0:0:0:
320,192,2142,1,0,0:0:0:0:
448,192,2142,1,0,0:0:0:0:
448,192,2230,1,0,0:0:0:0:
448,192,2317,1,0,0:0:0:0:
192,192,2491,1,0,0:0:0:0:
192,192,2578,1,0,0:0:0:0:
64,192,2666,1,0,0:0:0:0:
192,192,2666,1,0,0:0:0:0:
320,192,2666,1,0,0:0:0:0:
448,192,2724,1,0,0:0:0:0:
320,192,2782,1,0,0:0:0:0:
64,192,2840,1,0,0:0:0:0:
448,192,2884,1,0,0:0:0:0:
192,192,2927,1,0,0:0:0:0:
64,192,2971,1,0,0:0:0:0:
320,192,3014,1,0,0:0:0:0:
192,192,3058,1,0,0:0:0:0:
320,192,3102,1,0,0:0:0:0:
448,192,3145,1,0,0:0:0:0:
64,192,3189,1,0,0:0:0:0:
192,192,3232,1,0,0:0:0:0:
64,192,3276,1,0,0:0:0:0:
320,192,3320,1,0,0:0:0:0:
192,192,3363,1,0,0:0:0:0:
448,192,3421,1,0,0:0:0:0:
320,192,3480,1,0,0:0:0:0:
64,192,3538,128,0,3625:0:0:0:0:
192,192,3538,128,0,3625:0:0:0:0:
448,192,3538,128,0,3625:0:0:0:0:
64,192,3887,128,0,3974:0:0:0:0:
192,192,3887,128,0,3974:0:0:0:0:
448,192,3887,128,0,3974:0:0:0:0:
64,192,4235,128,0,4323:0:0:0:0:
320,192,4235,128,0,4323:0:0:0:0:
448,192,4235,128,0,4323:0:0:0:0:
64,192,4497,128,0,4584:0:0:0:0:
192,192,4497,128,0,4584:0:0:0:0:
320,192,4497,128,0,4584:0:0:0:0:
64,192,4759,1,0,0:0:0:0:
192,192,4759,1,0,0:0:0:0:
448,192,4759,1,0,0:0:0:0:
320,192,4817,1,0,0:0:0:0:
448,192,4875,1,0,0:0:0:0:
192,192,4933,1,0,0:0:0:0:
320,192,4991,1,0,0:0:0:0:
448,192,5049,1,0,0:0:0:0:
64,192,5107,1,0,0:0:0:0:
192,192,5166,1,0,0:0:0:0:
320,192,5224,1,0,0:0:0:0:
64,192,5282,1,0,0:0:0:0:
448,192,5282,1,0,0:0:0:0:
64,192,5369,1,0,0:0:0:0:
320,192,5456,1,0,0:0:0:0:
192,192,5544,1,0,0:0:0:0:
448,192,5631,1,0,0:0:0:0:
64,192,5667,1,0,0:0:0:0:
192,192,5703,1,0,0:0:0:0:
320,192,5732,1,0,0:0:0:0:
64,192,5769,1,0,0:0:0:0:
192,192,5805,1,0,0:0:0:0:
448,192,5841,1,0,0:0:0:0:
64,192,5878,1,0,0:0:0:0:
320,192,5907,1,0,0:0:0:0:
448,192,5943,1,0,0:0:0:0:
192,192,5980,1,0,0:0:0:0:
320,192,6016,1,0,0:0:0:0:
448,192,6052,1,0,0:0:0:0:
64,192,6110,1,0,0:0:0:0:
192,192,6154,1,0,0:0:0:0:
448,192,6198,1,0,0:0:0:0:
320,192,6241,1,0,0:0:0:0:
192,192,6285,1,0,0:0:0:0:
64,192,6328,128,0,6764:0:0:0:0:
448,192,6328,128,0,6503:0:0:0:0:
448,192,6590,128,0,6634:0:0:0:0:
192,192,6677,128,0,6721:0:0:0:0:
320,192,6764,128,0,6808:0:0:0:0:
64,192,6852,128,0,6895:0:0:0:0:
320,192,6939,128,0,6982:0:0:0:0:
192,192,7026,128,0,7070:0:0:0:0:
448,192,7113,128,0,7157:0:0:0:0:
64,192,7200,128,0,7244:0:0:0:0:
320,192,7200,128,0,7244:0:0:0:0:
448,192,7288,128,0,7331:0:0:0:0:
64,192,7375,128,0,7549:0:0:0:0:
192,192,7375,128,0,7462:0:0:0:0:
320,192,7462,128,0,7506:0:0:0:0:
192,192,7549,128,0,7593:0:0:0:0:
448,192,7549,128,0,7593:0:0:0:0:
64,192,7637,128,0,7680:0:0:0:0:
320,192,7724,1,0,0:0:0:0:
448,192,7724,1,0,0:0:0:0:
192,192,7767,1,0,0:0:0:0:
64,192,7811,1,0,0:0:0:0:
320,192,7855,1,0,0:0:0:0:
192,192,7898,1,0,0:0:0:0:
448,192,7942,1,0,0:0:0:0:
320,192,7985,1,0,0:0:0:0:
192,192,8029,1,0,0:0:0:0:
64,192,8073,1,0,0:0:0:0:
320,192,8131,1,0,0:0:0:0:
448,192,8189,1,0,0:0:0:0:
192,192,8247,1,0,0:0:0:0:
320,192,8291,1,0,0:0:0:0:
192,192,8334,1,0,0:0:0:0:
448,192,8421,1,0,0:0:0:0:
64,192,8509,1,0,0:0:0:0:
320,192,8596,1,0,0:0:0:0:
192,192,8639,1,0,0:0:0:0:
320,192,8683,1,0,0:0:0:0:
64,192,8770,1,0,0:0:0:0:
448,192,8770,1,0,0:0:0:0:
192,192,8857,1,0,0:0:0:0:
320,192,8945,1,0,0:0:0:0:
64,192,9032,1,0,0:0:0:0:
448,192,9119,1,0,0:0:0:0:
320,192,9177,1,0,0:0:0:0:
448,192,9235,1,0,0:0:0:0:
320,192,9294,1,0,0:0:0:0:
64,192,9352,1,0,0:0:0:0:
192,192,9410,1,0,0:0:0:0:
64,192,9468,1,0,0:0:0:0:
448,192,9468,1,0,0:0:0:0:
448,192,9555,1,0,0:0:0:0:
192,192,9642,1,0,0:0:0:0:
320,192,9700,1,0,0:0:0:0:
192,192,9759,1,0,0:0:0:0:
320,192,9817,1,0,0:0:0:0:
192,192,9875,1,0,0:0:0:0:
320,192,9933,1,0,0:0:0:0:
64,192,9991,1,0,0:0:0:0:
192,192,10078,1,0,0:0:0:0:
64,192,10166,1,0,0:0:0:0:
448,192,10166,1,0,0:0:0:0:
320,192,10253,1,0,0:0:0:0:
192,192,10340,128,0,10427:0:0:0:0:
320,192,10427,128,0,10514:0:0:0:0:
448,192,10514,128,0,10602:0:0:0:0:
64,192,10573,1,0,0:0:0:0:
192,192,10631,1,0,0:0:0:0:
320,192,10689,1,0,0:0:0:0:
64,192,10747,1,0,0:0:0:0:
192,192,10805,1,0,0:0:0:0:
64,192,10863,1,0,0:0:0:0:
448,192,10863,1,0,0:0:0:0:
320,192,10921,1,0,0:0:0:0:
448,192,10980,1,0,0:0:0:0:
192,192,11038,1,0,0:0:0:0:
320,192,11096,1,0,0:0:0:0:
448,192,11154,1,0,0:0:0:0:
64,192,11212,1,0,0:0:0:0:
192,192,11270,1,0,0:0:0:0:
320,192,11328,1,0,0:0:0:0:
448,192,11387,1,0,0:0:0:0:
192,192,11474,1,0,0:0:0:0:
64,192,11561,1,0,0:0:0:0:
448,192,11561,1,0,0:0:0:0:
448,192,11648,1,0,0:0:0:0:
64,192,11735,1,0,0:0:0:0:
64,192,11823,1,0,0:0:0:0:
448,192,11910,128,0,11997:0:0:0:0:
320,192,11997,128,0,12084:0:0:0:0:
448,192,12084,128,0,12171:0:0:0:0:
64,192,12142,1,0,0:0:0:0:
192,192,12200,1,0,0:0:0:0:
64,192,12259,1,0,0:0:0:0:
448,192,12259,1,0,0:0:0:0:
320,192,12317,1,0,0:0:0:0:
192,192,12375,1,0,0:0:0:0:
448,192,12433,1,0,0:0:0:0:
64,192,12477,1,0,0:0:0:0:
320,192,12491,1,0,0:0:0:0:
192,192,12549,1,0,0:0:0:0:
64,192,12607,1,0,0:0:0:0:
192,192,12666,1,0,0:0:0:0:
320,192,12724,1,0,0:0:0:0:
64,192,12782,1,0,0:0:0:0:
448,192,12825,1,0,0:0:0:0:
192,192,12840,1,0,0:0:0:0:
320,192,12898,1,0,0:0:0:0:
64,192,12956,1,0,0:0:0:0:
448,192,12956,1,0,0:0:0:0:
64,192,13044,1,0,0:0:0:0:
320,192,13131,1,0,0:0:0:0:
192,192,13218,1,0,0:0:0:0:
320,192,13305,1,0,0:0:0:0:
448,192,13305,1,0,0:0:0:0:
64,192,13349,1,0,0:0:0:0:
192,192,13392,1,0,0:0:0:0:
448,192,13436,1,0,0:0:0:0:
64,192,13480,1,0,0:0:0:0:
320,192,13538,1,0,0:0:0:0:
192,192,13596,1,0,0:0:0:0:
64,192,13654,1,0,0:0:0:0:
448,192,13654,1,0,0:0:0:0:
448,192,13741,1,0,0:0:0:0:
64,192,13828,1,0,0:0:0:0:
192,192,13828,1,0,0:0:0:0:
448,192,13872,1,0,0:0:0:0:
320,192,13916,1,0,0:0:0:0:
64,192,13959,1,0,0:0:0:0:
448,192,14003,1,0,0:0:0:0:
192,192,14061,1,0,0:0:0:0:
320,192,14119,1,0,0:0:0:0:
64,192,14177,1,0,0:0:0:0:
448,192,14177,1,0,0:0:0:0:
64,192,14264,1,0,0:0:0:0:
320,192,14352,1,0,0:0:0:0:
448,192,14352,1,0,0:0:0:0:
64,192,14439,1,0,0:0:0:0:
192,192,14526,1,0,0:0:0:0:
320,192,14526,1,0,0:0:0:0:
448,192,14613,1,0,0:0:0:0:
64,192,14700,1,0,0:0:0:0:
192,192,14700,1,0,0:0:0:0:
320,192,14744,1,0,0:0:0:0:
448,192,14788,1,0,0:0:0:0:
192,192,14831,1,0,0:0:0:0:
320,192,14875,1,0,0:0:0:0:
64,192,14919,1,0,0:0:0:0:
192,192,14962,1,0,0:0:0:0:
320,192,15006,1,0,0:0:0:0:
448,192,15049,1,0,0:0:0:0:
192,192,15107,1,0,0:0:0:0:
64,192,15166,1,0,0:0:0:0:
320,192,15224,1,0,0:0:0:0:
192,192,15267,1,0,0:0:0:0:
320,192,15311,1,0,0:0:0:0:
64,192,15398,1,0,0:0:0:0:
448,192,15485,1,0,0:0:0:0:
192,192,15573,1,0,0:0:0:0:
320,192,15616,1,0,0:0:0:0:
192,192,15660,1,0,0:0:0:0:
64,192,15747,1,0,0:0:0:0:
448,192,15747,1,0,0:0:0:0:
320,192,15834,1,0,0:0:0:0:
192,192,15921,1,0,0:0:0:0:
448,192,16009,1,0,0:0:0:0:
64,192,16096,1,0,0:0:0:0:
192,192,16154,1,0,0:0:0:0:
64,192,16212,1,0,0:0:0:0:
192,192,16270,1,0,0:0:0:0:
448,192,16328,1,0,0:0:0:0:
320,192,16387,1,0,0:0:0:0:
64,192,16445,1,0,0:0:0:0:
448,192,16445,1,0,0:0:0:0:
64,192,16532,1,0,0:0:0:0:
320,192,16619,1,0,0:0:0:0:
192,192,16677,1,0,0:0:0:0:
320,192,16735,1,0,0:0:0:0:
192,192,16794,1,0,0:0:0:0:
320,192,16852,1,0,0:0:0:0:
192,192,16910,1,0,0:0:0:0:
448,192,16968,1,0,0:0:0:0:
320,192,17055,1,0,0:0:0:0:
64,192,17142,1,0,0:0:0:0:
448,192,17142,1,0,0:0:0:0:
192,192,17230,1,0,0:0:0:0:
320,192,17317,128,0,17360:0:0:0:0:
64,192,17404,128,0,17448:0:0:0:0:
448,192,17491,1,0,0:0:0:0:
320,192,17549,1,0,0:0:0:0:
448,192,17607,1,0,0:0:0:0:
320,192,17666,1,0,0:0:0:0:
192,192,17724,1,0,0:0:0:0:
320,192,17782,1,0,0:0:0:0:
64,192,17840,1,0,0:0:0:0:
448,192,17840,1,0,0:0:0:0:
192,192,17898,1,0,0:0:0:0:
320,192,17956,1,0,0:0:0:0:
64,192,18014,1,0,0:0:0:0:
192,192,18073,1,0,0:0:0:0:
64,192,18131,1,0,0:0:0:0:
192,192,18189,1,0,0:0:0:0:
320,192,18247,1,0,0:0:0:0:
192,192,18305,1,0,0:0:0:0:
64,192,18363,1,0,0:0:0:0:
448,192,18407,1,0,0:0:0:0:
320,192,18450,1,0,0:0:0:0:
64,192,18538,1,0,0:0:0:0:
448,192,18538,1,0,0:0:0:0:
192,192,18625,1,0,0:0:0:0:
320,192,18712,1,0,0:0:0:0:
64,192,18756,1,0,0:0:0:0:
192,192,18799,1,0,0:0:0:0:
320,192,18887,128,0,18996:0:0:0:0:
448,192,18887,128,0,18996:0:0:0:0:
64,192,18996,128,0,19105:0:0:0:0:
192,192,18996,128,0,19105:0:0:0:0:
320,192,19105,1,0,0:0:0:0:
448,192,19105,1,0,0:0:0:0:
320,192,19214,1,0,0:0:0:0:
448,192,19214,1,0,0:0:0:0:
64,192,19279,1,0,0:0:0:0:
192,192,19323,1,0,0:0:0:0:
320,192,19366,1,0,0:0:0:0:
448,192,19410,1,0,0:0:0:0:
192,192,19453,1,0,0:0:0:0:
64,192,19497,1,0,0:0:0:0:
320,192,19541,1,0,0:0:0:0:
192,192,19584,1,0,0:0:0:0:
448,192,19628,1,0,0:0:0:0:
320,192,19671,1,0,0:0:0:0:
192,192,19715,1,0,0:0:0:0:
64,192,19759,1,0,0:0:0:0:
320,192,19802,1,0,0:0:0:0:
448,192,19846,1,0,0:0:0:0:
192,192,19889,1,0,0:0:0:0:
320,192,19933,1,0,0:0:0:0:
64,192,19969,1,0,0:0:0:0:
192,192,20006,1,0,0:0:0:0:
448,192,20035,1,0,0:0:0:0:
64,192,20071,1,0,0:0:0:0:
320,192,20107,1,0,0:0:0:0:
448,192,20144,1,0,0:0:0:0:
192,192,20180,1,0,0:0:0:0:
320,192,20209,1,0,0:0:0:0:
448,192,20246,1,0,0:0:0:0:
64,192,20282,1,0,0:0:0:0:
192,192,20282,1,0,0:0:0:0:
64,192,20514,1,0,0:0:0:0:
320,192,20514,1,0,0:0:0:0:
448,192,20514,1,0,0:0:0:0:
192,192,20573,1,0,0:0:0:0:
320,192,20631,1,0,0:0:0:0:
64,192,20689,1,0,0:0:0:0:
192,192,20747,1,0,0:0:0:0:
320,192,20747,1,0,0:0:0:0:
448,192,20747,1,0,0:0:0:0:
64,192,20805,1,0,0:0:0:0:
448,192,20863,1,0,0:0:0:0:
320,192,20921,1,0,0:0:0:0:
64,192,20980,1,0,0:0:0:0:
192,192,20980,1,0,0:0:0:0:
448,192,20980,1,0,0:0:0:0:
320,192,21038,1,0,0:0:0:0:
192,192,21096,1,0,0:0:0:0:
448,192,21154,1,0,0:0:0:0:
64,192,21212,1,0,0:0:0:0:
192,192,21212,1,0,0:0:0:0:
320,192,21212,1,0,0:0:0:0:
448,192,21270,1,0,0:0:0:0:
64,192,21328,1,0,0:0:0:0:
192,192,21387,1,0,0:0:0:0:
64,192,21445,1,0,0:0:0:0:
320,192,21445,1,0,0:0:0:0:
448,192,21445,1,0,0:0:0:0:
192,192,21503,1,0,0:0:0:0:
320,192,21561,1,0,0:0:0:0:
64,192,21619,1,0,0:0:0:0:
192,192,21677,128,0,21764:0:0:0:0:
320,192,21677,128,0,21764:0:0:0:0:
448,192,21677,128,0,21764:0:0:0:0:
64,192,21852,1,0,0:0:0:0:
192,192,21910,1,0,0:0:0:0:
64,192,21968,1,0,0:0:0:0:
320,192,22026,1,0,0:0:0:0:
320,192,22113,1,0,0:0:0:0:
192,192,22200,1,0,0:0:0:0:
192,192,22288,1,0,0:0:0:0:
448,192,22375,1,0,0:0:0:0:
320,192,22433,1,0,0:0:0:0:
192,192,22491,1,0,0:0:0:0:
320,192,22549,1,0,0:0:0:0:
448,192,22607,1,0,0:0:0:0:
64,192,22637,1,0,0:0:0:0:
192,192,22695,1,0,0:0:0:0:
448,192,22724,1,0,0:0:0:0:
320,192,22753,1,0,0:0:0:0:
192,192,22811,1,0,0:0:0:0:
64,192,22869,1,0,0:0:0:0:
448,192,22898,1,0,0:0:0:0:
320,192,22956,1,0,0:0:0:0:
448,192,23014,1,0,0:0:0:0:
64,192,23073,1,0,0:0:0:0:
192,192,23131,1,0,0:0:0:0:
64,192,23189,1,0,0:0:0:0:
192,192,23247,1,0,0:0:0:0:
64,192,23305,1,0,0:0:0:0:
192,192,23363,1,0,0:0:0:0:
64,192,23421,1,0,0:0:0:0:
448,192,23421,1,0,0:0:0:0:
320,192,23596,1,0,0:0:0:0:
192,192,23654,1,0,0:0:0:0:
320,192,23712,1,0,0:0:0:0:
192,192,23770,1,0,0:0:0:0:
448,192,23945,1,0,0:0:0:0:
64,192,24003,1,0,0:0:0:0:
448,192,24061,1,0,0:0:0:0:
64,192,24119,1,0,0:0:0:0:
192,192,24119,1,0,0:0:0:0:
320,192,24177,1,0,0:0:0:0:
448,192,24235,1,0,0:0:0:0:
64,192,24294,1,0,0:0:0:0:
192,192,24381,1,0,0:0:0:0:
320,192,24468,1,0,0:0:0:0:
448,192,24468,1,0,0:0:0:0:
64,192,24555,1,0,0:0:0:0:
448,192,24555,1,0,0:0:0:0:
64,192,24642,1,0,0:0:0:0:
192,192,24642,1,0,0:0:0:0:
320,192,24730,1,0,0:0:0:0:
192,192,24817,1,0,0:0:0:0:
448,192,24817,1,0,0:0:0:0:
192,192,24904,1,0,0:0:0:0:
320,192,24904,1,0,0:0:0:0:
64,192,24991,1,0,0:0:0:0:
320,192,24991,1,0,0:0:0:0:
192,192,25078,1,0,0:0:0:0:
320,192,25166,1,0,0:0:0:0:
448,192,25166,1,0,0:0:0:0:
64,192,25253,1,0,0:0:0:0:
448,192,25253,1,0,0:0:0:0:
64,192,25340,1,0,0:0:0:0:
192,192,25340,1,0,0:0:0:0:
320,192,25427,1,0,0:0:0:0:
64,192,25514,128,0,25602:0:0:0:0:
192,192,25514,128,0,25602:0:0:0:0:
448,192,25514,128,0,25602:0:0:0:0:
64,192,25689,128,0,25776:0:0:0:0:
320,192,25689,128,0,25776:0:0:0:0:
448,192,25689,128,0,25776:0:0:0:0:
192,192,25863,1,0,0:0:0:0:
320,192,25863,1,0,0:0:0:0:
448,192,25863,1,0,0:0:0:0:
64,192,25950,1,0,0:0:0:0:
320,192,25950,1,0,0:0:0:0:
448,192,25950,1,0,0:0:0:0:
64,192,26038,1,0,0:0:0:0:
192,192,26038,1,0,0:0:0:0:
320,192,26038,1,0,0:0:0:0:
64,192,26212,1,0,0:0:0:0:
448,192,26212,1,0,0:0:0:0:
192,192,26387,1,0,0:0:0:0:
320,192,26387,1,0,0:0:0:0:
448,192,26387,1,0,0:0:0:0:
64,192,26474,1,0,0:0:0:0:
320,192,26474,1,0,0:0:0:0:
448,192,26474,1,0,0:0:0:0:
64,192,26561,1,0,0:0:0:0:
192,192,26561,1,0,0:0:0:0:
448,192,26561,1,0,0:0:0:0:
192,192,26735,1,0,0:0:0:0:
320,192,26735,1,0,0:0:0:0:
192,192,26910,1,0,0:0:0:0:
320,192,26910,1,0,0:0:0:0:
448,192,26910,1,0,0:0:0:0:
64,192,26997,1,0,0:0:0:0:
320,192,26997,1,0,0:0:0:0:
448,192,26997,1,0,0:0:0:0:
64,192,27084,1,0,0:0:0:0:
192,192,27084,1,0,0:0:0:0:
320,192,27084,1,0,0:0:0:0:
64,192,27259,1,0,0:0:0:0:
192,192,27259,1,0,0:0:0:0:
320,192,27259,1,0,0:0:0:0:
448,192,27259,1,0,0:0:0:0:
448,192,27433,1,0,0:0:0:0:
448,192,27520,1,0,0:0:0:0:
64,192,27607,1,0,0:0:0:0:
64,192,27695,1,0,0:0:0:0:
448,192,27782,1,0,0:0:0:0:
320,192,27840,1,0,0:0:0:0:
448,192,27898,1,0,0:0:0:0:
64,192,27956,1,0,0:0:0:0:
192,192,28014,1,0,0:0:0:0:
320,192,28073,1,0,0:0:0:0:
192,192,28131,1,0,0:0:0:0:
64,192,28189,1,0,0:0:0:0:
448,192,28218,1,0,0:0:0:0:
320,192,28276,1,0,0:0:0:0:
64,192,28305,1,0,0:0:0:0:
192,192,28334,1,0,0:0:0:0:
320,192,28392,1,0,0:0:0:0:
448,192,28450,1,0,0:0:0:0:
64,192,28480,1,0,0:0:0:0:
192,192,28538,1,0,0:0:0:0:
64,192,28596,1,0,0:0:0:0:
448,192,28654,1,0,0:0:0:0:
320,192,28712,1,0,0:0:0:0:
448,192,28770,1,0,0:0:0:0:
320,192,28828,1,0,0:0:0:0:
448,192,28887,1,0,0:0:0:0:
320,192,28945,1,0,0:0:0:0:
64,192,29003,1,0,0:0:0:0:
448,192,29003,1,0,0:0:0:0:
192,192,29177,1,0,0:0:0:0:
320,192,29235,1,0,0:0:0:0:
192,192,29294,1,0,0:0:0:0:
320,192,29352,1,0,0:0:0:0:
64,192,29526,1,0,0:0:0:0:
448,192,29584,1,0,0:0:0:0:
64,192,29642,1,0,0:0:0:0:
320,192,29700,1,0,0:0:0:0:
448,192,29700,1,0,0:0:0:0:
192,192,29759,1,0,0:0:0:0:
64,192,29817,1,0,0:0:0:0:
448,192,29875,1,0,0:0:0:0:
320,192,29962,1,0,0:0:0:0:
64,192,30049,1,0,0:0:0:0:
192,192,30049,1,0,0:0:0:0:
64,192,30137,1,0,0:0:0:0:
448,192,30137,1,0,0:0:0:0:
320,192,30224,1,0,0:0:0:0:
448,192,30224,1,0,0:0:0:0:
192,192,30311,1,0,0:0:0:0:
64,192,30398,1,0,0:0:0:0:
320,192,30398,1,0,0:0:0:0:
192,192,30485,1,0,0:0:0:0:
320,192,30485,1,0,0:0:0:0:
192,192,30573,1,0,0:0:0:0:
448,192,30573,1,0,0:0:0:0:
320,192,30660,1,0,0:0:0:0:
64,192,30747,1,0,0:0:0:0:
192,192,30747,1,0,0:0:0:0:
64,192,30834,1,0,0:0:0:0:
448,192,30834,1,0,0:0:0:0:
320,192,30921,1,0,0:0:0:0:
448,192,30921,1,0,0:0:0:0:
192,192,31009,1,0,0:0:0:0:
64,192,31096,1,0,0:0:0:0:
320,192,31096,1,0,0:0:0:0:
192,192,31183,1,0,0:0:0:0:
320,192,31183,1,0,0:0:0:0:
192,192,31270,1,0,0:0:0:0:
448,192,31270,1,0,0:0:0:0:
320,192,31357,1,0,0:0:0:0:
64,192,31445,1,0,0:0:0:0:
192,192,31445,1,0,0:0:0:0:
448,192,31445,1,0,0:0:0:0:
64,192,31532,1,0,0:0:0:0:
320,192,31619,1,0,0:0:0:0:
64,192,31706,1,0,0:0:0:0:
192,192,31706,1,0,0:0:0:0:
320,192,31706,1,0,0:0:0:0:
192,192,31794,1,0,0:0:0:0:
448,192,31881,1,0,0:0:0:0:
64,192,31968,1,0,0:0:0:0:
320,192,31968,1,0,0:0:0:0:
448,192,31968,1,0,0:0:0:0:
192,192,32026,1,0,0:0:0:0:
320,192,32084,1,0,0:0:0:0:
192,192,32142,1,0,0:0:0:0:
320,192,32200,1,0,0:0:0:0:
192,192,32259,1,0,0:0:0:0:
448,192,32317,1,0,0:0:0:0:
64,192,32375,1,0,0:0:0:0:
448,192,32433,1,0,0:0:0:0:
64,192,32491,1,0,0:0:0:0:
192,192,32491,1,0,0:0:0:0:
320,192,32549,1,0,0:0:0:0:
448,192,32607,1,0,0:0:0:0:
192,192,32666,1,0,0:0:0:0:
320,192,32709,1,0,0:0:0:0:
192,192,32753,1,0,0:0:0:0:
448,192,32840,1,0,0:0:0:0:
64,192,32884,1,0,0:0:0:0:
192,192,32927,1,0,0:0:0:0:
320,192,32971,1,0,0:0:0:0:
64,192,33014,1,0,0:0:0:0:
448,192,33058,1,0,0:0:0:0:
320,192,33102,1,0,0:0:0:0:
192,192,33145,1,0,0:0:0:0:
64,192,33189,1,0,0:0:0:0:
448,192,33189,1,0,0:0:0:0:
64,192,33334,1,0,0:0:0:0:
192,192,33334,1,0,0:0:0:0:
320,192,33334,1,0,0:0:0:0:
448,192,33334,1,0,0:0:0:0:
192,192,33421,1,0,0:0:0:0:
64,192,33501,1,0,0:0:0:0:
448,192,33574,1,0,0:0:0:0:
320,192,33698,1,0,0:0:0:0:
64,192,33763,1,0,0:0:0:0:
192,192,33792,1,0,0:0:0:0:
448,192,33821,1,0,0:0:0:0:
64,192,33879,1,0,0:0:0:0:
320,192,33908,1,0,0:0:0:0:
448,192,33937,1,0,0:0:0:0:
192,192,33996,1,0,0:0:0:0:
320,192,34017,1,0,0:0:0:0:
448,192,34039,1,0,0:0:0:0:
64,192,34097,1,0,0:0:0:0:
192,192,34119,1,0,0:0:0:0:
320,192,34141,1,0,0:0:0:0:
64,192,34235,1,0,0:0:0:0:
192,192,34235,1,0,0:0:0:0:
448,192,34235,1,0,0:0:0:0:
448,192,34323,1,0,0:0:0:0:
192,192,34410,1,0,0:0:0:0:
192,192,34497,1,0,0:0:0:0:
320,192,34497,1,0,0:0:0:0:
448,192,34497,1,0,0:0:0:0:
320,192,34584,1,0,0:0:0:0:
64,192,34671,1,0,0:0:0:0:
448,192,34700,1,0,0:0:0:0:
64,192,34759,1,0,0:0:0:0:
192,192,34759,1,0,0:0:0:0:
320,192,34759,1,0,0:0:0:0:
448,192,34817,1,0,0:0:0:0:
192,192,34897,1,0,0:0:0:0:
320,192,34933,1,0,0:0:0:0:
64,192,34969,1,0,0:0:0:0:
192,192,35006,1,0,0:0:0:0:
448,192,35035,1,0,0:0:0:0:
64,192,35107,1,0,0:0:0:0:
64,192,35195,1,0,0:0:0:0:
320,192,35282,1,0,0:0:0:0:
448,192,35282,1,0,0:0:0:0:
192,192,35340,1,0,0:0:0:0:
320,192,35398,1,0,0:0:0:0:
192,192,35456,1,0,0:0:0:0:
64,192,35514,1,0,0:0:0:0:
192,192,35573,1,0,0:0:0:0:
448,192,35631,1,0,0:0:0:0:
64,192,35660,1,0,0:0:0:0:
320,192,35689,1,0,0:0:0:0:
448,192,35718,1,0,0:0:0:0:
64,192,35805,1,0,0:0:0:0:
192,192,35863,1,0,0:0:0:0:
64,192,35921,1,0,0:0:0:0:
448,192,35980,1,0,0:0:0:0:
320,192,36009,1,0,0:0:0:0:
192,192,36038,1,0,0:0:0:0:
448,192,36067,1,0,0:0:0:0:
320,192,36096,1,0,0:0:0:0:
192,192,36125,1,0,0:0:0:0:
64,192,36154,1,0,0:0:0:0:
448,192,36154,1,0,0:0:0:0:
64,192,36503,1,0,0:0:0:0:
192,192,36503,1,0,0:0:0:0:
320,192,36590,1,0,0:0:0:0:
192,192,36677,1,0,0:0:0:0:
448,192,36677,1,0,0:0:0:0:
64,192,36735,1,0,0:0:0:0:
448,192,36764,1,0,0:0:0:0:
320,192,36794,1,0,0:0:0:0:
64,192,36852,1,0,0:0:0:0:
192,192,36852,1,0,0:0:0:0:
448,192,36910,1,0,0:0:0:0:
320,192,36968,1,0,0:0:0:0:
64,192,37026,1,0,0:0:0:0:
192,192,37026,1,0,0:0:0:0:
448,192,37026,1,0,0:0:0:0:
64,192,37113,1,0,0:0:0:0:
320,192,37200,1,0,0:0:0:0:
64,192,37288,1,0,0:0:0:0:
192,192,37288,1,0,0:0:0:0:
320,192,37288,1,0,0:0:0:0:
192,192,37375,1,0,0:0:0:0:
448,192,37462,1,0,0:0:0:0:
192,192,37549,1,0,0:0:0:0:
320,192,37549,1,0,0:0:0:0:
448,192,37549,1,0,0:0:0:0:
64,192,37607,1,0,0:0:0:0:
320,192,37666,1,0,0:0:0:0:
192,192,37724,1,0,0:0:0:0:
448,192,37782,1,0,0:0:0:0:
320,192,37840,1,0,0:0:0:0:
192,192,37898,1,0,0:0:0:0:
64,192,37942,1,0,0:0:0:0:
320,192,37985,1,0,0:0:0:0:
192,192,38029,1,0,0:0:0:0:
64,192,38073,1,0,0:0:0:0:
448,192,38073,1,0,0:0:0:0:
320,192,38131,1,0,0:0:0:0:
448,192,38189,1,0,0:0:0:0:
64,192,38247,1,0,0:0:0:0:
192,192,38305,1,0,0:0:0:0:
64,192,38363,1,0,0:0:0:0:
320,192,38421,1,0,0:0:0:0:
192,192,38480,1,0,0:0:0:0:
320,192,38538,1,0,0:0:0:0:
64,192,38596,1,0,0:0:0:0:
192,192,38596,1,0,0:0:0:0:
448,192,38596,1,0,0:0:0:0:
192,192,38683,1,0,0:0:0:0:
320,192,38683,1,0,0:0:0:0:
64,192,38770,1,0,0:0:0:0:
320,192,38770,1,0,0:0:0:0:
448,192,38770,1,0,0:0:0:0:
192,192,38857,1,0,0:0:0:0:
448,192,38945,1,0,0:0:0:0:
64,192,39032,1,0,0:0:0:0:
320,192,39119,1,0,0:0:0:0:
64,192,39206,1,0,0:0:0:0:
448,192,39294,1,0,0:0:0:0:
448,192,39381,1,0,0:0:0:0:
64,192,39468,1,0,0:0:0:0:
192,192,39468,1,0,0:0:0:0:
64,192,39555,1,0,0:0:0:0:
320,192,39642,1,0,0:0:0:0:
448,192,39700,1,0,0:0:0:0:
320,192,39759,1,0,0:0:0:0:
64,192,39817,1,0,0:0:0:0:
448,192,39817,1,0,0:0:0:0:
192,192,39860,1,0,0:0:0:0:
320,192,39904,1,0,0:0:0:0:
64,192,39948,1,0,0:0:0:0:
192,192,39991,1,0,0:0:0:0:
448,192,40035,1,0,0:0:0:0:
320,192,40078,1,0,0:0:0:0:
192,192,40122,1,0,0:0:0:0:
448,192,40166,1,0,0:0:0:0:
64,192,40209,1,0,0:0:0:0:
448,192,40253,1,0,0:0:0:0:
64,192,40296,1,0,0:0:0:0:
448,192,40340,1,0,0:0:0:0:
192,192,40427,1,0,0:0:0:0:
320,192,40514,1,0,0:0:0:0:
64,192,40573,1,0,0:0:0:0:
320,192,40631,1,0,0:0:0:0:
64,192,40689,1,0,0:0:0:0:
448,192,40776,1,0,0:0:0:0:
192,192,40834,1,0,0:0:0:0:
320,192,40863,1,0,0:0:0:0:
448,192,40892,1,0,0:0:0:0:
192,192,40950,1,0,0:0:0:0:
320,192,41038,1,0,0:0:0:0:
64,192,41096,1,0,0:0:0:0:
192,192,41154,1,0,0:0:0:0:
64,192,41212,1,0,0:0:0:0:
448,192,41212,1,0,0:0:0:0:
320,192,41270,1,0,0:0:0:0:
448,192,41328,1,0,0:0:0:0:
192,192,41387,1,0,0:0:0:0:
320,192,41430,1,0,0:0:0:0:
64,192,41474,1,0,0:0:0:0:
192,192,41517,1,0,0:0:0:0:
448,192,41561,1,0,0:0:0:0:
64,192,41605,1,0,0:0:0:0:
320,192,41648,1,0,0:0:0:0:
448,192,41692,1,0,0:0:0:0:
192,192,41735,1,0,0:0:0:0:
320,192,41779,1,0,0:0:0:0:
192,192,41823,1,0,0:0:0:0:
64,192,41866,1,0,0:0:0:0:
448,192,41910,1,0,0:0:0:0:
320,192,41953,1,0,0:0:0:0:
192,192,41997,1,0,0:0:0:0:
64,192,42041,1,0,0:0:0:0:
320,192,42084,1,0,0:0:0:0:
192,192,42128,1,0,0:0:0:0:
320,192,42171,1,0,0:0:0:0:
448,192,42215,1,0,0:0:0:0:
64,192,42259,1,0,0:0:0:0:
192,192,42259,1,0,0:0:0:0:
64,192,42346,1,0,0:0:0:0:
192,192,42346,1,0,0:0:0:0:
320,192,42433,1,0,0:0:0:0:
448,192,42433,1,0,0:0:0:0:
192,192,42520,1,0,0:0:0:0:
320,192,42520,1,0,0:0:0:0:
64,192,42607,128,0,42695:0:0:0:0:
192,192,42607,128,0,42695:0:0:0:0:
448,192,42607,128,0,42695:0:0:0:0:
192,192,42956,128,0,43305:0:0:0:0:
320,192,42956,128,0,43305:0:0:0:0:
448,192,42956,128,0,43218:0:0:0:0:
64,192,43131,128,0,43174:0:0:0:0:
448,192,43305,128,0,43349:0:0:0:0:
64,192,43480,128,0,43567:0:0:0:0:
448,192,43654,128,0,43741:0:0:0:0:
64,192,43741,1,0,0:0:0:0:
64,192,43828,1,0,0:0:0:0:
320,192,43828,128,0,43916:0:0:0:0:
64,192,43916,1,0,0:0:0:0:
320,192,44003,1,0,0:0:0:0:
448,192,44003,1,0,0:0:0:0:
192,192,44046,1,0,0:0:0:0:
64,192,44090,1,0,0:0:0:0:
320,192,44134,1,0,0:0:0:0:
192,192,44177,1,0,0:0:0:0:
448,192,44221,1,0,0:0:0:0:
320,192,44264,1,0,0:0:0:0:
192,192,44308,1,0,0:0:0:0:
64,192,44352,1,0,0:0:0:0:
448,192,44352,1,0,0:0:0:0:
320,192,44410,1,0,0:0:0:0:
448,192,44468,1,0,0:0:0:0:
64,192,44526,1,0,0:0:0:0:
320,192,44570,1,0,0:0:0:0:
64,192,44613,1,0,0:0:0:0:
192,192,44657,1,0,0:0:0:0:
448,192,44700,1,0,0:0:0:0:
320,192,44744,1,0,0:0:0:0:
192,192,44788,1,0,0:0:0:0:
64,192,44831,1,0,0:0:0:0:
448,192,44875,1,0,0:0:0:0:
192,192,44919,1,0,0:0:0:0:
448,192,44962,1,0,0:0:0:0:
320,192,45006,1,0,0:0:0:0:
64,192,45049,1,0,0:0:0:0:
192,192,45093,1,0,0:0:0:0:
320,192,45137,1,0,0:0:0:0:
448,192,45180,1,0,0:0:0:0:
64,192,45224,1,0,0:0:0:0:
192,192,45224,1,0,0:0:0:0:
192,192,45311,1,0,0:0:0:0:
320,192,45311,1,0,0:0:0:0:
320,192,45398,1,0,0:0:0:0:
448,192,45398,1,0,0:0:0:0:
64,192,45456,1,0,0:0:0:0:
192,192,45514,1,0,0:0:0:0:
64,192,45573,1,0,0:0:0:0:
320,192,45631,1,0,0:0:0:0:
192,192,45689,1,0,0:0:0:0:
64,192,45747,1,0,0:0:0:0:
320,192,45747,1,0,0:0:0:0:
448,192,45747,1,0,0:0:0:0:
448,192,45834,1,0,0:0:0:0:
64,192,45921,1,0,0:0:0:0:
192,192,45921,1,0,0:0:0:0:
320,192,45965,1,0,0:0:0:0:
448,192,46009,1,0,0:0:0:0:
192,192,46052,1,0,0:0:0:0:
320,192,46096,1,0,0:0:0:0:
64,192,46139,1,0,0:0:0:0:
192,192,46183,1,0,0:0:0:0:
320,192,46227,1,0,0:0:0:0:
64,192,46270,1,0,0:0:0:0:
448,192,46270,1,0,0:0:0:0:
192,192,46328,1,0,0:0:0:0:
64,192,46387,1,0,0:0:0:0:
448,192,46445,1,0,0:0:0:0:
64,192,46539,1,0,0:0:0:0:
192,192,46539,1,0,0:0:0:0:
320,192,46539,1,0,0:0:0:0:
192,192,46634,1,0,0:0:0:0:
320,192,46634,1,0,0:0:0:0:
448,192,46634,1,0,0:0:0:0:
64,192,46728,1,0,0:0:0:0:
320,192,46728,1,0,0:0:0:0:
448,192,46728,1,0,0:0:0:0:
64,192,46815,128,0,47142:0:0:0:0:
192,192,46815,128,0,47142:0:0:0:0:
448,192,46815,128,0,47142:0:0:0:0:
320,192,47055,1,0,0:0:0:0:
64,192,47317,128,0,47666:0:0:0:0:
320,192,47317,128,0,47666:0:0:0:0:
448,192,47317,128,0,47666:0:0:0:0:
192,192,47840,128,0,47927:0:0:0:0:
320,192,47840,128,0,47927:0:0:0:0:
448,192,47840,128,0,47927:0:0:0:0:
64,192,48109,128,0,48538:0:0:0:0:
192,192,48109,128,0,48538:0:0:0:0:
320,192,48109,128,0,48538:0:0:0:0:
448,192,48109,128,0,48538:0:0:0:0:
320,192,48887,1,0,0:0:0:0:
192,192,48974,1,0,0:0:0:0:
320,192,49061,1,0,0:0:0:0:
192,192,49148,1,0,0:0:0:0:
320,192,49235,1,0,0:0:0:0:
448,192,49279,1,0,0:0:0:0:
192,192,49323,1,0,0:0:0:0:
64,192,49366,1,0,0:0:0:0:
320,192,49410,1,0,0:0:0:0:
192,192,49497,1,0,0:0:0:0:
448,192,49584,1,0,0:0:0:0:
320,192,49628,1,0,0:0:0:0:
64,192,49671,1,0,0:0:0:0:
192,192,49715,1,0,0:0:0:0:
448,192,49759,1,0,0:0:0:0:
64,192,49817,1,0,0:0:0:0:
448,192,49875,1,0,0:0:0:0:
192,192,49933,1,0,0:0:0:0:
320,192,49991,1,0,0:0:0:0:
64,192,50049,1,0,0:0:0:0:
448,192,50107,1,0,0:0:0:0:
64,192,50166,1,0,0:0:0:0:
320,192,50224,1,0,0:0:0:0:
192,192,50282,1,0,0:0:0:0:
448,192,50311,1,0,0:0:0:0:
320,192,50340,1,0,0:0:0:0:
64,192,50369,1,0,0:0:0:0:
192,192,50413,1,0,0:0:0:0:
448,192,50456,1,0,0:0:0:0:
64,192,50500,1,0,0:0:0:0:
320,192,50544,1,0,0:0:0:0:
448,192,50587,1,0,0:0:0:0:
192,192,50631,1,0,0:0:0:0:
64,192,50674,1,0,0:0:0:0:
320,192,50718,1,0,0:0:0:0:
192,192,50762,1,0,0:0:0:0:
448,192,50805,1,0,0:0:0:0:
320,192,50849,1,0,0:0:0:0:
192,192,50892,1,0,0:0:0:0:
64,192,50936,1,0,0:0:0:0:
320,192,50980,1,0,0:0:0:0:
448,192,50980,1,0,0:0:0:0:
64,192,51023,1,0,0:0:0:0:
192,192,51067,1,0,0:0:0:0:
320,192,51110,1,0,0:0:0:0:
448,192,51154,1,0,0:0:0:0:
192,192,51212,1,0,0:0:0:0:
64,192,51270,1,0,0:0:0:0:
320,192,51328,1,0,0:0:0:0:
192,192,51372,1,0,0:0:0:0:
448,192,51416,1,0,0:0:0:0:
320,192,51459,1,0,0:0:0:0:
64,192,51503,1,0,0:0:0:0:
192,192,51503,1,0,0:0:0:0:
320,192,51546,1,0,0:0:0:0:
448,192,51590,1,0,0:0:0:0:
192,192,51634,1,0,0:0:0:0:
320,192,51677,1,0,0:0:0:0:
64,192,51721,1,0,0:0:0:0:
192,192,51764,1,0,0:0:0:0:
448,192,51808,1,0,0:0:0:0:
64,192,51852,1,0,0:0:0:0:
320,192,51895,1,0,0:0:0:0:
64,192,51939,1,0,0:0:0:0:
192,192,51982,1,0,0:0:0:0:
448,192,52026,1,0,0:0:0:0:
320,192,52070,1,0,0:0:0:0:
192,192,52113,1,0,0:0:0:0:
64,192,52157,1,0,0:0:0:0:
448,192,52200,1,0,0:0:0:0:
448,192,52302,1,0,0:0:0:0:
64,192,52404,1,0,0:0:0:0:
192,192,52404,1,0,0:0:0:0:
320,192,52404,1,0,0:0:0:0:
448,192,52404,1,0,0:0:0:0:
192,192,52549,1,0,0:0:0:0:
320,192,52593,1,0,0:0:0:0:
448,192,52637,1,0,0:0:0:0:
64,192,52724,1,0,0:0:0:0:
320,192,52767,1,0,0:0:0:0:
448,192,52811,1,0,0:0:0:0:
64,192,52898,1,0,0:0:0:0:
192,192,52942,1,0,0:0:0:0:
448,192,52985,1,0,0:0:0:0:
64,192,53073,1,0,0:0:0:0:
192,192,53116,1,0,0:0:0:0:
320,192,53160,1,0,0:0:0:0:
448,192,53203,1,0,0:0:0:0:
320,192,53247,1,0,0:0:0:0:
192,192,53291,1,0,0:0:0:0:
64,192,53334,1,0,0:0:0:0:
448,192,53421,1,0,0:0:0:0:
192,192,53465,1,0,0:0:0:0:
64,192,53509,1,0,0:0:0:0:
320,192,53596,1,0,0:0:0:0:
192,192,53639,1,0,0:0:0:0:
448,192,53683,1,0,0:0:0:0:
320,192,53727,1,0,0:0:0:0:
64,192,53770,1,0,0:0:0:0:
192,192,53770,1,0,0:0:0:0:
320,192,53857,1,0,0:0:0:0:
64,192,53945,1,0,0:0:0:0:
448,192,54003,1,0,0:0:0:0:
64,192,54061,1,0,0:0:0:0:
448,192,54119,1,0,0:0:0:0:
320,192,54163,1,0,0:0:0:0:
64,192,54206,1,0,0:0:0:0:
192,192,54250,1,0,0:0:0:0:
320,192,54294,1,0,0:0:0:0:
448,192,54294,1,0,0:0:0:0:
192,192,54337,1,0,0:0:0:0:
64,192,54381,1,0,0:0:0:0:
320,192,54424,1,0,0:0:0:0:
192,192,54468,1,0,0:0:0:0:
448,192,54512,1,0,0:0:0:0:
320,192,54555,1,0,0:0:0:0:
64,192,54599,1,0,0:0:0:0:
448,192,54642,1,0,0:0:0:0:
192,192,54686,1,0,0:0:0:0:
448,192,54730,1,0,0:0:0:0:
320,192,54773,1,0,0:0:0:0:
64,192,54817,1,0,0:0:0:0:
192,192,54860,1,0,0:0:0:0:
320,192,54904,1,0,0:0:0:0:
448,192,54948,1,0,0:0:0:0:
64,192,54991,1,0,0:0:0:0:
64,192,55078,1,0,0:0:0:0:
448,192,55166,1,0,0:0:0:0:
320,192,55253,1,0,0:0:0:0:
192,192,55340,1,0,0:0:0:0:
64,192,55398,1,0,0:0:0:0:
192,192,55456,1,0,0:0:0:0:
64,192,55514,1,0,0:0:0:0:
320,192,55514,1,0,0:0:0:0:
448,192,55573,1,0,0:0:0:0:
320,192,55631,1,0,0:0:0:0:
64,192,55689,1,0,0:0:0:0:
448,192,55689,1,0,0:0:0:0:
192,192,55747,1,0,0:0:0:0:
64,192,55805,1,0,0:0:0:0:
192,192,55863,1,0,0:0:0:0:
448,192,55863,1,0,0:0:0:0:
320,192,55921,1,0,0:0:0:0:
448,192,55980,1,0,0:0:0:0:
192,192,56038,1,0,0:0:0:0:
320,192,56038,1,0,0:0:0:0:
192,192,56125,1,0,0:0:0:0:
448,192,56212,1,0,0:0:0:0:
64,192,56256,1,0,0:0:0:0:
448,192,56299,1,0,0:0:0:0:
192,192,56387,1,0,0:0:0:0:
320,192,56430,1,0,0:0:0:0:
192,192,56474,1,0,0:0:0:0:
64,192,56517,1,0,0:0:0:0:
320,192,56561,1,0,0:0:0:0:
448,192,56561,1,0,0:0:0:0:
320,192,56648,1,0,0:0:0:0:
64,192,56735,1,0,0:0:0:0:
448,192,56779,1,0,0:0:0:0:
192,192,56823,1,0,0:0:0:0:
320,192,56866,1,0,0:0:0:0:
64,192,56910,1,0,0:0:0:0:
64,192,56997,1,0,0:0:0:0:
192,192,57026,1,0,0:0:0:0:
320,192,57055,1,0,0:0:0:0:
448,192,57084,1,0,0:0:0:0:
192,192,57128,1,0,0:0:0:0:
320,192,57171,1,0,0:0:0:0:
64,192,57215,1,0,0:0:0:0:
448,192,57259,1,0,0:0:0:0:
448,192,57346,1,0,0:0:0:0:
192,192,57433,1,0,0:0:0:0:
320,192,57477,1,0,0:0:0:0:
64,192,57520,1,0,0:0:0:0:
448,192,57564,1,0,0:0:0:0:
192,192,57607,1,0,0:0:0:0:
192,192,57695,1,0,0:0:0:0:
448,192,57782,1,0,0:0:0:0:
64,192,57825,1,0,0:0:0:0:
320,192,57869,1,0,0:0:0:0:
192,192,57913,1,0,0:0:0:0:
448,192,57956,1,0,0:0:0:0:
448,192,58044,1,0,0:0:0:0:
64,192,58131,1,0,0:0:0:0:
320,192,58174,1,0,0:0:0:0:
192,192,58218,1,0,0:0:0:0:
448,192,58262,1,0,0:0:0:0:
64,192,58305,1,0,0:0:0:0:
64,192,58392,1,0,0:0:0:0:
320,192,58480,1,0,0:0:0:0:
192,192,58523,1,0,0:0:0:0:
448,192,58567,1,0,0:0:0:0:
64,192,58610,1,0,0:0:0:0:
320,192,58654,1,0,0:0:0:0:
320,192,58741,1,0,0:0:0:0:
64,192,58828,1,0,0:0:0:0:
448,192,58872,1,0,0:0:0:0:
192,192,58916,1,0,0:0:0:0:
320,192,58959,1,0,0:0:0:0:
64,192,59003,1,0,0:0:0:0:
448,192,59061,1,0,0:0:0:0:
64,192,59090,1,0,0:0:0:0:
320,192,59119,1,0,0:0:0:0:
448,192,59177,1,0,0:0:0:0:
192,192,59235,1,0,0:0:0:0:
320,192,59294,1,0,0:0:0:0:
448,192,59323,1,0,0:0:0:0:
64,192,59352,1,0,0:0:0:0:
192,192,59395,1,0,0:0:0:0:
320,192,59439,1,0,0:0:0:0:
64,192,59482,1,0,0:0:0:0:
192,192,59526,1,0,0:0:0:0:
448,192,59570,1,0,0:0:0:0:
64,192,59613,1,0,0:0:0:0:
320,192,59657,1,0,0:0:0:0:
448,192,59700,1,0,0:0:0:0:
192,192,59788,1,0,0:0:0:0:
448,192,59875,1,0,0:0:0:0:
320,192,59919,1,0,0:0:0:0:
64,192,59962,1,0,0:0:0:0:
448,192,60006,1,0,0:0:0:0:
192,192,60049,1,0,0:0:0:0:
64,192,60093,1,0,0:0:0:0:
320,192,60137,1,0,0:0:0:0:
192,192,60180,1,0,0:0:0:0:
64,192,60224,1,0,0:0:0:0:
320,192,60311,1,0,0:0:0:0:
64,192,60398,1,0,0:0:0:0:
448,192,60398,1,0,0:0:0:0:
192,192,60442,1,0,0:0:0:0:
320,192,60485,1,0,0:0:0:0:
448,192,60529,1,0,0:0:0:0:
192,192,60573,1,0,0:0:0:0:
64,192,60631,1,0,0:0:0:0:
192,192,60689,1,0,0:0:0:0:
64,192,60747,1,0,0:0:0:0:
320,192,60747,1,0,0:0:0:0:
448,192,60747,1,0,0:0:0:0:
448,192,60834,1,0,0:0:0:0:
64,192,60921,1,0,0:0:0:0:
64,192,61009,128,0,61052:0:0:0:0:
192,192,61009,128,0,61052:0:0:0:0:
320,192,61009,128,0,61052:0:0:0:0:
448,192,61009,128,0,61052:0:0:0:0:
320,192,61096,1,0,0:0:0:0:
192,192,61183,1,0,0:0:0:0:
64,192,61270,128,0,61357:0:0:0:0:
192,192,61270,128,0,61357:0:0:0:0:
448,192,61270,128,0,61357:0:0:0:0:
64,192,61619,1,0,0:0:0:0:
320,192,61619,1,0,0:0:0:0:
448,192,61619,1,0,0:0:0:0:
192,192,61677,1,0,0:0:0:0:
64,192,61735,1,0,0:0:0:0:
320,192,61794,1,0,0:0:0:0:
448,192,61794,1,0,0:0:0:0:
448,192,61881,1,0,0:0:0:0:
64,192,61968,1,0,0:0:0:0:
192,192,61968,1,0,0:0:0:0:
192,192,62055,1,0,0:0:0:0:
320,192,62142,1,0,0:0:0:0:
448,192,62142,1,0,0:0:0:0:
64,192,62230,1,0,0:0:0:0:
192,192,62259,1,0,0:0:0:0:
448,192,62288,1,0,0:0:0:0:
64,192,62317,1,0,0:0:0:0:
320,192,62346,1,0,0:0:0:0:
448,192,62375,1,0,0:0:0:0:
192,192,62404,1,0,0:0:0:0:
320,192,62491,1,0,0:0:0:0:
64,192,62549,1,0,0:0:0:0:
192,192,62607,1,0,0:0:0:0:
320,192,62666,1,0,0:0:0:0:
448,192,62666,1,0,0:0:0:0:
192,192,62709,1,0,0:0:0:0:
64,192,62753,1,0,0:0:0:0:
320,192,62796,1,0,0:0:0:0:
192,192,62840,1,0,0:0:0:0:
448,192,62884,1,0,0:0:0:0:
320,192,62927,1,0,0:0:0:0:
64,192,62971,1,0,0:0:0:0:
448,192,63014,1,0,0:0:0:0:
192,192,63058,1,0,0:0:0:0:
448,192,63102,1,0,0:0:0:0:
320,192,63145,1,0,0:0:0:0:
64,192,63189,1,0,0:0:0:0:
192,192,63232,1,0,0:0:0:0:
64,192,63276,128,0,63363:0:0:0:0:
320,192,63276,128,0,63363:0:0:0:0:
448,192,63276,128,0,63363:0:0:0:0:
64,192,63472,128,0,63560:0:0:0:0:
192,192,63472,128,0,63560:0:0:0:0:
448,192,63472,128,0,63560:0:0:0:0:
320,192,63712,1,0,0:0:0:0:
192,192,63756,1,0,0:0:0:0:
64,192,63799,1,0,0:0:0:0:
448,192,63887,1,0,0:0:0:0:
192,192,63930,1,0,0:0:0:0:
64,192,63974,1,0,0:0:0:0:
448,192,64061,1,0,0:0:0:0:
320,192,64105,1,0,0:0:0:0:
64,192,64148,1,0,0:0:0:0:
448,192,64235,1,0,0:0:0:0:
320,192,64279,1,0,0:0:0:0:
192,192,64323,1,0,0:0:0:0:
64,192,64366,1,0,0:0:0:0:
192,192,64410,1,0,0:0:0:0:
320,192,64453,1,0,0:0:0:0:
448,192,64497,1,0,0:0:0:0:
64,192,64584,1,0,0:0:0:0:
320,192,64628,1,0,0:0:0:0:
448,192,64671,1,0,0:0:0:0:
192,192,64759,1,0,0:0:0:0:
320,192,64802,1,0,0:0:0:0:
64,192,64846,1,0,0:0:0:0:
192,192,64889,1,0,0:0:0:0:
320,192,64933,1,0,0:0:0:0:
448,192,64933,1,0,0:0:0:0:
192,192,65020,1,0,0:0:0:0:
448,192,65107,1,0,0:0:0:0:
64,192,65166,1,0,0:0:0:0:
448,192,65224,1,0,0:0:0:0:
64,192,65282,1,0,0:0:0:0:
192,192,65325,1,0,0:0:0:0:
448,192,65369,1,0,0:0:0:0:
320,192,65413,1,0,0:0:0:0:
64,192,65456,1,0,0:0:0:0:
192,192,65456,1,0,0:0:0:0:
320,192,65500,1,0,0:0:0:0:
448,192,65544,1,0,0:0:0:0:
192,192,65587,1,0,0:0:0:0:
320,192,65631,1,0,0:0:0:0:
64,192,65674,1,0,0:0:0:0:
192,192,65718,1,0,0:0:0:0:
448,192,65762,1,0,0:0:0:0:
64,192,65805,1,0,0:0:0:0:
320,192,65849,1,0,0:0:0:0:
64,192,65892,1,0,0:0:0:0:
192,192,65936,1,0,0:0:0:0:
448,192,65980,1,0,0:0:0:0:
320,192,66023,1,0,0:0:0:0:
192,192,66067,1,0,0:0:0:0:
64,192,66110,1,0,0:0:0:0:
448,192,66154,1,0,0:0:0:0:
448,192,66241,1,0,0:0:0:0:
64,192,66328,1,0,0:0:0:0:
192,192,66416,1,0,0:0:0:0:
320,192,66503,1,0,0:0:0:0:
448,192,66561,1,0,0:0:0:0:
320,192,66619,1,0,0:0:0:0:
192,192,66677,1,0,0:0:0:0:
448,192,66677,1,0,0:0:0:0:
64,192,66735,1,0,0:0:0:0:
192,192,66794,1,0,0:0:0:0:
64,192,66852,1,0,0:0:0:0:
448,192,66852,1,0,0:0:0:0:
320,192,66910,1,0,0:0:0:0:
448,192,66968,1,0,0:0:0:0:
64,192,67026,1,0,0:0:0:0:
320,192,67026,1,0,0:0:0:0:
192,192,67084,1,0,0:0:0:0:
64,192,67142,1,0,0:0:0:0:
192,192,67200,1,0,0:0:0:0:
320,192,67200,1,0,0:0:0:0:
320,192,67288,1,0,0:0:0:0:
64,192,67375,1,0,0:0:0:0:
448,192,67419,1,0,0:0:0:0:
64,192,67462,1,0,0:0:0:0:
320,192,67549,1,0,0:0:0:0:
192,192,67593,1,0,0:0:0:0:
320,192,67637,1,0,0:0:0:0:
448,192,67680,1,0,0:0:0:0:
64,192,67724,1,0,0:0:0:0:
192,192,67724,1,0,0:0:0:0:
192,192,67811,1,0,0:0:0:0:
448,192,67898,1,0,0:0:0:0:
64,192,67942,1,0,0:0:0:0:
320,192,67985,1,0,0:0:0:0:
192,192,68029,1,0,0:0:0:0:
448,192,68073,1,0,0:0:0:0:
448,192,68160,1,0,0:0:0:0:
64,192,68247,1,0,0:0:0:0:
320,192,68291,1,0,0:0:0:0:
192,192,68334,1,0,0:0:0:0:
448,192,68378,1,0,0:0:0:0:
64,192,68421,1,0,0:0:0:0:
64,192,68509,1,0,0:0:0:0:
320,192,68596,1,0,0:0:0:0:
192,192,68639,1,0,0:0:0:0:
448,192,68683,1,0,0:0:0:0:
64,192,68727,1,0,0:0:0:0:
320,192,68770,1,0,0:0:0:0:
320,192,68857,1,0,0:0:0:0:
64,192,68945,1,0,0:0:0:0:
448,192,68988,1,0,0:0:0:0:
192,192,69032,1,0,0:0:0:0:
320,192,69075,1,0,0:0:0:0:
64,192,69119,1,0,0:0:0:0:
64,192,69206,1,0,0:0:0:0:
448,192,69294,1,0,0:0:0:0:
192,192,69337,1,0,0:0:0:0:
320,192,69381,1,0,0:0:0:0:
64,192,69424,1,0,0:0:0:0:
448,192,69468,1,0,0:0:0:0:
448,192,69555,1,0,0:0:0:0:
192,192,69642,1,0,0:0:0:0:
64,192,69686,1,0,0:0:0:0:
448,192,69730,1,0,0:0:0:0:
320,192,69773,1,0,0:0:0:0:
192,192,69817,1,0,0:0:0:0:
192,192,69904,1,0,0:0:0:0:
320,192,69991,1,0,0:0:0:0:
448,192,70035,1,0,0:0:0:0:
64,192,70078,1,0,0:0:0:0:
192,192,70122,1,0,0:0:0:0:
448,192,70166,1,0,0:0:0:0:
448,192,70253,1,0,0:0:0:0:
64,192,70340,1,0,0:0:0:0:
64,192,70427,1,0,0:0:0:0:
448,192,70514,1,0,0:0:0:0:
320,192,70558,1,0,0:0:0:0:
192,192,70602,1,0,0:0:0:0:
448,192,70645,1,0,0:0:0:0:
320,192,70689,1,0,0:0:0:0:
64,192,70732,1,0,0:0:0:0:
448,192,70776,1,0,0:0:0:0:
192,192,70820,1,0,0:0:0:0:
64,192,70863,1,0,0:0:0:0:
320,192,70950,1,0,0:0:0:0:
64,192,71038,1,0,0:0:0:0:
192,192,71081,1,0,0:0:0:0:
448,192,71125,1,0,0:0:0:0:
64,192,71169,1,0,0:0:0:0:
320,192,71212,1,0,0:0:0:0:
192,192,71299,1,0,0:0:0:0:
448,192,71387,1,0,0:0:0:0:
320,192,71430,1,0,0:0:0:0:
64,192,71474,1,0,0:0:0:0:
448,192,71517,1,0,0:0:0:0:
192,192,71561,1,0,0:0:0:0:
320,192,71648,1,0,0:0:0:0:
64,192,71735,1,0,0:0:0:0:
448,192,71735,1,0,0:0:0:0:
192,192,71779,1,0,0:0:0:0:
64,192,71823,1,0,0:0:0:0:
320,192,71866,1,0,0:0:0:0:
192,192,71910,1,0,0:0:0:0:
448,192,71953,1,0,0:0:0:0:
320,192,71997,1,0,0:0:0:0:
192,192,72041,1,0,0:0:0:0:
64,192,72084,1,0,0:0:0:0:
448,192,72084,1,0,0:0:0:0:
320,192,72128,1,0,0:0:0:0:
448,192,72171,1,0,0:0:0:0:
192,192,72215,1,0,0:0:0:0:
320,192,72259,1,0,0:0:0:0:
64,192,72317,1,0,0:0:0:0:
192,192,72375,1,0,0:0:0:0:
64,192,72433,1,0,0:0:0:0:
320,192,72433,1,0,0:0:0:0:
448,192,72433,1,0,0:0:0:0:
320,192,72520,1,0,0:0:0:0:
192,192,72607,1,0,0:0:0:0:
448,192,72695,1,0,0:0:0:0:
64,192,72782,1,0,0:0:0:0:
192,192,72782,1,0,0:0:0:0:
448,192,72782,1,0,0:0:0:0:
64,192,72869,1,0,0:0:0:0:
320,192,72956,1,0,0:0:0:0:
320,192,73044,1,0,0:0:0:0:
192,192,73131,1,0,0:0:0:0:
448,192,73189,1,0,0:0:0:0:
192,192,73218,1,0,0:0:0:0:
320,192,73247,1,0,0:0:0:0:
64,192,73305,1,0,0:0:0:0:
448,192,73305,1,0,0:0:0:0:
192,192,73363,1,0,0:0:0:0:
64,192,73421,1,0,0:0:0:0:
320,192,73480,1,0,0:0:0:0:
192,192,73523,1,0,0:0:0:0:
448,192,73567,1,0,0:0:0:0:
320,192,73610,1,0,0:0:0:0:
64,192,73654,1,0,0:0:0:0:
192,192,73698,1,0,0:0:0:0:
320,192,73741,1,0,0:0:0:0:
448,192,73785,1,0,0:0:0:0:
192,192,73828,1,0,0:0:0:0:
320,192,73872,1,0,0:0:0:0:
448,192,73916,1,0,0:0:0:0:
64,192,73959,1,0,0:0:0:0:
448,192,74003,1,0,0:0:0:0:
320,192,74046,1,0,0:0:0:0:
192,192,74090,1,0,0:0:0:0:
64,192,74134,1,0,0:0:0:0:
320,192,74177,1,0,0:0:0:0:
192,192,74221,1,0,0:0:0:0:
64,192,74264,1,0,0:0:0:0:
448,192,74308,1,0,0:0:0:0:
64,192,74352,1,0,0:0:0:0:
192,192,74395,1,0,0:0:0:0:
320,192,74439,1,0,0:0:0:0:
448,192,74482,1,0,0:0:0:0:
192,192,74526,1,0,0:0:0:0:
320,192,74570,1,0,0:0:0:0:
448,192,74613,1,0,0:0:0:0:
64,192,74657,1,0,0:0:0:0:
320,192,74700,1,0,0:0:0:0:
192,192,74759,1,0,0:0:0:0:
320,192,74817,1,0,0:0:0:0:
64,192,74875,1,0,0:0:0:0:
448,192,74962,1,0,0:0:0:0:
64,192,75049,1,0,0:0:0:0:
192,192,75049,1,0,0:0:0:0:
192,192,75137,1,0,0:0:0:0:
448,192,75224,1,0,0:0:0:0:
320,192,75267,1,0,0:0:0:0:
64,192,75311,1,0,0:0:0:0:
192,192,75355,1,0,0:0:0:0:
320,192,75398,1,0,0:0:0:0:
448,192,75442,1,0,0:0:0:0:
192,192,75485,1,0,0:0:0:0:
320,192,75529,1,0,0:0:0:0:
64,192,75573,1,0,0:0:0:0:
448,192,75631,1,0,0:0:0:0:
64,192,75689,1,0,0:0:0:0:
320,192,75747,1,0,0:0:0:0:
448,192,75747,1,0,0:0:0:0:
320,192,75834,1,0,0:0:0:0:
64,192,75921,1,0,0:0:0:0:
192,192,75980,1,0,0:0:0:0:
64,192,76038,1,0,0:0:0:0:
320,192,76096,1,0,0:0:0:0:
192,192,76154,1,0,0:0:0:0:
64,192,76212,1,0,0:0:0:0:
448,192,76270,1,0,0:0:0:0:
320,192,76357,1,0,0:0:0:0:
64,192,76445,1,0,0:0:0:0:
192,192,76445,1,0,0:0:0:0:
448,192,76503,1,0,0:0:0:0:
320,192,76561,1,0,0:0:0:0:
448,192,76619,1,0,0:0:0:0:
64,192,76706,1,0,0:0:0:0:
320,192,76794,1,0,0:0:0:0:
192,192,76852,1,0,0:0:0:0:
320,192,76910,1,0,0:0:0:0:
192,192,76968,1,0,0:0:0:0:
64,192,77026,1,0,0:0:0:0:
192,192,77084,1,0,0:0:0:0:
320,192,77142,1,0,0:0:0:0:
448,192,77142,1,0,0:0:0:0:
448,192,77230,1,0,0:0:0:0:
64,192,77317,1,0,0:0:0:0:
192,192,77375,1,0,0:0:0:0:
320,192,77433,1,0,0:0:0:0:
64,192,77491,1,0,0:0:0:0:
448,192,77578,1,0,0:0:0:0:
192,192,77666,1,0,0:0:0:0:
448,192,77724,1,0,0:0:0:0:
320,192,77782,1,0,0:0:0:0:
64,192,77840,1,0,0:0:0:0:
192,192,77840,1,0,0:0:0:0:
64,192,77927,1,0,0:0:0:0:
192,192,78014,128,0,78102:0:0:0:0:
320,192,78014,128,0,78102:0:0:0:0:
448,192,78014,128,0,78102:0:0:0:0:
64,192,78189,128,0,78276:0:0:0:0:
192,192,78189,128,0,78276:0:0:0:0:
320,192,78189,128,0,78276:0:0:0:0:
64,192,78363,128,0,78450:0:0:0:0:
192,192,78363,128,0,78450:0:0:0:0:
448,192,78363,128,0,78450:0:0:0:0:
320,192,78538,1,0,0:0:0:0:
64,192,78596,1,0,0:0:0:0:
192,192,78654,1,0,0:0:0:0:
64,192,78712,1,0,0:0:0:0:
448,192,78712,1,0,0:0:0:0:
320,192,78756,1,0,0:0:0:0:
192,192,78799,1,0,0:0:0:0:
448,192,78843,1,0,0:0:0:0:
64,192,78887,1,0,0:0:0:0:
320,192,78930,1,0,0:0:0:0:
448,192,78974,1,0,0:0:0:0:
192,192,79017,1,0,0:0:0:0:
320,192,79061,1,0,0:0:0:0:
64,192,79105,1,0,0:0:0:0:
192,192,79148,1,0,0:0:0:0:
320,192,79192,1,0,0:0:0:0:
64,192,79235,1,0,0:0:0:0:
448,192,79235,1,0,0:0:0:0:
192,192,79323,1,0,0:0:0:0:
320,192,79410,1,0,0:0:0:0:
64,192,79468,1,0,0:0:0:0:
320,192,79526,1,0,0:0:0:0:
192,192,79584,1,0,0:0:0:0:
448,192,79642,1,0,0:0:0:0:
192,192,79700,1,0,0:0:0:0:
64,192,79759,1,0,0:0:0:0:
320,192,79817,1,0,0:0:0:0:
64,192,79875,1,0,0:0:0:0:
192,192,79933,1,0,0:0:0:0:
448,192,79933,1,0,0:0:0:0:
448,192,80020,1,0,0:0:0:0:
64,192,80107,1,0,0:0:0:0:
192,192,80107,1,0,0:0:0:0:
448,192,80151,1,0,0:0:0:0:
320,192,80195,1,0,0:0:0:0:
192,192,80238,1,0,0:0:0:0:
448,192,80282,1,0,0:0:0:0:
64,192,80340,1,0,0:0:0:0:
192,192,80398,1,0,0:0:0:0:
320,192,80456,1,0,0:0:0:0:
320,192,80544,1,0,0:0:0:0:
64,192,80631,1,0,0:0:0:0:
448,192,80631,1,0,0:0:0:0:
64,192,80718,1,0,0:0:0:0:
320,192,80805,1,0,0:0:0:0:
192,192,80849,1,0,0:0:0:0:
448,192,80892,1,0,0:0:0:0:
320,192,80936,1,0,0:0:0:0:
64,192,80980,1,0,0:0:0:0:
448,192,81067,1,0,0:0:0:0:
192,192,81154,1,0,0:0:0:0:
320,192,81198,1,0,0:0:0:0:
64,192,81241,1,0,0:0:0:0:
192,192,81285,1,0,0:0:0:0:
448,192,81328,1,0,0:0:0:0:
64,192,81503,1,0,0:0:0:0:
192,192,81503,1,0,0:0:0:0:
448,192,81503,1,0,0:0:0:0:
320,192,81561,1,0,0:0:0:0:
448,192,81619,1,0,0:0:0:0:
320,192,81677,1,0,0:0:0:0:
448,192,81735,1,0,0:0:0:0:
320,192,81794,1,0,0:0:0:0:
64,192,81852,1,0,0:0:0:0:
448,192,81852,1,0,0:0:0:0:
192,192,81910,1,0,0:0:0:0:
64,192,81968,1,0,0:0:0:0:
192,192,82026,1,0,0:0:0:0:
320,192,82026,1,0,0:0:0:0:
448,192,82084,1,0,0:0:0:0:
320,192,82142,1,0,0:0:0:0:
192,192,82200,1,0,0:0:0:0:
448,192,82200,1,0,0:0:0:0:
64,192,82259,1,0,0:0:0:0:
192,192,82317,1,0,0:0:0:0:
320,192,82375,1,0,0:0:0:0:
448,192,82375,1,0,0:0:0:0:
64,192,82433,1,0,0:0:0:0:
320,192,82491,1,0,0:0:0:0:
64,192,82549,1,0,0:0:0:0:
192,192,82549,1,0,0:0:0:0:
448,192,82607,1,0,0:0:0:0:
192,192,82666,1,0,0:0:0:0:
320,192,82724,1,0,0:0:0:0:
448,192,82724,1,0,0:0:0:0:
64,192,82782,1,0,0:0:0:0:
448,192,82840,1,0,0:0:0:0:
64,192,82898,1,0,0:0:0:0:
192,192,82898,1,0,0:0:0:0:
320,192,82956,1,0,0:0:0:0:
192,192,83014,1,0,0:0:0:0:
64,192,83073,1,0,0:0:0:0:
320,192,83073,1,0,0:0:0:0:
448,192,83073,1,0,0:0:0:0:
64,192,83160,1,0,0:0:0:0:
320,192,83160,1,0,0:0:0:0:
448,192,83160,1,0,0:0:0:0:
64,192,83247,1,0,0:0:0:0:
320,192,83247,1,0,0:0:0:0:
448,192,83247,1,0,0:0:0:0:
64,192,83334,1,0,0:0:0:0:
320,192,83334,1,0,0:0:0:0:
448,192,83334,1,0,0:0:0:0:
64,192,83421,1,0,0:0:0:0:
320,192,83421,1,0,0:0:0:0:
448,192,83421,1,0,0:0:0:0:
64,192,83770,128,0,83857:0:0:0:0:
192,192,83770,128,0,83857:0:0:0:0:
320,192,83770,128,0,83857:0:0:0:0:
448,192,83770,128,0,83857:0:0:0:0:
64,192,83945,128,0,84032:0:0:0:0:
192,192,83945,128,0,84032:0:0:0:0:
320,192,83945,128,0,84032:0:0:0:0:
448,192,83945,128,0,84032:0:0:0:0:
64,192,84468,128,0,85776:0:0:0:0:
320,192,84468,128,0,85776:0:0:0:0:
448,192,84468,128,0,85776:0:0:0:0:
64,192,85863,128,0,88654:0:0:0:0:
192,192,85863,128,0,88654:0:0:0:0:
448,192,85863,128,0,88654:0:0:0:0:
