osu file format v14

[General]
AudioFilename: audio.mp3
AudioLeadIn: 0
PreviewTime: 98902
Countdown: 0
SampleSet: Soft
StackLeniency: 0.5
Mode: 0
LetterboxInBreaks: 0
WidescreenStoryboard: 1

[Editor]
Bookmarks: 19200,30000,49200,63600,68400,87600,99600,118327,118402,118477,118552,118627,118702,118777,138000,193177
DistanceSpacing: 1.24
BeatDivisor: 4
GridSize: 8
TimelineZoom: 1.8

[Metadata]
Title:Paradigm Shift
TitleUnicode:Paradigm Shift
Artist:Fractal Dreamers
ArtistUnicode:Fractal Dreamers
Creator:appleeaterx
Version:Collab Insane
Source:
Tags:kingdom of silence ep captin1 pishifat
BeatmapID:1517726
BeatmapSetID:716441

[Difficulty]
HPDrainRate:6
CircleSize:4
OverallDifficulty:8
ApproachRate:9
SliderMultiplier:1.7
SliderTickRate:1

[Events]
//Background and Video events
0,0,"paradigm-shift.jpg",0,0
//Break Periods
2,87777,96577
2,138177,146977
//Storyboard Layer 0 (Background)
//Storyboard Layer 1 (Fail)
//Storyboard Layer 2 (Pass)
//Storyboard Layer 3 (Foreground)
//Storyboard Sound Samples

[TimingPoints]
-23,300,4,2,1,40,1,0
19177,-133.333333333333,4,2,1,40,0,0
29977,-100,4,2,1,65,0,0
46777,-100,4,2,1,40,0,0
48577,-100,4,2,1,50,0,0
48877,-100,4,2,1,45,0,0
49177,-100,4,2,1,80,0,0
63577,-200,4,2,1,45,0,0
63652,-200,4,2,1,30,0,0
68377,-200,4,2,1,45,0,0
97177,-100,4,2,1,45,0,0
98677,-100,4,2,1,50,0,0
98977,-100,4,2,1,40,0,0
99577,-100,4,2,1,75,0,0
107977,-133.333333333333,4,2,1,45,0,0
109177,-100,4,2,1,75,0,0
116377,-100,4,2,1,45,0,0
117277,-100,4,2,1,55,0,0
118777,-100,4,2,1,75,0,0
121177,-133.333333333333,4,2,1,45,0,0
122377,-133.333333333333,4,2,1,35,0,0
123427,-133.333333333333,4,2,1,45,0,0
123577,-133.333333333333,4,2,1,75,0,0
123877,-100,4,2,1,75,0,0
125977,-133.333333333333,4,2,1,75,0,0
126127,-133.333333333333,4,2,1,45,0,0
127177,-133.333333333333,4,2,1,50,0,0
127777,-133.333333333333,4,2,1,55,0,0
128077,-133.333333333333,4,2,1,65,0,0
128377,-133.333333333333,4,2,1,75,0,0
128677,-100,4,2,1,75,0,0
130927,-133.333333333333,4,2,1,45,0,0
131977,-133.333333333333,4,2,1,50,0,0
132577,-133.333333333333,4,2,1,55,0,0
132877,-100,4,2,1,55,0,0
133177,-100,4,2,1,75,0,0
135577,-133.333333333333,4,2,1,70,0,0
135877,-111.111111111111,4,2,1,75,0,0
136177,-95.2380952380952,4,2,1,80,0,0
136477,-83.3333333333333,4,2,1,85,0,0
136777,-100,4,2,1,75,0,0
137527,-100,4,2,1,45,0,0
137677,-100,4,2,1,75,0,0
137977,-100,4,2,1,45,0,0
147577,-133.333333333333,4,2,1,45,0,0
156577,-133.333333333333,4,2,1,40,0,0
157177,-100,4,2,1,70,0,0
175327,-100,4,2,1,60,0,0
175627,-100,4,2,1,50,0,0
176377,-100,4,2,1,70,0,0
178777,-100,4,2,1,65,0,0
193177,-100,4,2,1,45,0,0
194752,-90.9090909090909,4,2,1,55,0,0
195127,-83.3333333333333,4,2,1,45,0,0

[Colours]
Combo1 : 108,204,255
Combo2 : 238,238,238

[HitObjects]
34,259,19177,6,0,P|66:265|105:278,1,63.7500024318696,2|0,3:2|0:0,0:0:0:0:
157,333,19402,1,0,0:0:0:0:
157,333,19477,2,0,P|189:327|228:314,1,63.7500024318696,0|2,0:0|0:0,0:0:0:0:
291,251,19777,1,8,0:1:0:0:
309,342,19927,1,0,0:0:0:0:
428,211,20077,2,0,P|391:198|352:191,1,63.7500024318696,0|0,0:0|0:0,0:0:0:0:
197,222,20377,5,0,3:2:0:0:
271,137,20527,1,2,0:0:0:0:
271,137,20602,1,0,0:0:0:0:
271,137,20677,2,0,L|261:62,1,63.7500024318696,0|0,0:0|0:0,0:0:0:0:
89,92,20977,2,0,L|99:17,1,63.7500024318696,8|0,0:1|0:0,0:0:0:0:
163,164,21277,2,0,B|171:206|171:206|163:222|163:222|172:274,1,95.6250036478044,2|0,0:0|0:0,0:0:0:0:
192,284,21577,6,0,P|222:268|250:246,1,63.7500024318696,2|0,3:2|0:0,0:0:0:0:
296,184,21802,1,0,0:0:0:0:
296,184,21877,1,0,0:0:0:0:
465,185,22177,2,0,P|434:196|394:203,1,63.7500024318696,8|0,0:1|0:0,0:0:0:0:
406,321,22477,2,0,P|374:314|344:304,1,63.7500024318696,2|0,0:0|0:0,0:0:0:0:
234,341,22777,5,8,0:1:0:0:
143,300,22927,2,0,L|104:315,2,31.8750012159348,0|0|0,0:0|0:0|0:0,0:0:0:0:
211,224,23227,1,0,0:0:0:0:
211,224,23302,1,0,0:0:0:0:
211,224,23377,2,0,L|295:234,1,63.7500024318696,8|0,0:1|0:0,0:0:0:0:
392,156,23677,2,0,L|476:166,1,63.7500024318696,2|8,0:0|0:1,0:0:0:0:
333,34,23977,5,2,3:2:0:0:
309,135,24127,2,0,L|315:171,2,31.8750012159348,0|0|0,0:0|0:0|0:0,0:0:0:0:
221,102,24427,1,0,0:0:0:0:
221,102,24502,1,0,0:0:0:0:
221,102,24577,2,0,L|130:94,1,63.7500024318696,8|0,0:1|0:0,0:0:0:0:
41,185,24877,2,0,P|48:224|59:256,1,63.7500024318696,0|0,0:0|0:0,0:0:0:0:
131,294,25102,1,0,0:0:0:0:
131,294,25177,6,0,P|124:333|113:365,1,63.7500024318696,8|0,0:1|0:0,0:0:0:0:
42,372,25402,1,0,0:0:0:0:
42,372,25477,1,2,0:0:0:0:
223,186,25777,2,0,P|232:225|235:263,1,63.7500024318696,2|0,0:0|0:0,0:0:0:0:
329,335,26077,2,0,P|332:303|340:272,1,63.7500024318696,2|0,0:0|0:0,0:0:0:0:
420,234,26377,5,2,3:2:0:0:
497,290,26527,1,0,0:0:0:0:
497,290,26602,1,0,0:0:0:0:
497,290,26677,1,0,0:0:0:0:
431,153,26827,2,0,L|426:111,2,31.8750012159348,0|0|8,0:0|0:0|0:1,0:0:0:0:
291,214,27127,1,0,0:0:0:0:
291,214,27277,2,0,L|203:198,1,63.7500024318696,2|0,0:0|0:0,0:0:0:0:
47,171,27577,5,0,0:0:0:0:
130,227,27727,1,0,0:0:0:0:
132,245,27802,1,0,0:0:0:0:
135,263,27877,1,0,0:0:0:0:
138,281,27952,1,0,0:0:0:0:
141,299,28027,1,0,0:0:0:0:
143,317,28102,1,0,0:0:0:0:
146,335,28177,1,0,0:0:0:0:
256,192,28327,12,0,29677,0:0:0:0:
349,114,29977,5,2,3:2:0:0:
281,225,30127,1,0,0:0:0:0:
281,225,30202,1,0,0:0:0:0:
281,225,30277,2,0,P|294:275|310:319,1,85,8|0,0:0|0:0,0:0:0:0:
216,357,30577,1,0,0:0:0:0:
145,290,30727,1,0,3:0:0:0:
319,326,30877,2,0,L|410:321,1,85,8|0,0:0|0:0,0:0:0:0:
506,167,31177,5,2,3:2:0:0:
410,148,31327,2,0,P|417:195|440:244,1,85,0|8,0:0|0:0,0:0:0:0:
478,70,31627,2,0,P|433:52|379:47,1,85,0|0,3:0|0:0,0:0:0:0:
309,163,31927,1,0,3:0:0:0:
176,114,32077,2,0,L|156:21,1,85,8|0,0:0|0:0,0:0:0:0:
301,188,32377,5,2,3:2:0:0:
242,272,32527,1,0,0:0:0:0:
242,272,32602,1,0,0:0:0:0:
242,272,32677,2,0,L|260:364,1,85,8|0,0:0|0:0,0:0:0:0:
337,283,32977,1,0,3:0:0:0:
146,253,33127,1,0,3:0:0:0:
204,178,33277,2,0,P|219:125|224:87,1,85,8|0,0:0|0:0,0:0:0:0:
161,27,33577,5,2,3:2:0:0:
320,102,33727,2,0,L|421:87,1,85,0|8,0:0|0:0,0:0:0:0:
510,210,34027,2,0,P|470:190|423:180,1,85,0|0,3:0|0:0,0:0:0:0:
354,248,34327,1,0,3:0:0:0:
458,370,34477,2,0,L|443:278,1,85,8|0,0:0|0:0,0:0:0:0:
257,265,34777,5,2,3:2:0:0:
180,332,34927,1,0,0:0:0:0:
180,332,35002,1,0,0:0:0:0:
180,332,35077,2,0,P|132:318|92:301,1,85,8|0,0:0|0:0,0:0:0:0:
35,115,35377,1,0,3:0:0:0:
103,197,35527,1,0,3:0:0:0:
12,87,35677,2,0,L|99:73,1,85,8|0,0:0|0:0,0:0:0:0:
225,183,35977,5,2,3:2:0:0:
343,165,36127,2,0,P|365:121|378:75,1,85,0|8,0:0|0:0,0:0:0:0:
219,20,36427,2,0,P|246:61|279:95,1,85,0|0,3:0|0:0,0:0:0:0:
448,159,36727,1,0,3:0:0:0:
313,243,36877,2,0,L|301:337,1,85,8|0,0:0|0:0,0:0:0:0:
202,365,37177,5,2,3:2:0:0:
130,230,37327,1,0,0:0:0:0:
130,230,37402,1,0,0:0:0:0:
130,230,37477,2,0,P|174:236|235:259,1,85,8|0,0:0|0:0,0:0:0:0:
401,192,37777,1,0,3:0:0:0:
327,284,37927,1,0,3:0:0:0:
267,187,38077,2,0,L|261:87,1,85,8|0,0:0|0:0,0:0:0:0:
46,37,38377,5,2,3:2:0:0:
134,108,38527,1,0,0:0:0:0:
241,68,38677,1,8,0:0:0:0:
111,131,38827,2,0,L|116:225,1,85,0|0,3:0|0:0,0:0:0:0:
249,317,39127,1,0,3:0:0:0:
142,383,39277,2,0,P|148:327|168:281,1,85,8|0,0:0|0:0,0:0:0:0:
313,244,39577,5,2,3:2:0:0:
488,286,39727,1,0,0:0:0:0:
488,286,39802,1,0,0:0:0:0:
488,286,39877,2,0,L|394:307,1,85,8|0,0:0|0:0,0:0:0:0:
301,145,40177,1,0,0:0:0:0:
420,168,40327,1,0,3:0:0:0:
276,282,40477,2,0,P|232:265|175:256,1,85,8|0,0:0|0:0,0:0:0:0:
54,310,40777,5,2,3:2:0:0:
115,132,40927,2,0,L|107:225,1,85,0|8,0:0|0:0,0:0:0:0:
283,366,41227,2,0,L|275:273,1,85,0|0,3:0|0:0,0:0:0:0:
420,168,41527,1,0,3:0:0:0:
296,254,41677,2,0,L|304:347,1,85,8|0,0:0|0:0,0:0:0:0:
197,142,41977,5,2,3:2:0:0:
379,239,42127,1,0,0:0:0:0:
379,239,42202,1,0,0:0:0:0:
379,239,42277,2,0,P|424:252|478:257,1,85,8|0,0:0|0:0,0:0:0:0:
402,147,42577,1,0,0:0:0:0:
444,334,42727,1,0,3:0:0:0:
300,306,42877,2,0,P|255:293|201:288,1,85,8|0,0:0|0:0,0:0:0:0:
39,341,43177,5,2,3:2:0:0:
110,253,43327,2,0,L|91:154,1,85,0|8,0:0|0:0,0:0:0:0:
53,8,43627,2,0,P|30:55|18:91,1,85,0|0,3:0|0:0,0:0:0:0:
197,142,43927,1,0,3:0:0:0:
16,244,44077,1,8,0:0:0:0:
181,328,44227,1,0,3:0:0:0:
94,170,44377,5,2,3:2:0:0:
231,64,44527,1,0,0:0:0:0:
231,64,44602,1,0,0:0:0:0:
231,64,44677,2,0,L|322:51,1,85,8|0,0:0|0:0,0:0:0:0:
417,194,44977,1,0,0:0:0:0:
312,240,45127,1,0,3:0:0:0:
407,87,45277,2,0,P|464:103|500:121,1,85,8|0,0:0|0:0,0:0:0:0:
316,261,45577,5,2,3:2:0:0:
238,175,45727,2,0,L|253:91,1,85,0|8,0:0|0:0,0:0:0:0:
441,288,46027,2,0,L|426:372,1,85,0|0,3:0|0:0,0:0:0:0:
322,286,46327,1,0,3:0:0:0:
204,334,46477,2,0,P|152:316|115:294,1,85,8|0,0:0|0:0,0:0:0:0:
314,253,46777,5,6,3:2:0:0:
314,253,48727,1,0,3:0:0:0:
203,258,48877,2,0,B|152:249|152:249|121:257|121:257|59:246,1,127.5,8|0,0:0|0:0,0:0:0:0:
49,267,49177,5,2,3:2:0:0:
183,155,49327,1,0,0:0:0:0:
183,155,49402,1,0,0:0:0:0:
183,155,49477,2,0,L|191:62,1,85,8|0,0:0|0:0,0:0:0:0:
258,231,49777,1,0,0:0:0:0:
156,324,49927,1,0,3:0:0:0:
250,202,50077,1,8,0:0:0:0:
290,351,50227,1,0,0:0:0:0:
166,235,50377,5,2,3:2:0:0:
357,260,50527,2,0,L|374:348,1,85,0|8,0:0|0:0,0:0:0:0:
489,161,50827,2,0,L|472:249,1,85,0|0,3:0|0:0,0:0:0:0:
327,135,51127,1,0,3:0:0:0:
408,79,51277,1,10,0:0:0:0:
361,218,51427,1,2,0:0:0:0:
227,155,51577,5,2,3:2:0:0:
272,253,51727,1,0,0:0:0:0:
272,253,51802,1,0,0:0:0:0:
272,253,51877,1,8,0:0:0:0:
173,294,52027,2,0,L|63:280,1,85,0|0,3:0|0:0,0:0:0:0:
26,144,52327,1,0,3:0:0:0:
164,215,52477,2,0,L|54:201,1,85,8|0,0:0|0:0,0:0:0:0:
71,73,52777,6,0,B|129:60|129:60|179:75|179:75|242:61,1,170,2|8,3:2|0:0,0:0:0:0:
342,118,53227,2,0,P|337:162|319:202,1,85,0|0,3:0|0:0,0:0:0:0:
189,208,53527,1,0,3:0:0:0:
314,106,53677,1,10,0:0:0:0:
295,271,53827,1,2,3:2:0:0:
158,183,53977,5,2,3:2:0:0:
275,191,54127,1,0,0:0:0:0:
275,191,54202,1,0,0:0:0:0:
275,191,54277,2,0,L|387:173,1,85,8|0,0:0|0:0,0:0:0:0:
502,309,54577,1,0,0:0:0:0:
396,261,54727,1,0,3:0:0:0:
464,133,54877,2,0,P|477:178|479:228,1,85,8|0,0:0|0:0,0:0:0:0:
414,354,55177,5,2,3:2:0:0:
219,303,55327,2,0,L|312:294,1,85,0|8,0:0|0:0,0:0:0:0:
115,268,55627,2,0,L|208:277,1,85,0|0,3:0|0:0,0:0:0:0:
319,189,55927,1,0,3:0:0:0:
217,88,56077,2,0,P|213:136|218:190,1,85,8|0,0:0|0:0,0:0:0:0:
303,295,56377,5,2,3:2:0:0:
431,232,56527,1,0,0:0:0:0:
431,232,56602,1,0,0:0:0:0:
431,232,56677,2,0,L|440:125,1,85,8|0,0:0|0:0,0:0:0:0:
315,28,56977,1,0,0:0:0:0:
331,120,57127,1,0,3:0:0:0:
217,88,57277,1,10,0:0:0:0:
233,180,57427,1,2,3:2:0:0:
116,149,57577,6,0,P|63:138|30:127,1,85,2|0,3:2|0:0,0:0:0:0:
207,198,57877,1,8,0:0:0:0:
142,282,58027,2,0,L|51:267,1,85,0|0,3:0|0:0,0:0:0:0:
203,364,58327,1,0,3:0:0:0:
294,309,58477,2,0,P|339:298|383:295,1,85,8|0,0:0|0:0,0:0:0:0:
458,231,58777,5,2,3:2:0:0:
457,354,58927,1,2,3:2:0:0:
362,278,59077,2,0,L|353:192,1,85,8|0,0:0|0:0,0:0:0:0:
256,42,59377,1,2,3:2:0:0:
262,140,59527,1,2,3:2:0:0:
415,105,59677,2,0,P|365:88|322:82,1,85,8|0,0:0|0:0,0:0:0:0:
188,198,59977,6,0,L|81:189,1,85,2|0,3:2|0:0,0:0:0:0:
33,130,60277,1,8,0:0:0:0:
95,279,60427,2,0,P|112:336|118:371,1,85,0|0,3:0|0:0,0:0:0:0:
248,273,60727,1,0,3:0:0:0:
248,273,60877,2,0,L|343:260,1,85,8|0,0:0|0:0,0:0:0:0:
485,185,61177,5,2,3:2:0:0:
357,168,61327,1,2,3:2:0:0:
474,221,61477,2,0,P|488:265|497:310,1,85,8|0,0:0|0:0,0:0:0:0:
378,143,61777,1,0,3:0:0:0:
327,254,61927,1,2,3:2:0:0:
237,181,62077,2,0,L|219:91,1,85,8|0,0:0|0:0,0:0:0:0:
109,23,62377,6,0,P|92:64|79:118,1,85,2|0,3:2|0:0,0:0:0:0:
65,256,62677,1,8,0:0:0:0:
153,148,62827,2,0,L|142:243,1,85,0|0,3:0|0:0,0:0:0:0:
67,344,63127,1,0,3:0:0:0:
191,308,63277,1,10,0:0:0:0:
66,231,63427,1,2,3:2:0:0:
66,231,63577,6,0,L|56:175,2,42.5,2|0|0,3:2|0:0|0:0,0:0:0:0:
137,280,64027,1,0,0:0:0:0:
137,280,64177,2,0,L|190:269,1,42.5,2|0,0:0|0:0,0:0:0:0:
249,322,64477,2,0,L|302:333,1,42.5,0|0,0:0|0:0,0:0:0:0:
374,284,64777,5,2,3:2:0:0:
374,284,64927,2,0,L|383:334,2,42.5,0|0|0,0:0|0:0|0:0,0:0:0:0:
303,215,65377,2,0,L|312:165,1,42.5,2|0,0:0|0:0,0:0:0:0:
384,127,65677,2,0,L|375:77,1,42.5,0|0,0:0|0:0,0:0:0:0:
470,24,65977,5,2,3:2:0:0:
470,24,66127,2,0,L|463:77,2,42.5,0|0|0,0:0|0:0|0:0,0:0:0:0:
496,147,66577,2,0,L|452:163,1,42.5,2|2,0:0|0:0,0:0:0:0:
361,228,66877,2,0,L|405:244,1,42.5,0|0,0:0|0:0,0:0:0:0:
289,303,67177,5,2,3:2:0:0:
289,303,67327,2,0,L|239:296,1,42.5,0|0,0:0|0:0,0:0:0:0:
184,235,67627,2,0,L|134:228,1,42.5,0|2,0:0|0:0,0:0:0:0:
33,30,68377,5,4,3:0:0:0:
171,104,68827,2,0,L|164:157,1,42.5,0|4,0:0|0:3,0:0:0:0:
374,44,69427,1,4,0:3:0:0:
287,132,69727,1,0,0:0:0:0:
285,120,69802,1,0,0:0:0:0:
283,108,69877,1,4,0:3:0:0:
423,240,70627,5,4,0:3:0:0:
421,252,70702,1,0,0:0:0:0:
419,264,70777,1,2,3:2:0:0:
316,324,71077,1,4,0:3:0:0:
220,256,71377,1,4,0:3:0:0:
104,296,71677,2,0,L|49:288,1,42.5,0|4,0:0|0:3,0:0:0:0:
25,167,72127,5,0,0:0:0:0:
37,169,72202,1,0,0:0:0:0:
49,171,72277,1,4,0:3:0:0:
165,119,72727,1,0,0:0:0:0:
153,117,72802,1,0,0:0:0:0:
141,115,72877,1,4,0:3:0:0:
262,72,73177,5,2,3:2:0:0:
401,176,73627,2,0,L|406:230,1,42.5,0|4,0:0|0:3,0:0:0:0:
299,324,74227,1,4,0:3:0:0:
424,315,74527,1,0,0:0:0:0:
412,313,74602,1,0,0:0:0:0:
400,311,74677,1,4,0:3:0:0:
235,236,75427,5,0,0:0:0:0:
237,224,75502,1,0,0:0:0:0:
239,212,75577,1,2,3:2:0:0:
138,126,75877,1,4,0:3:0:0:
39,215,76177,1,4,0:3:0:0:
143,101,76477,2,0,L|151:52,1,42.5,0|4,0:0|0:3,0:0:0:0:
283,36,76927,5,0,0:0:0:0:
281,48,77002,1,0,0:0:0:0:
279,60,77077,1,4,0:3:0:0:
389,100,77527,1,0,0:0:0:0:
387,112,77602,1,0,0:0:0:0:
385,124,77677,1,4,0:3:0:0:
256,226,77977,5,2,3:2:0:0:
375,314,78427,2,0,L|327:309,1,42.5,0|4,0:0|0:3,0:0:0:0:
226,362,79027,1,4,0:3:0:0:
131,270,79327,1,0,0:0:0:0:
143,272,79402,1,0,0:0:0:0:
155,274,79477,1,4,0:3:0:0:
272,100,80227,5,0,0:0:0:0:
274,88,80302,1,0,0:0:0:0:
276,76,80377,1,2,3:2:0:0:
185,26,80677,1,4,0:3:0:0:
203,174,80977,2,0,L|198:228,1,42.5,4|0,0:3|0:0,0:0:0:0:
254,291,81277,1,0,0:0:0:0:
254,291,81427,1,4,0:3:0:0:
354,253,81727,5,0,0:0:0:0:
342,251,81802,1,0,0:0:0:0:
330,249,81877,1,4,0:3:0:0:
467,110,82327,1,0,0:0:0:0:
479,112,82402,1,0,0:0:0:0:
491,114,82477,1,4,0:3:0:0:
411,185,82777,5,2,3:2:0:0:
296,95,83227,2,0,L|302:43,1,42.5,0|4,0:0|0:3,0:0:0:0:
156,144,83827,1,4,0:3:0:0:
215,50,84127,1,0,0:0:0:0:
213,62,84202,1,0,0:0:0:0:
211,74,84277,1,4,0:3:0:0:
253,299,85027,5,0,0:0:0:0:
251,311,85102,1,0,0:0:0:0:
249,323,85177,1,2,3:2:0:0:
337,237,85477,1,4,0:3:0:0:
189,211,85777,2,0,L|179:257,1,42.5,4|0,0:3|0:0,0:0:0:0:
108,315,86077,1,0,0:0:0:0:
51,239,86227,1,4,0:3:0:0:
205,134,86527,5,0,0:0:0:0:
207,122,86602,1,0,0:0:0:0:
209,110,86677,1,4,0:3:0:0:
350,64,87127,1,0,0:0:0:0:
348,76,87202,1,0,0:0:0:0:
346,88,87277,1,4,0:3:0:0:
425,197,87577,5,2,3:2:0:0:
289,270,97177,6,0,L|238:283,3,42.5,4|0|0|4,3:0|0:0|0:0|3:3,0:0:0:0:
203,344,97477,1,0,0:0:0:0:
190,332,97552,1,0,0:0:0:0:
175,323,97627,1,4,3:3:0:0:
158,317,97702,1,0,0:0:0:0:
141,313,97777,1,4,0:3:0:0:
124,314,97852,1,0,0:0:0:0:
107,317,97927,1,0,0:0:0:0:
91,322,98002,1,4,0:3:0:0:
75,329,98077,2,0,L|59:272,3,42.5,2|0|8|0,0:0|0:0|0:3|0:0,0:0:0:0:
110,221,98377,5,2,3:2:0:0:
110,221,98452,1,0,0:0:0:0:
110,221,98527,2,0,L|121:170,1,42.5,0|4,0:0|0:3,0:0:0:0:
51,131,98677,5,2,0:2:0:0:
51,131,98752,1,0,0:0:0:0:
51,131,98827,2,0,L|40:80,1,42.5,2|0,0:2|0:0,0:0:0:0:
106,37,98977,6,0,L|150:24,3,42.5,4|0|0|4,0:3|0:0|0:0|0:3,0:0:0:0:
215,66,99277,6,0,L|259:53,3,42.5,0|0|4|0,0:1|0:0|0:3|0:0,0:0:0:0:
328,27,99577,5,6,3:2:0:0:
448,179,99727,1,0,0:0:0:0:
448,179,99802,1,0,0:0:0:0:
448,179,99877,1,8,0:0:0:0:
371,250,100027,2,0,P|326:235|289:216,1,85,0|2,0:0|0:0,0:0:0:0:
144,147,100327,1,0,3:0:0:0:
191,234,100477,2,0,L|210:340,1,85,8|0,0:0|0:0,0:0:0:0:
0,358,100777,6,0,P|81:336|156:397,1,170,2|8,3:2|0:0,0:0:0:0:
288,336,101227,2,0,P|315:288|327:252,1,85,0|0,3:0|0:0,0:0:0:0:
277,98,101527,1,0,3:0:0:0:
178,184,101677,2,0,L|271:195,1,85,10|2,0:0|0:0,0:0:0:0:
436,129,101977,5,2,3:2:0:0:
414,230,102127,2,0,L|421:271,2,42.5,0|0|8,0:0|0:0|0:0,0:0:0:0:
346,166,102427,1,0,3:0:0:0:
277,327,102577,1,0,3:0:0:0:
178,184,102727,1,2,3:2:0:0:
309,243,102877,1,8,0:0:0:0:
190,324,103027,6,0,L|95:305,1,85,0|2,3:0|3:2,0:0:0:0:
28,134,103327,1,0,3:0:0:0:
23,236,103477,1,8,0:0:0:0:
23,236,103627,2,0,P|71:218|113:196,1,85,0|2,3:0|0:0,0:0:0:0:
244,120,103927,1,2,3:2:0:0:
153,90,104077,1,8,0:0:0:0:
186,242,104227,1,0,3:0:0:0:
322,168,104377,5,2,3:2:0:0:
389,246,104527,1,0,0:0:0:0:
389,246,104602,1,0,0:0:0:0:
389,246,104677,1,8,0:0:0:0:
474,199,104827,2,0,P|498:155|510:119,1,85,0|2,0:0|0:0,0:0:0:0:
299,249,105127,1,0,3:0:0:0:
223,296,105277,2,0,L|205:380,1,85,8|0,0:0|0:0,0:0:0:0:
151,231,105577,6,0,B|133:169|133:169|147:132|147:132|122:47,1,170,2|8,3:2|0:0,0:0:0:0:
259,13,106027,2,0,P|252:57|235:106,1,85,0|0,3:0|0:0,0:0:0:0:
55,157,106327,1,0,3:0:0:0:
133,240,106477,2,0,P|142:285|149:341,1,85,10|2,0:0|0:0,0:0:0:0:
246,222,106777,5,2,3:2:0:0:
179,117,106927,2,0,L|195:73,2,42.5,0|0|8,0:0|0:0|0:0,0:0:0:0:
271,243,107227,2,0,P|319:235|365:230,1,85,2|0,3:2|0:0,0:0:0:0:
491,335,107527,2,0,P|448:330|406:322,1,85,0|10,3:0|0:0,0:0:0:0:
385,130,107827,1,2,3:2:0:0:
385,130,107977,6,0,P|326:148|257:146,1,127.500004863739,2|0,3:2|0:0,0:0:0:0:
196,100,108427,2,0,P|137:82|68:84,1,127.500004863739,2|0,0:0|0:0,0:0:0:0:
7,129,108877,1,2,0:0:0:0:
189,180,109177,5,2,3:2:0:0:
90,204,109327,1,0,0:0:0:0:
90,204,109402,1,0,0:0:0:0:
90,204,109477,1,8,0:0:0:0:
138,289,109627,2,0,L|151:384,1,85,2|0,0:0|0:0,0:0:0:0:
294,225,109927,1,0,3:0:0:0:
321,327,110077,2,0,P|274:323|224:309,1,85,8|0,0:0|0:0,0:0:0:0:
210,169,110377,6,0,P|327:129|378:170,1,170,2|8,3:2|0:0,0:0:0:0:
434,320,110827,2,0,L|426:214,1,85,0|0,3:0|0:0,0:0:0:0:
462,129,111127,1,0,3:0:0:0:
325,246,111277,2,0,P|278:244|229:232,1,85,8|2,0:0|0:0,0:0:0:0:
43,342,111577,5,2,3:2:0:0:
115,256,111727,1,0,0:0:0:0:
115,256,111802,1,0,0:0:0:0:
115,256,111877,1,8,0:0:0:0:
32,166,112027,2,0,L|23:78,1,85,0|2,0:0|0:0,0:0:0:0:
177,40,112327,1,0,3:0:0:0:
154,132,112477,1,8,0:0:0:0:
250,101,112627,6,0,P|296:86|351:79,1,85,2|2,3:2|3:2,0:0:0:0:
493,181,112927,2,0,P|447:166|392:159,1,85,0|8,3:0|0:0,0:0:0:0:
254,264,113227,2,0,P|300:249|355:242,1,85,0|0,3:0|0:0,0:0:0:0:
410,312,113527,1,0,3:0:0:0:
334,381,113677,2,0,P|292:373|251:360,1,85,10|2,0:0|0:0,0:0:0:0:
160,312,113977,5,2,3:2:0:0:
105,239,114127,1,0,0:0:0:0:
105,239,114202,1,0,0:0:0:0:
105,239,114277,1,8,0:0:0:0:
167,163,114427,2,0,L|266:174,1,85,0|2,3:0|0:0,0:0:0:0:
106,76,114727,2,0,P|65:93|25:117,1,85,0|8,3:0|0:0,0:0:0:0:
90,266,115027,1,0,0:0:0:0:
241,205,115177,5,2,3:2:0:0:
146,144,115327,2,0,L|165:240,1,85,0|8,3:0|0:0,0:0:0:0:
242,370,115627,2,0,P|260:322|267:277,1,85,2|0,3:2|0:0,0:0:0:0:
349,200,115927,1,0,3:0:0:0:
385,312,116077,1,10,0:0:0:0:
379,157,116227,1,2,3:2:0:0:
349,344,116377,5,2,3:2:0:0:
460,281,116527,2,0,L|502:294,2,42.5,0|0|0,0:0|0:0|0:0,0:0:0:0:
374,187,116827,1,0,0:0:0:0:
251,337,116977,1,2,3:2:0:0:
212,156,117127,1,2,3:2:0:0:
389,212,117277,1,2,3:2:0:0:
274,247,117427,6,0,L|172:241,1,85,2|2,3:2|3:2,0:0:0:0:
58,145,117727,2,0,L|17:157,2,42.5,0|0|0,3:0|0:0|0:0,0:0:0:0:
129,63,118027,2,0,P|153:101|167:149,1,85,2|0,3:2|0:0,0:0:0:0:
112,354,118327,1,0,3:0:0:0:
110,337,118402,1,0,0:0:0:0:
108,320,118477,1,2,0:0:0:0:
106,303,118552,1,0,0:0:0:0:
104,286,118627,1,2,0:0:0:0:
312,339,118777,5,2,3:2:0:0:
215,335,118927,1,0,0:0:0:0:
215,335,119002,1,0,0:0:0:0:
215,335,119077,2,0,P|228:294|251:259,1,85,8|0,0:0|0:0,0:0:0:0:
385,128,119377,1,2,3:2:0:0:
216,161,119527,2,0,L|330:177,1,85,0|8,3:0|0:0,0:0:0:0:
447,48,119827,6,0,P|367:27|300:76,1,170,2|0,3:2|0:0,0:0:0:0:
301,75,120202,1,0,0:0:0:0:
301,75,120277,1,8,0:0:0:0:
140,67,120427,1,0,3:0:0:0:
226,10,120577,1,2,0:0:0:0:
110,80,120727,2,0,P|69:68|33:45,1,85,0|8,3:0|0:0,0:0:0:0:
208,142,121027,1,2,0:0:0:0:
97,193,121177,5,2,3:2:0:0:
173,214,121327,2,0,L|168:258,2,31.8750012159348,0|0|2,0:0|0:0|0:0,0:0:0:0:
91,165,121627,1,0,0:0:0:0:
36,246,121777,2,0,P|38:281|73:373,1,127.500004863739,2|2,0:0|0:0,0:0:0:0:
291,137,122377,2,0,P|265:195|257:258,2,127.500004863739,2|2|2,3:2|0:0|0:0,0:0:0:0:
355,91,123127,5,0,3:0:0:0:
355,91,123427,1,0,0:0:0:0:
481,146,123577,5,6,3:2:0:0:
441,233,123727,1,0,0:0:0:0:
441,233,123802,1,0,0:0:0:0:
441,233,123877,2,0,L|348:218,1,85,8|0,0:0|0:0,0:0:0:0:
186,257,124177,1,2,3:2:0:0:
308,368,124327,2,0,P|286:297|256:263,1,85,0|8,3:0|0:0,0:0:0:0:
127,180,124627,6,0,B|190:161|190:161|227:175|227:175|289:157,1,170,0|0,3:0|0:0,0:0:0:0:
296,164,125002,1,0,0:0:0:0:
296,164,125077,2,0,L|311:72,1,85,8|0,0:0|0:0,0:0:0:0:
257,0,125377,1,2,3:2:0:0:
107,35,125527,2,0,P|144:54|186:62,1,85,2|8,3:2|0:0,0:0:0:0:
384,23,125827,1,2,0:0:0:0:
468,93,125977,5,2,3:2:0:0:
413,150,126127,2,0,L|363:157,2,31.8750012159348,0|0|2,0:0|0:0|0:0,0:0:0:0:
471,203,126427,1,0,0:0:0:0:
424,266,126577,2,0,P|350:258|291:236,1,127.500004863739,2|2,0:0|0:0,0:0:0:0:
118,319,127177,2,0,P|178:299|241:293,1,127.500004863739,2|2,3:2|0:0,0:0:0:0:
29,29,127777,5,2,3:2:0:0:
46,112,127927,1,2,3:2:0:0:
138,63,128077,1,2,3:2:0:0:
170,181,128227,1,2,3:2:0:0:
299,132,128377,5,6,3:2:0:0:
390,175,128527,1,0,0:0:0:0:
390,175,128602,1,0,0:0:0:0:
390,175,128677,2,0,P|383:213|363:255,1,85,8|0,0:0|0:0,0:0:0:0:
273,299,128977,1,2,0:0:0:0:
490,336,129127,2,0,L|405:346,1,85,0|8,3:0|0:0,0:0:0:0:
255,273,129427,1,2,0:0:0:0:
157,358,129577,6,0,P|116:350|78:332,1,85,2|0,3:2|0:0,0:0:0:0:
24,273,129802,1,0,0:0:0:0:
24,273,129877,1,8,0:0:0:0:
179,214,130027,1,0,3:0:0:0:
109,154,130177,1,2,0:0:0:0:
206,201,130327,2,0,L|218:116,1,85,0|8,3:0|0:0,0:0:0:0:
190,6,130627,1,2,0:0:0:0:
327,73,130777,5,2,3:2:0:0:
396,36,130927,2,0,L|402:-2,2,31.8750012159348,0|0|2,0:0|0:0|0:0,0:0:0:0:
451,91,131227,1,0,0:0:0:0:
419,163,131377,2,0,P|443:238|482:295,1,127.500004863739,2|2,0:0|0:0,0:0:0:0:
248,235,131977,2,0,P|290:187|343:152,2,127.500004863739,0|2|2,3:2|0:0|0:0,0:0:0:0:
248,235,132877,6,0,B|196:242|196:242|169:259|169:259|107:268,1,127.5,2|0,3:2|0:0,0:0:0:0:
96,239,133177,5,6,3:2:0:0:
44,381,133327,1,0,0:0:0:0:
44,381,133402,1,0,0:0:0:0:
44,381,133477,2,0,P|22:319|27:274,1,85,8|0,0:0|0:0,0:0:0:0:
123,87,133777,1,2,0:0:0:0:
214,120,133927,2,0,P|171:169|129:187,1,85,0|8,3:0|0:0,0:0:0:0:
199,26,134227,1,2,0:0:0:0:
312,173,134377,5,2,3:2:0:0:
395,125,134527,1,0,0:0:0:0:
395,125,134602,1,0,0:0:0:0:
395,125,134677,2,0,L|495:144,1,85,8|0,0:0|3:0,0:0:0:0:
461,341,134977,1,2,0:0:0:0:
371,295,135127,2,0,P|376:253|425:192,1,85,0|8,3:0|0:0,0:0:0:0:
301,364,135427,1,0,0:0:0:0:
205,279,135577,6,0,L|113:291,1,63.7500024318696,10|8,3:2|0:0,0:0:0:0:
294,195,135877,2,0,L|214:183,1,76.4999976654053,8|8,0:0|0:0,0:0:0:0:
272,359,136177,2,0,L|180:371,1,89.2499972763062,8|8,0:0|0:0,0:0:0:0:
366,116,136477,2,0,L|233:97,1,101.999996887207,8|8,0:0|0:0,0:0:0:0:
80,298,136777,6,0,P|135:209|138:104,1,212.5,6|0,3:2|0:0,0:0:0:0:
143,89,137227,2,0,P|190:151|207:227,1,127.5,6|0,0:0|0:0,0:0:0:0:
215,210,137527,2,0,B|271:232|325:192|301:181|346:148|415:169,1,212.5,6|0,0:0|0:0,0:0:0:0:
475,210,137977,5,6,3:2:0:0:
36,69,147577,5,2,3:2:0:0:
36,69,147877,2,0,P|85:77|136:119,1,95.6250036478044
148,127,148177,2,0,L|223:119,1,63.7500024318696,8|0,0:1|0:0,0:0:0:0:
302,49,148477,2,0,L|365:55,1,63.7500024318696,0|2,0:0|0:0,0:0:0:0:
500,117,148777,5,2,3:2:0:0:
450,186,148927,1,0,0:0:0:0:
367,161,149077,2,0,B|360:200|360:200|368:215|368:215|361:253,1,95.6250036478044,2|0,0:0|0:0,0:0:0:0:
334,276,149377,1,8,0:1:0:0:
131,359,149677,2,0,B|124:320|124:320|132:305|132:305|125:266,1,95.6250036478044,2|0,0:0|0:0,0:0:0:0:
103,238,149977,6,0,P|49:220|22:224,1,63.7500024318696,2|0,3:2|0:0,0:0:0:0:
7,120,150277,2,0,B|46:127|46:127|61:119|61:119|99:125,1,95.6250036478044,2|0,0:0|0:0,0:0:0:0:
130,149,150577,2,0,L|197:139,1,63.7500024318696,8|2,0:1|0:0,0:0:0:0:
270,75,150877,1,8,0:1:0:0:
155,290,151177,5,2,3:2:0:0:
236,260,151327,2,0,L|244:211,2,31.8750012159348,2|0|0,0:0|0:0|0:0,0:0:0:0:
308,322,151627,1,0,0:0:0:0:
308,322,151702,1,0,0:0:0:0:
308,322,151777,2,0,P|346:298|371:295,1,63.7500024318696,8|0,0:1|0:0,0:0:0:0:
433,240,152077,2,0,P|463:247|488:266,1,63.7500024318696,8|0,0:1|0:0,0:0:0:0:
512,345,152377,5,2,3:2:0:0:
464,132,152677,2,0,L|397:122,1,63.7500024318696,0|0,0:0|0:0,0:0:0:0:
261,76,152977,2,0,L|257:42,2,31.8750012159348,8|0|0,0:1|0:0|0:0,0:0:0:0:
316,146,153277,2,0,P|283:160|247:163,1,63.7500024318696,0|2,0:0|0:0,0:0:0:0:
146,113,153577,5,2,3:2:0:0:
64,128,153727,1,0,0:0:0:0:
40,208,153877,2,0,B|47:247|47:247|39:262|39:262|45:300,1,95.6250036478044,2|0,0:0|0:0,0:0:0:0:
67,328,154177,1,0,0:0:0:0:
206,179,154477,2,0,B|245:186|245:186|260:178|260:178|298:184,1,95.6250036478044,2|0,0:0|0:0,0:0:0:0:
331,209,154777,6,0,P|355:254|354:284,1,63.7500024318696,2|0,3:2|0:0,0:0:0:0:
288,359,155077,2,0,B|326:352|326:352|341:360|341:360|380:353,1,95.6250036478044,2|0,0:0|0:0,0:0:0:0:
407,374,155377,2,0,L|475:384,1,63.7500024318696,8|0,0:1|0:0,0:0:0:0:
452,298,155677,1,0,0:0:0:0:
512,238,155827,1,0,0:0:0:0:
472,165,155977,5,2,3:2:0:0:
472,165,157177,5,6,3:2:0:0:
385,89,157327,1,0,0:0:0:0:
385,89,157402,1,0,0:0:0:0:
385,89,157477,2,0,P|322:114|296:147,1,85,8|2,0:0|0:0,0:0:0:0:
266,217,157777,1,0,0:0:0:0:
397,335,157927,2,0,P|363:309|322:298,1,85,0|8,3:0|0:0,0:0:0:0:
138,353,158227,1,0,0:0:0:0:
69,286,158377,5,2,3:2:0:0:
147,227,158527,1,0,0:0:0:0:
147,227,158602,1,0,0:0:0:0:
147,227,158677,1,8,0:0:0:0:
46,270,158827,2,0,B|38:209|38:209|61:168|61:168|51:79,1,170,2|0,3:2|3:0,0:0:0:0:
169,27,159277,1,8,0:0:0:0:
217,153,159427,1,0,3:0:0:0:
344,75,159577,6,0,L|245:62,1,85,2|0,3:2|0:0,0:0:0:0:
259,63,159802,1,0,0:0:0:0:
259,63,159877,1,8,0:0:0:0:
410,143,160027,1,0,0:0:0:0:
298,198,160177,2,0,P|278:235|276:277,1,85,0|0,3:0|3:0,0:0:0:0:
394,168,160477,1,8,0:0:0:0:
326,357,160627,1,0,3:0:0:0:
480,303,160777,6,0,L|395:292,1,85,2|0,3:2|3:0,0:0:0:0:
395,292,161002,1,0,0:0:0:0:
395,292,161077,1,8,0:0:0:0:
422,71,161227,2,0,P|483:126|479:208,1,170,0|0,3:0|3:0,0:0:0:0:
272,45,161677,2,0,P|305:19|347:11,1,85,8|0,0:0|0:0,0:0:0:0:
193,130,161977,5,2,3:2:0:0:
145,49,162127,1,0,0:0:0:0:
145,49,162202,1,0,0:0:0:0:
145,49,162277,1,8,0:0:0:0:
220,120,162427,2,0,L|210:222,1,85,2|0,3:2|0:0,0:0:0:0:
342,325,162727,2,0,P|277:272|242:269,1,85,0|8,3:0|0:0,0:0:0:0:
122,233,163027,1,0,0:0:0:0:
63,384,163177,6,0,P|141:354|161:325,1,85,2|0,3:2|0:0,0:0:0:0:
192,298,163402,1,0,0:0:0:0:
192,298,163477,1,8,0:0:0:0:
86,135,163627,2,0,P|146:211|238:180,1,170,2|0,3:2|3:0,0:0:0:0:
274,119,164077,1,8,0:0:0:0:
372,249,164227,1,2,0:0:0:0:
483,48,164377,5,2,3:2:0:0:
453,145,164527,1,0,0:0:0:0:
453,145,164602,1,0,0:0:0:0:
453,145,164677,2,0,L|353:156,1,85,8|0,0:0|0:0,0:0:0:0:
201,37,164977,1,0,3:0:0:0:
274,119,165127,1,0,3:0:0:0:
172,49,165277,1,8,0:0:0:0:
164,171,165427,1,0,3:0:0:0:
31,146,165577,6,0,P|84:110|117:105,1,85,2|2,3:2|3:2,0:0:0:0:
247,199,165877,1,8,0:0:0:0:
15,253,166027,2,0,B|76:245|76:245|117:268|117:268|206:258,1,170,0|0,3:0|3:0,0:0:0:0:
257,177,166477,1,8,0:0:0:0:
221,369,166627,1,0,3:0:0:0:
355,189,166777,5,2,3:2:0:0:
301,271,166927,1,0,0:0:0:0:
301,271,167002,1,0,0:0:0:0:
301,271,167077,1,8,0:0:0:0:
367,341,167227,2,0,P|406:342|466:317,1,85,0|0,0:0|0:0,0:0:0:0:
361,95,167527,2,0,P|340:128|332:192,1,85,0|8,3:0|0:0,0:0:0:0:
447,57,167827,1,0,0:0:0:0:
248,105,167977,6,0,L|149:91,1,85,2|2,3:2|0:0,0:0:0:0:
163,93,168202,1,0,0:0:0:0:
163,93,168277,1,8,0:0:0:0:
11,23,168427,2,0,P|71:78|65:159,1,170,2|0,3:2|3:0,0:0:0:0:
21,318,168877,2,0,P|86:279|128:282,1,85,8|0,0:0|0:0,0:0:0:0:
303,299,169177,5,2,3:2:0:0:
226,350,169327,1,0,0:0:0:0:
226,350,169402,1,0,0:0:0:0:
226,350,169477,1,8,0:0:0:0:
320,277,169627,2,0,L|331:186,1,85,2|0,3:2|0:0,0:0:0:0:
156,124,169927,1,0,3:0:0:0:
213,193,170077,1,8,0:0:0:0:
247,106,170227,1,0,3:0:0:0:
137,147,170377,5,2,3:2:0:0:
188,37,170527,1,2,0:0:0:0:
188,37,170602,1,0,0:0:0:0:
188,37,170677,1,8,0:0:0:0:
59,48,170827,2,0,L|-40:32,1,85,2|0,3:2|0:0,0:0:0:0:
137,147,171127,1,0,3:0:0:0:
41,202,171277,2,0,P|14:169|4:128,1,85,8|0,0:0|0:0,0:0:0:0:
247,106,171577,6,0,L|233:219,1,85,2|0,3:2|0:0,0:0:0:0:
237,190,171802,1,0,0:0:0:0:
237,190,171877,1,8,0:0:0:0:
420,128,172027,2,0,P|378:133|341:157,1,85,0|0,3:0|0:0,0:0:0:0:
457,302,172327,1,0,3:0:0:0:
414,219,172477,1,8,0:0:0:0:
439,324,172627,6,0,P|508:345|549:338,1,85,2|2,3:2|3:2,0:0:0:0:
330,255,172927,1,0,3:0:0:0:
330,255,173002,1,0,0:0:0:0:
330,255,173077,1,8,0:0:0:0:
258,305,173227,1,2,3:2:0:0:
115,192,173377,1,0,3:0:0:0:
284,124,173527,1,0,3:0:0:0:
229,200,173677,1,8,0:0:0:0:
271,97,173827,1,2,3:2:0:0:
421,152,173977,6,0,P|480:134|517:93,1,85,2|0,3:2|0:0,0:0:0:0:
497,119,174202,1,0,0:0:0:0:
497,119,174277,1,8,0:0:0:0:
369,67,174427,1,0,3:0:0:0:
387,237,174577,2,0,P|422:260|463:269,1,85,0|0,0:0|3:0,0:0:0:0:
353,43,174877,1,8,0:0:0:0:
271,97,175027,5,2,3:2:0:0:
206,60,175327,1,2,3:2:0:0:
133,77,175627,1,2,3:2:0:0:
133,77,176377,5,6,3:2:0:0:
333,159,176527,1,0,0:0:0:0:
333,159,176602,1,0,0:0:0:0:
333,159,176677,2,0,P|273:180|237:221,1,85,8|0,0:0|0:0,0:0:0:0:
161,303,176977,1,0,0:0:0:0:
240,360,177127,1,0,3:0:0:0:
142,321,177277,2,0,L|129:236,1,85,8|0,0:0|0:0,0:0:0:0:
128,27,177577,5,2,3:2:0:0:
102,118,177727,2,0,P|65:139|24:147,1,85,0|8,0:0|0:0,0:0:0:0:
191,97,178027,2,0,P|227:117|255:149,1,85,0|0,3:0|0:0,0:0:0:0:
297,247,178327,1,0,3:0:0:0:
142,321,178477,2,0,L|249:332,1,85,8|0,0:0|0:0,0:0:0:0:
471,220,178777,6,0,P|429:228|396:254,1,85,2|0,3:2|0:0,0:0:0:0:
397,254,179002,1,0,0:0:0:0:
397,254,179077,1,8,0:0:0:0:
424,348,179227,1,0,0:0:0:0:
253,325,179377,1,0,0:0:0:0:
297,247,179527,1,0,3:0:0:0:
226,329,179677,2,0,P|191:322|145:288,1,85,8|0,0:0|0:0,0:0:0:0:
131,74,179977,5,2,3:2:0:0:
216,121,180127,2,0,L|204:205,1,85,0|8,0:0|0:0,0:0:0:0:
280,50,180427,2,0,P|314:25|355:15,1,85,0|0,3:0|0:0,0:0:0:0:
470,132,180727,1,0,3:0:0:0:
309,140,180877,2,0,P|350:149|384:174,1,85,8|0,0:0|0:0,0:0:0:0:
497,336,181177,5,2,3:2:0:0:
445,261,181327,1,0,0:0:0:0:
445,261,181402,1,0,0:0:0:0:
445,261,181477,2,0,L|346:281,1,85,8|0,0:0|0:0,0:0:0:0:
258,345,181777,1,0,0:0:0:0:
188,280,181927,1,0,3:0:0:0:
92,358,182077,2,0,P|25:335|0:304,1,85,8|0,0:0|0:0,0:0:0:0:
85,149,182377,5,2,3:2:0:0:
164,295,182527,2,0,L|152:198,1,85,0|8,0:0|0:0,0:0:0:0:
386,127,182827,2,0,P|347:152|297:157,1,85,0|0,3:0|0:0,0:0:0:0:
207,121,183127,1,0,3:0:0:0:
345,12,183277,2,0,P|386:19|421:43,1,85,8|0,0:0|0:0,0:0:0:0:
442,201,183577,5,2,3:2:0:0:
368,272,183727,1,0,0:0:0:0:
472,210,183877,2,0,L|484:107,1,85,8|0,0:0|0:0,0:0:0:0:
264,155,184177,1,0,0:0:0:0:
354,120,184327,1,0,3:0:0:0:
278,63,184477,2,0,P|235:66|197:84,1,85,8|0,0:0|0:0,0:0:0:0:
44,252,184777,5,2,3:2:0:0:
132,154,184927,1,0,0:0:0:0:
61,46,185077,1,8,0:0:0:0:
153,171,185227,2,0,L|249:186,1,85,0|0,3:0|0:0,0:0:0:0:
381,165,185527,1,0,3:0:0:0:
323,243,185677,2,0,P|326:284|370:340,1,85,8|0,0:0|0:0,0:0:0:0:
298,106,185977,5,2,3:2:0:0:
476,167,186127,1,0,0:0:0:0:
476,167,186202,1,0,0:0:0:0:
476,167,186277,2,0,P|496:130|500:88,1,85,8|0,0:0|0:0,0:0:0:0:
417,254,186577,2,0,L|500:269,1,85,0|0,0:0|3:0,0:0:0:0:
401,67,186877,2,0,L|317:82,1,85,8|0,0:0|0:0,0:0:0:0:
97,87,187177,5,2,3:2:0:0:
188,45,187327,2,0,P|214:78|221:119,1,85,0|8,0:0|0:0,0:0:0:0:
77,272,187627,2,0,P|92:232|124:205,1,85,0|0,3:0|0:0,0:0:0:0:
366,172,187927,1,0,3:0:0:0:
330,256,188077,2,0,P|288:262|248:248,1,85,8|0,0:0|0:0,0:0:0:0:
448,113,188377,6,0,L|460:221,1,85,2|0,3:2|0:0,0:0:0:0:
457,197,188602,1,0,0:0:0:0:
457,197,188677,1,8,0:0:0:0:
356,148,188827,1,0,0:0:0:0:
248,248,188977,1,0,0:0:0:0:
193,172,189127,1,0,3:0:0:0:
271,265,189277,2,0,L|256:363,1,85,8|0,0:0|0:0,0:0:0:0:
31,250,189577,5,2,3:2:0:0:
126,239,189727,2,0,P|173:297|175:340,1,85,0|8,0:0|0:0,0:0:0:0:
0,165,190027,2,0,P|16:126|48:98,1,85,0|0,3:0|0:0,0:0:0:0:
219,80,190327,1,0,3:0:0:0:
128,35,190477,1,8,0:0:0:0:
206,109,190627,1,0,3:0:0:0:
287,9,190777,5,2,3:2:0:0:
373,100,190927,1,0,0:0:0:0:
373,100,191002,1,0,0:0:0:0:
373,100,191077,2,0,P|420:92|474:60,1,85,8|0,0:0|0:0,0:0:0:0:
294,156,191377,2,0,L|284:268,1,85,0|0,0:0|3:0,0:0:0:0:
465,324,191677,1,8,0:0:0:0:
407,249,191827,1,0,0:0:0:0:
302,335,191977,5,2,3:2:0:0:
212,302,192127,2,0,P|183:242|181:190,1,85,0|8,0:0|0:0,0:0:0:0:
211,51,192427,2,0,P|173:106|129:133,1,85,0|0,3:0|0:0,0:0:0:0:
58,142,192727,1,0,3:0:0:0:
259,153,192877,2,0,L|342:139,1,85,8|0,0:0|0:0,0:0:0:0:
31,122,193177,5,6,3:2:0:0:
457,377,194527,6,0,P|499:309|502:242,1,127.5
502,247,194827,2,0,P|465:287|382:327,1,140.25000428009
374,328,195127,2,0,B|316:280|328:204|349:222|366:140|307:85,1,254.999992218018
256,48,195577,5,2,3:2:0:0:
