osu file format v14

[General]
AudioFilename: audio.mp3
AudioLeadIn: 0
PreviewTime: 195035
Countdown: 1
SampleSet: Soft
StackLeniency: 1
Mode: 0
LetterboxInBreaks: 0
WidescreenStoryboard: 1

[Editor]
Bookmarks: 243219
DistanceSpacing: 1.3
BeatDivisor: 8
GridSize: 8
TimelineZoom: 1

[Metadata]
Title:With Every Wanderer's Breath
TitleUnicode:With Every Wanderer's Breath
Artist:Fractal Dreamers
ArtistUnicode:Fractal Dreamers
Creator:Niva
Version:pishi's Hard
Source:osu!
Tags:mappers' guild pishifat wanderers Everything for a Dream
BeatmapID:1772880
BeatmapSetID:847755

[Difficulty]
HPDrainRate:6
CircleSize:4
OverallDifficulty:6.5
ApproachRate:7.5
SliderMultiplier:2
SliderTickRate:1

[Events]
//Background and Video events
0,0,"owo.png",0,0
//Break Periods
//Storyboard Layer 0 (Background)
//Storyboard Layer 1 (Fail)
//Storyboard Layer 2 (Pass)
//Storyboard Layer 3 (Foreground)
//Storyboard Sound Samples

[TimingPoints]
141,729.483282674772,4,2,1,15,1,0
141,-200,4,2,1,15,0,0
2329,740.740740740741,4,2,1,15,1,0
3069,758.293838862559,4,2,1,15,1,0
3069,-200,4,2,1,15,0,0
6102,750,4,2,1,15,1,0
6102,-200,4,2,1,15,0,0
8727,821.917808219178,4,2,1,15,1,0
9137,740.740740740741,4,2,1,15,1,0
9137,-200,4,2,1,15,0,0
12099,745.341614906832,4,2,1,15,1,0
14335,821.917808219178,4,2,1,15,1,0
14335,-200,4,2,1,15,0,0
14745,674.157303370787,4,2,1,15,1,0
15082,759.493670886076,4,2,1,15,1,0
15082,-200,4,2,1,15,0,0
17740,800,4,2,1,15,1,0
18140,743.034055727554,4,2,1,15,1,0
20369,666.666666666667,4,2,1,15,1,0
20369,-200,4,2,1,15,0,0
20702,857.142857142857,4,2,1,15,1,0
21130,754.716981132075,4,2,1,15,1,0
21130,-200,4,2,1,20,0,0
23394,731.707317073171,4,2,1,15,1,0
23759,750,4,2,1,15,1,0
24134,750,4,2,1,20,1,0
24134,-133.333333333333,4,2,1,20,0,0
24509,-100,4,2,1,15,0,0
26384,754.716981132075,4,2,1,15,1,0
27138,750,4,2,1,20,1,0
27138,-133.333333333333,4,2,1,20,0,0
27513,745.341614906832,4,2,1,15,1,0
27513,-100,4,2,1,15,0,0
29376,795.492210805436,4,2,1,15,1,0
30171,789.473684210526,4,2,1,20,1,0
30171,-133.333333333333,4,2,1,20,0,0
30565,722.89156626506,4,2,1,15,1,0
30926,759.493670886076,4,2,1,15,1,0
31685,731.707317073171,4,2,1,20,1,0
31685,-200,4,2,1,20,0,0
32050,-100,4,2,1,15,0,0
32416,757.097791798107,4,2,1,15,1,0
33173,779.220779220779,4,2,1,20,1,0
33173,-133.333333333333,4,2,1,20,0,0
33562,716.417910447761,4,2,1,15,1,0
35353,731.707317073171,4,2,1,15,1,0
36084,750,4,2,1,20,1,0
36084,-133.333333333333,4,2,1,20,0,0
36459,857.142857142857,4,2,1,15,1,0
36887,789.473684210526,4,2,1,15,1,0
37676,701.754385964912,4,2,1,20,1,0
37676,-200,4,2,1,20,0,0
38026,-100,4,2,1,15,0,0
38377,714.285714285714,4,2,1,15,1,0
39091,697.674418604651,4,2,1,15,1,0
39091,-133.333333333333,4,2,1,20,0,0
39439,882.352941176471,4,2,1,15,1,0
39880,763.116057233704,4,2,1,15,1,0
41406,722.89156626506,4,2,1,15,1,0
42128,750,4,2,1,20,1,0
42128,-133.333333333333,4,2,1,20,0,0
42503,-100,4,2,1,15,0,0
42878,759.493670886076,4,2,1,15,1,0
44396,750,4,2,1,20,1,0
44396,-200,4,2,1,20,0,0
44771,-100,4,2,1,15,0,0
45146,754.716981132075,4,2,1,20,1,0
45146,-133.333333333333,4,2,1,20,0,0
45523,-100,4,2,1,15,0,0
47410,800,4,2,1,15,1,0
48210,715.137067938021,4,2,1,20,1,0
48210,-142.857142857143,4,2,1,20,0,0
50355,779.220779220779,4,2,1,20,1,0
50744,810.810810810811,4,2,1,20,1,0
51149,752.351097178683,4,2,1,20,1,0
51149,-142.857142857143,4,2,1,20,0,0
53406,727.272727272727,4,2,1,20,1,0
54133,757.814966845595,4,2,1,20,1,0
54133,-142.857142857143,4,2,1,20,0,0
56406,750,4,2,1,20,1,0
56781,722.89156626506,4,2,1,20,1,0
57142,736.196319018405,4,2,1,20,1,0
57142,-133.333333333333,4,2,1,20,0,0
57878,714.285714285714,4,2,1,20,1,0
57878,-133.333333333333,4,2,1,20,0,0
58235,789.473684210526,4,2,1,20,1,0
58629,770.465489566613,4,2,1,20,1,0
59399,779.220779220779,4,2,1,20,1,0
60178,687.679083094556,4,2,1,20,1,0
60178,-133.333333333333,4,2,1,20,0,0
60521,769.230769230769,4,2,1,20,1,0
60905,738.461538461538,4,2,1,20,1,0
61643,764.331210191083,4,2,1,20,1,0
61643,-133.333333333333,4,2,1,20,0,0
62407,745.341614906832,4,2,1,20,1,0
63152,759.493670886076,4,2,1,20,1,0
63152,-133.333333333333,4,2,1,20,0,0
63911,731.707317073171,4,2,1,20,1,0
63911,-133.333333333333,4,2,1,20,0,0
64642,731.707317073171,4,2,1,20,1,0
64642,-133.333333333333,4,2,1,20,0,0
65373,779.220779220779,4,2,1,20,1,0
65373,-133.333333333333,4,2,1,20,0,0
66152,740.740740740741,4,2,1,20,1,0
67633,754.716981132075,4,2,1,20,1,0
68387,714.285714285714,4,2,1,20,1,0
68387,-133.333333333333,4,2,1,20,0,0
68744,810.810810810811,4,2,1,20,1,0
69149,789.473684210526,4,2,1,20,1,0
69149,-133.333333333333,4,2,1,20,0,0
69543,689.655172413793,4,2,1,20,1,0
69887,789.473684210526,4,2,1,20,1,0
69887,-133.333333333333,4,2,1,20,0,0
70262,-100,4,2,1,20,0,0
70281,731.707317073171,4,2,1,20,1,0
71012,745.341614906832,4,2,1,20,1,0
71756,774.193548387097,4,2,1,20,1,0
72143,731.707317073171,4,2,1,20,1,0
72143,-133.333333333333,4,2,1,20,0,0
72874,705.882352941176,4,2,1,20,1,0
72874,-133.333333333333,4,2,1,20,0,0
73226,789.473684210526,4,2,1,20,1,0
73620,768,4,2,1,20,1,0
74388,827.586206896552,4,2,1,20,1,0
74388,-133.333333333333,4,2,1,20,0,0
74801,691.64265129683,4,2,1,20,1,0
75146,754.716981132075,4,2,1,20,1,0
75146,-133.333333333333,4,2,1,20,0,0
76278,722.89156626506,4,2,1,20,1,0
76641,750,4,2,1,20,1,0
77766,779.220779220779,4,2,1,20,1,0
78155,749.063670411985,4,2,1,20,1,0
78155,-133.333333333333,4,2,1,20,0,0
78529,740.740740740741,4,2,1,20,1,0
78899,-133.333333333333,4,2,1,20,0,0
79269,731.707317073171,4,2,1,20,1,0
79634,747.663551401869,4,2,1,20,1,0
80755,779.220779220779,4,2,1,20,1,0
81144,750,4,2,1,20,1,0
81144,-133.333333333333,4,2,1,20,0,0
81519,722.89156626506,4,2,1,20,1,0
81880,800,4,2,1,20,1,0
81880,-133.333333333333,4,2,1,20,0,0
82280,714.285714285714,4,2,1,20,1,0
82637,760.456273764259,4,2,1,20,1,0
83397,750,4,2,1,20,1,0
84147,779.220779220779,4,2,1,20,1,0
84147,-133.333333333333,4,2,1,20,0,0
84536,740.740740740741,4,2,1,20,1,0
84906,759.493670886076,4,2,1,20,1,0
85286,652.173913043478,4,2,1,20,1,0
85286,-133.333333333333,4,2,1,20,0,0
85612,800,4,2,1,20,1,0
86412,722.891566265059,4,2,1,20,1,0
87134,833.333333333333,4,2,1,20,1,0
87134,-133.333333333333,4,2,1,20,0,0
87550,689.655172413793,4,2,1,20,1,0
87894,750,4,2,1,20,1,0
87894,-133.333333333333,4,2,1,20,0,0
88643,-133.333333333333,4,2,1,20,0,0
90143,800,4,2,1,20,1,0
90143,-133.333333333333,4,2,1,20,0,0
90543,722.89156626506,4,2,1,20,1,0
90904,750,4,2,1,20,1,0
90904,-133.333333333333,4,2,1,20,0,0
91654,736.196319018405,4,2,1,20,1,0
92390,750,4,2,1,20,1,0
93140,750,4,2,1,20,1,0
93140,-133.333333333333,4,2,1,20,0,0
93515,714.285714285714,4,2,1,20,1,0
93872,750,4,2,1,20,1,0
96122,759.493670886076,4,2,1,20,1,0
96122,-100,4,2,1,20,0,0
97640,750,4,2,1,20,1,0
98390,740.740740740741,4,2,1,20,1,0
99122,-133.333333333333,4,2,1,20,0,0
99130,755.667506297229,4,2,1,20,1,0
99216,-133.333333333333,4,2,1,5,0,0
100261,-100,4,2,1,5,0,0
100640,750,4,2,1,55,1,0
101015,-111.111111111111,4,2,1,55,0,0
101108,-100,4,2,1,55,0,0
101390,-90.9090909090909,4,2,1,55,0,0
101952,-111.111111111111,4,2,1,55,0,0
102140,-111.111111111111,4,2,1,55,0,0
102702,-90.9090909090909,4,2,1,55,0,0
102890,-90.9090909090909,4,2,1,55,0,0
104015,-100,4,2,1,55,0,0
104108,-100,4,2,1,55,0,0
104390,-90.9090909090909,4,2,1,55,0,0
104952,-111.111111111111,4,2,1,55,0,0
105140,-111.111111111111,4,2,1,55,0,0
106077,-100,4,2,1,55,0,0
106171,-100,4,2,1,55,0,0
106265,-90.9090909090909,4,2,1,55,0,0
107015,-111.111111111111,4,2,1,55,0,0
107108,-100,4,2,1,55,0,0
107390,-90.9090909090909,4,2,1,55,0,0
107483,-90.9090909090909,4,2,1,55,0,0
107952,-111.111111111111,4,2,1,55,0,0
108890,-90.9090909090909,4,2,1,55,0,0
110015,-100,4,2,1,55,0,0
110108,-100,4,2,1,55,0,0
110390,-90.9090909090909,4,2,1,55,0,0
110952,-111.111111111111,4,2,1,55,0,0
112077,-100,4,2,1,55,0,0
112171,-100,4,2,1,55,0,0
112265,-90.9090909090908,4,2,1,55,0,0
113015,-100,4,2,2,55,0,0
113108,-100,4,2,1,55,0,0
113390,-90.9090909090909,4,2,1,55,0,0
114515,-100,4,2,1,55,0,0
114608,-100,4,2,1,55,0,0
114890,-90.9090909090909,4,2,2,55,0,0
115077,-100,4,2,1,55,0,0
115265,-100,4,2,1,55,0,0
115640,-90.9090909090909,4,2,1,55,0,0
116015,-100,4,2,2,55,0,0
116108,-100,4,2,1,55,0,0
116390,-90.9090909090909,4,2,1,55,0,0
117515,-100,4,2,1,55,0,0
117890,-111.111111111111,4,2,1,55,0,0
118077,-100,4,2,2,55,0,0
118171,-100,4,2,1,55,0,0
118265,-125,4,2,1,55,0,0
118640,-90.9090909090909,4,2,1,55,0,0
119015,-100,4,2,2,55,0,0
119108,-100,4,2,1,55,0,0
119390,-90.9090909090909,4,2,1,55,0,0
120890,-90.9090909090909,4,2,2,55,0,0
121077,-100,4,2,1,55,0,0
121265,-100,4,2,1,55,0,0
121640,-111.111111111111,4,2,1,55,0,0
122015,-100,4,2,2,55,0,0
122108,-100,4,2,1,55,0,0
122390,-90.9090909090909,4,2,2,55,0,0
122483,-90.9090909090909,4,2,1,55,0,0
123140,-83.3333333333333,4,2,1,55,0,0
123515,-76.9230769230769,4,2,1,55,0,0
123890,-71.4285714285714,4,2,1,55,0,0
124077,-100,4,2,1,55,0,0
124171,-100,4,2,1,55,0,0
124265,-66.6666666666667,4,2,1,55,0,0
124640,-90.9090909090909,4,2,1,55,0,0
125015,-100,4,2,1,55,0,0
125202,-100,4,2,1,55,0,0
125390,-90.9090909090909,4,2,1,55,0,0
126515,-111.111111111111,4,2,1,55,0,0
126890,-100,4,2,1,55,0,0
127077,-100,4,2,1,55,0,0
127265,-90.9090909090909,4,2,1,55,0,0
128015,-100,4,2,1,55,0,0
128202,-100,4,2,1,55,0,0
128765,-90.9090909090909,4,2,1,55,0,0
129327,-111.111111111111,4,2,1,55,0,0
129890,-90.9090909090909,4,2,1,55,0,0
130077,-100,4,2,1,55,0,0
130265,-90.9090909090909,4,2,1,55,0,0
131015,-100,4,2,2,55,0,0
131108,-100,4,2,1,55,0,0
131390,-90.9090909090909,4,2,1,55,0,0
132890,-90.9090909090909,4,2,2,55,0,0
133077,-90.9090909090909,4,2,1,55,0,0
133265,-90.9090909090909,4,2,1,55,0,0
134015,-100,4,2,2,55,0,0
134108,-90.9090909090909,4,2,1,55,0,0
134765,-83.3333333333333,4,2,1,55,0,0
135140,-90.9090909090909,4,2,1,55,0,0
135515,-90.9090909090909,4,2,1,55,0,0
136077,-100,4,2,1,55,0,0
136171,-100,4,2,1,55,0,0
137015,-90.9090909090909,4,2,1,55,0,0
137108,-100,4,2,1,55,0,0
137390,-90.9090909090909,4,2,1,55,0,0
138890,-90.9090909090909,4,2,1,55,0,0
139265,-100,4,2,1,55,0,0
140015,-90.9090909090909,4,2,1,55,0,0
140202,-100,4,2,1,55,0,0
140390,-90.9090909090909,4,2,1,55,0,0
141515,-90.9090909090909,4,2,1,55,0,0
142077,-100,4,2,1,55,0,0
142265,-100,4,2,1,55,0,0
142640,-100,4,2,1,55,0,0
143390,-133.333333333333,4,2,1,40,0,0
145640,-133.333333333333,4,2,1,48,0,0
147140,712.800712800713,4,2,1,55,1,0
147230,-100,4,2,1,15,0,0
148565,750,4,2,1,25,1,0
148565,-200,4,2,1,25,0,0
169565,754.716981132075,4,2,1,30,1,0
171449,750,4,2,1,30,1,0
171449,-133.333333333333,4,2,1,30,0,0
172574,750,4,2,1,30,1,0
172574,-133.333333333333,4,2,1,30,0,0
187574,-153.846153846153,4,2,1,30,0,0
193574,779.220779220779,4,2,1,10,1,0
195126,750,4,2,1,65,1,0
195126,-76.9230769230769,4,2,1,65,0,0
195501,-76.9230769230769,4,2,2,65,0,0
195594,-90.9090909090909,4,2,1,65,0,0
196438,-76.9230769230769,4,2,1,65,0,0
197751,-76.9230769230769,4,2,1,65,0,0
198501,-76.9230769230769,4,2,2,65,0,0
198594,-100,4,2,1,65,0,0
199813,-76.9230769230769,4,2,1,65,0,0
201501,-76.9230769230769,4,2,2,65,0,0
201594,-100,4,2,1,65,0,0
202438,-76.9230769230769,4,2,1,65,0,0
204501,-76.9230769230769,4,2,2,65,0,0
204594,-100,4,2,1,65,0,0
205438,-76.9230769230769,4,2,1,65,0,0
207501,-76.9230769230769,4,2,2,65,0,0
207688,-100,4,2,1,65,0,0
208438,-76.9230769230769,4,2,1,65,0,0
210501,-76.9230769230769,4,2,2,65,0,0
210688,-100,4,2,1,65,0,0
210876,-76.9230769230769,4,2,1,65,0,0
213501,-76.9230769230769,4,2,2,65,0,0
213688,-100,4,2,1,65,0,0
214438,-76.9230769230769,4,2,1,65,0,0
216501,-76.9230769230769,4,2,2,65,0,0
216688,-100,4,2,1,65,0,0
216876,-76.9230769230769,4,2,1,65,0,0
218376,-76.9230769230769,4,2,1,70,0,0
219126,-76.9230769230769,4,2,1,65,0,0
219501,-76.9230769230769,4,2,2,65,0,0
219688,-100,4,2,1,65,0,0
220063,-76.9230769230769,4,2,1,65,0,0
222501,-100,4,2,2,65,0,0
222688,-100,4,2,1,65,0,0
222876,-76.9230769230769,4,2,1,65,0,0
225501,-76.9230769230769,4,2,2,65,0,0
225688,-100,4,2,1,65,0,0
226063,-76.9230769230769,4,2,1,65,0,0
228126,-76.9230769230769,4,2,1,70,0,0
228876,-76.9230769230769,4,2,1,65,0,0
229626,-66.6666666666667,4,2,1,70,0,0
231126,-71.4285714285714,4,2,1,70,0,0
231501,-100,4,2,2,70,0,0
231688,-100,4,2,1,70,0,0
231876,-71.4285714285714,4,2,1,70,0,0
233001,-71.4285714285714,4,2,2,70,0,0
233188,-100,4,2,1,70,0,0
233376,-71.4285714285714,4,2,1,70,0,0
234501,-71.4285714285714,4,2,2,70,0,0
234688,-100,4,2,1,70,0,0
234876,-71.4285714285714,4,2,1,70,0,0
236001,-100,4,2,2,70,0,0
236188,-100,4,2,1,70,0,0
236376,-71.4285714285714,4,2,1,70,0,0
237501,-100,4,2,1,70,0,0
237688,-71.4285714285714,4,2,1,70,0,0
239001,-71.4285714285714,4,2,2,70,0,0
239188,-100,4,2,1,70,0,0
239563,-71.4285714285714,4,2,1,70,0,0
239751,-100,4,2,1,70,0,0
240126,-83.3333333333333,4,2,1,75,0,0
240876,-71.4285714285714,4,2,1,75,0,0
241626,-64.5161290322581,4,2,1,75,0,0
242376,-58.8235294117647,4,2,1,65,0,0
242751,-100,4,2,1,55,0,0
243126,-100,4,2,1,45,0,0
243313,-100,4,2,1,35,0,0

[Colours]
Combo1 : 180,184,220
Combo2 : 167,241,141
Combo3 : 113,223,232
Combo4 : 164,210,183

[HitObjects]
34,100,141,6,0,B|90:118|129:86|129:86|173:53|223:78|223:78|272:98|317:65,1,300,2|2,0:0|0:0,0:0:0:0:
317,66,3069,6,0,B|282:114|269:192|305:202|336:211|356:168|329:151,1,200,2|0,0:0|0:0,0:0:0:0:
334,307,6102,6,0,B|310:253|248:203|222:229|199:251|226:290|255:275,1,200,2|0,0:0|0:0,0:0:0:0:
116,202,8727,5,2,0:0:0:0:
116,202,9137,2,0,B|175:208|249:180|240:144|232:113|185:117|183:149,1,200,2|0,0:0|0:0,0:0:0:0:
40,349,12099,5,2,0:0:0:0:
40,349,14335,6,0,L|97:340,1,50,0|2,0:0|0:0,0:0:0:0:
159,369,15082,2,0,B|221:376|263:331|239:321|276:278|337:282,1,200,2|0,0:0|0:0,0:0:0:0:
412,86,17740,5,2,0:0:0:0:
412,86,18140,1,2,0:0:0:0:
412,86,20369,6,0,L|358:79,1,50,2|0,0:0|0:0,0:0:0:0:
288,108,21130,2,0,B|356:79|399:145|385:206|311:193|317:235|328:273|362:302|414:280,1,300,2|0,0:0|0:0,0:0:0:0:
468,238,23759,1,2,0:0:0:0:
495,311,24134,6,0,B|512:331|512:331|505:388,1,75.0000028610231,2|0,0:0|0:0,0:0:0:0:
108,70,26384,1,2,0:0:0:0:
108,70,27138,6,0,B|91:90|91:90|98:147,1,75.0000028610231,2|0,0:0|0:0,0:0:0:0:
97,138,29376,1,2,0:0:0:0:
97,138,30171,6,0,B|147:144|147:144|167:167,1,75.0000028610231,2|2,0:0|0:0,0:0:0:0:
110,228,30926,1,2,0:0:0:0:
110,228,31685,2,0,P|124:256|128:284,1,50,2|0,0:0|0:0,0:0:0:0:
118,351,32416,1,2,0:0:0:0:
415,138,33173,6,0,B|365:144|365:144|345:167,1,75.0000028610231,2|0,0:0|0:0,0:0:0:0:
349,162,35353,1,2,0:0:0:0:
406,351,36084,6,0,B|385:337|385:337|373:288,1,75.0000028610231,2|2,0:0|0:0,0:0:0:0:
298,335,36887,1,2,0:0:0:0:
298,335,37676,2,0,P|268:317|248:313,1,50,2|0,0:0|0:0,0:0:0:0:
178,327,38377,1,2,0:0:0:0:
62,161,39091,6,0,B|82:147|82:147|94:98,1,75.0000028610231,2|2,0:0|0:0,0:0:0:0:
173,145,39880,1,2,0:0:0:0:
367,55,41406,1,2,0:0:0:0:
367,55,42128,6,0,B|337:43|337:43|326:45|326:45|283:25,1,75.0000028610231,2|2,0:0|0:0,0:0:0:0:
331,132,42878,1,2,0:0:0:0:
331,132,44396,2,0,P|312:160|307:178,1,50,2|0,0:0|0:0,0:0:0:0:
282,268,45146,6,0,B|312:256|312:256|323:258|323:258|366:238,1,75.0000028610231,2|0,0:0|0:0,0:0:0:0:
351,245,47410,1,2,0:0:0:0:
503,366,48210,6,0,B|399:389|288:343|399:207|297:144|185:177,1,419.999987182618,2|2,0:0|0:0,0:0:0:0:
105,202,50744,1,0,0:0:0:0:
66,123,51149,6,0,B|114:67|208:65|182:111|276:104|323:31,1,279.999991455078,2|0,0:0|0:0,0:0:0:0:
317,38,53406,1,2,0:0:0:0:
186,199,54133,6,0,B|302:71|469:126|472:248|386:304|322:242,1,419.999987182618,2|2,0:0|0:0,0:0:0:0:
242,283,56781,1,0,0:0:0:0:
261,371,57142,6,0,P|299:384|336:388,1,75.0000028610231,2|0,0:0|0:0,0:0:0:0:
242,283,57878,2,0,P|221:245|217:204,1,75.0000028610231,2|0,0:0|0:0,0:0:0:0:
330,249,58629,1,2,0:0:0:0:
372,54,59399,1,2,0:0:0:0:
152,103,60178,6,0,P|130:144|128:182,1,75.0000028610231,2|2,0:0|0:0,0:0:0:0:
217,164,60905,1,2,0:0:0:0:
217,164,61643,2,0,L|370:184,1,150.000005722046,0|2,0:0|0:0,0:0:0:0:
497,360,63152,6,0,P|450:333|415:328,1,75.0000028610231,2|2,0:0|0:0,0:0:0:0:
354,277,63911,2,0,L|344:364,1,75,2|0,0:0|0:0,0:0:0:0:
201,331,64642,2,0,P|236:320|267:299,1,75.0000028610231,2|2,0:0|0:0,0:0:0:0:
194,166,65373,2,0,P|158:176|127:197,1,75.0000028610231,2|2,0:0|0:0,0:0:0:0:
273,210,66152,5,2,0:0:0:0:
312,111,66522,1,0,0:0:0:0:
236,35,66892,1,0,0:0:0:0:
312,111,67263,1,0,0:0:0:0:
416,88,67633,1,2,0:0:0:0:
416,88,68387,2,0,P|438:121|444:157,1,75.0000028610231,2|2,0:0|0:0,0:0:0:0:
381,258,69149,6,0,L|371:336,1,75.0000028610231,2|0,0:0|0:0,0:0:0:0:
229,380,69887,2,0,L|219:305,1,75.0000028610231
219,306,71012,1,2,0:0:0:0:
237,110,71757,1,2,0:0:0:0:
180,210,72143,6,0,P|161:170|156:131,1,75.0000028610231,2|0,0:0|0:0,0:0:0:0:
82,72,72874,2,0,P|75:108|58:142,1,75.0000028610231,0|0,0:0|0:0,0:0:0:0:
20,13,73620,1,2,0:0:0:0:
0,258,74388,2,0,L|81:245,1,75.0000028610231,2|2,0:0|0:0,0:0:0:0:
166,309,75146,6,0,P|242:354|303:350,1,150.000005722046,2|0,0:0|0:0,0:0:0:0:
379,296,76278,1,0,0:0:0:0:
437,374,76639,1,2,0:0:0:0:
365,140,77766,1,2,0:0:0:0:
453,168,78155,6,0,P|483:202|495:244,1,75.0000028610231,2|0,0:0|0:0,0:0:0:0:
428,80,78899,2,0,P|442:37|472:5,1,75.0000028610231
365,140,79634,1,2,0:0:0:0:
166,42,80755,1,2,0:0:0:0:
241,105,81144,6,0,P|283:88|308:67,1,75.0000028610231,2|0,0:0|0:0,0:0:0:0:
205,190,81880,2,0,P|230:217|262:236,1,75.0000028610231,0|2,0:0|0:0,0:0:0:0:
119,162,82637,1,2,0:0:0:0:
86,373,83397,1,2,0:0:0:0:
172,331,83772,1,2,0:0:0:0:
262,375,84147,6,0,L|342:384,1,75.0000028610231,2|0,0:0|0:0,0:0:0:0:
257,274,84906,1,2,0:0:0:0:
257,274,85286,2,0,P|281:246|295:211,1,75.0000028610231,0|2,0:0|0:0,0:0:0:0:
295,211,86412,1,2,0:0:0:0:
466,44,87134,6,0,L|481:121,1,75.0000028610231,2|0,0:0|0:0,0:0:0:0:
350,205,87894,2,0,L|364:131,1,75.0000028610231,2|0,0:0|0:0,0:0:0:0:
225,24,88644,2,0,P|223:90|274:153,1,150.000005722046,2|2,0:0|0:0,0:0:0:0:
364,131,89768,1,2,0:0:0:0:
424,202,90143,6,0,P|405:247|374:276,1,75.0000028610231,2|2,0:0|0:0,0:0:0:0:
235,277,90904,2,0,P|286:291|318:317,1,75,2|0,0:0|0:0,0:0:0:0:
173,338,91654,1,2,0:0:0:0:
94,148,92390,1,2,0:0:0:0:
94,148,93140,6,0,P|154:169|176:169,1,75.0000028610231,2|0,0:0|0:0,0:0:0:0:
281,110,93872,1,0,0:0:0:0:
394,125,94247,1,0,0:0:0:0:
465,190,94622,1,2,0:0:0:0:
459,262,94997,1,0,0:0:0:0:
420,301,95372,1,2,0:0:0:0:
387,309,95747,1,2,0:0:0:0:
364,305,96122,1,2,0:0:0:0:
364,305,97640,1,2,0:0:0:0:
170,337,98390,1,2,0:0:0:0:
154,264,98760,1,2,0:0:0:0:
139,191,99130,6,0,L|145:228,1,25.0000009536744,2|0,0:0|0:0,0:0:0:0:
485,349,100640,5,6,1:2:0:0:
485,349,101015,2,0,P|455:356|430:371,1,44.999998626709,2|8,0:3|0:3,0:0:0:0:
376,329,101390,2,0,P|329:318|266:278,1,110.000003356934,6|0,0:3|0:0,0:0:0:0:
205,326,101952,2,0,L|195:269,1,44.999998626709,6|0,0:3|0:3,0:0:0:0:
117,282,102327,2,0,L|127:225,1,44.999998626709,2|0,0:0|0:0,0:0:0:0:
42,210,102702,1,2,0:0:0:0:
42,210,102890,2,0,L|76:155,1,55.0000016784668,2|0,3:3|3:3,0:0:0:0:
0,103,103265,2,0,L|51:64,1,55.0000016784668,10|4,0:3|0:3,0:0:0:0:
119,20,103640,5,2,1:2:0:0:
119,20,104015,1,2,0:3:0:0:
180,72,104202,1,8,0:3:0:0:
253,45,104390,2,0,P|214:115|214:187,1,110.000003356934,6|0,0:3|0:0,0:0:0:0:
252,216,104952,2,0,L|206:226,2,44.999998626709,6|0|2,0:3|0:3|0:0,0:0:0:0:
252,216,105702,1,2,0:0:0:0:
325,243,105890,1,2,3:0:0:0:
383,183,106077,1,2,0:3:0:0:
471,214,106265,2,0,P|490:243|497:271,1,55.0000016784668,6|6,0:3|0:3,0:0:0:0:
437,334,106640,5,2,1:2:0:0:
437,334,107015,2,0,P|409:330|387:318,1,44.999998626709,2|8,3:0|3:0,0:0:0:0:
323,353,107390,2,0,P|258:360|219:388,1,110.000003356934,10|0,0:3|0:0,0:0:0:0:
161,336,107952,2,0,L|176:219,2,89.9999972534181,6|2|2,0:3|0:0|0:0,0:0:0:0:
83,359,108890,2,0,L|28:328,1,55.0000016784668,2|0,3:0|3:0,0:0:0:0:
88,270,109265,2,0,L|65:194,1,55.0000016784668,10|0,0:3|0:3,0:0:0:0:
49,133,109640,5,2,1:2:0:0:
49,133,110015,1,2,0:3:0:0:
115,97,110202,1,8,0:3:0:0:
135,25,110390,2,0,P|203:40|250:87,1,110.000003356934,6|0,0:3|0:0,0:0:0:0:
320,35,110952,2,0,L|304:163,1,89.9999972534181,6|2,0:3|0:0,0:0:0:0:
308,124,111702,1,2,0:0:0:0:
386,155,111890,1,2,3:0:0:0:
419,236,112077,1,2,3:0:0:0:
380,317,112265,2,0,P|350:331|312:333,1,55.0000016784668,6|6,0:3|0:3,0:0:0:0:
241,320,112640,6,0,L|252:397,2,55.0000016784668,2|0|2,1:2|0:0|0:3,0:0:0:0:
168,292,113202,1,8,0:3:0:0:
168,292,113390,2,0,L|157:369,2,55.0000016784668,6|0|2,0:3|0:0|0:0,0:0:0:0:
126,225,113952,1,4,0:3:0:0:
49,244,114140,2,0,P|12:219|-2:193,1,55.0000016784668,2|0,0:0|0:0,0:0:0:0:
0,133,114515,1,2,0:0:0:0:
59,79,114702,1,0,0:0:0:0:
59,79,114890,2,0,P|105:85|183:49,1,110.000003356934,2|10,0:3|0:3,0:0:0:0:
217,1,115452,1,2,0:0:0:0:
226,115,115640,6,0,P|292:144|301:169,2,55.0000016784668,2|0|2,1:2|0:0|0:3,0:0:0:0:
192,187,116202,1,8,0:3:0:0:
192,187,116390,2,0,P|234:224|252:281,1,110.000003356934,6|2,0:3|0:0,0:0:0:0:
229,349,116952,1,4,0:3:0:0:
302,377,117140,6,0,L|371:363,1,55.0000016784668,2|2,0:0|0:0,0:0:0:0:
433,345,117515,2,0,L|364:331,1,50,2|0,0:3|0:0,0:0:0:0:
344,261,117890,2,0,L|413:247,1,44.999998626709,2|0,3:0|0:3,0:0:0:0:
460,225,118265,2,0,L|391:211,1,40,6|6,0:3|0:3,0:0:0:0:
358,168,118640,5,2,1:2:0:0:
395,29,119015,1,2,0:3:0:0:
248,70,119390,2,0,P|229:19|230:6,2,55.0000016784668,6|2|6,0:3|0:0|0:3,0:0:0:0:
332,87,119952,1,0,0:0:0:0:
332,87,120140,1,2,0:0:0:0:
230,229,120515,2,0,P|177:207|163:186,1,55.0000016784668,2|2,0:0|0:0,0:0:0:0:
99,235,120890,2,0,P|74:312|87:358,1,110.000003356934,2|10,0:3|0:3,0:0:0:0:
154,380,121452,1,6,0:3:0:0:
154,380,121640,6,0,L|265:361,1,89.9999972534181,2|2,1:2|0:3,0:0:0:0:
322,348,122202,1,8,0:3:0:0:
322,348,122390,2,0,L|339:220,1,110.000003356934,6|6,0:3|0:3,0:0:0:0:
367,162,122952,1,0,0:0:0:0:
367,162,123140,2,0,L|305:132,1,59.9999981689454,2|0,0:0|0:3,0:0:0:0:
243,85,123515,2,0,L|196:134,1,64.9999970245363,6|0,0:3|0:0,0:0:0:0:
120,176,123890,2,0,L|153:237,1,69.9999978637696,2|2,3:0|0:3,0:0:0:0:
165,333,124265,2,0,L|280:307,1,75.0000028610231,10|6,0:3|0:3,0:0:0:0:
336,285,124640,6,0,B|432:298|363:367|489:378,1,165.000005035401,6|8,1:2|0:3,0:0:0:0:
472,297,125390,2,0,P|477:244|507:177,1,110.000003356934,4|0,0:3|0:0,0:0:0:0:
397,129,125952,2,0,P|418:188|416:208,1,55.0000016784668,4|2,0:3|0:0,0:0:0:0:
417,179,126515,2,0,P|366:130|311:122,1,89.9999972534181,0|2,0:0|0:3,0:0:0:0:
287,80,127077,1,2,0:3:0:0:
287,80,127265,2,0,P|231:105|213:102,1,55.0000016784668,8|0,0:3|0:0,0:0:0:0:
154,67,127640,6,0,L|172:182,2,110.000003356934,2|2|6,1:2|0:3|0:3,0:0:0:0:
62,212,128765,2,0,B|46:196|38:188|35:185|31:181|27:177|24:174|20:170|12:162|-42:153,2,55.0000016784668,0|4|2,0:0|0:3|0:0,0:0:0:0:
62,212,129515,2,0,P|103:262|147:277,1,89.9999972534181,0|6,0:0|0:3,0:0:0:0:
180,334,130078,1,2,0:3:0:0:
180,334,130265,2,0,P|235:309|263:308,1,55.0000016784668,4|4,0:3|0:3,0:0:0:0:
306,337,130640,6,0,L|368:348,2,55.0000016784668,2|0|2,1:2|0:0|0:3,0:0:0:0:
345,265,131202,1,8,0:3:0:0:
345,265,131390,2,0,L|399:255,1,55.0000016784668,6|2,0:3|0:0,0:0:0:0:
401,174,131765,2,0,L|346:183,1,55.0000016784668,6|0,0:3|0:0,0:0:0:0:
282,136,132140,2,0,P|291:76|340:31,1,110.000003356934,2|6,0:0|0:3,0:0:0:0:
251,64,132702,1,2,0:0:0:0:
251,64,132890,2,0,P|193:33|175:35,1,55.0000016784668,2|2,0:3|0:3,0:0:0:0:
126,48,133265,2,0,P|95:105|97:124,1,55.0000016784668,10|0,0:3|0:0,0:0:0:0:
132,168,133640,5,6,0:3:0:0:
132,168,134015,1,2,0:3:0:0:
72,218,134202,1,8,0:3:0:0:
103,292,134390,2,0,P|129:299|152:314,1,55.0000016784668,6|0,0:3|0:0,0:0:0:0:
215,374,134765,2,0,P|230:351|258:329,1,59.9999981689454,2|6,0:0|0:3,0:0:0:0:
333,288,135140,2,0,P|316:266|305:240,2,55.0000016784668,2|0|6,0:0|0:0|0:3,0:0:0:0:
412,320,135702,1,0,0:0:0:0:
478,270,135890,2,0,L|488:150,1,110.000003356934,2|6,3:0|0:3,0:0:0:0:
423,107,136452,1,6,0:3:0:0:
461,38,136640,5,2,1:2:0:0:
461,38,137015,2,0,P|405:8|388:8,1,55.0000016784668,2|8,0:3|0:3,0:0:0:0:
341,45,137390,2,0,L|327:170,1,110.000003356934,6|0,0:3|0:0,0:0:0:0:
268,206,137952,1,4,0:3:0:0:
305,283,138140,1,2,0:0:0:0:
305,283,138515,2,0,P|255:322|235:322,1,55.0000016784668,0|0,0:0|0:0,0:0:0:0:
162,354,138890,2,0,P|213:380|233:378,2,55.0000016784668,2|2|8,0:3|0:3|0:3,0:0:0:0:
114,290,139452,1,0,0:0:0:0:
41,322,139640,5,2,1:2:0:0:
41,322,140015,2,0,L|34:249,1,55.0000016784668,2|8,0:3|0:3,0:0:0:0:
81,199,140390,2,0,L|94:82,1,110.000003356934,6|0,0:3|0:0,0:0:0:0:
51,18,140952,1,4,0:3:0:0:
51,18,141140,1,2,0:0:0:0:
167,158,141515,2,0,P|219:137|233:121,1,55.0000016784668,0|0,0:3|0:0,0:0:0:0:
278,72,141890,2,0,P|251:66|227:52,2,55.0000016784668,0|2|4,3:0|0:3|0:3,0:0:0:0:
356,51,142452,1,4,0:3:0:0:
406,118,142640,5,2,1:2:0:0:
406,118,143390,2,0,B|414:164|414:164|410:182|410:182|419:242,2,112.500004291535,2|2|2,0:0|0:0|0:0,0:0:0:0:
256,288,145265,1,2,0:0:0:0:
256,192,145640,12,2,147140,0:0:0:0:
415,339,148565,6,0,B|429:358|477:342|491:292|431:228|354:267,1,200,2|2,0:0|0:0,0:0:0:0:
359,264,151565,6,0,B|403:219|470:222|470:222|442:191|437:148,1,200,2|2,0:0|0:0,0:0:0:0:
483,28,153815,1,2,0:0:0:0:
350,52,154565,5,2,0:0:0:0:
350,52,156065,2,0,P|293:59|257:102,1,100,2|2,0:0|0:0,0:0:0:0:
188,213,157565,6,0,B|238:164|259:100|244:-2|95:41|146:132,1,300,2|2,0:0|0:0,0:0:0:0:
26,247,160565,6,0,P|97:252|132:315,1,150,2|2,0:0|0:0,0:0:0:0:
132,315,162065,1,2,0:0:0:0:
346,194,162815,1,2,0:0:0:0:
497,368,163565,5,2,0:0:0:0:
497,368,165065,2,0,P|473:308|427:285,1,100,2|2,0:0|0:0,0:0:0:0:
372,305,166190,1,2,0:0:0:0:
320,250,166565,6,0,B|288:193|317:145|330:168|374:117|337:51,1,200,2|2,0:0|0:0,0:0:0:0:
196,10,168815,1,2,0:0:0:0:
98,130,169565,5,2,0:0:0:0:
98,130,171449,2,0,B|77:128|59:132|59:132|43:147|30:178,2,75.0000028610231,2|2|2,0:0|0:0|0:0,0:0:0:0:
174,171,172574,6,0,B|242:158|242:158|281:149|266:129|302:123|302:123|388:110,1,225.000008583069,2|0,0:0|0:0,0:0:0:0:
458,164,174074,2,0,B|435:257|435:257|424:290|384:306,1,150.000005722046,2|2,0:0|0:0,0:0:0:0:
317,323,175199,1,2,0:0:0:0:
385,381,175574,6,0,B|291:363|291:363|237:351|258:323|209:315|209:315|91:297,2,300.000011444092,2|2|2,0:0|0:0|0:0,0:0:0:0:
475,49,180824,5,2,0:0:0:0:
424,149,181574,2,0,B|376:182|326:156|326:156|276:125|276:125|256:112|241:108|210:120,1,225.000008583069,2|0,0:0|0:0,0:0:0:0:
187,201,183074,2,0,L|160:53,1,150.000005722046,2|2,0:0|0:0,0:0:0:0:
35,356,184574,6,0,B|109:367|171:323|171:323|312:211|312:211|346:184|376:204|385:255|335:261,1,450.000017166138,2|2,0:0|0:0,0:0:0:0:
131,74,187574,6,0,B|154:134|215:162|215:162|361:220|361:220|396:234|394:265|359:295|333:259,1,389.999982147218,2|2,0:0|0:0,0:0:0:0:
256,8,190574,5,2,0:0:0:0:
256,192,191136,12,2,193574,0:0:0:0:
490,42,195126,6,0,L|483:114,1,64.9999970245363,4|0,1:2|0:0,0:0:0:0:
483,106,195407,1,0,0:0:0:0:
483,106,195501,2,0,P|411:131|374:192,1,129.999994049073,2|6,0:3|0:3,0:0:0:0:
90,77,196438,6,0,P|126:84|153:104,1,64.9999970245363,2|4,0:0|0:3,0:0:0:0:
234,114,196813,2,0,P|249:158|238:204,1,64.9999970245363,2|0,0:0|0:0,0:0:0:0:
197,246,197188,1,2,0:0:0:0:
263,300,197376,2,0,P|296:293|336:266,1,64.9999970245363,6|0,0:3|0:0,0:0:0:0:
296,380,197751,2,0,P|246:339|172:337,1,129.999994049073,6|0,0:3|1:2,0:0:0:0:
103,365,198313,5,0,0:0:0:0:
103,365,198407,1,0,0:0:0:0:
103,365,198501,2,0,B|73:308|73:308|85:226,1,129.999994049073,2|6,0:3|0:3,0:0:0:0:
373,54,199438,5,2,0:0:0:0:
314,110,199626,1,4,0:3:0:0:
374,171,199813,2,0,L|416:177,2,32.4999985122681,2|0|0,0:0|0:0|0:0,0:0:0:0:
304,216,200188,1,2,0:0:0:0:
304,216,200376,2,0,P|318:269|342:289,1,64.9999970245363,6|0,0:3|0:0,0:0:0:0:
408,303,200751,2,0,P|355:288|325:299,1,64.9999970245363,6|0,0:3|0:0,0:0:0:0:
284,356,201126,5,0,1:2:0:0:
206,314,201313,1,0,0:0:0:0:
206,314,201407,1,0,0:0:0:0:
206,314,201501,2,0,B|152:304|152:304|125:315|125:315|52:302,1,129.999994049073,2|6,3:0|0:3,0:0:0:0:
275,257,202438,6,0,P|269:219|250:191,1,64.9999970245363,2|4,0:0|0:3,0:0:0:0:
237,99,202813,2,0,P|272:112|306:110,1,64.9999970245363,2|0,0:0|0:0,0:0:0:0:
281,28,203188,1,2,0:0:0:0:
281,28,203376,2,0,P|210:62|148:58,2,129.999994049073,6|6|0,0:3|2:3|1:2,0:0:0:0:
371,58,204313,5,0,0:0:0:0:
371,58,204407,1,0,0:0:0:0:
371,58,204501,2,0,P|386:88|388:126,1,64.9999970245363,2|8,0:3|0:3,0:0:0:0:
302,112,204876,1,6,0:3:0:0:
512,287,205438,6,0,P|469:298|443:322,1,64.9999970245363,2|4,0:0|0:3,0:0:0:0:
349,357,205813,2,0,P|352:324|368:296,1,64.9999970245363,2|0,0:0|0:0,0:0:0:0:
256,237,206188,1,2,0:0:0:0:
256,237,206376,2,0,P|271:265|275:297,1,64.9999970245363,6|0,0:3|0:0,0:0:0:0:
210,359,206751,2,0,P|178:357|148:345,1,64.9999970245363,6|0,0:3|0:0,0:0:0:0:
147,233,207126,5,0,1:2:0:0:
85,290,207313,1,0,0:0:0:0:
85,290,207407,1,0,0:0:0:0:
85,290,207501,2,0,P|18:312|-18:362,2,129.999994049073,2|6|0,0:3|0:3|0:0,0:0:0:0:
147,233,208438,2,0,L|156:156,1,64.9999970245363,2|4,0:0|0:3,0:0:0:0:
140,88,208813,2,0,B|181:136|181:136|259:161,1,129.999994049073,2|2,0:0|0:0,0:0:0:0:
321,117,209376,2,0,L|392:101,1,64.9999970245363,6|0,0:3|0:0,0:0:0:0:
474,47,209751,2,0,L|456:205,1,129.999994049073,6|0,0:3|1:2,0:0:0:0:
408,247,210313,5,0,0:3:0:0:
408,247,210407,1,0,0:0:0:0:
408,247,210501,2,0,P|458:284|470:313,1,64.9999970245363,2|8,0:3|0:3,0:0:0:0:
331,330,210876,2,0,L|314:179,1,129.999994049073,6|0,0:3|0:0,0:0:0:0:
243,270,211438,2,0,P|197:299|168:301,1,64.9999970245363,2|4,0:0|0:3,0:0:0:0:
133,238,211813,2,0,P|90:197|80:167,1,64.9999970245363,2|0,0:0|0:0,0:0:0:0:
114,114,212188,1,2,0:0:0:0:
114,114,212376,2,0,L|-30:89,1,129.999994049073,6|6,0:3|0:3,0:0:0:0:
286,24,213126,6,0,L|204:39,1,64.9999970245363,0|0,1:2|0:0,0:0:0:0:
222,35,213407,1,0,0:0:0:0:
222,35,213501,2,0,B|285:44|285:44|334:94,2,129.999994049073,2|6|0,0:3|0:3|0:0,0:0:0:0:
247,123,214438,2,0,P|226:169|199:190,1,64.9999970245363,2|4,0:0|0:3,0:0:0:0:
140,221,214813,2,0,P|155:260|234:304,1,129.999994049073,2|2,0:0|0:0,0:0:0:0:
307,261,215376,2,0,B|356:251|356:251|379:261|379:261|433:254,2,129.999994049073,6|6|0,0:3|0:3|1:2,0:0:0:0:
347,344,216313,5,0,0:0:0:0:
347,344,216407,1,0,0:0:0:0:
347,344,216501,2,0,P|317:369|284:382,1,64.9999970245363,2|8,0:3|0:3,0:0:0:0:
209,358,216876,2,0,P|158:317|95:311,1,129.999994049073,6|0,0:3|0:0,0:0:0:0:
20,357,217438,2,0,L|6:277,1,64.9999970245363,2|4,0:0|0:3,0:0:0:0:
70,228,217813,2,0,B|115:185|115:185|127:91,1,129.999994049073,2|2,0:0|0:0,0:0:0:0:
76,22,218376,6,0,P|65:70|114:95,2,97.4999955368044,6|6|6,0:3|0:2|0:2,0:0:0:0:
171,43,219126,6,0,L|247:53,1,64.9999970245363,0|0,1:2|0:0,0:0:0:0:
235,51,219407,1,0,0:0:0:0:
235,51,219501,2,0,B|243:98|243:98|232:125|232:125|246:200,1,129.999994049073,2|6,0:3|0:3,0:0:0:0:
267,259,220063,2,0,L|244:289,2,32.4999985122681,0|0|0,0:0|0:0|0:0,0:0:0:0:
349,271,220438,2,0,P|366:241|369:192,1,64.9999970245363,2|4,0:0|0:3,0:0:0:0:
430,126,220813,2,0,P|435:157|451:185,2,64.9999970245363,2|0|2,0:0|0:0|0:0,0:0:0:0:
468,57,221376,1,6,0:3:0:0:
438,270,221751,1,6,0:3:0:0:
503,328,221938,1,0,3:0:0:0:
423,357,222126,5,0,1:2:0:0:
355,299,222313,2,0,P|305:318|288:341,1,64.9999970245363,2|2,0:0|0:3,0:0:0:0:
231,378,222688,1,8,0:3:0:0:
160,333,222876,2,0,B|195:277|195:277|180:193,1,129.999994049073,6|0,0:3|0:0,0:0:0:0:
174,128,223438,2,0,P|120:154|105:182,1,64.9999970245363,2|4,0:0|0:3,0:0:0:0:
35,140,223813,2,0,P|23:109|25:77,1,64.9999970245363,2|0,0:0|0:0,0:0:0:0:
93,19,224188,2,0,B|140:25|140:25|159:42|159:42|241:55,1,129.999994049073,2|2,0:3|0:0,0:0:0:0:
298,23,224751,1,4,0:3:0:0:
347,92,224939,1,2,0:0:0:0:
272,126,225126,6,0,L|286:220,1,64.9999970245363,0|0,1:2|0:0,0:0:0:0:
281,190,225407,1,0,0:0:0:0:
281,190,225501,2,0,P|336:215|358:281,1,129.999994049073,2|6,0:3|0:3,0:0:0:0:
412,350,226063,2,0,L|441:323,2,32.4999985122681,0|0|0,0:0|0:0|0:0,0:0:0:0:
333,380,226438,2,0,P|292:364|268:338,1,64.9999970245363,2|4,0:0|0:3,0:0:0:0:
231,280,226813,2,0,P|205:300|174:309,1,64.9999970245363,2|0,0:0|0:3,0:0:0:0:
99,277,227188,1,2,0:0:0:0:
173,231,227376,2,0,L|156:99,1,129.999994049073,6|6,0:3|0:3,0:0:0:0:
325,82,228126,6,0,P|280:69|274:24,2,97.4999955368044,2|2|2,1:2|1:2|1:2,0:0:0:0:
403,70,228876,2,0,P|348:95|359:155,1,129.999994049073,10|6,3:0|0:3,0:0:0:0:
421,304,229626,6,0,P|408:259|344:269,2,112.500004291535,2|2|2,1:2|1:2|1:2,0:0:0:0:
405,384,230376,2,0,P|430:323|507:338,1,150.000005722046,6|6,0:2|0:0,0:0:0:0:
210,377,231126,6,0,B|181:348|181:348|161:217,1,139.999995727539,6|2,1:2|0:3,0:0:0:0:
137,322,231688,1,8,0:3:0:0:
70,252,231876,2,0,L|81:173,1,69.9999978637696,6|0,0:3|0:0,0:0:0:0:
46,107,232251,1,6,0:3:0:0:
104,169,232438,1,6,0:3:0:0:
154,100,232626,2,0,P|181:77|232:68,1,69.9999978637696,2|0,1:2|0:0,0:0:0:0:
264,144,233001,2,0,P|297:153|323:176,1,69.9999978637696,2|0,0:3|0:0,0:0:0:0:
374,253,233376,6,0,B|402:224|402:224|422:93,2,139.999995727539,10|10|2,0:2|0:2|1:2,0:0:0:0:
309,311,234313,1,0,0:0:0:0:
388,275,234501,2,0,L|473:291,1,69.9999978637696,2|8,0:3|0:3,0:0:0:0:
378,356,234876,2,0,L|230:372,1,139.999995727539,6|6,0:3|0:3,0:0:0:0:
201,299,235438,1,0,0:0:0:0:
201,299,235532,1,0,0:0:0:0:
201,299,235626,2,0,B|160:323|160:323|68:309,1,139.999995727539,2|2,1:2|0:3,0:0:0:0:
4,244,236188,1,4,0:3:0:0:
76,160,236376,6,0,P|76:209|30:228,1,104.999996795654,6|2,0:3|0:0,0:0:0:0:
4,244,236751,2,0,P|56:276|50:309,1,69.9999978637696,4|2,0:3|0:0,0:0:0:0:
0,368,237126,6,0,L|164:338,1,139.999995727539,2|2,1:2|0:3,0:0:0:0:
218,303,237688,2,0,L|355:328,1,139.999995727539,10|0,0:3|0:0,0:0:0:0:
430,370,238251,2,0,P|465:328|466:291,1,69.9999978637696,6|0,0:3|0:0,0:0:0:0:
427,232,238626,5,2,1:2:0:0:
483,298,238813,1,2,0:0:0:0:
512,216,239001,2,0,L|521:143,1,69.9999978637696,2|8,0:3|0:3,0:0:0:0:
476,38,239376,1,10,0:3:0:0:
508,124,239563,2,0,B|436:113|436:113|380:58,1,139.999995727539,2|2,0:0|0:0,0:0:0:0:
300,46,240126,6,0,L|310:113,1,59.9999981689454,4|2,1:2|0:0,0:0:0:0:
212,46,240501,2,0,L|202:113,1,59.9999981689454,2|2,0:0|0:2,0:0:0:0:
309,121,240876,6,0,L|321:201,1,69.9999978637696,2|2,0:0|0:0,0:0:0:0:
203,121,241251,2,0,L|190:201,1,69.9999978637696,2|2,0:2|0:0,0:0:0:0:
256,272,241626,6,0,L|256:349,2,77.5000005912781,10|2|6,0:3|2:2|0:3,0:0:0:0:
254,33,242376,6,2,B|197:98|210:228|276:143|305:266|255:351,1,340.000006484985,8|4,0:3|1:2,0:3:0:0:
462,298,243501,5,2,0:0:0:0:
462,298,243876,1,2,0:0:0:0:
462,298,244251,1,2,0:0:0:0:
315,258,244626,1,2,0:0:0:0:
315,258,245001,1,2,0:0:0:0:
423,155,245376,2,0,L|430:95,1,50,2|2,0:0|0:0,0:0:0:0:
336,78,245751,2,0,L|341:127,1,50,2|2,0:0|0:0,0:0:0:0:
257,113,246126,1,0,0:0:0:0:
50,298,246501,5,2,0:0:0:0:
50,298,246876,1,2,0:0:0:0:
50,298,247251,1,2,0:0:0:0:
197,258,247626,1,2,0:0:0:0:
197,258,248001,1,2,0:0:0:0:
89,155,248376,2,0,L|82:95,1,50,2|2,0:0|0:0,0:0:0:0:
176,78,248751,2,0,L|170:127,1,50,2|2,0:0|0:0,0:0:0:0:
256,113,249126,1,0,0:0:0:0:
263,370,249501,5,2,0:0:0:0:
263,370,249876,1,2,0:0:0:0:
263,370,250251,1,2,0:0:0:0:
402,333,250626,1,2,0:0:0:0:
402,333,251001,1,2,0:0:0:0:
469,195,251376,2,0,P|448:147|436:136,1,50,2|2,0:0|0:0,0:0:0:0:
384,95,251751,2,0,P|331:89|316:94,1,50,2|2,0:0|0:0,0:0:0:0:
256,113,252126,1,0,0:0:0:0:
264,370,252501,5,2,0:0:0:0:
264,370,252876,1,2,0:0:0:0:
264,370,253251,1,2,0:0:0:0:
211,239,253626,1,2,0:0:0:0:
93,325,254001,1,2,0:0:0:0:
43,195,254376,2,0,P|64:147|76:136,1,50,2|2,0:0|0:0,0:0:0:0:
127,95,254751,2,0,P|179:89|194:94,1,50,2|2,0:0|0:0,0:0:0:0:
256,113,255126,1,0,0:0:0:0:
