osu file format v14

[General]
AudioFilename: audio.mp3
AudioLeadIn: 0
PreviewTime: 195035
Countdown: 1
SampleSet: Soft
StackLeniency: 0.4
Mode: 0
LetterboxInBreaks: 0
WidescreenStoryboard: 1

[Editor]
Bookmarks: 239938
DistanceSpacing: 1.3
BeatDivisor: 8
GridSize: 8
TimelineZoom: 1

[Metadata]
Title:With Every Wanderer's Breath
TitleUnicode:With Every Wanderer's Breath
Artist:Fractal Dreamers
ArtistUnicode:Fractal Dreamers
Creator:Niva
Version:Pilgrimage
Source:osu!
Tags:mappers' guild pishifat wanderers Everything for a Dream
BeatmapID:1772879
BeatmapSetID:847755

[Difficulty]
HPDrainRate:7
CircleSize:4.5
OverallDifficulty:7
ApproachRate:8.4
SliderMultiplier:1.4
SliderTickRate:2

[Events]
//Background and Video events
0,0,"owo.png",0,0
//Break Periods
//Storyboard Layer 0 (Background)
//Storyboard Layer 1 (Fail)
//Storyboard Layer 2 (Pass)
//Storyboard Layer 3 (Foreground)
//Storyboard Sound Samples

[TimingPoints]
141,729.483282674772,4,2,1,15,1,0
141,-166.666666666667,4,2,1,15,0,0
2329,740.740740740741,4,2,1,15,1,0
3069,758.293838862559,4,2,1,15,1,0
3069,-166.666666666667,4,2,1,15,0,0
6102,750,4,2,1,15,1,0
6102,-166.666666666667,4,2,1,15,0,0
8727,821.917808219178,4,2,1,15,1,0
9137,740.740740740741,4,2,1,15,1,0
9137,-166.666666666667,4,2,1,15,0,0
12099,745.341614906832,4,2,1,15,1,0
12099,-166.666666666667,4,2,1,15,0,0
14335,821.917808219178,4,2,1,15,1,0
14335,-166.666666666667,4,2,1,15,0,0
14745,674.157303370787,4,2,1,15,1,0
15082,759.493670886076,4,2,1,15,1,0
15082,-166.666666666667,4,2,1,15,0,0
17740,800,4,2,1,15,1,0
18140,743.034055727554,4,2,1,15,1,0
18140,-166.666666666667,4,2,1,15,0,0
20369,666.666666666667,4,2,1,15,1,0
20369,-166.666666666667,4,2,1,15,0,0
20702,857.142857142857,4,2,1,15,1,0
21130,754.716981132075,4,2,1,15,1,0
21130,-166.666666666667,4,2,1,15,0,0
23394,731.707317073171,4,2,1,15,1,0
23394,-166.666666666667,4,2,1,15,0,0
23759,750,4,2,1,15,1,0
24134,750,4,2,1,20,1,0
24134,-83.3333333333333,4,2,1,20,0,0
24509,-83.3333333333333,4,2,1,15,0,0
26384,754.716981132075,4,2,1,15,1,0
27138,750,4,2,1,20,1,0
27138,-83.3333333333333,4,2,1,20,0,0
27513,745.341614906832,4,2,1,15,1,0
27513,-83.3333333333333,4,2,1,15,0,0
29376,795.492210805436,4,2,1,15,1,0
30171,789.473684210526,4,2,1,20,1,0
30171,-83.3333333333333,4,2,1,20,0,0
30565,722.89156626506,4,2,1,15,1,0
30926,759.493670886076,4,2,1,15,1,0
30926,-133.333333333333,4,2,1,15,0,0
31495,-133.333333333333,4,2,1,5,0,0
31685,731.707317073171,4,2,1,20,1,0
31685,-83.3333333333333,4,2,1,20,0,0
32050,-83.3333333333333,4,2,1,15,0,0
32416,757.097791798107,4,2,1,15,1,0
32416,-133.333333333333,4,2,1,15,0,0
32983,-133.333333333333,4,2,1,5,0,0
33173,779.220779220779,4,2,1,20,1,0
33173,-83.3333333333333,4,2,1,20,0,0
33562,716.417910447761,4,2,1,15,1,0
35353,731.707317073171,4,2,1,15,1,0
36084,750,4,2,1,20,1,0
36084,-83.3333333333333,4,2,1,20,0,0
36459,857.142857142857,4,2,1,15,1,0
36887,789.473684210526,4,2,1,15,1,0
36887,-133.333333333333,4,2,1,15,0,0
37479,-133.333333333333,4,2,1,5,0,0
37676,701.754385964912,4,2,1,20,1,0
37676,-83.3333333333333,4,2,1,20,0,0
38026,-83.3333333333333,4,2,1,15,0,0
38377,714.285714285714,4,2,1,15,1,0
38377,-133.333333333333,4,2,1,15,0,0
38912,-133.333333333333,4,2,1,5,0,0
39091,697.674418604651,4,2,1,15,1,0
39091,-83.3333333333333,4,2,1,20,0,0
39439,882.352941176471,4,2,1,15,1,0
39880,763.116057233704,4,2,1,15,1,0
39880,-133.333333333333,4,2,1,15,0,0
41406,722.89156626506,4,2,1,15,1,0
42128,750,4,2,1,20,1,0
42128,-83.3333333333333,4,2,1,20,0,0
42503,-83.3333333333333,4,2,1,15,0,0
42878,759.493670886076,4,2,1,15,1,0
42878,-133.333333333333,4,2,1,15,0,0
44396,750,4,2,1,20,1,0
44396,-83.3333333333333,4,2,1,20,0,0
44771,-83.3333333333333,4,2,1,15,0,0
45146,754.716981132075,4,2,1,20,1,0
45146,-83.3333333333333,4,2,1,20,0,0
45523,-83.3333333333333,4,2,1,15,0,0
47410,800,4,2,1,15,1,0
48210,715.137067938021,4,2,1,20,1,0
48210,-117.647058823529,4,2,1,20,0,0
50355,779.220779220779,4,2,1,20,1,0
50355,-117.647058823529,4,2,1,20,0,0
50744,810.810810810811,4,2,1,20,1,0
51149,752.351097178683,4,2,1,20,1,0
51149,-117.647058823529,4,2,1,20,0,0
53406,727.272727272727,4,2,1,20,1,0
54133,757.814966845595,4,2,1,20,1,0
54133,-117.647058823529,4,2,1,20,0,0
56406,750,4,2,1,20,1,0
56406,-117.647058823529,4,2,1,20,0,0
56781,722.89156626506,4,2,1,20,1,0
57142,736.196319018405,4,2,1,20,1,0
57878,714.285714285714,4,2,1,20,1,0
58235,789.473684210526,4,2,1,20,1,0
58629,770.465489566613,4,2,1,20,1,0
58629,-117.647058823529,4,2,1,20,0,0
59399,779.220779220779,4,2,1,20,1,0
60178,687.679083094556,4,2,1,20,1,0
60521,769.230769230769,4,2,1,20,1,0
60905,738.461538461538,4,2,1,20,1,0
60905,-117.647058823529,4,2,1,20,0,0
61458,-117.647058823529,4,2,1,5,0,0
61643,764.331210191083,4,2,1,20,1,0
62407,745.341614906832,4,2,1,20,1,0
63152,759.493670886076,4,2,1,20,1,0
63911,731.707317073171,4,2,1,20,1,0
64642,731.707317073171,4,2,1,20,1,0
65373,779.220779220779,4,2,1,20,1,0
66152,740.740740740741,4,2,1,20,1,0
67633,754.716981132075,4,2,1,20,1,0
67633,-117.647058823529,4,2,1,20,0,0
68199,-117.647058823529,4,2,1,5,0,0
68387,714.285714285714,4,2,1,20,1,0
68744,810.810810810811,4,2,1,20,1,0
69149,789.473684210526,4,2,1,20,1,0
69149,-117.647058823529,4,2,1,20,0,0
69543,689.655172413793,4,2,1,20,1,0
69887,789.473684210526,4,2,1,20,1,0
70281,731.707317073171,4,2,1,20,1,0
70281,-117.647058823529,4,2,1,20,0,0
71012,745.341614906832,4,2,1,20,1,0
71756,774.193548387097,4,2,1,20,1,0
72143,731.707317073171,4,2,1,20,1,0
72874,705.882352941176,4,2,1,20,1,0
73226,789.473684210526,4,2,1,20,1,0
73620,768,4,2,1,20,1,0
73620,-117.647058823529,4,2,1,20,0,0
74196,-117.647058823529,4,2,1,5,0,0
74388,827.586206896552,4,2,1,20,1,0
74801,691.64265129683,4,2,1,20,1,0
75146,754.716981132075,4,2,1,20,1,0
75146,-117.647058823529,4,2,1,20,0,0
76278,722.89156626506,4,2,1,20,1,0
76641,750,4,2,1,20,1,0
76641,-117.647058823529,4,2,1,20,0,0
77766,779.220779220779,4,2,1,20,1,0
78155,749.063670411985,4,2,1,20,1,0
78529,740.740740740741,4,2,1,20,1,0
79269,731.707317073171,4,2,1,20,1,0
79634,747.663551401869,4,2,1,20,1,0
79634,-117.647058823529,4,2,1,20,0,0
80755,779.220779220779,4,2,1,20,1,0
81144,750,4,2,1,20,1,0
81144,-117.647058823529,4,2,1,20,0,0
81519,722.89156626506,4,2,1,20,1,0
81880,800,4,2,1,20,1,0
82280,714.285714285714,4,2,1,20,1,0
82637,760.456273764259,4,2,1,20,1,0
82637,-117.647058823529,4,2,1,20,0,0
83207,-117.647058823529,4,2,1,5,0,0
83397,750,4,2,1,20,1,0
84147,779.220779220779,4,2,1,20,1,0
84536,740.740740740741,4,2,1,20,1,0
84906,759.493670886076,4,2,1,20,1,0
85286,652.173913043478,4,2,1,20,1,0
85612,800,4,2,1,20,1,0
85612,-117.647058823529,4,2,1,20,0,0
86412,722.891566265059,4,2,1,20,1,0
87134,833.333333333333,4,2,1,20,1,0
87550,689.655172413793,4,2,1,20,1,0
87894,750,4,2,1,20,1,0
88643,-117.647058823529,4,2,1,20,0,0
89206,-117.647058823529,4,2,1,5,0,0
89394,-117.647058823529,4,2,1,20,0,0
90143,800,4,2,1,20,1,0
90543,722.89156626506,4,2,1,20,1,0
90904,750,4,2,1,20,1,0
91654,736.196319018405,4,2,1,20,1,0
91654,-117.647058823529,4,2,1,20,0,0
92390,750,4,2,1,20,1,0
93140,750,4,2,1,20,1,0
93515,714.285714285714,4,2,1,20,1,0
93872,750,4,2,1,20,1,0
96122,759.493670886076,4,2,1,20,1,0
96122,-117.647058823529,4,2,1,20,0,0
97640,750,4,2,1,20,1,0
98390,740.740740740741,4,2,1,20,1,0
99130,755.667506297229,4,2,1,20,1,0
100261,-100,4,2,1,5,0,0
100640,750,4,2,1,55,1,0
100640,-66.6666666666667,4,2,1,55,0,0
101015,-66.6666666666667,4,2,0,55,0,0
101108,-66.6666666666667,4,2,1,55,0,0
104015,-66.6666666666667,4,2,0,55,0,0
104108,-66.6666666666667,4,2,1,55,0,0
106077,-66.6666666666667,4,2,0,55,0,0
106171,-66.6666666666667,4,2,1,55,0,0
107015,-66.6666666666667,4,2,0,55,0,0
107108,-66.6666666666667,4,2,1,55,0,0
110015,-66.6666666666667,4,2,0,55,0,0
110108,-66.6666666666667,4,2,1,55,0,0
112077,-66.6666666666667,4,2,0,55,0,0
112171,-66.6666666666667,4,2,1,55,0,0
113015,-66.6666666666667,4,2,2,55,0,0
113108,-66.6666666666667,4,2,1,55,0,0
114515,-66.6666666666667,4,2,0,55,0,0
114608,-66.6666666666667,4,2,1,55,0,0
114890,-66.6666666666667,4,2,2,55,0,0
115077,-66.6666666666667,4,2,0,55,0,0
115265,-66.6666666666667,4,2,1,55,0,0
116015,-66.6666666666667,4,2,2,55,0,0
116108,-66.6666666666667,4,2,1,55,0,0
118077,-66.6666666666667,4,2,2,55,0,0
118171,-66.6666666666667,4,2,1,55,0,0
119015,-66.6666666666667,4,2,2,55,0,0
119108,-66.6666666666667,4,2,1,55,0,0
120890,-66.6666666666667,4,2,2,55,0,0
121077,-66.6666666666667,4,2,0,55,0,0
121265,-66.6666666666667,4,2,1,55,0,0
122015,-66.6666666666667,4,2,2,55,0,0
122108,-66.6666666666667,4,2,1,55,0,0
124077,-66.6666666666667,4,2,0,55,0,0
124171,-66.6666666666667,4,2,1,55,0,0
125015,-66.6666666666667,4,2,0,55,0,0
125202,-66.6666666666667,4,2,1,55,0,0
126890,-66.6666666666667,4,2,2,55,0,0
127077,-66.6666666666667,4,2,0,55,0,0
127265,-66.6666666666667,4,2,1,55,0,0
128015,-66.6666666666667,4,2,0,55,0,0
128202,-66.6666666666667,4,2,1,55,0,0
130077,-66.6666666666667,4,2,0,55,0,0
130265,-66.6666666666667,4,2,1,55,0,0
131015,-66.6666666666667,4,2,2,55,0,0
131108,-66.6666666666667,4,2,1,55,0,0
132890,-66.6666666666667,4,2,2,55,0,0
133077,-66.6666666666667,4,2,0,55,0,0
133265,-66.6666666666667,4,2,1,55,0,0
134015,-66.6666666666667,4,2,2,55,0,0
134108,-66.6666666666667,4,2,1,55,0,0
136077,-66.6666666666667,4,2,0,55,0,0
136171,-66.6666666666667,4,2,1,55,0,0
137015,-66.6666666666667,4,2,0,55,0,0
137108,-66.6666666666667,4,2,1,55,0,0
138890,-66.6666666666667,4,2,0,55,0,0
139265,-66.6666666666667,4,2,1,55,0,0
140015,-66.6666666666667,4,2,0,55,0,0
140202,-66.6666666666667,4,2,1,55,0,0
142077,-66.6666666666667,4,2,0,55,0,0
142265,-66.6666666666667,4,2,1,55,0,0
142640,-83.3333333333333,4,2,1,55,0,0
142733,-83.3333333333333,4,2,1,40,0,0
146390,-83.3333333333333,4,2,1,48,0,0
147140,712.800712800713,4,2,1,55,1,0
147140,-181.818181818182,4,2,1,55,0,0
147230,-200,4,2,1,15,0,0
148565,750,4,2,1,25,1,0
148565,-125,4,2,1,25,0,0
169565,754.716981132075,4,2,1,30,1,0
171449,750,4,2,1,30,1,0
172574,750,4,2,1,30,1,0
172574,-117.647058823529,4,2,1,30,0,0
193574,779.220779220779,4,2,1,10,1,0
195126,750,4,2,1,65,1,0
195126,-45.4545454545455,4,2,1,65,0,0
195501,-45.4545454545455,4,2,2,65,0,0
195594,-45.4545454545455,4,2,1,65,0,0
198032,-45.4545454545455,4,2,1,30,0,0
198126,-45.4545454545455,4,2,1,65,0,0
198501,-45.4545454545455,4,2,2,65,0,0
198594,-45.4545454545455,4,2,1,65,0,0
201032,-45.4545454545455,4,2,1,30,0,0
201126,-45.4545454545455,4,2,1,65,0,0
201501,-45.4545454545455,4,2,2,65,0,0
201594,-45.4545454545455,4,2,1,65,0,0
204032,-45.4545454545455,4,2,1,30,0,0
204126,-45.4545454545455,4,2,1,65,0,0
204501,-45.4545454545455,4,2,2,65,0,0
204594,-45.4545454545455,4,2,1,65,0,0
207032,-45.4545454545455,4,2,1,30,0,0
207126,-45.4545454545455,4,2,1,65,0,0
207501,-45.4545454545455,4,2,2,65,0,0
207688,-45.4545454545455,4,2,1,65,0,0
210032,-45.4545454545455,4,2,1,30,0,0
210126,-45.4545454545455,4,2,1,65,0,0
210501,-45.4545454545455,4,2,2,65,0,0
210688,-45.4545454545455,4,2,1,65,0,0
213032,-45.4545454545455,4,2,1,30,0,0
213126,-45.4545454545455,4,2,1,65,0,0
213501,-45.4545454545455,4,2,2,65,0,0
213688,-45.4545454545455,4,2,1,65,0,0
216032,-45.4545454545455,4,2,1,30,0,0
216126,-45.4545454545455,4,2,1,65,0,0
216501,-45.4545454545455,4,2,2,65,0,0
216688,-45.4545454545455,4,2,1,65,0,0
218376,-45.4545454545455,4,2,1,70,0,0
219126,-45.4545454545455,4,2,1,65,0,0
219501,-45.4545454545455,4,2,2,65,0,0
219688,-45.4545454545455,4,2,1,65,0,0
222501,-45.4545454545455,4,2,2,65,0,0
222688,-45.4545454545455,4,2,1,65,0,0
225501,-45.4545454545455,4,2,2,65,0,0
225688,-45.4545454545455,4,2,1,65,0,0
228032,-45.4545454545455,4,2,1,30,0,0
228126,-45.4545454545455,4,2,1,70,0,0
228876,-45.4545454545455,4,2,1,65,0,0
229532,-45.4545454545455,4,2,1,30,0,0
229626,-45.4545454545455,4,2,1,70,0,0
231032,-45.4545454545455,4,2,1,30,0,0
231126,-45.4545454545455,4,2,1,70,0,0
231501,-45.4545454545455,4,2,2,70,0,0
231688,-45.4545454545455,4,2,1,70,0,0
233001,-45.4545454545455,4,2,2,70,0,0
233188,-45.4545454545455,4,2,1,70,0,0
233657,-45.4545454545455,4,2,1,30,0,0
233751,-45.4545454545455,4,2,1,70,0,0
234032,-45.4545454545455,4,2,1,30,0,0
234126,-45.4545454545455,4,2,1,70,0,0
234501,-45.4545454545455,4,2,2,70,0,0
234688,-45.4545454545455,4,2,1,70,0,0
235532,-45.4545454545455,4,2,1,30,0,0
235626,-45.4545454545455,4,2,1,70,0,0
236001,-45.4545454545455,4,2,2,70,0,0
236188,-45.4545454545455,4,2,1,70,0,0
237501,-45.4545454545455,4,2,0,70,0,0
237688,-45.4545454545455,4,2,1,70,0,0
238157,-45.4545454545455,4,2,1,30,0,0
238251,-45.4545454545455,4,2,1,70,0,0
239001,-45.4545454545455,4,2,2,70,0,0
239188,-45.4545454545455,4,2,1,70,0,0
239751,-40,4,2,1,70,0,0
239844,-40,4,2,1,30,0,0
239938,-40,4,2,1,70,0,0
240126,-40,4,2,1,75,0,0
242282,-40,4,2,1,30,0,0
242376,-50,4,2,1,65,0,0
242657,-50,4,2,1,25,0,0
242751,-66.6666666666667,4,2,1,55,0,0
243032,-66.6666666666667,4,2,1,20,0,0
243126,-80,4,2,1,45,0,0
243313,-80,4,2,1,35,0,0

[Colours]
Combo1 : 255,253,174
Combo2 : 151,255,255
Combo3 : 43,253,190

[HitObjects]
60,256,141,6,0,P|137:278|195:204,1,167.999994873047,2|0,0:0|0:0,0:0:0:0:
189,142,2329,1,2,0:0:0:0:
219,56,3069,6,0,P|225:141|231:235,1,167.999994873047,2|0,0:0|0:0,0:0:0:0:
230,223,6102,6,0,B|289:213|348:249|348:249|404:284|472:276,1,251.999992309571,2|0,0:0|0:0,0:0:0:0:
470,276,8727,1,2,0:0:0:0:
349,280,9137,6,0,P|265:288|182:314,1,167.999994873047,2|0,0:0|0:0,0:0:0:0:
257,194,12099,6,0,P|178:217|116:157,1,167.999994873047,2|0,0:0|0:0,0:0:0:0:
82,88,14335,2,0,P|84:70|85:43,1,41.9999987182618,0|2,0:0|0:0,0:0:0:0:
22,158,15082,6,0,P|99:127|190:127,1,167.999994873047,2|0,0:0|0:0,0:0:0:0:
183,125,17740,1,2,0:0:0:0:
224,39,18140,6,0,P|230:124|237:211,1,167.999994873047,2|0,0:0|0:0,0:0:0:0:
288,310,20369,2,0,P|289:286|290:263,1,41.9999987182618,2|0,0:0|0:0,0:0:0:0:
366,366,21130,6,0,P|286:343|200:355,1,167.999994873047,2|0,0:0|0:0,0:0:0:0:
124,301,23394,2,0,P|96:305|67:308,1,41.9999987182618,0|2,0:0|0:0,0:0:0:0:
117,224,24134,6,0,P|149:253|205:256,1,83.9999974365235,2|0,0:0|0:0,0:0:0:0:
188,259,26384,1,2,0:0:0:0:
208,364,27138,6,0,P|243:344|295:340,1,83.9999974365235,2|0,0:0|0:0,0:0:0:0:
285,338,29376,1,2,0:0:0:0:
390,366,30171,6,0,P|426:343|442:289,1,83.9999974365235,2|2,0:0|0:0,0:0:0:0:
355,249,30926,2,0,P|315:249|271:249,1,78.7500030040742,2|0,0:0|0:0,0:0:0:0:
218,200,31685,6,0,P|259:203|291:175,1,83.9999974365235,2|0,0:0|0:0,0:0:0:0:
344,107,32416,2,0,P|341:75|337:21,1,78.7500030040742,2|0,0:0|0:0,0:0:0:0:
263,126,33173,6,0,P|282:168|327:190,1,83.9999974365235,2|0,0:0|0:0,0:0:0:0:
313,187,35353,1,2,0:0:0:0:
353,287,36084,6,0,P|312:278|265:290,1,83.9999974365235,2|2,0:0|0:0,0:0:0:0:
178,347,36887,2,0,P|175:312|170:269,1,78.7500030040742,2|0,0:0|0:0,0:0:0:0:
271,210,37676,6,0,P|286:248|274:288,1,83.9999974365235,2|0,0:0|0:0,0:0:0:0:
158,179,38377,2,0,P|153:140|149:101,1,78.7500030040742,2|0,0:0|0:0,0:0:0:0:
122,0,39091,6,0,P|158:17|206:18,1,83.9999974365235,2|2,0:0|0:0,0:0:0:0:
285,64,39880,2,0,P|200:57|140:109,1,157.500006008148,2|0,0:0|0:0,0:0:0:0:
46,92,41406,1,2,0:0:0:0:
46,92,42128,6,0,P|52:140|82:171,1,83.9999974365235,2|2,0:0|0:0,0:0:0:0:
34,256,42878,2,0,P|94:213|182:208,1,157.500006008148,2|0,0:0|0:0,0:0:0:0:
239,133,44396,6,0,P|263:164|272:218,1,83.9999974365235,2|0,0:0|0:0,0:0:0:0:
158,254,45146,2,0,P|134:223|125:169,1,83.9999974365235,2|0,0:0|0:0,0:0:0:0:
124,179,47410,1,2,0:0:0:0:
175,298,48210,6,0,P|285:326|376:248,1,238.00000453949,2|0,0:0|0:0,0:0:0:0:
453,189,50355,2,0,P|459:218|468:254,1,59.5000011348725,2|0,0:0|0:0,0:0:0:0:
512,133,51149,6,0,B|455:149|455:149|393:167|361:134|364:93|387:65|434:72,1,238.00000453949,2|0,0:0|0:0,0:0:0:0:
494,250,53406,1,2,0:0:0:0:
333,347,54133,6,0,P|220:365|135:273,1,238.00000453949,2|0,0:0|0:0,0:0:0:0:
343,199,56406,2,0,P|341:231|339:261,1,59.5000011348725,2|0,0:0|0:0,0:0:0:0:
331,379,57142,1,2,0:0:0:0:
339,258,57510,1,0,0:0:0:0:
392,322,57878,1,2,0:0:0:0:
274,313,58235,1,0,0:0:0:0:
162,305,58629,2,0,P|103:308|32:311,1,119.000002269745,2|2,0:0|0:0,0:0:0:0:
373,232,60178,5,2,0:0:0:0:
366,142,60521,1,2,0:0:0:0:
392,251,60905,2,0,P|405:296|387:343,1,89.2500017023087,2|0,0:0|0:0,0:0:0:0:
404,359,61643,1,2,0:0:0:0:
256,98,62407,1,2,0:0:0:0:
109,361,63152,5,2,0:0:0:0:
112,384,63531,1,2,0:0:0:0:
35,318,63911,1,2,0:0:0:0:
21,336,64276,1,0,0:0:0:0:
31,225,64642,5,2,0:0:0:0:
21,336,65007,1,2,0:0:0:0:
198,304,65373,1,2,0:0:0:0:
145,201,65762,1,2,0:0:0:0:
121,384,66152,5,2,0:0:0:0:
211,348,66522,1,0,0:0:0:0:
130,295,66892,1,0,0:0:0:0:
39,331,67263,1,0,0:0:0:0:
178,239,67633,2,0,P|136:241|81:243,1,89.2500017023087,2|0,0:0|0:0,0:0:0:0:
65,244,68387,5,2,0:0:0:0:
202,265,68744,1,2,0:0:0:0:
365,287,69149,6,0,P|334:289|290:292,1,59.5000011348725,2|0,0:0|0:0,0:0:0:0:
212,297,69887,1,0,0:0:0:0:
122,281,70281,2,0,P|172:327|185:385,1,119.000002269745,0|2,0:0|0:0,0:0:0:0:
164,150,71756,1,2,0:0:0:0:
156,52,72143,5,2,0:0:0:0:
166,179,72508,1,0,0:0:0:0:
237,129,72874,1,0,0:0:0:0:
92,102,73226,1,0,0:0:0:0:
232,66,73620,2,0,P|276:65|332:63,1,89.2500017023087,2|0,0:0|0:0,0:0:0:0:
345,52,74388,5,2,0:0:0:0:
276,159,74801,1,2,0:0:0:0:
195,28,75146,6,0,P|191:59|186:100,1,59.5000011348725,2|0,0:0|0:0,0:0:0:0:
167,258,75900,1,0,0:0:0:0:
151,167,76278,1,0,0:0:0:0:
219,328,76641,6,0,P|161:310|91:321,1,119.000002269745,2|0,0:0|0:0,0:0:0:0:
104,316,77766,1,2,0:0:0:0:
204,227,78155,5,2,0:0:0:0:
279,267,78529,1,0,0:0:0:0:
317,187,78899,1,0,0:0:0:0:
241,129,79269,1,0,0:0:0:0:
300,270,79634,2,0,P|241:268|175:267,1,119.000002269745,2|0,0:0|0:0,0:0:0:0:
181,267,80755,1,2,0:0:0:0:
243,169,81144,6,0,P|271:168|315:166,1,59.5000011348725,2|0,0:0|0:0,0:0:0:0:
442,159,81880,1,0,0:0:0:0:
376,210,82280,1,2,0:0:0:0:
423,82,82637,2,0,P|381:63|356:25,1,89.2500017023087,2|0,0:0|0:0,0:0:0:0:
356,0,83397,5,2,0:0:0:0:
350,121,83772,1,2,0:0:0:0:
341,264,84147,5,2,0:0:0:0:
350,135,84536,1,0,0:0:0:0:
297,199,84906,1,2,0:0:0:0:
437,172,85286,1,0,0:0:0:0:
245,140,85612,6,0,B|219:148|186:140|186:140|157:132|128:139,1,119.000002269745,2|2,0:0|0:0,0:0:0:0:
478,185,87134,5,2,0:0:0:0:
393,208,87550,1,0,0:0:0:0:
392,73,87894,1,2,0:0:0:0:
474,102,88269,1,0,0:0:0:0:
337,140,88643,2,0,P|293:146|251:125,1,89.2500017023087,2|0,0:0|0:0,0:0:0:0:
241,104,89393,5,2,0:0:0:0:
257,227,89768,1,2,0:0:0:0:
267,120,90143,5,2,0:0:0:0:
243,250,90543,1,2,0:0:0:0:
215,371,90904,1,2,0:0:0:0:
165,300,91279,1,0,0:0:0:0:
302,348,91654,2,0,P|359:360|419:331,1,119.000002269745,2|2,0:0|0:0,0:0:0:0:
165,300,93140,5,2,0:0:0:0:
85,257,93515,1,0,0:0:0:0:
177,255,93872,1,0,0:0:0:0:
77,300,94247,1,0,0:0:0:0:
215,333,94622,5,2,0:0:0:0:
123,276,94997,1,0,0:0:0:0:
236,226,95372,1,2,0:0:0:0:
106,172,95747,1,2,0:0:0:0:
253,114,96122,2,0,P|326:162|414:136,1,178.500003404617,2|0,0:0|0:0,0:0:0:0:
467,72,97640,5,2,0:0:0:0:
467,72,98390,1,2,0:0:0:0:
512,151,98760,1,2,0:0:0:0:
414,248,99130,5,2,0:0:0:0:
256,192,99224,12,0,100263,0:0:0:0:
63,299,100640,6,0,P|87:258|78:202,1,105.000004005432,6|2,1:2|0:3,0:0:0:0:
32,130,101202,1,8,0:3:0:0:
32,130,101390,2,0,P|80:151|136:139,1,105.000004005432,6|0,0:3|0:0,0:0:0:0:
197,209,101952,2,0,P|225:204|264:197,1,52.5000020027161,6|0,0:3|0:3,0:0:0:0:
295,121,102327,2,0,P|322:135|359:152,1,52.5000020027161,2|0,0:0|0:0,0:0:0:0:
435,118,102702,1,2,0:0:0:0:
435,118,102890,2,0,P|439:149|443:181,1,52.5000020027161,2|0,3:3|3:3,0:0:0:0:
512,236,103265,2,0,P|492:257|474:275,1,52.5000020027161,10|4,0:3|0:3,0:0:0:0:
438,367,103640,6,0,B|408:353|408:353|366:353|366:353|336:338,1,105.000004005432,2|2,1:2|0:3,0:0:0:0:
260,374,104202,1,8,0:3:0:0:
260,374,104390,2,0,P|287:331|271:267,1,105.000004005432,6|0,0:3|0:0,0:0:0:0:
316,190,104952,2,0,P|307:164|299:132,1,52.5000020027161,6|0,0:3|0:3,0:0:0:0:
211,139,105327,2,0,P|204:165|196:190,1,52.5000020027161,2|0,0:0|0:3,0:0:0:0:
256,268,105702,1,2,0:0:0:0:
323,339,105890,1,2,3:0:0:0:
362,232,106077,1,2,0:3:0:0:
256,268,106265,1,6,0:3:0:0:
150,298,106452,1,6,0:3:0:0:
42,327,106640,6,0,P|10:315|-2:244,1,105.000004005432,2|2,1:2|3:0,0:0:0:0:
73,184,107202,1,8,3:0:0:0:
73,184,107390,2,0,B|110:184|110:184|139:195|139:195|178:195,1,105.000004005432,10|0,0:3|0:0,0:0:0:0:
278,260,107952,2,0,P|251:264|225:268,1,52.5000020027161,6|0,0:3|0:3,0:0:0:0:
287,158,108327,2,0,P|312:167|346:179,1,52.5000020027161,2|0,0:0|0:0,0:0:0:0:
444,195,108702,1,2,0:0:0:0:
444,195,108890,2,0,P|422:218|409:240,1,52.5000020027161,2|0,3:0|3:0,0:0:0:0:
403,328,109265,2,0,P|405:353|416:382,1,52.5000020027161,10|0,0:3|0:3,0:0:0:0:
321,276,109640,6,0,B|266:276|266:276|204:276,1,105.000004005432,2|2,1:2|0:3,0:0:0:0:
228,356,110202,1,8,0:3:0:0:
228,356,110390,2,0,P|171:315|110:326,1,105.000004005432,6|0,0:3|0:0,0:0:0:0:
55,279,110952,2,0,P|47:311|39:345,1,52.5000020027161,6|0,0:3|0:3,0:0:0:0:
131,226,111327,2,0,P|129:198|126:164,1,52.5000020027161,2|0,0:0|0:0,0:0:0:0:
148,22,111702,1,2,3:0:0:0:
186,100,111890,1,2,0:0:0:0:
51,118,112077,1,6,0:3:0:0:
64,29,112265,1,2,3:0:0:0:
186,100,112452,1,6,0:3:0:0:
320,24,112640,5,2,1:2:0:0:
404,20,112827,1,0,0:0:0:0:
324,109,113015,1,2,0:3:0:0:
408,105,113202,1,8,0:3:0:0:
373,238,113390,2,0,P|372:211|370:173,1,52.5000020027161,6|0,0:3|0:0,0:0:0:0:
494,232,113765,2,0,P|493:259|492:291,1,52.5000020027161,2|4,0:0|0:3,0:0:0:0:
431,384,114140,5,2,0:0:0:0:
512,363,114327,1,0,0:0:0:0:
411,305,114515,1,2,0:0:0:0:
492,284,114702,1,0,0:0:0:0:
333,357,114890,2,0,L|281:353,1,52.5000020027161,2|2,0:3|0:3,0:0:0:0:
164,268,115265,2,0,P|192:265|233:260,1,52.5000020027161,10|2,0:3|0:0,0:0:0:0:
363,191,115640,5,2,1:2:0:0:
397,269,115827,1,0,0:0:0:0:
443,157,116015,1,2,0:3:0:0:
477,235,116202,1,8,0:3:0:0:
407,81,116390,2,0,P|407:58|409:18,1,52.5000020027161,6|0,0:3|0:0,0:0:0:0:
305,157,116765,2,0,L|259:133,1,52.5000020027161,2|4,0:0|0:3,0:0:0:0:
347,286,117140,5,2,0:0:0:0:
247,361,117327,1,2,0:0:0:0:
240,269,117515,1,2,0:3:0:0:
351,377,117702,1,0,0:0:0:0:
375,263,117890,5,2,3:0:0:0:
247,361,118077,1,0,0:3:0:0:
165,274,118265,1,6,0:3:0:0:
234,196,118452,1,6,0:3:0:0:
407,321,118640,6,0,L|353:323,1,52.5000020027161,2|0,1:2|0:0,0:0:0:0:
210,273,119015,2,0,P|237:272|263:271,1,52.5000020027161,2|8,0:3|0:3,0:0:0:0:
355,323,119390,1,6,0:3:0:0:
441,265,119577,1,2,0:0:0:0:
343,159,119765,2,0,P|346:190|349:222,1,52.5000020027161,6|0,0:3|0:0,0:0:0:0:
222,194,120140,6,0,P|195:194|165:194,1,52.5000020027161,2|0,0:0|0:0,0:0:0:0:
37,153,120515,1,2,0:0:0:0:
65,241,120702,1,2,0:0:0:0:
143,108,120890,2,0,P|136:80|127:41,1,52.5000020027161,2|2,0:3|0:3,0:0:0:0:
49,194,121265,1,10,0:3:0:0:
175,251,121452,1,6,0:3:0:0:
38,331,121640,5,2,1:2:0:0:
75,224,121827,1,0,0:0:0:0:
0,258,122014,1,2,0:3:0:0:
113,297,122202,1,8,0:3:0:0:
222,338,122390,2,0,P|249:338|275:338,1,52.5000020027161,6|0,0:3|0:0,0:0:0:0:
380,305,122765,2,0,P|389:333|403:373,1,52.5000020027161,6|0,0:3|0:0,0:0:0:0:
341,199,123140,5,2,0:0:0:0:
246,231,123327,1,0,0:3:0:0:
143,197,123515,1,6,0:3:0:0:
244,152,123702,1,0,0:0:0:0:
319,282,123890,5,2,3:0:0:0:
359,119,124077,1,2,0:3:0:0:
415,258,124265,1,10,0:3:0:0:
244,152,124452,1,6,0:3:0:0:
72,258,124640,6,0,P|26:267|-25:242,1,105.000004005432,6|2,1:2|0:3,0:0:0:0:
156,194,125202,1,8,0:3:0:0:
156,194,125390,2,0,P|162:248|167:300,1,105.000004005432,4|0,0:3|0:0,0:0:0:0:
233,375,125952,1,4,0:3:0:0:
233,375,126140,2,0,B|269:374|269:374|298:382|298:382|336:380,1,105.000004005432,2|0,0:0|0:0,0:0:0:0:
434,331,126702,1,0,0:0:0:0:
434,331,126890,2,0,P|433:360|432:392,1,52.5000020027161,2|2,0:3|0:3,0:0:0:0:
481,245,127265,2,0,P|505:266|539:293,1,52.5000020027161,8|0,0:3|0:0,0:0:0:0:
497,158,127640,6,0,P|460:196|410:200,1,105.000004005432,2|2,1:2|0:3,0:0:0:0:
286,230,128202,1,8,0:3:0:0:
286,230,128390,2,0,P|337:243|365:284,1,105.000004005432,6|0,0:3|0:0,0:0:0:0:
454,381,128952,1,4,0:3:0:0:
454,381,129140,2,0,P|439:329|461:284,1,105.000004005432,2|0,0:0|0:0,0:0:0:0:
512,205,129702,1,0,0:0:0:0:
512,205,129890,2,0,P|508:178|503:145,1,52.5000020027161,6|2,0:3|0:3,0:0:0:0:
414,183,130265,2,0,P|410:156|405:121,1,52.5000020027161,4|4,0:3|0:3,0:0:0:0:
237,174,130640,5,2,1:2:0:0:
321,166,130827,1,0,0:0:0:0:
248,258,131015,1,2,0:3:0:0:
332,250,131202,1,8,0:3:0:0:
163,222,131390,2,0,P|135:222|98:222,1,52.5000020027161,6|2,0:3|0:0,0:0:0:0:
176,85,131765,2,0,P|193:109|215:137,1,52.5000020027161,6|0,0:3|0:0,0:0:0:0:
253,271,132140,5,2,0:0:0:0:
326,224,132327,1,0,0:0:0:0:
308,343,132515,1,6,0:3:0:0:
381,296,132702,1,2,0:0:0:0:
222,355,132890,2,0,P|195:355|167:355,1,52.5000020027161,2|2,0:3|0:3,0:0:0:0:
68,324,133265,2,0,P|66:353|64:382,1,52.5000020027161,10|0,0:3|0:0,0:0:0:0:
34,211,133640,5,6,0:3:0:0:
128,139,133827,1,0,0:0:0:0:
45,127,134015,1,2,0:3:0:0:
117,223,134202,1,8,0:3:0:0:
191,318,134390,2,0,P|189:347|188:378,1,52.5000020027161,6|0,0:3|0:0,0:0:0:0:
305,264,134765,2,0,P|307:292|310:326,1,52.5000020027161,2|6,0:0|0:3,0:0:0:0:
194,195,135140,5,2,0:0:0:0:
296,126,135327,1,0,0:0:0:0:
201,59,135515,1,6,0:3:0:0:
289,5,135702,1,0,0:0:0:0:
381,53,135890,5,2,3:0:0:0:
398,140,136077,1,2,0:3:0:0:
414,220,136265,1,6,0:3:0:0:
429,294,136452,1,6,0:3:0:0:
476,364,136640,6,0,P|428:347|366:349,1,105.000004005432,2|2,1:2|0:3,0:0:0:0:
285,310,137202,1,8,0:3:0:0:
285,310,137390,2,0,B|250:312|250:312|218:302|218:302|179:304,1,105.000004005432,6|0,0:3|0:0,0:0:0:0:
84,240,137952,1,4,0:3:0:0:
84,240,138140,2,0,P|79:293|74:345,1,105.000004005432,2|0,0:0|0:0,0:0:0:0:
175,195,138702,1,0,0:0:0:0:
175,195,138890,2,0,P|172:167|167:132,1,52.5000020027161,2|2,0:3|0:3,0:0:0:0:
238,63,139265,2,0,P|215:58|183:39,1,52.5000020027161,8|0,0:3|0:0,0:0:0:0:
268,157,139640,6,0,P|316:147|375:148,1,105.000004005432,2|2,1:2|0:3,0:0:0:0:
372,65,140202,1,8,0:3:0:0:
372,65,140390,2,0,P|407:108|473:123,1,105.000004005432,6|0,0:3|0:0,0:0:0:0:
512,208,140952,1,4,0:3:0:0:
512,208,141140,2,0,P|511:258|511:333,1,105.000004005432,2|0,0:0|0:3,0:0:0:0:
368,287,141702,1,0,0:0:0:0:
368,287,141890,2,0,P|397:288|428:287,1,52.5000020027161,0|2,3:0|0:3,0:0:0:0:
244,347,142265,2,0,P|273:346|304:347,1,52.5000020027161,4|4,0:3|0:3,0:0:0:0:
258,255,142640,6,0,P|218:306|149:314,1,125.999996154785,2|0,1:2|0:0,0:0:0:0:
107,384,143390,2,0,P|45:363|14:301,1,125.999996154785,2|0,0:0|0:0,0:0:0:0:
0,227,144140,2,0,B|-10:165|-10:165|-17:112|23:85|73:92|91:135|69:181,1,251.999992309571,2|0,0:0|0:0,0:0:0:0:
48,326,145640,6,0,P|104:298|171:300,1,125.999996154785,2|0,0:0|0:0,0:0:0:0:
137,221,146390,2,0,P|186:261|251:260,1,125.999996154785,2|0,0:0|0:0,0:0:0:0:
332,285,147140,6,0,P|389:285|448:285,1,115.50000352478,2|0,0:0|0:0,0:0:0:0:
447,285,148565,5,2,0:0:0:0:
415,132,150065,1,2,0:0:0:0:
322,319,151565,6,0,P|240:336|174:282,1,168,2|0,0:0|0:0,0:0:0:0:
52,357,153065,2,0,P|78:347|105:343,1,56,2|0,0:0|0:0,0:0:0:0:
107,207,153815,2,0,P|102:234|91:260,1,56,2|0,0:0|0:0,0:0:0:0:
188,372,154565,5,2,0:0:0:0:
235,167,156065,2,0,P|265:166|301:164,1,56,2|0,0:0|0:0,0:0:0:0:
370,92,156815,2,0,L|303:88,1,56,2|0,0:0|0:0,0:0:0:0:
440,40,157565,6,0,P|413:139|505:211,1,224,2|0,0:0|0:0,0:0:0:0:
421,345,159815,2,0,P|453:350|496:358,1,56,2|0,0:0|0:0,0:0:0:0:
457,277,160565,6,0,P|407:300|345:302,1,112,2|2,0:0|0:3,0:0:0:0:
266,293,161690,1,2,0:0:0:0:
300,366,162065,1,2,0:0:0:0:
360,192,162815,1,2,0:0:0:0:
168,231,163565,6,0,P|83:227|-8:222,1,168,2|0,0:0|0:0,0:0:0:0:
0,222,165065,1,2,0:0:0:0:
220,76,165815,1,2,0:0:0:0:
231,157,166190,1,2,0:0:0:0:
167,18,166565,6,0,P|240:49|327:42,1,168,2|2,0:0|0:0,0:0:0:0:
410,2,168065,2,0,P|415:30|422:66,1,56,2|0,0:0|0:0,0:0:0:0:
512,112,168815,2,0,P|508:141|505:175,1,56,2|0,0:0|0:0,0:0:0:0:
495,310,169565,5,2,0:0:0:0:
489,360,171449,5,2,0:0:0:0:
473,270,171824,1,2,0:0:0:0:
456,172,172199,1,2,0:0:0:0:
438,71,172574,6,0,B|403:83|403:83|372:71|372:71|325:102|263:76,1,178.500003404617,2|0,0:0|0:0,0:0:0:0:
184,128,174074,2,0,P|160:181|185:237,1,119.000002269745,2|2,0:0|0:0,0:0:0:0:
256,295,175199,1,2,0:0:0:0:
316,376,175574,6,0,P|239:324|144:338,1,178.500003404617,2|0,0:0|0:0,0:0:0:0:
49,318,177074,2,0,P|128:300|181:201,1,178.500003404617,2|0,0:0|0:0,0:0:0:0:
205,112,178574,6,0,P|213:228|224:365,1,238.00000453949,2|0,0:0|0:0,0:0:0:0:
379,115,180824,2,0,P|376:82|374:45,1,59.5000011348725,2|0,0:0|0:0,0:0:0:0:
454,185,181574,6,0,P|374:149|282:164,1,178.500003404617,2|0,0:0|0:0,0:0:0:0:
190,92,183074,2,0,P|183:126|176:156,1,59.5000011348725,2|0,0:0|0:0,0:0:0:0:
98,262,183824,2,0,P|93:235|87:202,1,59.5000011348725,2|0,0:0|0:0,0:0:0:0:
115,384,184574,6,0,P|223:337|346:342,1,238.00000453949,2|0,0:0|0:0,0:0:0:0:
392,130,186824,2,0,P|361:124|330:114,1,59.5000011348725,2|0,0:0|0:0,0:0:0:0:
301,224,187574,6,0,P|394:153|512:149,1,238.00000453949,2|0,0:0|0:0,0:0:0:0:
307,30,189824,2,0,P|305:61|304:96,1,59.5000011348725,2|0,0:0|0:0,0:0:0:0:
301,224,190574,5,2,0:0:0:0:
256,192,190761,12,2,193574,0:0:0:0:
75,181,195126,5,4,1:2:0:0:
74,162,195219,1,0,0:3:0:0:
73,143,195313,2,0,L|70:98,2,38.5000011749268,0|0|2,0:0|0:0|0:3,0:0:0:0:
84,262,195688,1,8,0:3:0:0:
27,343,195876,2,0,P|88:307|177:319,1,154.000004699707,6|0,0:3|0:0,0:0:0:0:
300,366,196438,2,0,P|279:333|269:296,1,77.0000023498536,2|4,0:0|0:3,0:0:0:0:
250,158,196813,2,0,P|231:191|205:219,1,77.0000023498536,2|0,0:0|0:0,0:0:0:0:
337,218,197188,1,2,0:0:0:0:
337,218,197376,2,0,P|378:219|414:220,1,77.0000023498536,6|0,0:3|0:0,0:0:0:0:
250,158,197751,2,0,P|186:156|125:154,1,115.50000352478,6|0,0:3|0:0,0:0:0:0:
69,111,198126,5,0,1:2:0:0:
67,92,198219,1,0,0:0:0:0:
65,73,198313,2,0,L|60:29,2,38.5000011749268,0|0|2,0:0|0:0|0:3,0:0:0:0:
138,192,198688,1,8,0:3:0:0:
51,317,198876,2,0,P|118:285|221:298,1,154.000004699707,6|0,0:3|0:0,0:0:0:0:
282,191,199438,2,0,P|299:222|332:253,1,77.0000023498536,2|4,0:0|0:3,0:0:0:0:
457,233,199813,2,0,P|443:268|437:325,1,77.0000023498536,2|0,0:0|0:0,0:0:0:0:
418,127,200188,1,2,0:0:0:0:
418,127,200376,2,0,P|414:86|410:37,1,77.0000023498536,6|0,0:3|0:0,0:0:0:0:
301,94,200751,2,0,B|262:92|262:92|228:105|228:105|187:102,1,115.50000352478,6|0,0:3|0:0,0:0:0:0:
114,133,201126,5,0,1:2:0:0:
94,132,201219,1,0,0:0:0:0:
73,131,201313,2,0,P|50:129|27:129,2,38.5000011749268,0|0|2,0:0|0:0|3:0,0:0:0:0:
174,210,201688,1,8,0:3:0:0:
198,81,201876,2,0,P|270:102|347:81,1,154.000004699707,6|0,0:3|0:0,0:0:0:0:
469,51,202438,2,0,P|464:90|460:133,1,77.0000023498536,2|4,0:0|0:3,0:0:0:0:
437,247,202813,2,0,P|474:237|512:229,1,77.0000023498536,2|0,0:0|0:0,0:0:0:0:
344,155,203188,1,2,0:0:0:0:
344,155,203376,2,0,P|306:164|268:172,1,77.0000023498536,6|0,0:3|0:0,0:0:0:0:
175,272,203751,2,0,P|233:272|296:297,1,115.50000352478,6|0,2:3|0:0,0:0:0:0:
362,317,204126,5,0,1:2:0:0:
361,296,204219,1,0,0:0:0:0:
360,275,204313,2,0,L|357:226,2,38.5000011749268,0|0|2,0:0|0:0|0:3,0:0:0:0:
347,121,204688,1,8,0:3:0:0:
390,31,204876,2,0,P|331:80|254:78,1,154.000004699707,6|0,0:3|0:0,0:0:0:0:
151,128,205438,2,0,P|148:90|144:28,1,77.0000023498536,2|4,0:0|0:3,0:0:0:0:
264,183,205813,2,0,P|267:223|270:270,1,77.0000023498536,2|0,0:0|0:0,0:0:0:0:
173,384,206188,1,2,0:0:0:0:
173,384,206376,2,0,P|170:346|166:284,1,77.0000023498536,6|0,0:3|0:0,0:0:0:0:
278,344,206751,2,0,B|317:344|317:344|352:355|352:355|395:355,1,115.50000352478,6|0,0:3|0:0,0:0:0:0:
481,332,207126,5,0,1:2:0:0:
464,320,207219,1,0,0:0:0:0:
456,300,207313,2,0,P|454:278|459:249,2,38.5000011749268,0|0|2,0:0|0:0|0:3,0:0:0:0:
482,171,207688,1,8,0:3:0:0:
359,228,207876,2,0,P|282:243|219:207,1,154.000004699707,6|0,0:3|0:0,0:0:0:0:
339,61,208438,2,0,P|343:103|347:146,1,77.0000023498536,2|4,0:0|0:3,0:0:0:0:
446,267,208813,2,0,P|479:286|512:306,1,77.0000023498536,2|0,0:0|0:0,0:0:0:0:
497,134,209188,1,2,0:0:0:0:
497,134,209376,2,0,P|465:155|433:177,1,77.0000023498536,6|0,0:3|0:0,0:0:0:0:
402,329,209751,2,0,P|453:306|521:308,1,115.50000352478,6|0,0:3|0:0,0:0:0:0:
506,228,210126,5,0,1:2:0:0:
504,202,210219,1,0,0:3:0:0:
501,173,210313,2,0,L|497:128,2,38.5000011749268,0|0|2,0:3|0:0|0:3,0:0:0:0:
511,305,210688,1,8,0:3:0:0:
398,250,210876,2,0,B|345:255|345:255|300:242|300:242|246:247,1,154.000004699707,6|0,0:3|0:0,0:0:0:0:
121,154,211438,2,0,P|160:159|202:154,1,77.0000023498536,2|4,0:0|0:3,0:0:0:0:
284,314,211813,2,0,P|268:277|243:243,1,77.0000023498536,2|0,0:0|0:0,0:0:0:0:
340,98,212188,1,2,0:0:0:0:
340,98,212376,2,0,P|316:129|299:168,1,77.0000023498536,6|0,0:3|0:0,0:0:0:0:
495,294,212751,2,0,P|450:269|412:218,1,115.50000352478,6|0,0:3|0:0,0:0:0:0:
419,143,213126,5,0,1:2:0:0:
421,124,213219,1,0,0:0:0:0:
423,105,213313,2,0,L|428:50,2,38.5000011749268,0|0|2,0:0|0:0|0:3,0:0:0:0:
511,191,213688,1,8,0:3:0:0:
408,270,213876,2,0,P|336:246|257:251,1,154.000004699707,6|0,0:3|0:0,0:0:0:0:
124,154,214438,2,0,P|164:156|209:158,1,77.0000023498536,2|4,0:0|0:3,0:0:0:0:
336,254,214813,2,0,P|296:252|251:250,1,77.0000023498536,2|0,0:0|0:0,0:0:0:0:
308,84,215188,1,2,0:0:0:0:
308,84,215376,2,0,P|306:124|304:172,1,77.0000023498536,6|0,0:3|0:0,0:0:0:0:
358,298,215751,2,0,B|303:284|303:284|275:287|244:290,1,115.50000352478,6|0,0:3|0:0,0:0:0:0:
179,243,216126,5,0,1:2:0:0:
178,224,216219,1,0,0:0:0:0:
176,205,216313,2,0,L|174:163,2,38.5000011749268,0|0|2,0:0|0:0|0:3,0:0:0:0:
187,345,216688,1,8,0:3:0:0:
302,263,216876,2,0,P|375:274|440:231,1,154.000004699707,6|0,0:3|0:0,0:0:0:0:
350,136,217438,2,0,P|313:138|258:140,1,77.0000023498536,2|4,0:0|0:3,0:0:0:0:
179,243,217813,2,0,P|182:281|186:335,1,77.0000023498536,2|0,0:0|0:0,0:0:0:0:
170,146,218188,1,2,0:0:0:0:
170,146,218376,5,6,0:3:0:0:
256,380,218657,1,6,0:2:0:0:
342,146,218938,1,6,0:2:0:0:
360,257,219126,5,0,1:2:0:0:
363,276,219219,1,0,0:0:0:0:
367,295,219313,2,0,L|374:341,2,38.5000011749268,0|0|2,0:0|0:0|0:3,0:0:0:0:
444,189,219688,1,8,0:3:0:0:
337,120,219876,2,0,P|259:131|210:80,1,154.000004699707,6|0,0:3|0:0,0:0:0:0:
429,61,220438,2,0,P|434:106|440:152,1,77.0000023498536,2|4,0:0|0:3,0:0:0:0:
413,256,220813,2,0,P|450:252|501:247,1,77.0000023498536,2|0,0:0|0:0,0:0:0:0:
333,186,221188,1,2,0:0:0:0:
333,186,221376,2,0,P|296:190|245:195,1,77.0000023498536,6|0,0:3|0:0,0:0:0:0:
140,163,221751,2,0,B|129:203|129:203|144:249,1,77.0000023498536,6|0,0:3|3:0,0:0:0:0:
135,253,222032,1,4,0:3:0:0:
128,269,222126,5,0,1:2:0:0:
256,333,222313,1,2,0:0:0:0:
383,269,222501,2,0,P|387:310|393:359,1,77.0000023498536,2|8,0:3|0:3,0:0:0:0:
406,164,222876,2,0,P|360:226|260:224,1,154.000004699707,6|0,0:3|0:0,0:0:0:0:
167,51,223438,2,0,P|203:63|233:86,1,77.0000023498536,2|4,0:0|0:3,0:0:0:0:
312,139,223813,2,0,P|326:102|326:64,1,77.0000023498536,2|0,0:0|0:0,0:0:0:0:
156,150,224188,2,0,P|125:171|103:202,1,77.0000023498536,2|4,0:3|0:3,0:0:0:0:
225,308,224563,2,0,P|202:277|191:241,1,77.0000023498536,2|4,0:0|0:3,0:0:0:0:
256,104,224938,1,2,0:0:0:0:
395,160,225126,5,0,1:2:0:0:
414,163,225219,1,0,0:0:0:0:
433,165,225313,2,0,L|476:160,2,38.5000011749268,0|0|2,0:0|0:0|0:3,0:0:0:0:
282,186,225688,1,8,0:3:0:0:
129,208,225876,2,0,P|145:285|212:312,1,154.000004699707,6|0,0:3|0:0,0:0:0:0:
193,132,226438,2,0,P|190:94|186:43,1,77.0000023498536,2|4,0:0|0:3,0:0:0:0:
282,186,226813,2,0,P|322:183|370:180,1,77.0000023498536,2|0,0:0|0:3,0:0:0:0:
206,260,227188,1,2,0:0:0:0:
206,260,227376,2,0,P|209:298|212:336,1,77.0000023498536,6|0,0:3|0:0,0:0:0:0:
83,313,227751,2,0,P|21:319|-23:282,1,115.50000352478,6|0,0:3|0:0,0:0:0:0:
45,247,228126,5,2,1:2:0:0:
202,383,228407,1,2,1:2:0:0:
238,178,228688,1,2,1:2:0:0:
166,278,228876,6,0,P|128:280|82:282,1,77.0000023498536,10|0,3:0|0:0,0:0:0:0:
160,207,229251,2,0,P|198:252|273:253,1,115.50000352478,6|0,0:3|0:0,0:0:0:0:
238,178,229626,5,2,1:2:0:0:
471,261,229907,1,2,1:2:0:0:
238,343,230188,1,2,1:2:0:0:
354,382,230376,6,0,P|392:381|436:380,1,77.0000023498536,6|0,0:2|0:0,0:0:0:0:
238,343,230751,2,0,B|196:345|196:345|165:335|165:335|122:338,1,115.50000352478,6|0,0:0|0:0,0:0:0:0:
43,345,231126,5,6,1:2:0:0:
119,261,231313,1,0,0:0:0:0:
218,321,231501,1,2,0:3:0:0:
139,384,231688,1,8,0:3:0:0:
39,267,231876,1,6,0:3:0:0:
139,384,232063,1,0,0:0:0:0:
61,348,232251,1,6,0:3:0:0:
214,356,232438,1,6,0:3:0:0:
368,363,232626,6,0,P|406:364|454:366,1,77.0000023498536,2|0,1:2|0:0,0:0:0:0:
412,234,233001,2,0,P|413:194|414:146,1,77.0000023498536,2|0,0:3|0:0,0:0:0:0:
275,211,233376,2,0,P|219:222|170:184,1,115.50000352478,10|0,0:2|0:0,0:0:0:0:
121,135,233751,2,0,P|125:194|131:273,1,115.50000352478,10|0,0:2|0:0,0:0:0:0:
135,325,234126,5,2,1:2:0:0:
200,193,234313,1,0,0:0:0:0:
47,204,234501,1,2,0:3:0:0:
220,276,234688,1,8,0:3:0:0:
42,331,234876,1,6,0:3:0:0:
123,168,235063,1,0,0:0:0:0:
139,355,235251,2,0,P|196:366|244:338,1,115.50000352478,6|0,0:3|0:0,0:0:0:0:
184,286,235626,5,2,1:2:0:0:
39,326,235813,1,0,0:0:0:0:
134,200,236001,1,2,0:3:0:0:
133,367,236188,1,4,0:3:0:0:
41,227,236376,2,0,P|43:189|46:131,1,77.0000023498536,6|2,0:3|0:0,0:0:0:0:
87,71,236657,1,2,0:0:0:0:
87,71,236751,2,0,B|47:78|47:78|2:71,1,77.0000023498536,4|2,0:3|0:0,0:0:0:0:
185,182,237126,5,2,1:2:0:0:
231,37,237313,1,0,0:0:0:0:
231,37,237501,1,2,0:3:0:0:
311,153,237688,1,10,0:3:0:0:
138,101,237876,2,0,P|83:120|28:97,1,115.50000352478,4|0,0:3|0:3,0:0:0:0:
87,39,238251,1,6,0:3:0:0:
72,196,238438,1,0,0:0:0:0:
57,354,238626,6,0,P|96:350|134:346,1,77.0000023498536,2|2,1:2|0:0,0:0:0:0:
269,297,239001,2,0,P|274:345|281:396,1,77.0000023498536,2|8,0:3|0:3,0:0:0:0:
112,236,239376,1,10,0:3:0:0:
302,216,239563,2,0,P|254:251|196:251,1,115.50000352478,2|0,0:0|0:0,0:0:0:0:
112,236,239938,1,2,0:0:0:0:
256,346,240126,5,4,1:2:0:0:
385,272,240313,1,10,0:0:0:0:
388,286,240501,1,10,0:0:0:0:
256,325,240688,5,0,1:2:0:0:
120,223,240876,1,10,0:0:0:0:
112,236,241064,1,10,0:0:0:0:
256,304,241251,5,4,0:3:0:0:
376,151,241438,1,10,0:0:0:0:
392,157,241626,1,10,0:0:0:0:
256,283,241813,5,4,2:3:0:0:
140,91,242001,2,0,P|83:120|12:106,1,131.25,10|0,0:0|0:0,0:0:0:0:
31,242,242376,6,0,P|42:191|78:153,1,105,8|0,0:3|0:0,0:0:0:0:
176,296,242751,6,0,P|158:261|127:236,1,78.7500030040742,4|0,0:3|0:0,0:0:0:0:
87,319,243126,5,4,1:2:0:0:
86,330,243313,1,0,0:0:0:0:
84,341,243501,2,0,P|82:366|79:394,1,43.75,2|0,0:0|0:0,0:0:0:0:
162,369,243876,2,0,P|164:347|165:325,1,43.75
246,310,244251,2,0,P|244:334|241:363,1,43.75,2|0,0:0|0:0,0:0:0:0:
322,339,244626,2,0,P|324:317|325:295,1,43.75
407,279,245001,2,0,P|404:306|402:332,1,43.75,2|0,0:0|0:0,0:0:0:0:
402,322,245376,5,2,0:0:0:0:
411,245,245563,1,0,0:0:0:0:
382,166,245751,1,0,0:0:0:0:
292,144,245938,1,2,0:0:0:0:
199,180,246126,5,0,0:0:0:0:
197,172,246313,1,0,0:0:0:0:
195,164,246501,2,0,P|192:195|187:220,1,43.75,2|0,0:0|0:0,0:0:0:0:
172,288,246876,2,0,P|153:278|133:270,1,43.75
219,361,247251,2,0,P|233:345|248:329,1,43.75,2|0,0:0|0:0,0:0:0:0:
310,273,247626,2,0,P|320:292|331:310,1,43.75
319,188,248001,2,0,P|298:193|277:196,1,43.75,2|0,0:0|0:0,0:0:0:0:
276,196,248376,5,2,0:0:0:0:
356,175,248563,1,0,0:0:0:0:
439,207,248751,1,0,0:0:0:0:
480,291,248938,1,2,0:0:0:0:
448,384,249126,5,0,0:0:0:0:
457,384,249313,1,0,0:0:0:0:
466,381,249501,2,0,P|436:383|407:386,1,43.75,2|0,0:0|0:0,0:0:0:0:
385,313,249876,2,0,P|401:301|419:286,1,43.75
308,230,250251,2,0,P|310:255|313:289,1,43.75,2|0,0:0|0:0,0:0:0:0:
203,281,250626,2,0,P|219:295|237:309,1,43.75
196,381,251001,2,0,P|174:382|152:384,1,43.75,2|0,0:0|0:0,0:0:0:0:
152,384,251376,5,2,0:0:0:0:
232,379,251563,1,0,0:0:0:0:
301,324,251751,1,0,0:0:0:0:
307,232,251938,1,2,0:0:0:0:
260,146,252126,5,0,0:0:0:0:
251,147,252313,1,0,0:0:0:0:
243,148,252501,2,0,P|268:146|303:142,1,43.75,2|0,0:0|0:0,0:0:0:0:
355,203,252876,2,0,P|376:201|403:199,1,43.75
414,120,253251,2,0,P|391:122|366:124,1,43.75,2|0,0:0|0:0,0:0:0:0:
278,227,253626,2,0,P|254:229|230:231,1,43.75
145,145,254001,2,0,P|123:147|97:149,1,43.75,2|0,0:0|0:0,0:0:0:0:
101,148,254376,5,2,0:0:0:0:
223,207,254563,1,0,0:0:0:0:
114,265,254751,1,0,0:0:0:0:
205,308,254938,1,2,0:0:0:0:
149,383,255126,5,0,0:0:0:0:
