osu file format v14

[General]
AudioFilename: audio.mp3
AudioLeadIn: 0
PreviewTime: 60136
Countdown: 0
SampleSet: Soft
StackLeniency: 0.5
Mode: 0
LetterboxInBreaks: 0
WidescreenStoryboard: 1

[Editor]
Bookmarks: 62663,92978,108136
DistanceSpacing: 0.7
BeatDivisor: 4
GridSize: 16
TimelineZoom: 2

[Metadata]
Title:Whispers from a Distant Star
TitleUnicode:Whispers from a Distant Star
Artist:Fractal Dreamers
ArtistUnicode:Fractal Dreamers
Creator:coco
Version:Normal
Source:osu!
Tags:cococolaco loli catgirl Agatsu Helblinde Azure of the Horizon Featured Artist Mappers' Guild Electronic Instrumental
BeatmapID:2372050
BeatmapSetID:1134144

[Difficulty]
HPDrainRate:4
CircleSize:3
OverallDifficulty:5
ApproachRate:6
SliderMultiplier:1.2
SliderTickRate:1

[Events]
//Background and Video events
0,0,"maxresdefault.jpg",0,0
//Break Periods
2,93190,107098
//Storyboard Layer 0 (Background)
//Storyboard Layer 1 (Fail)
//Storyboard Layer 2 (Pass)
//Storyboard Layer 3 (Foreground)
//Storyboard Layer 4 (Overlay)
//Storyboard Sound Samples

[TimingPoints]
193,400,4,2,0,50,1,0
46254,315.789473684211,4,2,0,70,1,0
80359,-100,4,2,0,40,0,0
80675,-100,4,2,0,70,0,0
82569,-100,4,2,0,40,0,0
82885,-100,4,2,0,70,0,0
87622,-100,4,2,0,40,0,0
87938,-100,4,2,0,70,0,0
92517,-100,4,2,0,40,0,0
92833,-100,4,2,0,70,0,0

[Colours]
Combo1 : 255,94,55
Combo2 : 173,255,95
Combo3 : 17,254,176
Combo4 : 255,88,100

[HitObjects]
66,114,47517,6,0,L|201:93,1,120,4|0,0:0|1:0,0:0:0:0:
216,68,47990,1,0,3:0:0:0:
216,68,48148,2,0,L|299:87,1,60,0|0,3:0|1:0,0:0:0:0:
315,93,48464,1,0,3:0:0:0:
388,51,48780,2,0,P|401:124|399:184,1,120,4|0,0:3|1:0,0:0:0:0:
462,226,49411,2,0,P|450:284|449:344,1,120,0|2,3:0|0:0,0:0:0:0:
366,329,50043,6,0,L|303:318,1,60,4|0,0:3|0:0,0:0:0:0:
272,293,50359,2,0,L|212:303,1,60,0|0,1:0|3:0,0:0:0:0:
177,326,50675,2,0,B|161:267|161:267|181:201,1,120,0|0,3:0|3:0,0:0:0:0:
119,150,51306,2,0,L|51:166,2,60,4|2|0,3:0|0:0|1:0,0:0:0:0:
150,121,51780,1,2,0:0:0:0:
181,93,51938,1,0,3:0:0:0:
240,152,52254,1,0,3:0:0:0:
307,101,52569,6,0,P|360:97|443:80,1,120,4|0,0:3|1:0,0:0:0:0:
490,139,53201,2,0,P|501:197|506:257,1,120,0|0,3:0|3:0,0:0:0:0:
443,314,53832,2,0,P|412:302|362:291,1,60,4|0,3:0|0:0,0:0:0:0:
344,291,54148,1,0,1:0:0:0:
303,303,54306,1,0,3:0:0:0:
263,318,54464,2,0,L|278:185,1,120,0|2,3:0|0:0,0:0:0:0:
342,139,55096,6,0,L|327:6,1,120,4|0,0:3|1:0,0:0:0:0:
251,53,55727,2,0,P|217:60|172:60,1,60,0|0,3:0|1:0,0:0:0:0:
158,86,56043,2,0,P|128:84|98:77,1,60,0|0,3:0|3:0,0:0:0:0:
60,95,56359,2,0,P|29:133|28:221,2,120,4|0|2,0:3|1:0|3:2,0:0:0:0:
118,170,57306,1,2,3:2:0:0:
174,232,57622,6,0,B|250:221|216:244|321:237,1,120,4|0,0:0|1:0,0:0:0:0:
330,257,58096,1,0,3:0:0:0:
330,257,58254,2,0,L|351:177,1,60,0|0,3:0|1:0,0:0:0:0:
358,159,58569,1,0,3:0:0:0:
427,111,58885,6,0,P|421:61|365:6,1,120,4|2,3:0|1:2,0:0:0:0:
336,25,59359,1,2,0:0:0:0:
297,41,59517,2,0,P|238:50|196:92,1,120,2|2,0:0|0:0,0:0:0:0:
193,134,59990,1,2,0:0:0:0:
193,134,60148,1,4,0:1:0:0:
448,297,62675,6,0,L|517:317,2,60,6|0|2,0:0|0:0|1:2,0:0:0:0:
418,267,63148,1,2,3:0:0:0:
418,267,63306,2,0,L|335:279,1,60,2|2,3:0|1:2,0:0:0:0:
318,289,63622,1,2,0:0:0:0:
247,242,63938,2,0,P|229:206|239:122,1,120,8|2,3:0|1:2,0:0:0:0:
254,93,64411,1,2,3:2:0:0:
254,93,64569,2,0,L|173:82,1,60,0|0,3:0|1:0,0:0:0:0:
170,50,64885,2,0,L|110:58,1,60,2|2,0:0|0:0,0:0:0:0:
68,51,65201,6,0,P|44:108|45:185,1,120,4|2,0:3|1:2,0:0:0:0:
63,246,65832,2,0,P|48:266|21:296,2,60,2|2|0,3:2|1:2|3:0,0:0:0:0:
124,187,66464,1,4,3:0:0:0:
165,185,66622,1,2,0:0:0:0:
206,191,66780,2,0,P|235:195|264:202,1,60,2|0,1:2|3:0,0:0:0:0:
301,222,67096,2,0,P|361:220|434:210,1,120,2|0,3:2|0:0,0:0:0:0:
470,147,67727,6,0,P|438:98|373:86,1,120,6|0,0:0|1:0,0:0:0:0:
298,66,68359,2,0,P|287:29|286:5,2,60,2|0|0,3:0|1:0|3:0,0:0:0:0:
274,100,68832,1,0,3:0:0:0:
274,100,68990,2,0,P|272:153|266:229,1,120,8|2,3:0|1:2,0:0:0:0:
206,278,69622,2,0,B|148:268|148:268|86:299,1,120,2|2,0:0|0:0,0:0:0:0:
30,239,70254,5,4,0:3:0:0:
88,179,70569,2,0,L|77:102,1,60,2|0,1:2|3:0,0:0:0:0:
52,86,70885,1,2,3:2:0:0:
117,33,71201,2,0,L|185:45,1,60,2|2,3:2|0:0,0:0:0:0:
210,67,71517,2,0,L|336:56,1,120,8|0,3:0|1:0,0:0:0:0:
412,71,72148,2,0,P|437:37|442:11,2,60,2|0|0,3:2|1:0|1:0,0:0:0:0:
415,113,72622,1,0,1:0:0:0:
415,113,72780,6,0,P|418:178|426:252,1,120,4|0,1:0|1:0,0:0:0:0:
354,281,73411,2,0,P|350:317|342:350,1,60,2|2,3:0|1:2,0:0:0:0:
312,367,73727,1,2,3:2:0:0:
241,321,74043,2,0,P|225:261|237:194,1,120,8|2,3:0|2:0,0:0:0:0:
272,186,74517,1,2,3:0:0:0:
272,186,74675,2,0,P|288:126|276:59,1,120,2|2,3:0|0:0,0:0:0:0:
205,29,75306,6,0,P|138:42|62:55,1,120,4|0,0:3|1:0,0:0:0:0:
32,115,75938,2,0,P|41:143|47:186,1,60,2|0,3:2|1:0,0:0:0:0:
82,195,76254,2,0,P|73:223|67:266,1,60,0|0,3:0|3:0,0:0:0:0:
84,291,76569,2,0,L|212:264,1,120,8|0,0:3|1:0,0:0:0:0:
279,299,77201,2,0,B|327:308|327:308|342:329|342:329|386:337,1,120,0|0,1:0|1:0,0:0:0:0:
457,292,77832,5,4,1:0:0:0:
256,192,77911,12,8,79096,0:3:0:0:
165,189,79727,6,0,L|152:123,1,60,2|0,3:2|1:0,0:0:0:0:
183,100,80043,2,0,L|261:112,1,60,2|2,0:0|0:0,0:0:0:0:
281,93,80359,2,0,P|333:85|402:108,1,120,0|0,1:0|1:0,0:0:0:0:
438,177,80990,2,0,P|419:233|426:292,1,120,0|0,3:0|3:0,0:0:0:0:
370,355,81622,1,4,0:3:0:0:
255,231,82254,1,0,1:0:0:0:
255,231,82411,1,0,1:0:0:0:
270,105,82885,6,0,B|220:71|220:71|146:74,1,120,4|0,1:0|1:0,0:0:0:0:
122,55,83359,1,0,3:0:0:0:
122,55,83517,2,0,L|57:74,1,60,0|0,3:0|1:0,0:0:0:0:
26,90,83832,1,2,3:2:0:0:
43,172,84148,2,0,L|63:300,1,120,4|0,0:3|1:0,0:0:0:0:
142,314,84780,2,0,L|260:332,1,120,2|2,3:2|0:0,0:0:0:0:
337,366,85411,6,0,B|358:305|358:305|335:234,1,120,4|0,0:3|1:0,0:0:0:0:
340,252,85885,1,4,0:3:0:0:
276,196,86201,1,0,1:0:0:0:
276,196,86359,2,0,B|257:136|257:136|278:64,1,120,4|0,0:3|1:0,0:0:0:0:
272,81,86832,1,4,0:3:0:0:
339,29,87148,1,0,1:0:0:0:
339,29,87306,2,0,L|411:35,1,60,4|2,0:3|3:2,0:0:0:0:
440,24,87622,1,0,1:0:0:0:
512,94,87938,6,0,L|501:230,1,120,4|0,1:0|1:0,0:0:0:0:
477,247,88411,2,0,B|420:269|420:269|346:252,1,120,0|0,3:0|0:0,0:0:0:0:
336,222,88885,2,0,B|279:200|279:200|205:217,1,120,2|4,3:2|0:3,0:0:0:0:
134,304,89675,1,0,3:0:0:0:
134,304,89832,2,0,L|67:295,1,60,0|0,3:0|1:0,0:0:0:0:
44,266,90148,2,0,L|35:199,1,60,2|2,0:0|0:0,0:0:0:0:
74,188,90464,6,0,P|92:123|91:59,1,120,4|0,0:3|1:0,0:0:0:0:
164,26,91096,1,2,3:0:0:0:
239,85,91411,1,2,0:0:0:0:
239,85,91569,1,2,0:0:0:0:
239,85,91727,2,0,L|485:70,2,240,2|2|0,0:0|0:0|1:0,0:0:0:0:
94,337,108148,6,0,P|88:307|88:277,1,60,4|2,0:0|0:0,0:0:0:0:
114,244,108464,2,0,P|114:214|119:184,1,60,2|0,1:2|3:0,0:0:0:0:
147,153,108780,2,0,P|85:145|29:128,1,120,0|2,3:0|3:2,0:0:0:0:
23,86,109254,1,0,3:0:0:0:
49,53,109411,2,0,P|106:35|165:28,1,120,4|0,0:3|1:0,0:0:0:0:
235,75,110043,1,2,0:0:0:0:
310,38,110359,1,2,0:3:0:0:
378,87,110675,6,0,L|444:73,2,60,4|2|0,0:3|0:0|1:0,0:0:0:0:
360,125,111148,1,0,3:0:0:0:
360,125,111306,2,0,L|375:255,1,120,0|0,3:0|3:0,0:0:0:0:
391,336,111938,1,4,0:3:0:0:
391,336,112096,1,0,0:0:0:0:
391,336,112254,2,0,L|322:354,1,60,2|0,1:2|0:0,0:0:0:0:
295,331,112569,2,0,L|236:315,1,60,2|2,3:2|3:2,0:0:0:0:
212,281,112885,1,2,3:2:0:0:
269,219,113201,6,0,B|289:161|289:161|266:86,1,120,6|2,0:2|1:2,0:0:0:0:
244,72,113675,1,2,0:0:0:0:
208,49,113832,2,0,P|148:32|86:37,1,120,0|0,3:0|3:0,0:0:0:0:
60,65,114306,1,0,3:0:0:0:
37,100,114464,2,0,P|44:158|49:223,1,120,4|0,3:0|1:0,0:0:0:0:
30,301,115096,1,2,0:0:0:0:
106,334,115411,1,2,0:3:0:0:
172,282,115727,6,0,P|207:279|252:270,1,60,4|0,0:3|0:0,0:0:0:0:
265,250,116043,2,0,P|294:254|324:257,1,60,0|0,1:0|3:0,0:0:0:0:
357,283,116359,2,0,P|432:287|469:246,1,120,0|0,3:0|3:0,0:0:0:0:
453,175,116990,6,0,L|435:49,1,120,4|0,0:3|1:0,0:0:0:0:
399,34,117464,1,2,0:0:0:0:
399,34,117622,2,0,L|333:43,1,60,2|2,3:0|3:0,0:0:0:0:
302,62,117938,2,0,L|242:53,1,60,0|0,1:0|1:0,0:0:0:0:
203,38,118254,6,0,P|150:52|79:63,1,120,4|0,1:0|1:0,0:0:0:0:
73,145,118885,2,0,L|-9:133,2,60,0|0|2,3:0|1:0|3:2,0:0:0:0:
96,180,119359,1,2,3:2:0:0:
96,180,119517,2,0,P|128:173|158:166,1,60,4|0,0:3|0:0,0:0:0:0:
193,181,119832,2,0,P|225:174|255:167,1,60,2|2,1:2|0:0,0:0:0:0:
286,144,120148,1,2,0:0:0:0:
360,183,120464,1,2,3:2:0:0:
438,153,120780,6,0,B|462:230|428:212|453:297,1,120,4|0,3:0|1:0,0:0:0:0:
384,326,121411,2,0,P|332:332|259:281,1,120,2|2,3:2|0:0,0:0:0:0:
215,240,122043,2,0,P|181:243|149:254,1,60,4|0,0:3|0:0,0:0:0:0:
118,269,122359,2,0,P|84:266|52:255,1,60,0|2,1:0|3:2,0:0:0:0:
35,223,122675,2,0,P|46:146|51:96,1,120,2|4,0:0|3:0,0:0:0:0:
85,81,123148,1,0,1:0:0:0:
123,64,123306,6,0,L|268:47,1,120,6|2,1:1|1:2,0:0:0:0:
312,95,123938,2,0,L|388:114,1,60,0|2,3:0|1:2,0:0:0:0:
400,139,124254,2,0,L|458:124,1,60,0|0,3:0|3:0,0:0:0:0:
490,97,124569,2,0,L|476:241,1,120,8|2,0:3|1:2,0:0:0:0:
432,287,125201,2,0,P|441:319|448:356,2,60,2|2|2,0:0|0:0|3:0,0:0:0:0:
356,249,125832,5,2,1:1:0:0:
356,249,125990,1,2,0:1:0:0:
356,249,126148,2,0,L|295:259,1,60,0|2,1:0|3:1,0:0:0:0:
262,283,126464,2,0,L|137:265,1,120,2|2,3:1|0:0,0:0:0:0:
60,248,127096,2,0,L|38:306,2,60,4|2|2,0:3|0:0|0:1,0:0:0:0:
63,210,127569,1,2,0:1:0:0:
64,168,127727,2,0,L|48:102,1,60,2|2,0:1|1:1,0:0:0:0:
59,68,128043,1,2,1:1:0:0:
127,19,128359,6,0,P|188:14|249:44,1,120,4|0,0:1|1:0,0:0:0:0:
299,97,128990,2,0,P|360:102|421:72,1,120,0|2,3:0|0:0,0:0:0:0:
444,51,129464,1,0,3:3:0:0:
444,51,129622,2,0,L|435:173,1,120,4|2,3:0|1:0,0:0:0:0:
400,195,130096,1,2,0:1:0:0:
400,195,130254,2,0,L|410:262,1,60,2|0,0:1|0:0,0:0:0:0:
438,283,130569,1,2,3:2:0:0:
375,338,130885,6,0,P|305:346|266:382,1,120,4|0,0:3|1:0,0:0:0:0:
195,335,131517,1,2,0:0:0:0:
242,269,131832,1,2,3:2:0:0:
242,269,131990,1,2,3:2:0:0:
242,269,132148,2,0,P|250:184|250:129,1,120,4|0,0:3|1:0,0:0:0:0:
246,65,132780,2,0,P|276:59|321:47,2,60,2|2|2,3:0|3:0|3:2,0:0:0:0:
214,46,133254,1,2,3:2:0:0:
179,21,133411,6,0,P|120:12|63:30,1,120,6|2,0:1|1:2,0:0:0:0:
37,111,134043,2,0,P|28:169|46:226,1,120,0|0,3:0|3:0,0:0:0:0:
104,288,134675,2,0,P|94:322|80:349,2,60,4|2|2,3:0|0:0|1:2,0:0:0:0:
139,264,135148,1,2,3:1:0:0:
139,264,135306,2,0,L|216:250,1,60,2|2,3:1|1:1,0:0:0:0:
238,266,135622,1,2,3:2:0:0:
298,208,135938,6,0,L|364:221,2,60,4|0|0,0:3|0:0|1:0,0:0:0:0:
269,176,136411,2,0,B|249:129|249:129|263:36,1,120,4|8,0:0|0:0,0:0:0:0:
293,36,136885,1,8,0:0:0:0:
293,36,137043,1,0,1:0:0:0:
362,83,137359,2,0,L|426:75,1,60,0|0,1:0|1:0,0:0:0:0:
456,99,137675,2,0,L|446:168,1,60,4|0,0:3|1:0,0:0:0:0:
424,193,137990,1,0,1:0:0:0:
402,229,138148,2,0,B|410:282|410:282|427:304|427:304|432:348,1,120,0|4,1:0|1:0,0:0:0:0:
