osu file format v14

[General]
AudioFilename: audio.mp3
AudioLeadIn: 0
PreviewTime: 60136
Countdown: 0
SampleSet: Soft
StackLeniency: 0.5
Mode: 0
LetterboxInBreaks: 0
WidescreenStoryboard: 1

[Editor]
Bookmarks: 62663,92978,108136
DistanceSpacing: 0.7
BeatDivisor: 4
GridSize: 16
TimelineZoom: 2

[Metadata]
Title:Whispers from a Distant Star
TitleUnicode:Whispers from a Distant Star
Artist:Fractal Dreamers
ArtistUnicode:Fractal Dreamers
Creator:coco
Version:Hard
Source:osu!
Tags:cococolaco loli catgirl Agatsu Helblinde Azure of the Horizon Featured Artist Mappers' Guild Electronic Instrumental
BeatmapID:2372049
BeatmapSetID:1134144

[Difficulty]
HPDrainRate:5
CircleSize:3.8
OverallDifficulty:6
ApproachRate:8
SliderMultiplier:1.6
SliderTickRate:1

[Events]
//Background and Video events
0,0,"maxresdefault.jpg",0,0
//Break Periods
2,60347,61925
2,93190,107398
//Storyboard Layer 0 (Background)
//Storyboard Layer 1 (Fail)
//Storyboard Layer 2 (Pass)
//Storyboard Layer 3 (Foreground)
//Storyboard Layer 4 (Overlay)
//Storyboard Sound Samples

[TimingPoints]
193,400,4,2,0,50,1,0
24193,-100,4,2,0,40,0,0
42993,-133.333333333333,4,2,0,50,0,0
46254,315.789473684211,4,2,0,70,1,0
80359,-100,4,2,0,40,0,0
80675,-100,4,2,0,70,0,0
82569,-100,4,2,0,40,0,0
82885,-100,4,2,0,70,0,0
87622,-100,4,2,0,40,0,0
87938,-100,4,2,0,70,0,0
92517,-100,4,2,0,40,0,0
92833,-100,4,2,0,70,0,0
108148,-90.9090909090909,4,2,0,70,0,0

[Colours]
Combo1 : 255,94,55
Combo2 : 173,255,95
Combo3 : 17,254,176
Combo4 : 255,88,100

[HitObjects]
375,53,193,6,0,P|364:95|364:158,1,80,2|0,0:0|0:0,0:0:0:0:
391,222,593,1,2,0:0:0:0:
391,222,793,1,0,0:0:0:0:
329,360,993,2,0,P|326:320|315:281,1,80,0|2,0:0|0:0,0:0:0:0:
205,122,1593,2,0,L|99:130,1,80,2|0,0:0|0:0,0:0:0:0:
125,128,1993,1,0,0:0:0:0:
59,63,2193,1,2,0:0:0:0:
11,230,2393,2,0,L|170:215,1,160,2|2,0:0|0:0,0:0:0:0:
354,350,3193,6,0,P|346:308|338:254,1,80,2|0,0:0|0:0,0:0:0:0:
391,197,3593,1,0,0:0:0:0:
266,105,3793,1,2,0:0:0:0:
354,13,3993,2,0,P|309:41|191:32,1,160,2|2,0:0|0:0,0:0:0:0:
365,109,4793,2,0,P|418:113|466:133,1,80,2|0,0:0|0:0,0:0:0:0:
468,209,5193,1,0,0:0:0:0:
410,285,5393,2,0,L|399:376,2,80,2|2|0,0:0|0:0|0:0,0:0:0:0:
468,209,5993,1,0,0:0:0:0:
309,313,6193,2,0,L|208:303,1,80,2|2,0:0|0:0,0:0:0:0:
158,237,6593,6,0,B|41:250|130:294|-11:304,1,160,0|2,0:0|0:0,0:0:0:0:
76,166,7193,2,0,P|68:122|73:73,1,80,0|2,0:0|0:0,0:0:0:0:
127,11,7593,1,2,0:0:0:0:
368,150,7993,2,0,L|477:168,2,80,2|0|0,0:0|0:0|0:0,0:0:0:0:
303,76,8593,1,2,0:0:0:0:
303,76,8693,1,2,0:0:0:0:
303,76,8793,1,2,0:0:0:0:
226,147,8993,2,0,P|222:193|231:251,1,80,2|0,0:0|0:0,0:0:0:0:
401,329,9393,2,0,P|405:283|396:225,1,80,2|0,0:0|0:0,0:0:0:0:
296,316,9793,6,0,L|103:335,1,160,2|2,0:0|0:0,0:0:0:0:
66,210,10393,2,0,L|259:229,1,160,2|2,0:0|0:0,0:0:0:0:
225,225,11193,2,0,L|210:134,1,80,2|2,0:0|0:0,0:0:0:0:
143,80,11593,1,0,0:0:0:0:
143,80,11793,2,0,L|53:69,1,80,0|0,0:0|0:0,0:0:0:0:
301,38,12193,2,0,L|219:28,2,80,2|0|0,0:0|0:0|0:0,0:0:0:0:
361,114,12793,1,0,0:0:0:0:
432,7,12993,6,0,L|448:101,1,80,2|2,0:0|0:0,0:0:0:0:
346,205,13393,2,0,L|330:299,1,80,0|0,0:0|0:0,0:0:0:0:
332,283,13793,1,2,0:0:0:0:
437,215,13993,5,2,0:0:0:0:
255,243,14193,1,2,0:0:0:0:
191,177,14393,2,0,P|185:121|189:86,1,80,2|0,0:0|0:0,0:0:0:0:
85,218,14793,5,2,0:0:0:0:
255,243,14993,1,2,0:0:0:0:
322,177,15193,2,0,P|328:121|324:86,1,80,2|0,0:0|0:0,0:0:0:0:
259,39,15593,1,2,0:0:0:0:
259,39,15693,1,2,0:0:0:0:
259,39,15793,2,0,L|254:-2,3,40,2|0|2|2,0:0|0:0|0:0|0:0,0:0:0:0:
241,58,16193,6,0,L|151:43,1,80,2|0,0:0|0:0,0:0:0:0:
32,151,16593,1,0,0:0:0:0:
95,215,16793,2,0,L|275:185,1,160,2|2,0:0|0:0,0:0:0:0:
343,236,17393,2,0,P|355:287|339:337,1,80,2|0,0:0|0:0,0:0:0:0:
457,194,17793,6,0,B|433:278|480:265|439:378,2,160,2|2|2,0:0|0:0|0:0,0:0:0:0:
502,116,18793,1,0,0:0:0:0:
391,35,18993,2,0,P|349:33|312:45,1,80,2|0,0:0|0:0,0:0:0:0:
209,188,19393,5,2,0:0:0:0:
209,188,19593,2,0,P|167:190|130:178,1,80,0|2,0:0|0:0,0:0:0:0:
50,42,19993,2,0,P|106:29|180:111,1,160,2|2,0:0|0:0,0:0:0:0:
275,254,20793,2,0,P|265:300|256:350,1,80,2|0,0:0|0:0,0:0:0:0:
366,297,21193,1,0,0:0:0:0:
354,206,21393,1,2,0:0:0:0:
354,206,21593,2,0,L|336:42,1,160,2|2,0:0|0:0,0:0:0:0:
453,171,22393,6,0,P|455:220|444:271,1,80,2|0,0:0|0:0,0:0:0:0:
354,206,22793,1,0,0:0:0:0:
267,159,22993,1,2,0:0:0:0:
188,203,23193,2,0,B|84:214|151:239|37:252,1,160,2|2,0:0|0:0,0:0:0:0:
38,251,23993,1,2,0:0:0:0:
96,132,24193,6,0,B|157:70|246:92|246:92|290:163|353:205,2,320,2|2|2,0:0|0:0|0:0,0:0:0:0:
96,132,27393,5,2,0:0:0:0:
96,132,28193,1,0,0:0:0:0:
165,289,28993,5,2,0:0:0:0:
165,289,30593,5,2,0:0:0:0:
165,289,31393,1,0,0:0:0:0:
290,160,32193,5,2,0:0:0:0:
290,160,33393,1,2,0:0:0:0:
215,88,33793,5,2,0:0:0:0:
215,88,34593,1,2,0:0:0:0:
188,189,35393,5,2,0:0:0:0:
188,189,36993,5,2,0:0:0:0:
188,189,37793,1,2,0:0:0:0:
188,189,37993,1,2,0:0:0:0:
330,298,38593,5,2,0:0:0:0:
396,232,41793,1,2,0:0:0:0:
396,232,42993,2,0,L|389:167,1,60.0000022888184,2|2,0:0|0:0,0:0:0:0:
382,85,43393,1,2,0:0:0:0:
382,85,44193,1,2,0:0:0:0:
382,85,44993,1,2,0:0:0:0:
256,192,45093,12,0,47201,0:0:0:0:
474,96,47517,6,0,L|392:80,1,80,4|0,0:0|0:0,0:0:0:0:
313,132,47832,1,0,1:0:0:0:
222,81,47990,1,0,3:0:0:0:
222,81,48069,1,0,3:0:0:0:
222,81,48148,2,0,P|213:131|218:173,1,80,0|0,3:0|1:0,0:0:0:0:
124,301,48464,2,0,P|133:251|128:209,1,80,0|0,3:0|3:0,0:0:0:0:
125,216,48701,1,4,3:0:0:0:
119,211,48780,6,0,P|199:201|279:259,2,160,4|0|0,0:3|1:0|3:0,0:0:0:0:
35,263,49569,1,0,1:0:0:0:
44,171,49727,2,0,L|50:113,2,40,2|0|0,0:0|0:0|1:0,0:0:0:0:
139,117,50043,6,0,L|123:15,1,80,4|0,0:3|0:0,0:0:0:0:
277,161,50359,2,0,L|264:240,1,80,0|0,1:0|3:0,0:0:0:0:
264,240,50596,1,0,3:0:0:0:
264,240,50675,1,0,3:0:0:0:
374,208,50832,1,0,1:0:0:0:
358,81,50990,2,0,P|403:77|451:66,1,80,0|0,3:0|3:0,0:0:0:0:
437,70,51227,1,4,3:3:0:0:
437,70,51306,6,0,B|451:109|451:109|441:146,1,80,4|2,3:0|0:0,0:0:0:0:
378,284,51622,2,0,B|364:245|364:245|373:207,1,80,0|2,1:0|0:0,0:0:0:0:
362,198,51859,1,0,0:0:0:0:
350,189,51938,2,0,L|291:196,2,40,0|0|0,3:0|3:0|1:0,0:0:0:0:
248,256,52254,2,0,L|208:251,2,40,0|0|0,3:0|3:0|1:0,0:0:0:0:
143,194,52569,6,0,B|88:185|56:176|56:176|25:197|-8:226,1,160,4|0,0:3|1:0,0:0:0:0:
95,290,53043,1,0,3:0:0:0:
95,290,53122,1,0,3:0:0:0:
95,290,53201,2,0,L|101:329,2,40,0|0|0,3:0|0:0|1:0,0:0:0:0:
143,194,53517,2,0,L|152:107,1,80,0|0,3:0|3:0,0:0:0:0:
146,105,53754,1,4,3:0:0:0:
140,97,53832,6,0,P|171:74|220:73,1,80,4|0,3:0|0:0,0:0:0:0:
348,29,54148,2,0,P|387:32|419:55,1,80,0|0,1:0|3:0,0:0:0:0:
447,155,54464,1,0,3:0:0:0:
447,155,54622,1,0,1:0:0:0:
366,208,54780,2,0,L|317:225,2,40,2|2|2,0:0|0:0|0:0,0:0:0:0:
494,321,55096,6,0,L|467:154,1,160,4|0,0:3|1:0,0:0:0:0:
395,292,55569,2,0,L|386:351,2,40,0|0|0,0:0|0:0|3:0,0:0:0:0:
328,221,55885,1,0,1:0:0:0:
187,300,56043,2,0,L|181:349,3,40,0|0|0|4,3:0|3:0|3:0|3:0,0:0:0:0:
205,287,56359,6,0,P|203:244|192:206,1,80,4|0,0:3|0:0,0:0:0:0:
115,142,56675,2,0,P|116:102|126:63,1,80,0|0,1:0|0:0,0:0:0:0:
136,58,56911,1,0,0:0:0:0:
145,53,56990,2,0,L|198:62,2,40,2|2|2,3:2|3:2|3:2,0:0:0:0:
269,99,57306,2,0,L|308:92,2,40,2|2|2,3:2|3:2|3:2,0:0:0:0:
193,163,57622,6,0,L|27:185,1,160,4|0,0:0|1:0,0:0:0:0:
111,334,58096,1,0,3:0:0:0:
111,334,58175,1,0,3:0:0:0:
111,334,58254,2,0,B|153:339|153:339|187:321,1,80,0|0,3:0|1:0,0:0:0:0:
324,241,58569,2,0,L|316:195,3,40,0|0|0|4,3:0|3:0|3:0|3:0,0:0:0:0:
338,254,58885,6,0,B|372:272|372:272|414:267,1,80,4|2,3:0|0:0,0:0:0:0:
216,202,59201,2,0,B|182:220|182:220|140:215,1,80,2|0,1:2|3:0,0:0:0:0:
391,132,59517,2,0,B|425:150|425:150|467:145,1,80,2|2,0:0|1:2,0:0:0:0:
277,33,59832,1,2,0:0:0:0:
277,33,59911,1,2,0:0:0:0:
277,33,59990,2,0,L|288:118,1,80,2|4,0:0|0:1,0:0:0:0:
287,112,62675,5,6,0:0:0:0:
245,195,62832,1,0,0:0:0:0:
204,50,62990,2,0,P|192:89|183:134,1,80,2|2,1:2|3:0,0:0:0:0:
184,127,63227,1,2,3:0:0:0:
184,127,63306,2,0,L|94:139,1,80,2|2,3:0|1:2,0:0:0:0:
43,219,63622,2,0,L|55:309,1,80,2|2,0:0|3:2,0:0:0:0:
53,298,63859,1,8,3:0:0:0:
53,298,63938,6,0,B|164:271|114:328|211:311,1,160,8|2,3:0|1:2,0:0:0:0:
271,242,64411,1,2,3:2:0:0:
341,345,64569,2,0,P|355:294|355:261,1,80,0|0,3:0|1:0,0:0:0:0:
256,164,64885,2,0,P|258:203|270:241,1,80,2|2,0:0|0:0,0:0:0:0:
441,229,65201,5,4,0:3:0:0:
363,174,65359,1,2,0:0:0:0:
452,125,65517,2,0,P|456:79|454:40,1,80,2|0,1:2|3:0,0:0:0:0:
447,38,65754,1,0,3:0:0:0:
438,34,65832,2,0,L|356:40,1,80,2|2,3:2|1:2,0:0:0:0:
196,87,66148,2,0,L|151:81,3,40,0|0|2|4,3:0|3:0|3:2|3:0,0:0:0:0:
212,76,66464,5,4,3:0:0:0:
255,167,66622,2,0,L|264:248,1,80,2|2,0:0|1:2,0:0:0:0:
197,320,66938,1,0,3:0:0:0:
197,320,67096,1,2,3:2:0:0:
121,248,67254,1,2,1:2:0:0:
40,296,67411,2,0,L|0:317,2,40,0|0|2,0:0|0:0|1:2,0:0:0:0:
121,248,67727,6,0,L|133:152,1,80,6|0,0:0|0:0,0:0:0:0:
38,30,68043,2,0,L|47:109,1,80,0|2,1:0|3:0,0:0:0:0:
222,212,68359,2,0,L|264:231,2,40,2|0|0,3:0|0:0|1:0,0:0:0:0:
145,73,68675,2,0,P|187:68|235:52,1,80,0|0,3:0|3:0,0:0:0:0:
222,57,68911,1,8,3:0:0:0:
222,57,68990,6,0,L|388:73,1,160,8|2,3:0|1:2,0:0:0:0:
347,167,69464,1,0,0:0:0:0:
347,167,69543,1,0,0:0:0:0:
347,167,69622,2,0,B|385:180|385:180|431:164,1,80,2|0,0:0|1:0,0:0:0:0:
258,228,69938,2,0,B|220:214|220:214|182:227,1,80,2|2,0:0|0:0,0:0:0:0:
315,305,70254,6,0,P|321:348|330:399,2,80,4|2|2,0:3|0:0|1:2,0:0:0:0:
269,148,70727,1,0,3:0:0:0:
269,148,70806,1,0,3:0:0:0:
269,148,70885,2,0,P|262:188|257:228,1,80,2|0,3:2|3:0,0:0:0:0:
132,306,71201,2,0,L|139:356,2,40,2|0|2,3:2|3:0|0:0,0:0:0:0:
20,194,71517,6,0,P|63:208|128:201,1,80,8|0,3:0|0:0,0:0:0:0:
212,68,71832,2,0,P|169:54|104:61,1,80,0|2,1:0|0:0,0:0:0:0:
134,53,72069,1,2,0:0:0:0:
134,53,72148,2,0,L|122:105,2,40,2|0|0,3:2|3:0|1:0,0:0:0:0:
193,174,72464,2,0,L|205:225,2,40,0|0|0,1:0|1:0|1:0,0:0:0:0:
280,273,72780,6,0,B|394:278|325:318|444:326,1,160,4|0,1:0|1:0,0:0:0:0:
373,183,73254,1,2,3:0:0:0:
373,183,73332,1,2,3:0:0:0:
373,183,73411,2,0,P|335:170|295:168,1,80,2|2,3:0|1:2,0:0:0:0:
199,311,73727,2,0,P|161:323|121:325,1,80,2|0,3:2|3:0,0:0:0:0:
114,319,73964,1,8,3:0:0:0:
108,312,74043,6,0,P|105:263|99:221,1,80,8|10,3:0|0:2,0:0:0:0:
139,62,74359,2,0,P|134:101|131:141,1,80,10|2,0:0|3:0,0:0:0:0:
132,142,74596,1,2,3:0:0:0:
132,142,74675,2,0,B|94:130|94:130|45:152,1,80,2|0,3:0|1:0,0:0:0:0:
230,91,74990,2,0,L|281:81,2,40,2|2|2,0:0|0:0|0:0,0:0:0:0:
217,191,75306,6,0,L|316:206,1,80,4|2,0:3|0:0,0:0:0:0:
500,285,75622,2,0,L|401:300,1,80,0|2,1:0|3:2,0:0:0:0:
420,296,75938,1,2,3:2:0:0:
383,220,76096,1,0,1:0:0:0:
454,147,76254,2,0,L|461:103,3,40,0|0|0|8,3:0|3:0|3:0|3:0,0:0:0:0:
441,153,76569,6,0,L|431:59,1,80,8|0,0:3|0:0,0:0:0:0:
341,33,76885,2,0,L|332:112,1,80,0|0,1:0|0:0,0:0:0:0:
261,178,77201,2,0,L|272:225,2,40,0|0|0,1:0|1:0|1:0,0:0:0:0:
157,127,77517,2,0,L|104:119,3,40,0|0|0|0,1:0|1:0|1:0|1:0,0:0:0:0:
171,121,77832,6,0,B|126:223|205:178|170:286,2,160,4|0|2,1:0|1:0|0:0,0:0:0:0:
240,52,78622,1,2,0:3:0:0:
326,95,78780,2,0,L|421:84,1,80,2|2,0:3|0:3,0:0:0:0:
405,85,79017,1,4,0:3:0:0:
405,85,79096,1,8,0:3:0:0:
288,278,79411,1,0,1:0:0:0:
354,200,79569,1,2,3:0:0:0:
354,200,79727,2,0,P|309:196|274:188,1,80,2|0,3:2|1:0,0:0:0:0:
203,140,80043,1,2,0:0:0:0:
133,188,80201,1,2,0:0:0:0:
55,161,80359,6,0,P|101:164|190:254,1,160,0|0,1:0|1:0,0:0:0:0:
176,323,80832,1,0,3:0:0:0:
278,267,80990,2,0,P|282:221|271:178,1,80,0|2,3:0|1:2,0:0:0:0:
468,260,81306,2,0,P|460:299|465:338,1,80,0|0,3:0|3:0,0:0:0:0:
379,230,81622,2,0,P|388:125|395:65,1,160,4|0,0:3|1:0,0:0:0:0:
304,30,82096,1,0,3:0:0:0:
304,30,82175,1,0,3:0:0:0:
304,30,82254,2,0,L|207:38,1,80,0|0,1:0|1:0,0:0:0:0:
121,74,82569,2,0,L|89:66,6,20,0|0|0|0|0|0|0,1:0|1:0|1:0|1:0|1:0|1:0|1:0,0:0:0:0:
134,68,82885,6,0,B|168:157|168:157|140:223,1,160,4|0,1:0|1:0,0:0:0:0:
59,265,83359,2,0,L|20:286,2,40,0|0|0,3:0|3:0|3:0,0:0:0:0:
142,216,83675,1,0,1:0:0:0:
218,291,83832,1,2,3:2:0:0:
218,291,83911,1,0,3:0:0:0:
218,291,83990,1,0,3:0:0:0:
305,240,84148,2,0,P|316:282|313:345,1,80,4|0,0:3|0:0,0:0:0:0:
426,193,84464,2,0,P|415:235|418:298,1,80,0|0,1:0|3:0,0:0:0:0:
260,145,84780,2,0,P|339:139|391:60,1,160,2|2,3:2|0:0,0:0:0:0:
135,24,85411,6,0,P|132:58|125:114,1,80,4|0,0:3|0:0,0:0:0:0:
64,177,85727,1,0,1:0:0:0:
166,274,85885,2,0,P|161:234|157:194,1,80,4|0,0:3|0:0,0:0:0:0:
216,124,86201,1,0,1:0:0:0:
353,220,86359,2,0,P|302:208|265:186,1,80,4|0,0:3|0:0,0:0:0:0:
216,124,86675,1,0,1:0:0:0:
276,0,86832,2,0,P|293:35|300:75,1,80,4|0,0:3|0:0,0:0:0:0:
387,124,87148,1,0,1:0:0:0:
458,61,87306,2,0,L|505:48,2,40,4|0|2,0:3|3:0|3:2,0:0:0:0:
463,181,87622,2,0,L|501:193,2,40,0|0|0,1:0|1:0|1:0,0:0:0:0:
387,124,87938,6,0,B|294:137|345:173|236:187,1,160,4|0,1:0|1:0,0:0:0:0:
176,249,88411,2,0,B|83:236|134:200|25:186,1,160,0|0,3:0|0:0,0:0:0:0:
143,126,88885,2,0,L|204:108,2,40,2|0|0,3:2|3:0|3:0,0:0:0:0:
132,123,89122,1,4,0:3:0:0:
123,120,89201,1,4,0:3:0:0:
340,252,89517,1,0,1:0:0:0:
423,289,89675,1,0,3:0:0:0:
489,228,89832,2,0,P|484:184|481:139,1,80,0|0,3:0|1:0,0:0:0:0:
406,20,90148,2,0,P|403:59|398:99,1,80,2|2,0:0|0:0,0:0:0:0:
340,252,90464,6,0,P|259:263|163:280,1,160,4|0,0:3|1:0,0:0:0:0:
94,321,90938,2,0,L|85:360,2,40,0|0|2,3:0|3:0|3:0,0:0:0:0:
140,190,91254,1,0,0:0:0:0:
49,235,91411,2,0,L|40:195,2,40,2|0|2,0:0|0:0|0:0,0:0:0:0:
90,110,91727,5,2,0:0:0:0:
256,192,91806,12,0,92990,1:0:0:0:
350,49,108148,6,0,P|338:98|331:152,1,88.000002685547,4|2,0:0|0:0,0:0:0:0:
354,225,108464,1,2,1:2:0:0:
419,160,108622,2,0,L|468:152,2,44.0000013427735,0|0|0,3:0|3:0|3:0,0:0:0:0:
267,194,108938,1,2,1:2:0:0:
199,132,109096,2,0,P|193:87|186:41,1,88.000002685547,2|0,3:2|3:0,0:0:0:0:
186,44,109332,1,4,0:3:0:0:
186,44,109411,1,4,0:3:0:0:
23,271,109727,1,0,1:0:0:0:
79,210,109885,1,2,0:0:0:0:
110,294,110043,2,0,P|147:280|204:268,1,88.000002685547,2|0,0:0|1:0,0:0:0:0:
290,316,110359,1,2,0:3:0:0:
290,316,110438,1,2,0:3:0:0:
290,316,110517,1,2,0:3:0:0:
385,263,110675,6,0,P|393:201|402:67,1,176.000005371094,4|0,0:3|1:0,0:0:0:0:
479,26,111148,1,0,3:0:0:0:
479,26,111227,1,0,3:0:0:0:
479,26,111306,2,0,P|490:61|495:112,1,88.000002685547,0|0,3:0|1:0,0:0:0:0:
310,137,111622,2,0,P|298:101|294:51,1,88.000002685547,0|0,3:0|3:0,0:0:0:0:
293,51,111859,1,4,3:0:0:0:
293,51,111938,2,0,P|333:60|389:66,1,88.000002685547,4|0,0:3|0:0,0:0:0:0:
359,222,112254,2,0,P|315:226|272:236,1,88.000002685547,2|0,1:2|0:0,0:0:0:0:
477,323,112569,2,0,P|434:313|390:308,1,88.000002685547,2|2,3:2|3:2,0:0:0:0:
306,327,112885,1,2,3:2:0:0:
235,370,113043,5,2,3:2:0:0:
235,370,113122,1,2,3:2:0:0:
235,370,113201,2,0,P|191:371|104:273,1,176.000005371094,6|2,0:2|1:2,0:0:0:0:
131,189,113675,1,2,0:0:0:0:
50,122,113832,2,0,P|36:163|43:221,1,88.000002685547,0|0,3:0|1:2,0:0:0:0:
232,225,114148,2,0,P|234:181|220:139,1,88.000002685547,0|0,3:0|3:0,0:0:0:0:
220,139,114385,1,4,3:0:0:0:
220,139,114464,2,0,P|274:114|370:179,1,176.000005371094,4|0,3:0|1:0,0:0:0:0:
317,249,114938,1,0,3:0:0:0:
412,183,115096,2,0,P|407:231|408:276,1,88.000002685547,2|0,0:0|1:0,0:0:0:0:
339,343,115411,2,0,L|355:385,2,44.0000013427735,2|2|2,0:3|0:3|0:3,0:0:0:0:
247,308,115727,6,0,B|138:283|184:343|54:311,1,176.000005371094,4|0,0:3|1:0,0:0:0:0:
28,155,116201,2,0,L|14:99,2,44.0000013427735,0|0|0,3:0|3:0|3:0,0:0:0:0:
52,231,116517,1,0,1:0:0:0:
123,161,116675,2,0,L|173:149,3,44.0000013427735,0|0|0|0,3:0|3:0|3:0|3:0,0:0:0:0:
178,133,116990,2,0,P|222:138|272:142,1,88.000002685547,4|0,0:3|0:0,0:0:0:0:
434,221,117306,2,0,P|390:224|346:229,1,88.000002685547,0|2,1:0|0:0,0:0:0:0:
346,229,117543,1,0,0:0:0:0:
346,229,117622,2,0,P|328:274|326:322,1,88.000002685547,2|2,3:0|3:0,0:0:0:0:
486,146,117938,2,0,P|482:102|465:61,1,88.000002685547,0|0,1:0|1:0,0:0:0:0:
371,119,118254,6,0,L|179:99,1,176.000005371094,4|0,1:0|1:0,0:0:0:0:
102,39,118727,1,0,3:0:0:0:
102,39,118806,1,0,3:0:0:0:
102,39,118885,2,0,B|80:78|80:78|94:149,1,88.000002685547,0|0,3:0|1:0,0:0:0:0:
214,221,119201,2,0,L|224:278,3,44.0000013427735,2|0|2|4,3:2|3:0|3:2|0:3,0:0:0:0:
220,208,119517,2,0,P|175:201|130:195,1,88.000002685547,4|0,0:3|0:0,0:0:0:0:
43,299,119832,2,0,P|88:292|133:286,1,88.000002685547,2|2,1:2|0:0,0:0:0:0:
202,351,120148,1,2,0:0:0:0:
287,317,120306,1,0,1:0:0:0:
306,224,120464,2,0,L|295:170,3,44.0000013427735,2|2|2|2,3:2|3:2|3:2|3:2,0:0:0:0:
321,232,120780,6,0,B|362:217|362:217|402:235,1,88.000002685547,4|2,3:0|0:0,0:0:0:0:
488,114,121096,2,0,B|447:129|447:129|406:110,1,88.000002685547,0|2,1:0|3:2,0:0:0:0:
319,65,121411,2,0,P|248:78|133:88,1,176.000005371094,2|2,3:2|0:0,0:0:0:0:
205,266,121885,1,2,0:0:0:0:
205,266,121964,1,4,0:3:0:0:
205,266,122043,2,0,P|215:220|224:167,1,88.000002685547,4|0,0:3|0:0,0:0:0:0:
323,165,122359,2,0,P|333:211|342:264,1,88.000002685547,0|0,1:0|3:0,0:0:0:0:
416,331,122675,1,2,3:2:0:0:
416,331,122754,1,2,3:2:0:0:
416,331,122832,1,2,3:2:0:0:
437,209,122990,2,0,P|454:200|480:194,3,44.0000013427735,0|0|0|0,3:0|3:0|3:0|3:0,3:0:0:0:
426,222,123306,6,0,B|321:221|363:275|250:271,1,176.000005371094,6|2,1:1|1:2,0:0:0:0:
177,219,123780,1,0,3:0:0:0:
177,219,123859,1,0,3:0:0:0:
177,219,123938,2,0,P|170:175|175:119,1,88.000002685547,0|2,3:0|1:2,0:0:0:0:
84,87,124254,2,0,P|86:130|79:174,1,88.000002685547,0|0,3:0|3:0,0:0:0:0:
79,174,124490,1,4,3:0:0:0:
79,174,124569,2,0,B|56:277|109:241|79:350,1,176.000005371094,8|2,0:3|1:2,0:0:0:0:
180,313,125043,1,2,0:0:0:0:
261,356,125201,2,0,B|274:311|274:311|261:259,1,88.000002685547,2|2,0:0|0:0,0:0:0:0:
286,170,125517,2,0,L|334:157,2,44.0000013427735,2|2|2,3:0|3:0|3:0,0:0:0:0:
196,193,125832,5,2,1:1:0:0:
82,98,125990,2,0,L|187:109,1,88.000002685547,2|0,0:1|1:0,0:0:0:0:
258,61,126306,1,2,3:1:0:0:
286,170,126464,2,0,L|373:160,1,88.000002685547,2|0,3:1|1:0,0:0:0:0:
460,43,126780,2,0,L|372:33,1,88.000002685547,2|2,0:0|0:0,0:0:0:0:
372,33,127017,1,0,0:0:0:0:
372,33,127096,2,0,P|353:92|376:215,1,176.000005371094,4|2,0:3|1:1,0:0:0:0:
438,263,127569,1,2,3:1:0:0:
363,319,127727,1,2,3:1:0:0:
432,371,127885,1,2,3:1:0:0:
363,319,128043,2,0,L|271:308,1,88.000002685547,2|2,3:1|3:2,0:0:0:0:
275,308,128280,1,2,3:2:0:0:
275,308,128359,6,0,B|200:322|200:322|179:338|179:338|86:353,1,176.000005371094,4|0,0:1|1:0,0:0:0:0:
29,297,128832,1,0,3:0:0:0:
29,297,128911,1,0,3:0:0:0:
29,297,128990,2,0,B|13:254|13:254|30:201,1,88.000002685547,0|0,3:0|1:0,0:0:0:0:
107,138,129306,2,0,L|97:89,3,44.0000013427735,2|0|0|4,0:0|0:0|3:3|3:0,0:0:0:0:
125,147,129622,2,0,B|241:148|170:202|296:202,1,176.000005371094,4|2,3:0|1:0,0:0:0:0:
378,159,130096,1,2,0:1:0:0:
378,159,130175,1,0,0:0:0:0:
378,159,130254,2,0,B|388:178|395:202|395:202|380:238|372:252,1,88.000002685547,2|0,0:1|0:0,0:0:0:0:
318,325,130569,2,0,L|307:374,3,44.0000013427735,2|2|2|2,3:2|3:2|3:2|3:2,0:0:0:0:
312,307,130885,6,0,B|428:306|357:252|483:252,2,176.000005371094,4|0|2,0:3|1:0|0:0,0:0:0:0:
254,231,131675,1,0,1:0:0:0:
180,285,131832,2,0,L|129:298,2,44.0000013427735,2|0|2,3:2|3:0|3:2,0:0:0:0:
254,231,132148,2,0,P|262:110|261:20,2,176.000005371094,4|0|2,0:3|1:0|3:0,0:0:0:0:
254,231,132859,1,2,3:0:0:0:
254,231,132938,1,2,3:0:0:0:
164,177,133096,2,0,P|169:125|169:85,1,88.000002685547,2|2,3:2|3:2,0:0:0:0:
38,230,133411,6,0,P|101:216|179:284,1,176.000005371094,6|2,0:1|1:2,0:0:0:0:
262,341,133885,1,0,3:0:0:0:
262,341,133964,1,0,3:0:0:0:
262,341,134043,1,0,3:0:0:0:
339,288,134201,1,0,1:0:0:0:
440,330,134359,2,0,L|452:373,3,44.0000013427735,0|0|0|4,3:0|3:0|3:0|3:0,0:0:0:0:
429,322,134675,6,0,P|430:273|434:229,1,88.000002685547,4|2,3:0|0:0,0:0:0:0:
259,151,134990,2,0,P|262:194|263:238,1,88.000002685547,2|2,1:2|3:1,0:0:0:0:
364,166,135306,1,2,3:1:0:0:
340,60,135464,1,2,1:1:0:0:
364,166,135622,2,0,L|422:153,2,44.0000013427735,2|2|2,3:2|3:2|3:2,0:0:0:0:
259,151,135938,5,4,0:3:0:0:
169,199,136096,2,0,B|152:159|152:159|162:105,1,88.000002685547,0|0,0:0|1:0,0:0:0:0:
186,314,136411,2,0,L|171:128,1,176.000005371094,4|8,0:0|0:0,0:0:0:0:
287,59,136885,2,0,B|240:65|240:65|200:40,1,88.000002685547,8|0,0:0|1:0,0:0:0:0:
188,28,137122,2,0,L|92:37,1,88.000002685547,4|4,0:3|0:3,0:0:0:0:
85,30,137359,2,0,P|77:77|67:124,1,88.000002685547,0|0,1:0|1:0,0:0:0:0:
141,191,137675,1,4,0:3:0:0:
65,248,137832,2,0,L|24:274,2,44.0000013427735,0|0|0,1:0|1:0|1:0,0:0:0:0:
195,268,138148,2,0,L|221:309,4,44.0000013427735,0|0|0|0|4,1:0|0:0|1:0|1:0|1:0,0:0:0:0:
