osu file format v14

[General]
AudioFilename: audio.mp3
AudioLeadIn: 0
PreviewTime: 60136
Countdown: 0
SampleSet: Soft
StackLeniency: 0.5
Mode: 0
LetterboxInBreaks: 0
WidescreenStoryboard: 0

[Editor]
Bookmarks: 62663,92978,108136
DistanceSpacing: 0.7
BeatDivisor: 4
GridSize: 16
TimelineZoom: 2

[Metadata]
Title:Whispers from a Distant Star
TitleUnicode:Whispers from a Distant Star
Artist:Fractal Dreamers
ArtistUnicode:Fractal Dreamers
Creator:coco
Version:Expert
Source:osu!
Tags:cococolaco loli catgirl Agatsu Helblinde Azure of the Horizon Featured Artist Mappers' Guild Electronic Instrumental
BeatmapID:2368500
BeatmapSetID:1134144

[Difficulty]
HPDrainRate:6.5
CircleSize:4.1
OverallDifficulty:8
ApproachRate:9.2
SliderMultiplier:1.8
SliderTickRate:1

[Events]
//Background and Video events
0,0,"maxresdefault.jpg",0,0
//Break Periods
2,93190,107578
//Storyboard Layer 0 (Background)
//Storyboard Layer 1 (Fail)
//Storyboard Layer 2 (Pass)
//Storyboard Layer 3 (Foreground)
//Storyboard Layer 4 (Overlay)
//Storyboard Sound Samples

[TimingPoints]
193,400,4,2,0,50,1,0
24193,-200,4,2,0,40,0,0
46254,315.789473684211,4,2,0,70,1,0
47517,-83.3333333333333,4,2,0,70,0,0
51464,-100,4,2,0,70,0,0
51938,-83.3333333333333,4,2,0,70,0,0
52885,-100,4,2,0,70,0,0
53044,-83.3333333333333,4,2,0,70,0,0
56359,-100,4,2,0,70,0,0
56990,-83.3333333333333,4,2,0,70,0,0
60149,-100,4,2,0,70,0,0
62359,-83.3333333333333,4,2,0,70,0,0
69306,-100,4,2,0,70,0,0
70885,-83.3333333333333,4,2,0,70,0,0
71517,-100,4,2,0,70,0,0
71990,-83.3333333333333,4,2,0,70,0,0
76569,-100,4,2,0,70,0,0
80359,-100,4,2,0,40,0,0
80675,-100,4,2,0,70,0,0
82569,-100,4,2,0,40,0,0
82885,-100,4,2,0,70,0,0
87622,-100,4,2,0,40,0,0
87938,-100,4,2,0,70,0,0
92517,-100,4,2,0,40,0,0
92833,-100,4,2,0,70,0,0
108148,-66.6666666666667,4,2,0,70,0,0
111937,-100,4,2,0,70,0,0
112569,-66.6666666666667,4,2,0,70,0,0
114779,-100,4,2,0,70,0,0
115095,-66.6666666666667,4,2,0,70,0,0
115727,-83.3333333333333,4,2,0,70,0,0
116200,-66.6666666666667,4,2,0,70,0,0
116990,-100,4,2,0,70,0,0
117306,-66.6666666666667,4,2,0,70,0,0
118253,-83.3333333333333,4,2,0,70,0,0
118727,-66.6666666666667,4,2,0,70,0,0
119516,-100,4,2,0,70,0,0
120148,-66.6666666666667,4,2,0,70,0,0
123622,-100,4,2,0,70,0,0
123938,-66.6666666666667,4,2,0,70,0,0
124569,-100,4,2,0,70,0,0
125517,-66.6666666666667,4,2,0,70,0,0
125990,-100,4,2,0,70,0,0
127727,-66.6666666666667,4,2,0,70,0,0
128359,-83.3333333333333,4,2,0,70,0,0
128675,-100,4,2,0,70,0,0
130569,-66.6666666666667,4,2,0,70,0,0
130885,-100,4,2,0,70,0,0
133096,-83.3333333333333,4,2,0,70,0,0
133727,-100,4,2,0,70,0,0
135306,-66.6666666666667,4,2,0,70,0,0
135938,-100,4,2,0,70,0,0
136411,-66.6666666666667,4,2,0,70,0,0
137517,-100,4,2,0,70,0,0
137832,-66.6666666666667,4,2,0,70,0,0

[Colours]
Combo1 : 255,94,55
Combo2 : 173,255,95
Combo3 : 17,254,176
Combo4 : 255,88,100

[HitObjects]
278,109,193,5,2,0:0:0:0:
354,154,393,1,0,0:0:0:0:
436,110,593,2,0,L|451:201,1,90,2|0,0:0|0:0,0:0:0:0:
356,62,993,1,0,0:0:0:0:
278,109,1193,2,0,L|255:246,1,135,2|0,0:0|0:0,0:0:0:0:
269,253,1593,6,0,L|175:286,2,90,2|0|0,0:0|0:0|0:0,0:0:0:0:
360,278,2193,1,2,0:0:0:0:
486,145,2393,2,0,P|435:121|339:196,1,180,2|2,0:0|0:0,0:0:0:0:
186,86,3193,2,0,P|136:78|81:66,1,90,2|0,0:0|0:0,0:0:0:0:
221,175,3593,5,0,0:0:0:0:
178,248,3793,1,2,0:0:0:0:
45,185,3993,1,2,0:0:0:0:
45,185,4193,2,0,P|95:177|150:165,1,90,0|2,0:0|0:0,0:0:0:0:
332,20,4793,2,0,P|340:70|352:125,1,90,2|0,0:0|0:0,0:0:0:0:
395,188,5193,5,0,0:0:0:0:
343,283,5393,1,2,0:0:0:0:
404,204,5593,2,0,P|359:194|308:186,1,90,2|0,0:0|0:0,0:0:0:0:
247,119,5993,2,0,P|219:155|218:209,1,90,0|2,0:0|0:0,0:0:0:0:
251,301,6393,1,2,0:0:0:0:
94,242,6593,6,0,L|244:205,1,135
240,220,6993,1,2,0:0:0:0:
148,130,7193,2,0,P|103:120|49:104,1,90,0|2,0:0|0:0,0:0:0:0:
291,46,7593,2,0,P|256:80|247:124,1,90,2|0,0:0|0:0,0:0:0:0:
86,216,7993,2,0,L|106:318,1,90,2|0,0:0|0:0,0:0:0:0:
45,370,8393,5,0,0:0:0:0:
189,310,8593,1,2,0:0:0:0:
204,313,8693,1,2,0:0:0:0:
220,316,8793,1,2,0:0:0:0:
308,267,8993,2,0,P|315:219|324:163,1,90,2|0,0:0|0:0,0:0:0:0:
260,107,9393,1,2,0:0:0:0:
379,13,9593,1,0,0:0:0:0:
231,24,9793,5,2,0:0:0:0:
260,107,9993,1,0,0:0:0:0:
341,92,10193,1,2,0:0:0:0:
321,178,10393,2,0,L|421:196,1,90,2|0,0:0|0:0,0:0:0:0:
335,379,10793,2,0,P|398:366|481:354,1,135,2|0,0:0|0:0,0:0:0:0:
484,341,11193,2,0,P|489:290|487:246,1,90,2|2,0:0|0:0,0:0:0:0:
241,155,11593,5,0,0:0:0:0:
201,234,11793,1,0,0:0:0:0:
286,273,11993,1,0,0:0:0:0:
286,273,12193,5,2,0:0:0:0:
273,159,12393,1,0,0:0:0:0:
182,235,12593,1,0,0:0:0:0:
204,340,12793,1,0,0:0:0:0:
127,165,12993,6,0,P|74:155|28:152,1,90,2|2,0:0|0:0,0:0:0:0:
219,145,13393,1,0,0:0:0:0:
271,62,13593,2,0,P|218:52|172:49,1,90,0|2,0:0|0:0,0:0:0:0:
183,50,13993,5,2,0:0:0:0:
348,19,14193,1,2,0:0:0:0:
183,50,14393,2,0,P|194:100|200:152,1,90,2|0,0:0|0:0,0:0:0:0:
346,289,14793,1,2,0:0:0:0:
272,336,14993,1,2,0:0:0:0:
346,289,15193,2,0,P|352:244|361:200,1,90,2|0,0:0|0:0,0:0:0:0:
282,69,15593,5,2,0:0:0:0:
323,51,15693,1,2,0:0:0:0:
362,71,15793,2,0,L|379:121,1,45,2|0,0:0|0:0,0:0:0:0:
445,181,15993,2,0,L|500:195,2,45,2|2|2,0:0|0:0|0:0,0:0:0:0:
373,130,16393,1,0,0:0:0:0:
454,77,16593,1,0,0:0:0:0:
454,191,16793,2,0,L|466:280,1,90,2|0,0:0|0:0,0:0:0:0:
369,147,17193,1,2,0:0:0:0:
354,233,17393,1,2,0:0:0:0:
275,179,17593,2,0,L|257:267,1,90,0|2,0:0|0:0,0:0:0:0:
233,353,17993,5,0,0:0:0:0:
97,247,18193,1,2,0:0:0:0:
97,247,18593,1,2,0:0:0:0:
150,183,18793,1,0,0:0:0:0:
166,98,18993,2,0,P|158:35|146:-6,1,90,0|2,0:0|0:0,0:0:0:0:
356,55,19393,6,0,P|349:97|346:172,1,90,2|0,0:0|0:0,0:0:0:0:
453,188,19793,1,2,0:0:0:0:
373,246,19993,2,0,P|369:201|363:156,1,90,2|0,0:0|0:0,0:0:0:0:
258,42,20393,2,0,P|246:112|254:208,1,135,2|0,0:0|0:0,0:0:0:0:
256,191,20793,2,0,P|205:184|154:173,1,90,2|0,0:0|0:0,0:0:0:0:
96,228,21193,5,0,0:0:0:0:
172,354,21393,1,2,0:0:0:0:
6,329,21593,2,0,P|50:320|94:314,1,90,2|0,0:0|0:0,0:0:0:0:
31,159,21993,2,0,P|5:203|12:245,1,90,2|0,0:0|0:0,0:0:0:0:
179,267,22393,2,0,P|223:258|267:252,1,90,2|0,0:0|0:0,0:0:0:0:
347,214,22793,5,0,0:0:0:0:
417,284,22993,1,2,0:0:0:0:
267,251,23193,2,0,B|252:204|252:204|267:155,1,90,2|0,0:0|0:0,0:0:0:0:
433,123,23593,2,0,B|448:170|448:170|433:219,1,90,2|0,0:0|0:3,0:3:0:0:
351,357,23993,1,2,0:0:0:0:
351,357,24193,6,0,B|326:258|374:275|348:170,2,180,2|2|2,0:0|0:0|0:0,0:0:0:0:
382,299,27393,5,2,0:0:0:0:
264,314,28993,5,2,0:0:0:0:
264,314,30593,1,2,0:0:0:0:
264,314,31393,1,0,0:0:0:0:
308,241,32193,5,2,0:0:0:0:
308,241,33393,1,2,0:0:0:0:
255,171,33793,2,0,P|165:167|86:115,1,180,2|2,0:0|0:0,0:0:0:0:
90,120,35393,5,2,0:0:0:0:
90,120,36993,1,2,0:0:0:0:
172,86,37793,2,0,L|178:136,1,45,2|2,0:0|0:0,0:0:0:0:
187,212,38593,5,2,0:0:0:0:
260,163,39793,2,0,L|265:67,1,90,0|2,0:0|0:0,0:0:0:0:
344,27,40993,1,0,0:0:0:0:
344,27,41193,1,0,0:0:0:0:
447,83,41793,6,0,P|418:113|268:120,1,180,2|0,0:0|0:0,0:0:0:0:
287,129,42993,1,2,0:0:0:0:
213,167,43193,1,2,0:0:0:0:
206,247,43393,2,0,L|183:63,2,180,2|2|2,0:0|0:0|0:0,0:0:0:0:
256,192,45093,12,0,47201,0:0:0:0:
33,221,47359,5,0,0:0:0:0:
33,221,47438,1,0,0:0:0:0:
33,221,47517,2,0,B|71:206|104:177|104:177|135:198|196:207,1,161.999995056153,4|0,0:0|0:0,0:0:0:0:
196,212,47832,2,0,P|199:180|204:155,1,53.9999983520508,0|0,1:0|0:0,0:0:0:0:
323,24,47990,1,0,3:0:0:0:
323,24,48069,1,0,3:0:0:0:
323,24,48148,2,0,P|327:50|330:77,1,53.9999983520508,0|0,3:0|0:0,0:0:0:0:
339,168,48306,1,0,1:0:0:0:
464,233,48464,2,0,L|524:261,3,53.9999983520508,0|0|0|4,3:0|3:0|3:0|3:0,3:0:0:0:
339,168,48780,6,0,B|389:168|426:155|426:155|453:111|496:93,1,161.999995056153,4|0,0:3|0:0,0:0:0:0:
485,86,49096,2,0,B|459:74|459:74|428:77,1,53.9999983520508,0|0,1:0|0:0,0:0:0:0:
255,223,49254,1,0,3:0:0:0:
259,237,49332,1,0,3:0:0:0:
263,250,49411,1,0,3:0:0:0:
139,155,49569,1,0,1:0:0:0:
189,322,49727,2,0,P|129:312|46:303,1,107.999996704102,2|0,0:0|1:0,0:0:0:0:
317,153,50043,5,4,0:3:0:0:
273,82,50201,1,0,0:0:0:0:
139,155,50359,1,0,1:0:0:0:
32,90,50517,1,0,3:0:0:0:
32,90,50596,1,0,3:0:0:0:
32,90,50675,2,0,P|62:83|99:72,1,53.9999983520508,0|0,3:0|0:0,0:0:0:0:
317,153,50832,2,0,P|290:145|264:139,1,53.9999983520508,0|0,1:0|0:0,0:0:0:0:
167,32,50990,5,0,3:0:0:0:
184,64,51069,1,0,3:0:0:0:
173,99,51148,1,0,3:0:0:0:
162,134,51227,1,4,3:3:0:0:
172,170,51306,1,4,3:0:0:0:
20,273,51464,2,0,P|62:258|109:246,1,90,2|0,0:0|1:0,0:0:0:0:
278,255,51780,2,0,L|291:319,1,45,2|0,0:0|0:0,0:0:0:0:
458,161,51938,1,0,3:0:0:0:
443,126,52017,1,0,3:0:0:0:
410,106,52096,1,0,1:0:0:0:
372,113,52175,1,0,3:0:0:0:
349,143,52254,1,0,3:0:0:0:
354,154,52332,1,0,3:0:0:0:
365,155,52411,1,0,1:0:0:0:
371,146,52490,1,0,3:0:0:0:
363,136,52569,5,4,0:3:0:0:
196,52,52727,1,0,0:0:0:0:
394,21,52885,2,0,P|340:34|288:42,1,90,0|0,1:0|3:0,0:0:0:0:
299,36,53122,1,0,3:0:0:0:
293,30,53201,2,0,P|290:63|284:91,1,53.9999983520508,0|0,3:0|0:0,0:0:0:0:
144,130,53359,2,0,P|147:163|153:191,1,53.9999983520508,0|0,1:0|0:0,0:0:0:0:
232,294,53517,1,0,3:0:0:0:
194,285,53596,1,0,3:0:0:0:
157,276,53675,1,0,3:0:0:0:
120,268,53754,1,4,3:0:0:0:
83,260,53832,1,4,3:0:0:0:
241,158,53990,5,0,0:0:0:0:
55,179,54148,2,0,P|48:107|42:66,1,107.999996704102,0|0,1:0|3:0,0:0:0:0:
241,158,54385,1,0,3:0:0:0:
241,158,54464,2,0,P|233:211|228:265,1,107.999996704102,0|0,3:0|1:0,0:0:0:0:
430,111,54780,2,2,L|489:94,2,53.9999983520508
342,135,55096,5,4,0:3:0:0:
438,16,55254,1,0,0:0:0:0:
342,135,55411,2,0,B|370:231|370:231|428:283,1,161.999995056153,0|0,1:0|0:0,0:0:0:0:
419,290,55727,2,0,L|485:275,1,53.9999983520508,0|0,3:0|3:0,0:0:0:0:
237,360,55885,1,0,1:0:0:0:
332,331,56043,1,0,3:0:0:0:
305,303,56122,1,0,3:0:0:0:
279,275,56201,1,0,3:0:0:0:
241,272,56280,1,4,3:0:0:0:
203,269,56359,6,0,P|162:283|117:296,1,90,4|0,0:3|0:0,0:0:0:0:
225,25,56675,2,0,P|239:65|252:111,1,90,0|0,1:0|0:0,0:0:0:0:
251,110,56911,1,0,0:0:0:0:
251,110,56990,2,0,P|244:143|236:173,3,53.9999983520508,2|2|2|0,3:2|3:2|3:2|3:0,0:0:0:0:
322,56,57306,2,0,P|315:22|307:-7,3,53.9999983520508,2|2|2|0,3:2|3:2|3:2|3:0,0:0:0:0:
142,112,57622,6,0,B|266:75|212:164|348:132,1,215.999993408203,4|0,0:0|1:0,0:0:0:0:
78,40,58096,1,0,3:0:0:0:
78,40,58175,1,0,3:0:0:0:
78,40,58254,2,0,B|103:25|103:25|136:21,1,53.9999983520508,0|0,3:0|0:0,0:0:0:0:
251,110,58411,1,0,1:0:0:0:
101,259,58569,1,0,3:0:0:0:
111,222,58648,1,0,3:0:0:0:
121,185,58727,1,0,3:0:0:0:
131,148,58806,1,4,3:0:0:0:
142,112,58885,1,4,3:0:0:0:
207,250,59043,5,2,0:0:0:0:
31,154,59201,1,2,1:2:0:0:
251,110,59359,2,0,L|234:169,1,53.9999983520508,0|0,3:0|3:0,0:0:0:0:
27,170,59517,1,2,0:0:0:0:
304,239,59675,1,2,1:2:0:0:
74,268,59832,2,2,L|29:297,2,53.9999983520508
158,207,60148,5,4,0:1:0:0:
221,286,60306,1,0,0:0:0:0:
304,239,60464,1,0,0:0:0:0:
201,119,60622,1,0,0:0:0:0:
297,142,60780,5,2,0:0:0:0:
304,239,60938,1,0,0:0:0:0:
221,286,61096,1,0,0:0:0:0:
158,207,61254,1,0,0:0:0:0:
304,239,61411,5,2,0:0:0:0:
158,207,61569,1,0,0:0:0:0:
297,142,61727,1,2,0:0:0:0:
201,119,61885,1,0,0:0:0:0:
304,239,62043,1,2,0:0:0:0:
158,207,62201,1,2,0:0:0:0:
221,286,62359,2,2,L|232:357,3,53.9999983520508
201,119,62675,5,6,0:0:0:0:
99,281,62832,1,0,0:0:0:0:
259,197,62990,1,2,1:2:0:0:
122,23,63148,1,2,3:0:0:0:
109,52,63227,1,2,3:0:0:0:
118,82,63306,1,2,3:0:0:0:
297,114,63464,2,0,L|409:94,1,107.999996704102,2|2,1:2|0:0,0:0:0:0:
403,95,63701,1,0,3:0:0:0:
403,95,63780,1,2,3:2:0:0:
403,95,63859,1,8,3:0:0:0:
403,95,63938,1,8,3:0:0:0:
361,205,64096,5,2,0:0:0:0:
201,119,64254,1,2,1:2:0:0:
358,20,64411,2,0,L|426:8,2,53.9999983520508,2|0|0,3:2|3:0|3:0,3:0:0:0:
191,135,64727,1,0,1:0:0:0:
250,2,64885,1,2,0:0:0:0:
258,33,64964,1,2,0:0:0:0:
266,64,65043,1,2,0:0:0:0:
443,246,65201,6,0,B|466:197|466:197|444:137,1,107.999996704102,4|2,0:3|0:0,0:0:0:0:
336,323,65517,2,0,L|215:341,1,107.999996704102,2|0,1:2|3:0,0:0:0:0:
223,346,65754,1,0,3:0:0:0:
217,352,65832,2,0,L|153:330,1,53.9999983520508,2|0,3:2|0:0,0:0:0:0:
26,241,65990,2,0,L|90:219,1,53.9999983520508,2|0,1:2|0:0,0:0:0:0:
221,148,66148,1,0,3:0:0:0:
242,116,66227,1,0,3:0:0:0:
249,78,66306,1,2,3:2:0:0:
240,41,66385,1,4,3:0:0:0:
213,13,66464,1,4,3:0:0:0:
161,220,66622,5,2,0:0:0:0:
0,54,66780,2,0,B|54:47|54:47|109:89,1,107.999996704102,2|0,1:2|3:0,0:0:0:0:
99,88,67017,1,0,3:0:0:0:
101,96,67096,2,0,L|170:87,1,53.9999983520508,2|0,3:2|0:0,0:0:0:0:
315,258,67254,2,0,L|246:249,1,53.9999983520508,2|0,1:2|0:0,0:0:0:0:
104,357,67411,2,0,L|113:288,1,53.9999983520508
299,274,67569,2,0,L|230:265,1,53.9999983520508,2|0,1:2|0:0,0:0:0:0:
0,190,67727,6,0,B|49:171|49:171|116:173|81:209|153:212|153:212|204:188,1,215.999993408203,6|0,0:0|1:0,0:0:0:0:
225,99,68201,2,0,L|161:82,2,53.9999983520508,2|2|2,3:0|3:0|3:0,3:0:0:0:
388,210,68517,1,0,1:0:0:0:
291,235,68675,1,0,3:0:0:0:
298,197,68754,1,0,3:0:0:0:
305,160,68832,1,0,3:0:0:0:
313,123,68911,1,8,3:0:0:0:
321,86,68990,1,8,3:0:0:0:
407,224,69148,5,2,0:0:0:0:
497,106,69306,2,0,L|393:129,1,90,2|0,1:2|0:0,0:0:0:0:
231,312,69622,2,0,L|318:331,1,90,2|0,0:0|1:0,0:0:0:0:
198,190,69938,1,2,0:0:0:0:
193,174,70017,1,2,0:0:0:0:
188,158,70096,1,2,0:0:0:0:
124,260,70254,5,4,0:3:0:0:
257,94,70411,1,2,0:0:0:0:
0,149,70569,2,0,L|105:163,1,90,2|0,1:2|3:0,0:0:0:0:
96,169,70806,1,0,3:0:0:0:
104,176,70885,2,0,L|88:107,1,53.9999983520508,2|0,3:2|0:0,0:0:0:0:
269,41,71043,2,0,L|256:93,1,53.9999983520508,0|0,3:0|3:0,3:0:0:0:
300,218,71201,2,0,B|272:219|272:219|238:204,1,53.9999983520508,2|0,3:2|3:0,3:0:0:0:
126,47,71359,2,0,B|149:36|149:36|177:37,1,53.9999983520508,2|8,0:0|3:0,0:0:0:0:
182,128,71517,6,0,B|247:112|247:112|299:129|299:129|356:112,1,180,8|0,3:0|1:0,0:0:0:0:
108,300,71990,2,0,L|88:364,2,53.9999983520508,2|2|2,0:0|0:0|3:2,0:0:0:0:
120,290,72227,1,0,3:0:0:0:
129,278,72306,2,0,P|101:263|71:262,1,53.9999983520508,0|0,1:0|0:0,0:0:0:0:
12,186,72464,2,0,P|40:171|70:170,1,53.9999983520508,0|0,1:0|1:0,0:0:0:0:
233,254,72622,5,0,1:0:0:0:
233,254,72701,1,0,1:0:0:0:
233,254,72780,2,0,B|280:261|314:292|314:292|392:295|436:250,1,215.999993408203,4|0,1:0|1:0,0:0:0:0:
253,63,73254,2,0,L|234:2,2,53.9999983520508,2|2|2,3:0|3:0|3:0,3:0:0:0:
279,156,73569,1,2,1:2:0:0:
480,125,73727,1,2,3:2:0:0:
451,98,73806,1,0,3:0:0:0:
423,72,73885,1,0,3:0:0:0:
385,79,73964,1,8,3:0:0:0:
348,86,74043,1,8,3:0:0:0:
156,53,74201,5,10,0:2:0:0:
233,254,74359,1,10,0:0:0:0:
328,217,74517,2,0,L|393:193,2,53.9999983520508,2|2|2,3:0|3:0|3:0,3:0:0:0:
233,254,74832,1,0,1:0:0:0:
41,143,74990,1,2,0:0:0:0:
41,143,75069,1,2,0:0:0:0:
41,143,75148,2,0,L|115:162,1,53.9999983520508,2|0,0:0|0:0,0:0:0:0:
180,134,75306,5,4,0:3:0:0:
221,346,75464,1,2,0:0:0:0:
328,217,75622,1,0,1:0:0:0:
136,303,75780,1,2,3:2:0:0:
120,337,75859,1,0,3:0:0:0:
128,373,75938,1,2,3:2:0:0:
233,254,76096,1,0,1:0:0:0:
74,222,76254,1,0,3:0:0:0:
111,217,76332,1,0,3:0:0:0:
144,199,76411,1,0,3:0:0:0:
170,171,76490,1,8,3:0:0:0:
180,134,76569,6,0,P|173:81|166:39,1,90,8|0,0:3|0:0,0:0:0:0:
334,229,76885,2,0,P|326:273|321:318,1,90,0|0,1:0|0:0,0:0:0:0:
280,136,77201,1,0,1:0:0:0:
305,117,77280,1,0,1:0:0:0:
336,112,77359,1,0,1:0:0:0:
363,127,77438,1,0,1:0:0:0:
388,145,77517,1,0,1:0:0:0:
418,152,77596,1,0,1:0:0:0:
448,144,77675,1,0,1:0:0:0:
467,119,77754,1,0,1:0:0:0:
467,119,77832,6,0,B|362:99|401:147|280:121,1,180,4|0,1:0|1:0,0:0:0:0:
229,206,78306,1,2,0:0:0:0:
229,206,78385,1,2,0:0:0:0:
229,206,78464,2,0,P|275:220|324:221,1,90,2|2,0:0|0:3,0:0:0:0:
112,57,78780,2,0,L|96:7,2,45,2|2|2,0:3|0:3|0:3,0:3:0:0:
125,66,79017,1,4,0:3:0:0:
139,74,79096,6,0,L|115:217,1,135,8|0,0:3|0:0,0:0:0:0:
128,218,79411,2,0,B|81:231|81:231|38:219,1,90,0|2,1:0|3:0,0:0:0:0:
35,213,79648,1,2,3:2:0:0:
28,206,79727,1,2,3:2:0:0:
215,170,79885,1,0,1:0:0:0:
311,217,80043,1,2,0:0:0:0:
403,175,80201,1,2,0:0:0:0:
423,70,80359,6,0,L|411:31,6,22.5,0|0|0|0|0|0|0,1:0|1:0|1:0|1:0|1:0|1:0|1:0,1:0:0:0:
437,82,80675,1,0,1:0:0:0:
394,356,80832,1,0,3:0:0:0:
394,356,80911,1,0,3:0:0:0:
394,356,80990,2,0,B|412:310|412:310|391:262,1,90,0|2,3:0|1:2,0:0:0:0:
215,170,81306,2,0,L|227:116,3,45,0|0|0|0,3:0|3:0|3:0|3:0,3:0:0:0:
223,186,81622,2,0,L|120:193,1,90,4|0,0:3|0:0,0:0:0:0:
304,297,81938,5,0,1:0:0:0:
136,313,82096,2,0,L|125:370,1,45
50,246,82254,1,0,1:0:0:0:
38,212,82332,1,0,1:0:0:0:
36,176,82411,1,0,1:0:0:0:
44,140,82490,1,0,1:0:0:0:
62,108,82569,2,0,L|51:74,6,22.5,0|0|0|0|0|0|0,1:0|1:0|1:0|1:0|1:0|1:0|1:0,1:0:0:0:
133,192,82885,6,0,B|214:224|214:224|271:210,1,135,4|0,1:0|0:0,0:0:0:0:
273,204,83201,2,0,L|281:107,1,90,0|0,1:0|3:0,0:0:0:0:
288,109,83438,1,0,3:0:0:0:
296,105,83517,1,0,3:0:0:0:
355,266,83675,1,0,1:0:0:0:
463,137,83832,2,0,L|517:167,2,45,2|0|0,3:2|3:0|3:0,3:0:0:0:
383,90,84069,1,4,0:3:0:0:
383,90,84148,6,0,L|375:179,1,90,4|0,0:3|0:0,0:0:0:0:
496,321,84464,2,0,P|462:278|442:244,1,90,0|0,1:0|3:0,0:0:0:0:
444,247,84701,1,0,3:0:0:0:
444,247,84780,1,2,3:2:0:0:
308,356,84938,1,0,1:0:0:0:
224,295,85096,1,2,0:0:0:0:
253,273,85175,1,2,0:0:0:0:
286,260,85254,1,2,3:2:0:0:
321,257,85332,1,0,3:0:0:0:
355,266,85411,6,0,P|358:306|368:361,2,90,4|0|0,0:3|0:0|1:0,0:0:0:0:
158,204,85885,2,0,B|174:98|125:136|153:3,1,180,4|0,0:3|1:0,0:0:0:0:
0,293,86359,2,0,L|95:276,1,90,4|0,0:3|0:0,0:0:0:0:
253,183,86675,1,0,1:0:0:0:
25,35,86832,2,0,L|119:48,1,90,4|0,0:3|0:0,0:0:0:0:
266,198,87148,1,0,1:0:0:0:
306,17,87306,1,4,0:3:0:0:
315,47,87385,1,0,3:0:0:0:
324,77,87464,1,2,3:2:0:0:
333,106,87543,1,2,0:0:0:0:
343,135,87622,2,0,L|382:142,6,22.5,0|0|0|0|0|0|0,1:0|1:0|1:0|1:0|1:0|1:0|1:0,1:0:0:0:
266,198,87938,6,0,B|205:201|205:201|160:230|160:230|80:234,1,180,4|0,1:0|1:0,0:0:0:0:
311,310,88411,1,0,3:0:0:0:
311,310,88490,1,0,3:0:0:0:
311,310,88569,2,0,B|287:322|266:323|266:323|239:310|228:293,1,90,0|0,3:0|0:0,0:0:0:0:
54,158,88885,2,0,L|3:169,2,45,2|0|0,3:2|3:0|3:0,0:0:0:0:
133,102,89122,1,4,0:3:0:0:
133,102,89201,2,0,B|159:139|171:189|171:189|154:240|126:272,1,180,4|0,0:3|1:0,0:0:0:0:
143,275,89675,5,0,3:0:0:0:
143,275,89754,1,0,3:0:0:0:
143,275,89832,2,0,L|47:295,1,90,0|0,3:0|1:0,1:0:0:0:
339,216,90148,2,0,L|427:234,1,90,2|2,0:0|0:0,0:0:0:0:
244,102,90464,2,0,B|356:74|356:74|393:13,1,180,4|0,0:3|1:0,0:0:0:0:
158,166,90938,1,0,3:0:0:0:
158,166,91017,1,0,3:0:0:0:
158,166,91096,2,0,P|144:112|138:59,1,90,2|0,3:0|0:0,0:0:0:0:
389,18,91411,2,0,P|403:72|409:125,1,90,2|2,0:0|0:0,0:0:0:0:
407,105,91727,6,0,P|395:168|384:296,2,180,2|0|2,0:0|1:0|0:0,0:0:0:0:
415,113,92438,1,0,0:0:0:0:
423,118,92517,2,0,L|463:125,12,22.5,0|0|0|0|0|0|0|0|0|0|0|0|0,1:0|1:0|1:0|1:0|1:0|1:0|1:0|1:0|1:0|1:0|1:0|1:0|1:0,1:0:0:0:
376,133,108148,6,0,P|338:127|278:108,1,67.5000025749208,4|0,0:0|0:0,0:0:0:0:
228,45,108306,1,2,0:0:0:0:
165,216,108464,1,2,1:2:0:0:
0,127,108622,1,0,3:0:0:0:
43,109,108701,1,0,3:0:0:0:
88,122,108780,1,0,3:0:0:0:
133,136,108859,1,0,3:0:0:0:
175,115,108938,1,2,1:2:0:0:
109,283,109096,2,0,L|36:297,2,67.5000025749208,2|0|0,3:2|3:0|3:0,3:0:0:0:
206,359,109332,1,4,0:3:0:0:
193,378,109411,6,0,B|170:291|225:326|190:235,1,135.000005149842,4|0,0:3|0:0,0:0:0:0:
361,111,109727,1,0,1:0:0:0:
432,233,109885,2,2,L|500:252,2,67.5000025749208
292,261,110201,1,0,1:0:0:0:
452,149,110359,1,2,0:3:0:0:
469,105,110438,1,2,0:3:0:0:
449,61,110517,1,2,0:3:0:0:
282,172,110675,5,4,0:3:0:0:
139,97,110832,1,2,0:0:0:0:
290,179,110990,2,0,B|246:187|211:177|211:177|170:195|163:225,1,135.000005149842,0|0,1:0|3:0,0:0:0:0:
168,210,111227,1,0,3:0:0:0:
168,210,111306,2,0,P|176:246|186:282,1,67.5000025749208,0|0,3:0|3:0,0:0:0:0:
30,123,111464,2,0,P|38:90|46:57,1,67.5000025749208,0|0,1:0|3:0,0:0:0:0:
226,39,111622,1,0,3:0:0:0:
263,67,111701,1,0,3:0:0:0:
308,80,111780,1,0,3:0:0:0:
355,77,111859,1,4,3:0:0:0:
397,55,111938,6,0,P|441:73|505:82,1,90,4|0,0:3|0:0,0:0:0:0:
474,307,112254,2,0,P|467:259|443:199,1,90,2|0,1:2|0:0,0:0:0:0:
447,215,112490,1,0,0:0:0:0:
439,210,112569,2,0,P|406:199|374:198,1,67.5000025749208,2|0,3:2|3:0,0:0:0:0:
286,163,112727,2,0,P|252:164|220:174,1,67.5000025749208,2|0,3:2|0:0,0:0:0:0:
159,296,112885,1,2,3:2:0:0:
119,321,112964,1,2,3:2:0:0:
71,317,113043,1,2,3:2:0:0:
39,281,113122,1,2,3:2:0:0:
41,232,113201,6,0,P|37:194|31:150,1,67.5000025749208,6|0,0:2|0:0,0:0:0:0:
156,43,113359,1,0,0:0:0:0:
6,60,113517,1,2,1:2:0:0:
6,60,113596,1,2,0:0:0:0:
6,60,113675,2,0,P|38:75|83:81,1,67.5000025749208,2|0,0:0|0:0,0:0:0:0:
241,237,113832,2,0,P|234:203|220:173,1,67.5000025749208,0|0,3:0|3:0,0:0:0:0:
140,135,113990,1,0,1:2:0:0:
37,266,114148,5,0,3:0:0:0:
82,251,114227,1,0,3:0:0:0:
127,262,114306,1,0,3:0:0:0:
161,294,114385,1,4,3:0:0:0:
173,338,114464,1,4,3:0:0:0:
220,173,114622,1,2,0:0:0:0:
54,160,114780,2,0,P|108:154|164:136,1,90,0|0,1:0|3:0,0:0:0:0:
150,138,115017,1,0,3:0:0:0:
156,130,115096,6,0,P|147:93|148:62,1,67.5000025749208,2|0,0:0|0:0,0:0:0:0:
330,219,115254,1,0,1:0:0:0:
426,131,115411,1,2,0:3:0:0:
413,126,115490,1,2,0:3:0:0:
401,122,115569,1,2,0:3:0:0:
254,64,115727,6,0,B|290:187|206:135|245:293,1,215.999993408203,4|0,0:3|1:0,0:0:0:0:
460,280,116201,1,0,3:0:0:0:
442,243,116280,1,0,3:0:0:0:
409,218,116359,1,0,3:0:0:0:
369,208,116438,1,0,3:0:0:0:
330,219,116517,1,0,1:0:0:0:
96,213,116675,2,0,L|26:191,2,67.5000025749208,0|0|0,3:0|3:0|3:0,3:0:0:0:
130,294,116911,1,0,3:0:0:0:
142,303,116990,6,0,L|116:162,1,135,4|0,0:3|0:0,0:0:0:0:
110,157,117306,2,0,B|141:139|141:139|184:146,1,67.5000025749208,0|0,1:0|0:0,0:0:0:0:
316,22,117464,2,0,B|285:4|285:4|242:11,1,67.5000025749208,2|0,0:0|0:0,0:0:0:0:
87,76,117622,5,2,3:0:0:0:
119,98,117701,1,2,3:0:0:0:
159,103,117780,1,2,3:0:0:0:
194,85,117859,1,0,3:0:0:0:
224,57,117938,1,0,1:0:0:0:
259,39,118017,1,0,1:0:0:0:
299,44,118096,1,0,1:0:0:0:
332,67,118175,1,0,1:0:0:0:
354,103,118254,6,0,B|378:185|354:256|354:256|336:219|294:188,1,215.999993408203,4|0,1:0|1:0,0:0:0:0:
182,339,118727,1,0,3:0:0:0:
182,339,118806,1,0,3:0:0:0:
182,339,118885,2,0,P|210:327|252:321,1,67.5000025749208,0|0,3:0|0:0,0:0:0:0:
340,345,119043,1,0,1:0:0:0:
142,251,119201,6,0,L|75:241,1,67.5000025749208,2|0,3:2|3:0,0:0:0:0:
228,207,119359,1,2,3:2:0:0:
242,253,119438,1,0,0:0:0:0:
256,292,119517,2,0,B|302:304|302:304|342:291,1,90,4|0,0:3|0:0,0:0:0:0:
483,197,119832,2,0,B|442:184|442:184|396:196,1,90,2|2,1:2|0:0,0:0:0:0:
390,203,120069,1,2,0:0:0:0:
384,210,120148,2,0,L|374:143,1,67.5000025749208,2|0,0:0|0:0,0:0:0:0:
190,108,120306,2,0,L|200:41,1,67.5000025749208,0|0,1:0|0:0,0:0:0:0:
22,235,120464,5,2,3:2:0:0:
48,205,120543,1,2,3:2:0:0:
84,187,120622,1,2,3:2:0:0:
124,186,120701,1,2,3:2:0:0:
158,207,120780,1,4,3:0:0:0:
215,369,120938,1,2,0:0:0:0:
104,282,121096,1,0,1:0:0:0:
250,249,121254,1,2,3:2:0:0:
262,257,121332,1,0,3:2:0:0:
274,264,121411,2,0,L|347:254,1,67.5000025749208,2|0,3:2|0:0,0:0:0:0:
500,184,121569,2,0,L|433:174,1,67.5000025749208,0|0,1:0|0:0,0:0:0:0:
355,93,121727,2,0,B|344:60|344:60|353:29,4,67.5000025749208,2|0|2|4|4,0:0|0:0|0:0|0:3|0:3,0:0:0:0:
256,192,122122,12,6,123306,1:1:0:0:
353,312,123464,5,2,0:0:0:0:
462,239,123622,2,0,L|372:225,1,90,2|0,1:2|3:0,0:0:0:0:
365,220,123859,1,0,3:0:0:0:
358,213,123938,2,0,P|317:218|288:236,1,67.5000025749208,0|0,3:0|0:0,0:0:0:0:
242,20,124096,2,0,P|227:50|224:83,1,67.5000025749208,2|0,1:2|3:0,0:0:0:0:
169,339,124254,1,0,3:0:0:0:
197,301,124332,1,0,3:0:0:0:
208,255,124411,1,0,3:0:0:0:
200,208,124490,1,4,3:0:0:0:
166,173,124569,6,2,P|122:179|65:187,1,90,8|2,0:3|1:0,1:0:0:0:
289,324,124885,2,0,P|333:330|390:338,1,90,2|2,1:2|0:0,0:0:0:0:
441,281,125122,1,2,0:0:0:0:
441,281,125201,1,2,0:0:0:0:
300,131,125359,1,2,0:0:0:0:
462,157,125517,1,2,3:0:0:0:
414,161,125596,1,2,3:0:0:0:
380,194,125675,1,2,3:0:0:0:
346,228,125754,1,2,0:0:0:0:
300,235,125832,5,2,1:1:0:0:
172,109,125990,1,2,0:1:0:0:
341,58,126148,1,0,1:0:0:0:
282,243,126306,5,2,3:1:0:0:
271,241,126385,1,0,3:0:0:0:
260,240,126464,1,2,3:1:0:0:
186,90,126622,1,0,1:0:0:0:
362,72,126780,1,2,0:0:0:0:
249,240,126938,5,2,0:0:0:0:
201,69,127096,1,4,0:3:0:0:
302,131,127254,1,2,0:0:0:0:
145,192,127411,1,2,1:1:0:0:
286,37,127569,1,2,0:1:0:0:
120,14,127727,6,0,P|109:46|104:79,1,67.5000025749208,2|0,0:1|3:0,0:0:0:0:
203,261,127885,2,0,P|213:293|218:326,1,67.5000025749208,2|0,1:1|3:0,0:0:0:0:
15,185,128043,1,2,3:1:0:0:
12,175,128122,1,2,3:2:0:0:
20,169,128201,1,2,3:2:0:0:
26,174,128280,1,2,3:2:0:0:
27,183,128359,6,2,B|65:191|107:190|107:190|157:177|203:133,1,161.999995056153,4|0,0:1|0:0,0:1:0:0:
191,140,128675,2,0,P|246:136|302:126,1,90,0|0,1:0|3:0,0:0:0:0:
289,139,128911,1,0,3:0:0:0:
298,147,128990,1,0,3:0:0:0:
356,51,129148,1,0,1:0:0:0:
407,225,129306,2,0,P|398:164|387:126,1,90,2|0,0:0|3:3,0:0:0:0:
244,231,129543,1,4,3:0:0:0:
244,231,129622,6,0,P|233:274|227:319,1,90,4|0,3:0|0:0,0:0:0:0:
309,384,129938,1,2,1:0:0:0:
310,159,130096,1,2,0:1:0:0:
480,341,130254,2,0,P|435:330|371:320,1,90,2|0,0:1|0:0,0:0:0:0:
33,188,130569,1,2,3:2:0:0:
79,198,130648,1,2,3:2:0:0:
125,191,130727,1,2,3:2:0:0:
165,165,130806,1,2,3:2:0:0:
183,121,130885,6,0,P|118:86|0:79,2,180,4|0|2,0:3|1:0|0:0,0:0:0:0:
223,304,131675,1,0,1:0:0:0:
307,243,131832,2,0,P|329:236|360:231,1,45,2|0,3:2|3:0,3:0:0:0:
439,296,131990,2,0,P|461:289|492:284,1,45,2|4,3:2|3:3,3:0:0:0:
320,255,132148,6,0,B|431:228|388:290|503:259,2,180,4|0|2,0:3|1:0|3:0,0:0:0:0:
289,246,132859,1,2,3:0:0:0:
267,222,132938,1,2,3:0:0:0:
259,191,133017,1,0,3:0:0:0:
232,152,133096,5,2,3:2:0:0:
241,115,133175,1,2,3:2:0:0:
262,84,133254,1,2,3:2:0:0:
296,69,133332,1,0,3:0:0:0:
333,69,133411,1,6,0:1:0:0:
396,174,133569,1,2,0:0:0:0:
165,216,133727,6,0,P|161:266|150:331,1,90,2|0,1:2|3:0,0:0:0:0:
155,305,133964,1,0,3:0:0:0:
155,305,134043,1,0,3:0:0:0:
378,161,134201,1,0,1:0:0:0:
107,111,134359,2,0,L|45:96,2,45,0|0|0,3:0|3:0|3:0,3:0:0:0:
198,133,134596,1,4,3:0:0:0:
198,133,134675,6,0,P|194:88|188:43,1,90,4|2,3:0|0:0,0:1:0:0:
441,226,134990,2,0,P|445:181|451:136,1,90,2|2,1:2|3:1,0:0:0:0:
457,130,135227,1,0,3:0:0:0:
465,125,135306,2,0,P|432:113|395:109,1,67.5000025749208,2|0,3:1|0:0,0:0:0:0:
263,233,135464,2,0,P|229:237|197:248,1,67.5000025749208,2|0,1:1|0:0,0:0:0:0:
143,322,135622,1,2,3:2:0:0:
99,341,135701,1,2,3:2:0:0:
55,322,135780,1,2,3:2:0:0:
45,275,135859,1,2,3:2:0:0:
71,235,135938,6,0,P|80:180|83:130,2,90,4|0|0,0:3|0:0|1:0,0:0:0:0:
374,313,136411,2,0,B|392:178|333:245|356:115,1,202.500007724762,4|0,0:0|0:0,0:0:0:0:
356,117,136727,1,8,0:0:0:0:
468,85,136885,1,8,0:0:0:0:
320,25,137043,1,0,1:0:0:0:
320,25,137122,1,4,0:3:0:0:
200,123,137280,1,4,0:3:0:0:
200,123,137359,1,0,1:0:0:0:
123,70,137517,2,0,L|22:61,1,90,0|4,1:0|0:3,0:0:0:0:
112,313,137832,5,0,1:0:0:0:
157,326,137911,1,0,1:0:0:0:
204,324,137990,1,0,1:0:0:0:
247,304,138069,1,0,1:0:0:0:
269,262,138148,2,0,P|265:221|259:190,1,67.5000025749208,0|0,1:0|0:0,0:0:0:0:
200,123,138306,2,0,P|203:82|210:51,1,67.5000025749208,0|0,1:0|1:0,1:0:0:0:
273,0,138464,1,4,1:0:0:0:
