osu file format v14

[General]
AudioFilename: audio.mp3
AudioLeadIn: 0
PreviewTime: 47505
Countdown: 0
SampleSet: Normal
StackLeniency: 0.7
Mode: 1
LetterboxInBreaks: 0
WidescreenStoryboard: 0

[Editor]
Bookmarks: 25785,77820,92978,108136
DistanceSpacing: 2.8
BeatDivisor: 6
GridSize: 32
TimelineZoom: 1.7

[Metadata]
Title:Whispers from a Distant Star
TitleUnicode:Whispers from a Distant Star
Artist:Fractal Dreamers
ArtistUnicode:Fractal Dreamers
Creator:Alwaysyukaz
Version:Inner Oni
Source:osu!
Tags:featured artist mappers guild fa azure of the horizon dance electronic dnb drum and bass helblinde instrumental music mpg mg skymuted piano orchestral emotional artcore chill
BeatmapID:2760877
BeatmapSetID:1332550

[Difficulty]
HPDrainRate:4
CircleSize:2
OverallDifficulty:7
ApproachRate:0
SliderMultiplier:1.4
SliderTickRate:1

[Events]
//Background and Video events
0,0,"pexels-instawalli-169789.jpg",0,0
//Break Periods
//Storyboard Layer 0 (Background)
//Storyboard Layer 1 (Fail)
//Storyboard Layer 2 (Pass)
//Storyboard Layer 3 (Foreground)
//Storyboard Layer 4 (Overlay)
//Storyboard Sound Samples

[TimingPoints]
193,400,4,1,0,40,1,0
46254,315.789473684211,4,1,0,40,1,0
47517,-100,4,1,0,70,0,1
60148,-100,4,1,0,50,0,0
62675,-100,4,1,0,70,0,1
77832,-100,4,1,0,60,0,0
92990,-100,4,1,0,50,0,0
108148,-100,4,1,0,70,0,1
138464,-100,4,1,0,50,0,0

[HitObjects]
256,192,193,5,0,0:0:0:0:
256,192,593,1,0,0:0:0:0:
256,192,793,1,0,0:0:0:0:
256,192,1193,1,8,0:0:0:0:
256,192,1593,1,0,0:0:0:0:
256,192,2193,1,0,0:0:0:0:
256,192,2393,1,0,0:0:0:0:
256,192,2793,1,0,0:0:0:0:
256,192,3193,1,8,0:0:0:0:
256,192,3793,1,0,0:0:0:0:
256,192,3993,1,0,0:0:0:0:
256,192,4393,1,0,0:0:0:0:
256,192,4793,1,8,0:0:0:0:
256,192,5393,1,0,0:0:0:0:
256,192,5593,1,0,0:0:0:0:
256,192,5793,1,0,0:0:0:0:
256,192,5993,1,8,0:0:0:0:
256,192,6193,1,8,0:0:0:0:
256,192,6393,1,0,0:0:0:0:
256,192,6593,1,8,0:0:0:0:
256,192,6993,1,8,0:0:0:0:
256,192,7193,1,0,0:0:0:0:
256,192,7593,1,0,0:0:0:0:
256,192,7993,1,8,0:0:0:0:
256,192,8593,1,8,0:0:0:0:
256,192,8693,1,8,0:0:0:0:
256,192,8793,1,8,0:0:0:0:
256,192,8993,1,0,0:0:0:0:
256,192,9193,1,8,0:0:0:0:
256,192,9393,1,8,0:0:0:0:
256,192,9593,1,0,0:0:0:0:
256,192,9793,1,8,0:0:0:0:
256,192,10193,1,0,0:0:0:0:
256,192,10393,1,8,0:0:0:0:
256,192,10793,1,8,0:0:0:0:
256,192,11193,1,8,0:0:0:0:
256,192,11393,1,0,0:0:0:0:
256,192,12193,1,0,0:0:0:0:
256,192,12393,1,0,0:0:0:0:
256,192,12593,1,8,0:0:0:0:
256,192,12793,1,0,0:0:0:0:
256,192,12993,1,8,0:0:0:0:
256,192,13193,1,8,0:0:0:0:
256,192,13393,1,0,0:0:0:0:
256,192,13593,1,8,0:0:0:0:
256,192,13993,1,0,0:0:0:0:
256,192,14193,1,0,0:0:0:0:
256,192,14393,1,8,0:0:0:0:
256,192,14793,1,0,0:0:0:0:
256,192,14993,1,0,0:0:0:0:
256,192,15193,1,8,0:0:0:0:
256,192,15593,1,0,0:0:0:0:
256,192,15693,1,0,0:0:0:0:
256,192,15793,1,8,0:0:0:0:
256,192,15893,1,0,0:0:0:0:
256,192,15993,1,8,0:0:0:0:
256,192,16093,1,0,0:0:0:0:
256,192,16193,1,8,0:0:0:0:
256,192,16393,1,8,0:0:0:0:
256,192,16593,1,0,0:0:0:0:
256,192,16793,1,8,0:0:0:0:
256,192,17193,1,0,0:0:0:0:
256,192,17393,1,8,0:0:0:0:
256,192,17593,1,0,0:0:0:0:
256,192,18193,1,8,0:0:0:0:
256,192,18593,1,8,0:0:0:0:
256,192,18793,1,0,0:0:0:0:
256,192,18993,1,0,0:0:0:0:
256,192,19193,1,8,0:0:0:0:
256,192,19393,1,8,0:0:0:0:
256,192,19793,1,8,0:0:0:0:
256,192,19993,1,8,0:0:0:0:
256,192,20393,1,0,0:0:0:0:
256,192,20793,1,8,0:0:0:0:
256,192,21393,1,0,0:0:0:0:
256,192,21593,1,0,0:0:0:0:
256,192,21993,1,0,0:0:0:0:
256,192,22393,1,8,0:0:0:0:
256,192,22993,1,0,0:0:0:0:
256,192,23193,1,0,0:0:0:0:
256,192,23593,1,0,0:0:0:0:
256,192,23993,1,8,0:0:0:0:
256,192,24193,1,0,0:0:0:0:
256,192,24993,1,8,0:0:0:0:
256,192,25793,1,0,0:0:0:0:
256,192,27393,1,8,0:0:0:0:
256,192,28193,1,0,0:0:0:0:
256,192,28393,1,0,0:0:0:0:
256,192,28993,1,8,0:0:0:0:
256,192,30593,1,8,0:0:0:0:
256,192,31393,1,0,0:0:0:0:
256,192,31593,1,0,0:0:0:0:
256,192,32193,1,8,0:0:0:0:
256,192,33393,1,8,0:0:0:0:
256,192,33793,1,8,0:0:0:0:
256,192,34593,1,8,0:0:0:0:
256,192,34793,1,0,0:0:0:0:
256,192,35393,1,8,0:0:0:0:
256,192,36993,1,8,0:0:0:0:
256,192,37793,1,8,0:0:0:0:
256,192,37993,1,0,0:0:0:0:
256,192,38593,1,8,0:0:0:0:
256,192,39793,1,0,0:0:0:0:
256,192,40193,1,8,0:0:0:0:
256,192,40993,1,0,0:0:0:0:
256,192,41193,1,0,0:0:0:0:
256,192,41793,1,8,0:0:0:0:
256,192,42993,1,0,0:0:0:0:
256,192,43193,1,0,0:0:0:0:
256,192,43393,1,8,0:0:0:0:
256,192,44193,1,8,0:0:0:0:
256,192,44993,1,8,0:0:0:0:
256,192,46254,12,0,47359,0:0:0:0:
256,192,47517,5,4,0:0:0:0:
256,192,47675,1,0,0:0:0:0:
256,192,47832,1,8,0:0:0:0:
256,192,47990,1,8,0:0:0:0:
256,192,48069,1,8,0:0:0:0:
256,192,48148,1,0,0:0:0:0:
256,192,48227,1,0,0:0:0:0:
256,192,48306,1,8,0:0:0:0:
256,192,48464,1,0,0:0:0:0:
256,192,48543,1,8,0:0:0:0:
256,192,48622,1,8,0:0:0:0:
256,192,48701,1,0,0:0:0:0:
256,192,48780,1,0,0:0:0:0:
256,192,48938,1,0,0:0:0:0:
256,192,49096,1,8,0:0:0:0:
256,192,49254,1,0,0:0:0:0:
256,192,49332,1,0,0:0:0:0:
256,192,49411,1,0,0:0:0:0:
256,192,49490,1,0,0:0:0:0:
256,192,49569,1,8,0:0:0:0:
256,192,49727,1,0,0:0:0:0:
256,192,49806,1,0,0:0:0:0:
256,192,49885,1,8,0:0:0:0:
256,192,49964,1,8,0:0:0:0:
256,192,50043,1,0,0:0:0:0:
256,192,50201,1,0,0:0:0:0:
256,192,50359,5,8,0:0:0:0:
256,192,50517,1,0,0:0:0:0:
256,192,50596,1,8,0:0:0:0:
256,192,50675,1,8,0:0:0:0:
256,192,50754,1,0,0:0:0:0:
256,192,50832,1,8,0:0:0:0:
256,192,50990,1,0,0:0:0:0:
256,192,51069,1,8,0:0:0:0:
256,192,51148,1,8,0:0:0:0:
256,192,51227,1,0,0:0:0:0:
256,192,51306,1,0,0:0:0:0:
256,192,51464,1,0,0:0:0:0:
256,192,51622,1,8,0:0:0:0:
256,192,51780,5,8,0:0:0:0:
256,192,51859,1,8,0:0:0:0:
256,192,51938,1,0,0:0:0:0:
256,192,52017,1,0,0:0:0:0:
256,192,52096,1,8,0:0:0:0:
256,192,52175,1,8,0:0:0:0:
256,192,52254,1,0,0:0:0:0:
256,192,52332,1,0,0:0:0:0:
256,192,52411,1,8,0:0:0:0:
256,192,52490,1,8,0:0:0:0:
256,192,52569,1,4,0:0:0:0:
256,192,52727,1,0,0:0:0:0:
256,192,52885,1,8,0:0:0:0:
256,192,53043,1,0,0:0:0:0:
256,192,53122,1,0,0:0:0:0:
256,192,53201,5,0,0:0:0:0:
256,192,53280,1,0,0:0:0:0:
256,192,53359,1,8,0:0:0:0:
256,192,53517,1,0,0:0:0:0:
256,192,53596,1,0,0:0:0:0:
256,192,53675,1,8,0:0:0:0:
256,192,53754,1,0,0:0:0:0:
256,192,53832,1,0,0:0:0:0:
256,192,53990,1,0,0:0:0:0:
256,192,54148,1,8,0:0:0:0:
256,192,54306,1,0,0:0:0:0:
256,192,54385,1,8,0:0:0:0:
256,192,54464,1,8,0:0:0:0:
256,192,54543,1,0,0:0:0:0:
256,192,54622,5,8,0:0:0:0:
256,192,54780,1,0,0:0:0:0:
256,192,54859,1,8,0:0:0:0:
256,192,54938,1,8,0:0:0:0:
256,192,55017,1,0,0:0:0:0:
256,192,55096,1,0,0:0:0:0:
256,192,55254,1,0,0:0:0:0:
256,192,55411,1,8,0:0:0:0:
256,192,55569,1,0,0:0:0:0:
256,192,55648,1,8,0:0:0:0:
256,192,55727,1,8,0:0:0:0:
256,192,55806,1,0,0:0:0:0:
256,192,55885,1,8,0:0:0:0:
256,192,56043,5,0,0:0:0:0:
256,192,56122,1,8,0:0:0:0:
256,192,56201,1,8,0:0:0:0:
256,192,56280,1,0,0:0:0:0:
256,192,56359,1,0,0:0:0:0:
256,192,56517,1,0,0:0:0:0:
256,192,56675,1,8,0:0:0:0:
256,192,56832,1,0,0:0:0:0:
256,192,56911,1,0,0:0:0:0:
256,192,56990,1,0,0:0:0:0:
256,192,57069,1,8,0:0:0:0:
256,192,57148,1,8,0:0:0:0:
256,192,57227,1,8,0:0:0:0:
256,192,57306,1,0,0:0:0:0:
256,192,57385,1,0,0:0:0:0:
256,192,57464,5,8,0:0:0:0:
256,192,57543,1,8,0:0:0:0:
256,192,57622,1,4,0:0:0:0:
256,192,57780,1,0,0:0:0:0:
256,192,57938,1,8,0:0:0:0:
256,192,58096,1,0,0:0:0:0:
256,192,58175,1,0,0:0:0:0:
256,192,58254,1,0,0:0:0:0:
256,192,58332,1,0,0:0:0:0:
256,192,58411,1,8,0:0:0:0:
256,192,58569,1,0,0:0:0:0:
256,192,58648,1,0,0:0:0:0:
256,192,58727,1,8,0:0:0:0:
256,192,58806,1,0,0:0:0:0:
256,192,58885,5,0,0:0:0:0:
256,192,59043,1,0,0:0:0:0:
256,192,59201,1,8,0:0:0:0:
256,192,59359,1,0,0:0:0:0:
256,192,59438,1,8,0:0:0:0:
256,192,59517,1,8,0:0:0:0:
256,192,59596,1,0,0:0:0:0:
256,192,59675,1,8,0:0:0:0:
256,192,59832,1,0,0:0:0:0:
256,192,59911,1,0,0:0:0:0:
256,192,59990,1,8,0:0:0:0:
256,192,60069,1,8,0:0:0:0:
256,192,60148,1,4,0:0:0:0:
256,192,61411,12,0,62359,0:0:0:0:
256,192,62675,5,4,0:0:0:0:
256,192,62832,5,0,0:0:0:0:
256,192,62990,1,8,0:0:0:0:
256,192,63148,1,0,0:0:0:0:
256,192,63227,1,0,0:0:0:0:
256,192,63306,1,8,0:0:0:0:
256,192,63385,1,0,0:0:0:0:
256,192,63464,1,8,0:0:0:0:
256,192,63622,1,0,0:0:0:0:
256,192,63701,1,8,0:0:0:0:
256,192,63780,1,8,0:0:0:0:
256,192,63859,1,0,0:0:0:0:
256,192,63938,1,0,0:0:0:0:
256,192,64096,1,0,0:0:0:0:
256,192,64254,5,8,0:0:0:0:
256,192,64411,1,8,0:0:0:0:
256,192,64490,1,8,0:0:0:0:
256,192,64569,1,0,0:0:0:0:
256,192,64648,1,0,0:0:0:0:
256,192,64727,1,8,0:0:0:0:
256,192,64885,1,8,0:0:0:0:
256,192,64964,1,8,0:0:0:0:
256,192,65043,1,8,0:0:0:0:
256,192,65122,1,0,0:0:0:0:
256,192,65201,1,0,0:0:0:0:
256,192,65359,1,0,0:0:0:0:
256,192,65517,1,8,0:0:0:0:
256,192,65675,5,0,0:0:0:0:
256,192,65754,1,0,0:0:0:0:
256,192,65832,1,8,0:0:0:0:
256,192,65911,1,0,0:0:0:0:
256,192,65990,1,8,0:0:0:0:
256,192,66148,1,0,0:0:0:0:
256,192,66227,1,8,0:0:0:0:
256,192,66306,1,8,0:0:0:0:
256,192,66385,1,0,0:0:0:0:
256,192,66464,1,0,0:0:0:0:
256,192,66622,1,0,0:0:0:0:
256,192,66780,1,8,0:0:0:0:
256,192,66938,1,0,0:0:0:0:
256,192,67017,1,0,0:0:0:0:
256,192,67096,5,0,0:0:0:0:
256,192,67175,1,8,0:0:0:0:
256,192,67254,1,8,0:0:0:0:
256,192,67332,1,0,0:0:0:0:
256,192,67411,1,0,0:0:0:0:
256,192,67490,1,8,0:0:0:0:
256,192,67569,1,8,0:0:0:0:
256,192,67648,1,8,0:0:0:0:
256,192,67727,1,4,0:0:0:0:
256,192,67885,1,0,0:0:0:0:
256,192,68043,1,8,0:0:0:0:
256,192,68201,1,8,0:0:0:0:
256,192,68280,1,8,0:0:0:0:
256,192,68359,1,0,0:0:0:0:
256,192,68438,1,0,0:0:0:0:
256,192,68517,5,8,0:0:0:0:
256,192,68675,1,8,0:0:0:0:
256,192,68754,1,8,0:0:0:0:
256,192,68832,1,8,0:0:0:0:
256,192,68911,1,0,0:0:0:0:
256,192,68990,1,0,0:0:0:0:
256,192,69148,1,0,0:0:0:0:
256,192,69306,1,8,0:0:0:0:
256,192,69464,1,0,0:0:0:0:
256,192,69543,1,0,0:0:0:0:
256,192,69622,1,8,0:0:0:0:
256,192,69701,1,0,0:0:0:0:
256,192,69780,1,8,0:0:0:0:
256,192,69938,5,0,0:0:0:0:
256,192,70017,1,8,0:0:0:0:
256,192,70096,1,8,0:0:0:0:
256,192,70175,1,0,0:0:0:0:
256,192,70254,1,0,0:0:0:0:
256,192,70411,1,0,0:0:0:0:
256,192,70569,1,8,0:0:0:0:
256,192,70727,1,0,0:0:0:0:
256,192,70806,1,0,0:0:0:0:
256,192,70885,1,8,0:0:0:0:
256,192,70964,1,0,0:0:0:0:
256,192,71043,1,8,0:0:0:0:
256,192,71201,1,8,0:0:0:0:
256,192,71280,1,8,0:0:0:0:
256,192,71359,5,8,0:0:0:0:
256,192,71438,1,0,0:0:0:0:
256,192,71517,1,0,0:0:0:0:
256,192,71675,1,0,0:0:0:0:
256,192,71832,1,8,0:0:0:0:
256,192,71990,1,0,0:0:0:0:
256,192,72069,1,0,0:0:0:0:
256,192,72148,1,0,0:0:0:0:
256,192,72227,1,8,0:0:0:0:
256,192,72306,1,8,0:0:0:0:
256,192,72385,1,0,0:0:0:0:
256,192,72464,1,0,0:0:0:0:
256,192,72543,1,8,0:0:0:0:
256,192,72622,1,8,0:0:0:0:
256,192,72701,1,8,0:0:0:0:
256,192,72780,5,4,0:0:0:0:
256,192,72938,1,0,0:0:0:0:
256,192,73096,1,8,0:0:0:0:
256,192,73254,1,8,0:0:0:0:
256,192,73332,1,8,0:0:0:0:
256,192,73411,1,0,0:0:0:0:
256,192,73490,1,0,0:0:0:0:
256,192,73569,1,8,0:0:0:0:
256,192,73727,1,8,0:0:0:0:
256,192,73806,1,8,0:0:0:0:
256,192,73885,1,8,0:0:0:0:
256,192,73964,1,0,0:0:0:0:
256,192,74043,1,0,0:0:0:0:
256,192,74201,1,0,0:0:0:0:
256,192,74359,1,8,0:0:0:0:
256,192,74517,1,0,0:0:0:0:
256,192,74596,1,0,0:0:0:0:
256,192,74675,1,8,0:0:0:0:
256,192,74754,1,0,0:0:0:0:
256,192,74832,1,8,0:0:0:0:
256,192,74990,1,0,0:0:0:0:
256,192,75069,1,8,0:0:0:0:
256,192,75148,1,8,0:0:0:0:
256,192,75227,1,0,0:0:0:0:
256,192,75306,1,0,0:0:0:0:
256,192,75464,1,0,0:0:0:0:
256,192,75622,5,8,0:0:0:0:
256,192,75780,1,8,0:0:0:0:
256,192,75859,1,8,0:0:0:0:
256,192,75938,1,0,0:0:0:0:
256,192,76017,1,0,0:0:0:0:
256,192,76096,1,8,0:0:0:0:
256,192,76254,1,8,0:0:0:0:
256,192,76332,1,8,0:0:0:0:
256,192,76411,1,8,0:0:0:0:
256,192,76490,1,0,0:0:0:0:
256,192,76569,1,0,0:0:0:0:
256,192,76727,1,0,0:0:0:0:
256,192,76885,1,8,0:0:0:0:
256,192,77043,5,0,0:0:0:0:
256,192,77122,1,0,0:0:0:0:
256,192,77201,1,8,0:0:0:0:
256,192,77280,1,8,0:0:0:0:
256,192,77359,1,0,0:0:0:0:
256,192,77438,1,0,0:0:0:0:
256,192,77517,1,8,0:0:0:0:
256,192,77596,1,8,0:0:0:0:
256,192,77675,1,0,0:0:0:0:
256,192,77754,1,0,0:0:0:0:
256,192,77832,1,12,0:0:0:0:
256,192,78148,1,8,0:0:0:0:
256,192,78306,5,0,0:0:0:0:
256,192,78385,1,0,0:0:0:0:
256,192,78464,1,8,0:0:0:0:
256,192,78622,1,0,0:0:0:0:
256,192,78780,1,8,0:0:0:0:
256,192,78859,1,0,0:0:0:0:
256,192,78938,1,8,0:0:0:0:
256,192,79017,1,8,0:0:0:0:
256,192,79096,1,0,0:0:0:0:
256,192,79411,1,8,0:0:0:0:
256,192,79569,1,8,0:0:0:0:
256,192,79648,1,8,0:0:0:0:
256,192,79727,5,0,0:0:0:0:
256,192,79806,1,0,0:0:0:0:
256,192,79885,1,8,0:0:0:0:
256,192,80043,1,0,0:0:0:0:
256,192,80201,1,8,0:0:0:0:
256,192,80359,1,0,0:0:0:0:
256,192,80411,1,0,0:0:0:0:
256,192,80464,1,0,0:0:0:0:
256,192,80517,1,0,0:0:0:0:
256,192,80569,1,0,0:0:0:0:
256,192,80622,1,0,0:0:0:0:
256,192,80675,1,8,0:0:0:0:
256,192,80832,1,0,0:0:0:0:
256,192,80990,1,0,0:0:0:0:
256,192,81069,1,0,0:0:0:0:
256,192,81148,5,8,0:0:0:0:
256,192,81306,1,0,0:0:0:0:
256,192,81464,1,8,0:0:0:0:
256,192,81543,1,0,0:0:0:0:
256,192,81622,1,0,0:0:0:0:
256,192,81938,1,8,0:0:0:0:
256,192,82096,1,0,0:0:0:0:
256,192,82254,1,0,0:0:0:0:
256,192,82332,1,0,0:0:0:0:
256,192,82411,1,0,0:0:0:0:
256,192,82490,1,0,0:0:0:0:
256,192,82569,5,8,0:0:0:0:
256,192,82622,1,8,0:0:0:0:
256,192,82675,1,8,0:0:0:0:
256,192,82727,1,8,0:0:0:0:
256,192,82780,1,8,0:0:0:0:
256,192,82832,1,8,0:0:0:0:
256,192,82885,1,4,0:0:0:0:
256,192,83201,1,8,0:0:0:0:
256,192,83359,1,0,0:0:0:0:
256,192,83438,1,0,0:0:0:0:
256,192,83517,1,8,0:0:0:0:
256,192,83675,1,8,0:0:0:0:
256,192,83832,1,0,0:0:0:0:
256,192,83911,1,8,0:0:0:0:
256,192,83990,5,8,0:0:0:0:
256,192,84069,1,0,0:0:0:0:
256,192,84148,1,0,0:0:0:0:
256,192,84464,1,8,0:0:0:0:
256,192,84622,1,0,0:0:0:0:
256,192,84701,1,0,0:0:0:0:
256,192,84780,1,8,0:0:0:0:
256,192,84938,1,8,0:0:0:0:
256,192,85096,1,8,0:0:0:0:
256,192,85175,1,0,0:0:0:0:
256,192,85254,1,8,0:0:0:0:
256,192,85332,1,8,0:0:0:0:
256,192,85411,5,0,0:0:0:0:
256,192,85569,1,0,0:0:0:0:
256,192,85727,1,8,0:0:0:0:
256,192,85885,1,0,0:0:0:0:
256,192,86043,1,0,0:0:0:0:
256,192,86201,1,8,0:0:0:0:
256,192,86359,1,0,0:0:0:0:
256,192,86517,1,0,0:0:0:0:
256,192,86675,1,8,0:0:0:0:
256,192,86832,5,0,0:0:0:0:
256,192,86990,1,0,0:0:0:0:
256,192,87148,1,8,0:0:0:0:
256,192,87306,1,8,0:0:0:0:
256,192,87385,1,8,0:0:0:0:
256,192,87464,1,8,0:0:0:0:
256,192,87543,1,8,0:0:0:0:
256,192,87622,1,0,0:0:0:0:
256,192,87675,1,0,0:0:0:0:
256,192,87727,1,0,0:0:0:0:
256,192,87780,1,0,0:0:0:0:
256,192,87832,1,0,0:0:0:0:
256,192,87885,1,0,0:0:0:0:
256,192,87938,1,12,0:0:0:0:
256,192,88254,5,8,0:0:0:0:
256,192,88411,1,0,0:0:0:0:
256,192,88490,1,0,0:0:0:0:
256,192,88569,1,8,0:0:0:0:
256,192,88727,1,8,0:0:0:0:
256,192,88885,1,8,0:0:0:0:
256,192,88964,1,0,0:0:0:0:
256,192,89043,1,8,0:0:0:0:
256,192,89122,1,8,0:0:0:0:
256,192,89201,1,0,0:0:0:0:
256,192,89517,1,8,0:0:0:0:
256,192,89675,1,8,0:0:0:0:
256,192,89754,1,8,0:0:0:0:
256,192,89832,5,0,0:0:0:0:
256,192,89911,1,0,0:0:0:0:
256,192,89990,1,8,0:0:0:0:
256,192,90148,1,0,0:0:0:0:
256,192,90306,1,8,0:0:0:0:
256,192,90385,1,8,0:0:0:0:
256,192,90464,1,0,0:0:0:0:
256,192,90780,1,8,0:0:0:0:
256,192,90938,1,8,0:0:0:0:
256,192,91017,1,8,0:0:0:0:
256,192,91096,1,0,0:0:0:0:
256,192,91254,5,0,0:0:0:0:
256,192,91332,1,0,0:0:0:0:
256,192,91411,1,8,0:0:0:0:
256,192,91569,1,8,0:0:0:0:
256,192,91727,1,0,0:0:0:0:
256,192,92043,1,8,0:0:0:0:
256,192,92201,1,0,0:0:0:0:
256,192,92359,1,8,0:0:0:0:
256,192,92411,1,8,0:0:0:0:
256,192,92464,1,8,0:0:0:0:
256,192,92517,1,8,0:0:0:0:
256,192,92569,1,8,0:0:0:0:
256,192,92622,1,8,0:0:0:0:
256,192,92675,1,8,0:0:0:0:
256,192,92727,1,8,0:0:0:0:
256,192,92780,1,8,0:0:0:0:
256,192,92832,1,8,0:0:0:0:
256,192,92885,1,8,0:0:0:0:
256,192,92938,1,8,0:0:0:0:
256,192,92990,1,4,0:0:0:0:
256,192,93464,1,8,0:0:0:0:
256,192,93622,1,0,0:0:0:0:
256,192,93938,1,0,0:0:0:0:
256,192,94096,1,8,0:0:0:0:
256,192,94411,1,8,0:0:0:0:
256,192,94569,1,8,0:0:0:0:
256,192,94727,1,8,0:0:0:0:
256,192,95043,1,0,0:0:0:0:
256,192,95201,1,8,0:0:0:0:
256,192,95359,1,0,0:0:0:0:
256,192,95517,1,8,0:0:0:0:
256,192,95675,1,8,0:0:0:0:
256,192,95990,1,8,0:0:0:0:
256,192,96148,1,0,0:0:0:0:
256,192,96464,1,0,0:0:0:0:
256,192,96622,1,8,0:0:0:0:
256,192,96938,1,0,0:0:0:0:
256,192,97096,1,8,0:0:0:0:
256,192,97254,1,0,0:0:0:0:
256,192,97411,1,0,0:0:0:0:
256,192,97727,1,8,0:0:0:0:
256,192,97885,1,0,0:0:0:0:
256,192,98043,1,8,0:0:0:0:
256,192,98201,1,8,0:0:0:0:
256,192,98517,1,8,0:0:0:0:
256,192,98675,1,0,0:0:0:0:
256,192,98990,1,0,0:0:0:0:
256,192,99148,1,8,0:0:0:0:
256,192,99464,1,8,0:0:0:0:
256,192,99622,1,0,0:0:0:0:
256,192,99780,1,8,0:0:0:0:
256,192,99938,1,8,0:0:0:0:
256,192,100096,1,0,0:0:0:0:
256,192,100254,1,0,0:0:0:0:
256,192,100411,1,8,0:0:0:0:
256,192,100569,1,0,0:0:0:0:
256,192,101517,1,8,0:0:0:0:
256,192,101990,1,8,0:0:0:0:
256,192,102148,1,0,0:0:0:0:
256,192,102306,1,8,0:0:0:0:
256,192,102464,1,8,0:0:0:0:
256,192,102622,1,0,0:0:0:0:
256,192,102780,1,0,0:0:0:0:
256,192,102938,1,8,0:0:0:0:
256,192,103096,1,8,0:0:0:0:
256,192,104043,1,8,0:0:0:0:
256,192,104517,1,8,0:0:0:0:
256,192,104675,5,0,0:0:0:0:
256,192,104832,1,8,0:0:0:0:
256,192,104990,1,8,0:0:0:0:
256,192,105148,1,0,0:0:0:0:
256,192,105306,1,8,0:0:0:0:
256,192,105464,1,0,0:0:0:0:
256,192,105622,1,8,0:0:0:0:
256,192,105780,1,8,0:0:0:0:
256,192,105938,1,0,0:0:0:0:
256,192,106096,5,0,0:0:0:0:
256,192,106254,1,8,0:0:0:0:
256,192,106411,1,8,0:0:0:0:
256,192,106569,1,0,0:0:0:0:
256,192,106727,1,8,0:0:0:0:
256,192,106885,1,0,0:0:0:0:
256,192,107043,1,0,0:0:0:0:
256,192,107201,1,8,0:0:0:0:
256,192,107359,1,8,0:0:0:0:
256,192,107517,5,0,0:0:0:0:
256,192,107675,1,8,0:0:0:0:
256,192,107832,1,0,0:0:0:0:
256,192,107990,1,8,0:0:0:0:
256,192,108148,5,4,0:0:0:0:
256,192,108306,1,0,0:0:0:0:
256,192,108464,1,8,0:0:0:0:
256,192,108622,1,8,0:0:0:0:
256,192,108701,1,8,0:0:0:0:
256,192,108780,1,0,0:0:0:0:
256,192,108859,1,0,0:0:0:0:
256,192,108938,1,8,0:0:0:0:
256,192,109096,1,0,0:0:0:0:
256,192,109175,1,8,0:0:0:0:
256,192,109254,1,8,0:0:0:0:
256,192,109332,1,0,0:0:0:0:
256,192,109411,1,0,0:0:0:0:
256,192,109569,1,0,0:0:0:0:
256,192,109727,1,8,0:0:0:0:
256,192,109885,1,0,0:0:0:0:
256,192,109964,1,0,0:0:0:0:
256,192,110043,1,0,0:0:0:0:
256,192,110122,1,0,0:0:0:0:
256,192,110201,1,8,0:0:0:0:
256,192,110359,1,0,0:0:0:0:
256,192,110438,1,0,0:0:0:0:
256,192,110517,1,8,0:0:0:0:
256,192,110596,1,8,0:0:0:0:
256,192,110675,1,0,0:0:0:0:
256,192,110832,1,0,0:0:0:0:
256,192,110990,5,8,0:0:0:0:
256,192,111148,1,0,0:0:0:0:
256,192,111227,1,8,0:0:0:0:
256,192,111306,1,8,0:0:0:0:
256,192,111385,1,0,0:0:0:0:
256,192,111464,1,8,0:0:0:0:
256,192,111622,1,0,0:0:0:0:
256,192,111701,1,8,0:0:0:0:
256,192,111780,1,8,0:0:0:0:
256,192,111859,1,0,0:0:0:0:
256,192,111938,1,0,0:0:0:0:
256,192,112096,1,0,0:0:0:0:
256,192,112254,1,8,0:0:0:0:
256,192,112411,5,8,0:0:0:0:
256,192,112490,1,8,0:0:0:0:
256,192,112569,1,0,0:0:0:0:
256,192,112648,1,0,0:0:0:0:
256,192,112727,1,8,0:0:0:0:
256,192,112806,1,8,0:0:0:0:
256,192,112885,1,0,0:0:0:0:
256,192,112964,1,0,0:0:0:0:
256,192,113043,1,8,0:0:0:0:
256,192,113122,1,8,0:0:0:0:
256,192,113201,1,4,0:0:0:0:
256,192,113359,1,0,0:0:0:0:
256,192,113517,1,8,0:0:0:0:
256,192,113675,1,0,0:0:0:0:
256,192,113754,1,0,0:0:0:0:
256,192,113832,5,0,0:0:0:0:
256,192,113911,1,0,0:0:0:0:
256,192,113990,1,8,0:0:0:0:
256,192,114148,1,0,0:0:0:0:
256,192,114227,1,0,0:0:0:0:
256,192,114306,1,8,0:0:0:0:
256,192,114385,1,0,0:0:0:0:
256,192,114464,1,0,0:0:0:0:
256,192,114622,1,0,0:0:0:0:
256,192,114780,1,8,0:0:0:0:
256,192,114938,1,0,0:0:0:0:
256,192,115017,1,8,0:0:0:0:
256,192,115096,1,8,0:0:0:0:
256,192,115175,1,0,0:0:0:0:
256,192,115254,5,8,0:0:0:0:
256,192,115411,1,0,0:0:0:0:
256,192,115490,1,8,0:0:0:0:
256,192,115569,1,8,0:0:0:0:
256,192,115648,1,0,0:0:0:0:
256,192,115727,1,0,0:0:0:0:
256,192,115885,1,0,0:0:0:0:
256,192,116043,1,8,0:0:0:0:
256,192,116201,1,0,0:0:0:0:
256,192,116280,1,8,0:0:0:0:
256,192,116359,1,8,0:0:0:0:
256,192,116438,1,0,0:0:0:0:
256,192,116517,1,8,0:0:0:0:
256,192,116675,5,0,0:0:0:0:
256,192,116754,1,8,0:0:0:0:
256,192,116832,1,8,0:0:0:0:
256,192,116911,1,0,0:0:0:0:
256,192,116990,1,0,0:0:0:0:
256,192,117148,1,0,0:0:0:0:
256,192,117306,1,8,0:0:0:0:
256,192,117464,1,0,0:0:0:0:
256,192,117543,1,0,0:0:0:0:
256,192,117622,1,0,0:0:0:0:
256,192,117701,1,8,0:0:0:0:
256,192,117780,1,8,0:0:0:0:
256,192,117859,1,8,0:0:0:0:
256,192,117938,1,0,0:0:0:0:
256,192,118017,1,0,0:0:0:0:
256,192,118096,5,8,0:0:0:0:
256,192,118175,1,8,0:0:0:0:
256,192,118254,1,4,0:0:0:0:
256,192,118411,1,0,0:0:0:0:
256,192,118569,1,8,0:0:0:0:
256,192,118727,1,0,0:0:0:0:
256,192,118806,1,0,0:0:0:0:
256,192,118885,1,0,0:0:0:0:
256,192,118964,1,0,0:0:0:0:
256,192,119043,1,8,0:0:0:0:
256,192,119201,5,0,0:0:0:0:
256,192,119280,1,0,0:0:0:0:
256,192,119359,1,8,0:0:0:0:
256,192,119438,1,8,0:0:0:0:
256,192,119517,5,0,0:0:0:0:
256,192,119675,1,0,0:0:0:0:
256,192,119832,1,8,0:0:0:0:
256,192,119990,1,0,0:0:0:0:
256,192,120069,1,8,0:0:0:0:
256,192,120148,1,8,0:0:0:0:
256,192,120227,1,0,0:0:0:0:
256,192,120306,1,8,0:0:0:0:
256,192,120464,1,0,0:0:0:0:
256,192,120543,1,0,0:0:0:0:
256,192,120622,1,8,0:0:0:0:
256,192,120701,1,8,0:0:0:0:
256,192,120780,1,0,0:0:0:0:
256,192,120938,5,0,0:0:0:0:
256,192,121096,1,8,0:0:0:0:
256,192,121254,1,0,0:0:0:0:
256,192,121332,1,0,0:0:0:0:
256,192,121411,1,0,0:0:0:0:
256,192,121490,1,0,0:0:0:0:
256,192,121569,1,8,0:0:0:0:
256,192,121727,1,0,0:0:0:0:
256,192,121806,1,0,0:0:0:0:
256,192,121885,1,8,0:0:0:0:
256,192,121964,1,0,0:0:0:0:
256,192,122043,1,0,0:0:0:0:
256,192,122201,1,0,0:0:0:0:
256,192,122359,1,8,0:0:0:0:
256,192,122517,1,0,0:0:0:0:
256,192,122596,1,0,0:0:0:0:
256,192,122675,1,0,0:0:0:0:
256,192,122754,1,8,0:0:0:0:
256,192,122832,1,8,0:0:0:0:
256,192,122911,1,8,0:0:0:0:
256,192,122990,1,0,0:0:0:0:
256,192,123069,1,0,0:0:0:0:
256,192,123148,1,8,0:0:0:0:
256,192,123227,1,8,0:0:0:0:
256,192,123306,5,4,0:0:0:0:
256,192,123464,5,0,0:0:0:0:
256,192,123622,1,8,0:0:0:0:
256,192,123780,1,0,0:0:0:0:
256,192,123859,1,0,0:0:0:0:
256,192,123938,1,8,0:0:0:0:
256,192,124017,1,0,0:0:0:0:
256,192,124096,1,8,0:0:0:0:
256,192,124254,1,0,0:0:0:0:
256,192,124332,1,8,0:0:0:0:
256,192,124411,1,8,0:0:0:0:
256,192,124490,1,0,0:0:0:0:
256,192,124569,1,0,0:0:0:0:
256,192,124727,1,0,0:0:0:0:
256,192,124885,5,8,0:0:0:0:
256,192,125043,1,8,0:0:0:0:
256,192,125122,1,8,0:0:0:0:
256,192,125201,1,0,0:0:0:0:
256,192,125280,1,0,0:0:0:0:
256,192,125359,1,8,0:0:0:0:
256,192,125517,1,8,0:0:0:0:
256,192,125596,1,8,0:0:0:0:
256,192,125675,1,8,0:0:0:0:
256,192,125754,1,0,0:0:0:0:
256,192,125832,1,0,0:0:0:0:
256,192,125990,1,0,0:0:0:0:
256,192,126148,1,8,0:0:0:0:
256,192,126306,5,0,0:0:0:0:
256,192,126385,1,0,0:0:0:0:
256,192,126464,1,8,0:0:0:0:
256,192,126543,1,0,0:0:0:0:
256,192,126622,1,8,0:0:0:0:
256,192,126780,1,0,0:0:0:0:
256,192,126859,1,8,0:0:0:0:
256,192,126938,1,8,0:0:0:0:
256,192,127017,1,0,0:0:0:0:
256,192,127096,1,0,0:0:0:0:
256,192,127254,1,0,0:0:0:0:
256,192,127411,1,8,0:0:0:0:
256,192,127569,1,0,0:0:0:0:
256,192,127648,1,0,0:0:0:0:
256,192,127727,5,0,0:0:0:0:
256,192,127806,1,8,0:0:0:0:
256,192,127885,1,8,0:0:0:0:
256,192,127964,1,0,0:0:0:0:
256,192,128043,1,0,0:0:0:0:
256,192,128122,1,8,0:0:0:0:
256,192,128201,1,8,0:0:0:0:
256,192,128280,1,8,0:0:0:0:
256,192,128359,1,4,0:0:0:0:
256,192,128517,1,0,0:0:0:0:
256,192,128675,1,8,0:0:0:0:
256,192,128832,1,8,0:0:0:0:
256,192,128911,1,8,0:0:0:0:
256,192,128990,1,0,0:0:0:0:
256,192,129069,1,0,0:0:0:0:
256,192,129148,5,8,0:0:0:0:
256,192,129306,1,8,0:0:0:0:
256,192,129385,1,8,0:0:0:0:
256,192,129464,1,8,0:0:0:0:
256,192,129543,1,0,0:0:0:0:
256,192,129622,1,0,0:0:0:0:
256,192,129780,1,0,0:0:0:0:
256,192,129938,1,8,0:0:0:0:
256,192,130096,1,0,0:0:0:0:
256,192,130175,1,0,0:0:0:0:
256,192,130254,1,8,0:0:0:0:
256,192,130332,1,0,0:0:0:0:
256,192,130411,1,8,0:0:0:0:
256,192,130569,5,0,0:0:0:0:
256,192,130648,1,8,0:0:0:0:
256,192,130727,1,8,0:0:0:0:
256,192,130806,1,0,0:0:0:0:
256,192,130885,1,0,0:0:0:0:
256,192,131043,1,0,0:0:0:0:
256,192,131201,1,8,0:0:0:0:
256,192,131359,1,0,0:0:0:0:
256,192,131438,1,0,0:0:0:0:
256,192,131517,1,8,0:0:0:0:
256,192,131596,1,0,0:0:0:0:
256,192,131675,1,8,0:0:0:0:
256,192,131832,1,8,0:0:0:0:
256,192,131911,1,8,0:0:0:0:
256,192,131990,5,8,0:0:0:0:
256,192,132069,1,0,0:0:0:0:
256,192,132148,1,0,0:0:0:0:
256,192,132306,1,0,0:0:0:0:
256,192,132464,1,8,0:0:0:0:
256,192,132622,1,0,0:0:0:0:
256,192,132701,1,0,0:0:0:0:
256,192,132780,1,0,0:0:0:0:
256,192,132859,1,8,0:0:0:0:
256,192,132938,1,8,0:0:0:0:
256,192,133017,1,0,0:0:0:0:
256,192,133096,1,0,0:0:0:0:
256,192,133175,1,8,0:0:0:0:
256,192,133254,1,8,0:0:0:0:
256,192,133332,1,8,0:0:0:0:
256,192,133411,5,4,0:0:0:0:
256,192,133569,1,0,0:0:0:0:
256,192,133727,1,8,0:0:0:0:
256,192,133885,1,8,0:0:0:0:
256,192,133964,1,8,0:0:0:0:
256,192,134043,1,0,0:0:0:0:
256,192,134122,1,0,0:0:0:0:
256,192,134201,1,8,0:0:0:0:
256,192,134359,1,8,0:0:0:0:
256,192,134438,1,8,0:0:0:0:
256,192,134517,1,8,0:0:0:0:
256,192,134596,1,0,0:0:0:0:
256,192,134675,1,0,0:0:0:0:
256,192,134832,1,0,0:0:0:0:
256,192,134990,1,8,0:0:0:0:
256,192,135148,1,0,0:0:0:0:
256,192,135227,1,0,0:0:0:0:
256,192,135306,1,8,0:0:0:0:
256,192,135385,1,0,0:0:0:0:
256,192,135464,1,8,0:0:0:0:
256,192,135622,1,0,0:0:0:0:
256,192,135701,1,8,0:0:0:0:
256,192,135780,1,8,0:0:0:0:
256,192,135859,1,0,0:0:0:0:
256,192,135938,1,0,0:0:0:0:
256,192,136096,1,0,0:0:0:0:
256,192,136254,5,8,0:0:0:0:
256,192,136411,1,8,0:0:0:0:
256,192,136490,1,8,0:0:0:0:
256,192,136569,1,0,0:0:0:0:
256,192,136648,1,0,0:0:0:0:
256,192,136727,1,8,0:0:0:0:
256,192,136885,1,8,0:0:0:0:
256,192,136964,1,0,0:0:0:0:
256,192,137043,1,8,0:0:0:0:
256,192,137122,1,8,0:0:0:0:
256,192,137201,1,0,0:0:0:0:
256,192,137359,1,0,0:0:0:0:
256,192,137517,1,8,0:0:0:0:
256,192,137675,5,0,0:0:0:0:
256,192,137754,1,0,0:0:0:0:
256,192,137832,1,8,0:0:0:0:
256,192,137911,1,8,0:0:0:0:
256,192,137990,1,0,0:0:0:0:
256,192,138069,1,0,0:0:0:0:
256,192,138148,1,8,0:0:0:0:
256,192,138227,1,8,0:0:0:0:
256,192,138306,1,0,0:0:0:0:
256,192,138385,1,0,0:0:0:0:
256,192,138464,1,12,0:0:0:0:
