osu file format v14

[General]
AudioFilename: audio.mp3
AudioLeadIn: 0
PreviewTime: 47505
Countdown: 0
SampleSet: Normal
StackLeniency: 0.7
Mode: 1
LetterboxInBreaks: 0
WidescreenStoryboard: 1

[Editor]
Bookmarks: 25785,77820,92978,108136
DistanceSpacing: 2.8
BeatDivisor: 4
GridSize: 32
TimelineZoom: 0.8999999

[Metadata]
Title:Whispers from a Distant Star
TitleUnicode:Whispers from a Distant Star
Artist:Fractal Dreamers
ArtistUnicode:Fractal Dreamers
Creator:Alwaysyukaz
Version:Futsuu
Source:osu!
Tags:featured artist mappers guild fa azure of the horizon dance electronic dnb drum and bass helblinde instrumental music mpg mg skymuted piano orchestral emotional artcore chill
BeatmapID:2760876
BeatmapSetID:1332550

[Difficulty]
HPDrainRate:7
CircleSize:2
OverallDifficulty:4
ApproachRate:0
SliderMultiplier:1.4
SliderTickRate:1

[Events]
//Background and Video events
0,0,"pexels-instawalli-169789.jpg",0,0
//Break Periods
//Storyboard Layer 0 (Background)
//Storyboard Layer 1 (Fail)
//Storyboard Layer 2 (Pass)
//Storyboard Layer 3 (Foreground)
//Storyboard Layer 4 (Overlay)
//Storyboard Sound Samples

[TimingPoints]
193,400,4,1,0,40,1,0
46254,315.789473684211,4,1,0,40,1,0
47517,-100,4,1,0,70,0,1
60148,-100,4,1,0,50,0,0
62675,-100,4,1,0,70,0,1
77832,-100,4,1,0,60,0,0
92990,-100,4,1,0,50,0,0
108148,-100,4,1,0,70,0,1
138464,-100,4,1,0,50,0,0

[HitObjects]
256,192,193,5,0,0:0:0:0:
256,192,593,1,0,0:0:0:0:
256,192,1193,1,8,0:0:0:0:
256,192,1593,1,0,0:0:0:0:
256,192,2193,1,0,0:0:0:0:
256,192,2793,1,0,0:0:0:0:
256,192,3193,1,8,0:0:0:0:
256,192,3793,1,0,0:0:0:0:
256,192,4393,1,0,0:0:0:0:
256,192,4793,1,8,0:0:0:0:
256,192,5393,1,0,0:0:0:0:
256,192,5793,1,0,0:0:0:0:
256,192,6593,1,8,0:0:0:0:
256,192,6993,1,8,0:0:0:0:
256,192,7593,1,0,0:0:0:0:
256,192,7993,1,8,0:0:0:0:
256,192,8993,1,0,0:0:0:0:
256,192,9393,1,8,0:0:0:0:
256,192,9793,1,0,0:0:0:0:
256,192,10193,1,0,0:0:0:0:
256,192,10793,1,8,0:0:0:0:
256,192,11393,1,0,0:0:0:0:
256,192,12193,1,0,0:0:0:0:
256,192,12993,1,8,0:0:0:0:
256,192,13393,1,0,0:0:0:0:
256,192,13993,1,0,0:0:0:0:
256,192,14393,1,8,0:0:0:0:
256,192,14793,1,0,0:0:0:0:
256,192,15193,1,8,0:0:0:0:
256,192,15593,1,8,0:0:0:0:
256,192,15793,1,8,0:0:0:0:
256,192,15993,1,0,0:0:0:0:
256,192,16193,1,8,0:0:0:0:
256,192,17793,1,0,0:0:0:0:
256,192,18193,1,8,0:0:0:0:
256,192,18593,1,0,0:0:0:0:
256,192,19393,1,8,0:0:0:0:
256,192,19793,1,8,0:0:0:0:
256,192,20393,1,0,0:0:0:0:
256,192,20793,1,8,0:0:0:0:
256,192,21393,1,0,0:0:0:0:
256,192,21993,1,0,0:0:0:0:
256,192,22393,1,8,0:0:0:0:
256,192,22993,1,0,0:0:0:0:
256,192,23593,1,8,0:0:0:0:
256,192,24193,1,0,0:0:0:0:
256,192,24993,1,8,0:0:0:0:
256,192,25793,1,0,0:0:0:0:
256,192,27393,1,8,0:0:0:0:
256,192,28193,1,0,0:0:0:0:
256,192,28993,1,8,0:0:0:0:
256,192,30593,1,8,0:0:0:0:
256,192,31393,1,0,0:0:0:0:
256,192,32193,1,8,0:0:0:0:
256,192,33393,1,8,0:0:0:0:
256,192,33793,1,8,0:0:0:0:
256,192,34593,1,0,0:0:0:0:
256,192,35393,1,8,0:0:0:0:
256,192,36993,1,8,0:0:0:0:
256,192,37793,1,0,0:0:0:0:
256,192,38593,1,8,0:0:0:0:
256,192,39793,1,0,0:0:0:0:
256,192,40193,1,8,0:0:0:0:
256,192,40993,1,0,0:0:0:0:
256,192,41793,1,8,0:0:0:0:
256,192,42993,1,0,0:0:0:0:
256,192,43393,1,8,0:0:0:0:
256,192,44193,1,8,0:0:0:0:
256,192,44993,1,8,0:0:0:0:
256,192,46254,12,0,47201,0:0:0:0:
256,192,47517,5,4,0:0:0:0:
256,192,48148,1,8,0:0:0:0:
256,192,48464,1,8,0:0:0:0:
256,192,48622,1,0,0:0:0:0:
256,192,48780,1,0,0:0:0:0:
256,192,49096,1,8,0:0:0:0:
256,192,49411,1,0,0:0:0:0:
256,192,49727,1,0,0:0:0:0:
256,192,50043,1,8,0:0:0:0:
256,192,50675,1,0,0:0:0:0:
256,192,50990,1,8,0:0:0:0:
256,192,51148,1,0,0:0:0:0:
256,192,51306,1,0,0:0:0:0:
256,192,51622,1,8,0:0:0:0:
256,192,51938,1,0,0:0:0:0:
256,192,52254,1,8,0:0:0:0:
256,192,52411,1,8,0:0:0:0:
256,192,52569,1,4,0:0:0:0:
256,192,53201,5,0,0:0:0:0:
256,192,53517,1,8,0:0:0:0:
256,192,53675,1,0,0:0:0:0:
256,192,53832,1,0,0:0:0:0:
256,192,54148,1,8,0:0:0:0:
256,192,54464,1,0,0:0:0:0:
256,192,54780,1,0,0:0:0:0:
256,192,54938,1,8,0:0:0:0:
256,192,55096,1,0,0:0:0:0:
256,192,55727,1,0,0:0:0:0:
256,192,56043,5,0,0:0:0:0:
256,192,56201,1,0,0:0:0:0:
256,192,56359,1,8,0:0:0:0:
256,192,56675,1,8,0:0:0:0:
256,192,56990,1,0,0:0:0:0:
256,192,57306,1,0,0:0:0:0:
256,192,57464,5,8,0:0:0:0:
256,192,57622,1,4,0:0:0:0:
256,192,58254,1,8,0:0:0:0:
256,192,58569,1,0,0:0:0:0:
256,192,58727,1,0,0:0:0:0:
256,192,58885,5,8,0:0:0:0:
256,192,59201,1,8,0:0:0:0:
256,192,59517,1,0,0:0:0:0:
256,192,59832,1,8,0:0:0:0:
256,192,59990,1,8,0:0:0:0:
256,192,60148,1,4,0:0:0:0:
256,192,61411,12,0,62359,0:0:0:0:
256,192,62675,5,4,0:0:0:0:
256,192,63306,1,8,0:0:0:0:
256,192,63622,1,8,0:0:0:0:
256,192,63780,1,0,0:0:0:0:
256,192,63938,1,0,0:0:0:0:
256,192,64254,5,0,0:0:0:0:
256,192,64569,1,8,0:0:0:0:
256,192,64885,1,8,0:0:0:0:
256,192,65043,1,8,0:0:0:0:
256,192,65201,1,0,0:0:0:0:
256,192,65832,1,0,0:0:0:0:
256,192,66148,1,8,0:0:0:0:
256,192,66464,1,0,0:0:0:0:
256,192,66622,1,0,0:0:0:0:
256,192,66780,1,8,0:0:0:0:
256,192,67096,5,0,0:0:0:0:
256,192,67254,1,8,0:0:0:0:
256,192,67411,1,8,0:0:0:0:
256,192,67569,1,8,0:0:0:0:
256,192,67727,1,4,0:0:0:0:
256,192,68359,1,8,0:0:0:0:
256,192,68675,1,8,0:0:0:0:
256,192,68832,1,0,0:0:0:0:
256,192,68990,1,8,0:0:0:0:
256,192,69306,1,8,0:0:0:0:
256,192,69622,1,8,0:0:0:0:
256,192,69938,5,8,0:0:0:0:
256,192,70096,1,8,0:0:0:0:
256,192,70254,1,0,0:0:0:0:
256,192,70885,1,0,0:0:0:0:
256,192,71201,1,0,0:0:0:0:
256,192,71359,1,0,0:0:0:0:
256,192,71517,1,8,0:0:0:0:
256,192,71832,1,8,0:0:0:0:
256,192,72148,1,0,0:0:0:0:
256,192,72306,1,8,0:0:0:0:
256,192,72464,1,8,0:0:0:0:
256,192,72622,1,8,0:0:0:0:
256,192,72780,5,4,0:0:0:0:
256,192,73411,1,8,0:0:0:0:
256,192,73727,1,8,0:0:0:0:
256,192,73885,1,8,0:0:0:0:
256,192,74043,1,0,0:0:0:0:
256,192,74359,1,8,0:0:0:0:
256,192,74675,1,0,0:0:0:0:
256,192,74990,1,0,0:0:0:0:
256,192,75148,1,0,0:0:0:0:
256,192,75306,1,8,0:0:0:0:
256,192,75938,1,0,0:0:0:0:
256,192,76254,1,8,0:0:0:0:
256,192,76411,1,0,0:0:0:0:
256,192,76569,1,0,0:0:0:0:
256,192,76885,1,8,0:0:0:0:
256,192,77201,1,0,0:0:0:0:
256,192,77359,1,0,0:0:0:0:
256,192,77517,1,0,0:0:0:0:
256,192,77675,1,0,0:0:0:0:
256,192,77832,1,12,0:0:0:0:
256,192,78464,1,0,0:0:0:0:
256,192,78780,1,8,0:0:0:0:
256,192,79096,1,0,0:0:0:0:
256,192,79727,5,8,0:0:0:0:
256,192,80043,1,0,0:0:0:0:
256,192,80359,1,0,0:0:0:0:
256,192,80675,1,8,0:0:0:0:
256,192,81148,5,8,0:0:0:0:
256,192,81464,1,8,0:0:0:0:
256,192,81622,1,0,0:0:0:0:
256,192,81938,1,8,0:0:0:0:
256,192,82254,1,0,0:0:0:0:
256,192,82411,1,0,0:0:0:0:
256,192,82569,1,8,0:0:0:0:
256,192,82885,1,4,0:0:0:0:
256,192,83517,1,0,0:0:0:0:
256,192,83832,1,8,0:0:0:0:
256,192,83990,5,8,0:0:0:0:
256,192,84148,1,0,0:0:0:0:
256,192,84464,1,8,0:0:0:0:
256,192,84780,1,0,0:0:0:0:
256,192,85411,5,0,0:0:0:0:
256,192,85885,1,8,0:0:0:0:
256,192,86359,1,8,0:0:0:0:
256,192,86832,5,8,0:0:0:0:
256,192,87148,1,8,0:0:0:0:
256,192,87306,1,0,0:0:0:0:
256,192,87464,1,0,0:0:0:0:
256,192,87622,1,8,0:0:0:0:
256,192,87938,1,12,0:0:0:0:
256,192,88569,1,0,0:0:0:0:
256,192,88885,1,8,0:0:0:0:
256,192,89043,1,8,0:0:0:0:
256,192,89201,1,0,0:0:0:0:
256,192,89517,1,8,0:0:0:0:
256,192,89832,5,0,0:0:0:0:
256,192,90464,1,0,0:0:0:0:
256,192,90780,1,8,0:0:0:0:
256,192,91096,1,8,0:0:0:0:
256,192,91254,5,0,0:0:0:0:
256,192,91569,1,0,0:0:0:0:
256,192,91727,1,0,0:0:0:0:
256,192,92043,1,8,0:0:0:0:
256,192,92359,1,0,0:0:0:0:
256,192,92990,1,4,0:0:0:0:
256,192,93464,1,8,0:0:0:0:
256,192,93938,1,0,0:0:0:0:
256,192,94411,1,8,0:0:0:0:
256,192,94569,1,0,0:0:0:0:
256,192,94727,1,0,0:0:0:0:
256,192,95043,1,0,0:0:0:0:
256,192,95201,1,8,0:0:0:0:
256,192,95517,1,8,0:0:0:0:
256,192,95990,1,8,0:0:0:0:
256,192,96464,1,0,0:0:0:0:
256,192,96938,1,8,0:0:0:0:
256,192,97096,1,0,0:0:0:0:
256,192,97254,1,8,0:0:0:0:
256,192,97411,1,8,0:0:0:0:
256,192,98043,1,0,0:0:0:0:
256,192,98517,1,8,0:0:0:0:
256,192,98990,1,0,0:0:0:0:
256,192,99464,1,8,0:0:0:0:
260,186,99622,1,0,0:0:0:0:
256,192,99938,1,8,0:0:0:0:
256,192,100254,1,0,0:0:0:0:
260,186,100411,1,8,0:0:0:0:
256,192,100569,1,0,0:0:0:0:
256,192,101517,1,8,0:0:0:0:
256,192,101990,1,8,0:0:0:0:
256,192,102148,1,0,0:0:0:0:
256,192,102464,1,8,0:0:0:0:
256,192,102780,1,0,0:0:0:0:
248,190,102938,1,0,0:0:0:0:
256,192,103096,1,8,0:0:0:0:
256,192,104043,1,8,0:0:0:0:
256,192,104517,1,8,0:0:0:0:
256,192,104675,5,0,0:0:0:0:
256,192,104990,1,8,0:0:0:0:
256,192,105306,1,0,0:0:0:0:
256,192,105464,1,8,0:0:0:0:
256,192,105622,1,0,0:0:0:0:
256,192,105938,1,0,0:0:0:0:
256,192,106569,1,8,0:0:0:0:
256,192,106885,1,0,0:0:0:0:
256,192,107201,1,8,0:0:0:0:
256,192,107359,1,0,0:0:0:0:
256,192,107517,5,8,0:0:0:0:
256,192,108148,5,4,0:0:0:0:
256,192,108780,1,8,0:0:0:0:
256,192,109096,1,8,0:0:0:0:
256,192,109254,1,0,0:0:0:0:
256,192,109411,1,0,0:0:0:0:
256,192,109727,1,8,0:0:0:0:
256,192,110043,1,0,0:0:0:0:
256,192,110359,1,0,0:0:0:0:
256,192,110675,1,8,0:0:0:0:
256,192,111306,1,0,0:0:0:0:
256,192,111622,1,8,0:0:0:0:
256,192,111780,1,0,0:0:0:0:
256,192,111938,1,0,0:0:0:0:
256,192,112254,1,8,0:0:0:0:
256,192,112569,1,0,0:0:0:0:
256,192,112885,1,8,0:0:0:0:
256,192,113043,1,8,0:0:0:0:
256,192,113201,1,4,0:0:0:0:
256,192,113832,5,0,0:0:0:0:
256,192,114148,1,8,0:0:0:0:
256,192,114306,1,0,0:0:0:0:
256,192,114464,1,0,0:0:0:0:
256,192,114780,1,8,0:0:0:0:
256,192,115096,1,0,0:0:0:0:
256,192,115411,1,0,0:0:0:0:
256,192,115569,1,8,0:0:0:0:
256,192,115727,1,0,0:0:0:0:
256,192,116359,1,0,0:0:0:0:
256,192,116675,5,0,0:0:0:0:
256,192,116832,1,0,0:0:0:0:
256,192,116990,1,8,0:0:0:0:
256,192,117306,1,8,0:0:0:0:
256,192,117622,1,0,0:0:0:0:
256,192,117938,1,0,0:0:0:0:
256,192,118096,5,8,0:0:0:0:
256,192,118254,1,4,0:0:0:0:
256,192,118885,1,8,0:0:0:0:
256,192,119201,1,0,0:0:0:0:
256,192,119359,1,0,0:0:0:0:
256,192,119517,5,8,0:0:0:0:
256,192,119832,5,8,0:0:0:0:
256,192,120148,1,0,0:0:0:0:
256,192,120464,1,8,0:0:0:0:
256,192,120622,1,8,0:0:0:0:
256,192,120780,1,0,0:0:0:0:
256,192,121411,5,0,0:0:0:0:
256,192,121727,1,8,0:0:0:0:
256,192,122043,1,0,0:0:0:0:
256,192,122201,1,0,0:0:0:0:
256,192,122359,1,8,0:0:0:0:
256,192,122675,1,0,0:0:0:0:
256,192,122990,1,8,0:0:0:0:
256,192,123148,1,8,0:0:0:0:
256,192,123306,5,4,0:0:0:0:
256,192,123938,1,8,0:0:0:0:
256,192,124254,1,8,0:0:0:0:
256,192,124411,1,0,0:0:0:0:
256,192,124569,1,0,0:0:0:0:
256,192,124885,5,0,0:0:0:0:
256,192,125201,1,8,0:0:0:0:
256,192,125517,1,8,0:0:0:0:
256,192,125675,1,8,0:0:0:0:
256,192,125832,1,0,0:0:0:0:
256,192,126464,1,0,0:0:0:0:
256,192,126780,1,8,0:0:0:0:
256,192,127096,1,0,0:0:0:0:
256,192,127254,1,0,0:0:0:0:
256,192,127411,1,8,0:0:0:0:
256,192,127569,1,0,0:0:0:0:
256,192,127727,5,0,0:0:0:0:
256,192,128043,1,8,0:0:0:0:
256,192,128201,1,8,0:0:0:0:
256,192,128359,1,4,0:0:0:0:
256,192,128990,1,8,0:0:0:0:
256,192,129306,1,8,0:0:0:0:
256,192,129464,1,0,0:0:0:0:
256,192,129622,1,8,0:0:0:0:
256,192,129938,1,8,0:0:0:0:
256,192,130254,1,8,0:0:0:0:
256,192,130569,5,8,0:0:0:0:
256,192,130727,1,8,0:0:0:0:
256,192,130885,1,0,0:0:0:0:
256,192,131517,1,0,0:0:0:0:
256,192,131832,1,0,0:0:0:0:
256,192,131990,1,0,0:0:0:0:
256,192,132148,1,8,0:0:0:0:
256,192,132464,1,8,0:0:0:0:
256,192,132780,1,0,0:0:0:0:
256,192,132938,1,0,0:0:0:0:
256,192,133096,1,8,0:0:0:0:
256,192,133254,1,8,0:0:0:0:
256,192,133411,5,4,0:0:0:0:
256,192,134043,1,8,0:0:0:0:
256,192,134359,1,8,0:0:0:0:
256,192,134517,1,8,0:0:0:0:
256,192,134675,1,0,0:0:0:0:
256,192,134990,1,8,0:0:0:0:
256,192,135306,1,8,0:0:0:0:
256,192,135464,1,0,0:0:0:0:
256,192,135622,1,8,0:0:0:0:
256,192,135780,1,0,0:0:0:0:
256,192,135938,1,0,0:0:0:0:
256,192,136254,5,8,0:0:0:0:
256,192,136411,1,0,0:0:0:0:
256,192,136885,1,8,0:0:0:0:
256,192,137201,1,0,0:0:0:0:
256,192,137359,1,0,0:0:0:0:
256,192,137517,1,8,0:0:0:0:
256,192,137675,1,0,0:0:0:0:
256,192,137832,1,0,0:0:0:0:
256,192,138148,1,0,0:0:0:0:
256,192,138306,1,0,0:0:0:0:
256,192,138464,1,12,0:0:0:0:
