osu file format v14

[General]
AudioFilename: audio.mp3
AudioLeadIn: 0
PreviewTime: 364512
Countdown: 1
SampleSet: Soft
StackLeniency: 0.7
Mode: 0
LetterboxInBreaks: 0
WidescreenStoryboard: 0

[Editor]
Bookmarks: 77408,146578,185571,259556,354754,399194,424619,473435,488795,520937
DistanceSpacing: 0.3
BeatDivisor: 4
GridSize: 32
TimelineZoom: 2.699999

[Metadata]
Title:Songs Compilation
TitleUnicode:Songs Compilation
Artist:Fractal Dreamers
ArtistUnicode:Fractal Dreamers
Creator:_Epreus
Version:Empyreal Dreamland
Source:
Tags:osu! featured artist fa kingdom of silence ep everything for a dream monolithia fata morgana blue haven method of illusion gardens under a spring sky paradigm shift fortuna redux celestial horizon ad astra helblinde skymuted artcore
BeatmapID:2051817
BeatmapSetID:980459

[Difficulty]
HPDrainRate:6
CircleSize:5
OverallDifficulty:9.3
ApproachRate:9.7
SliderMultiplier:1.8
SliderTickRate:1

[Events]
//Background and Video events
0,0,"YR32EoS.jpg",0,0
//Break Periods
2,11941,20913
2,32274,42246
2,77608,87112
2,146778,153941
2,185771,193832
2,219295,228292
2,259756,265459
2,354954,364124
2,424819,434540
2,473484,478307
//Storyboard Layer 0 (Background)
//Storyboard Layer 1 (Fail)
//Storyboard Layer 2 (Pass)
//Storyboard Layer 3 (Foreground)
//Storyboard Layer 4 (Overlay)
//Storyboard Sound Samples

[TimingPoints]
75,333.333333333333,4,2,0,35,1,0
75,-133.333333333333,4,2,0,35,0,0
10741,-86.9565217391303,4,2,98,75,0,0
11241,-86.9565217391303,4,2,98,55,0,0
11324,-86.9565217391303,4,2,2,30,0,0
21408,-86.9565217391303,4,2,2,55,0,0
21574,-86.9565217391303,4,2,2,5,0,0
21658,-86.9565217391303,4,2,2,55,0,0
21824,-86.9565217391303,4,2,2,5,0,0
21908,-86.9565217391303,4,2,2,55,0,0
22074,-86.9565217391303,4,2,2,5,0,0
22158,-86.9565217391303,4,2,2,55,0,0
22324,-86.9565217391303,4,2,2,5,0,0
22408,-86.9565217391303,4,2,2,55,0,0
22658,-86.9565217391303,4,2,2,55,0,0
22908,-86.9565217391303,4,2,2,5,0,0
22991,-86.9565217391303,4,2,2,55,0,0
23158,-86.9565217391303,4,2,2,5,0,0
23241,-86.9565217391303,4,2,2,55,0,0
23408,-86.9565217391303,4,2,2,5,0,0
23491,-86.9565217391303,4,2,2,55,0,0
23658,-86.9565217391303,4,2,2,5,0,0
23741,-86.9565217391303,4,2,2,55,0,0
24241,-86.9565217391303,4,2,2,5,0,0
24324,-86.9565217391303,4,2,2,55,0,0
24491,-86.9565217391303,4,2,2,5,0,0
24574,-86.9565217391303,4,2,2,55,0,0
24741,-86.9565217391303,4,2,2,5,0,0
24824,-86.9565217391303,4,2,2,55,0,0
24991,-86.9565217391303,4,2,2,5,0,0
25074,-86.9565217391303,4,2,2,55,0,0
25574,-86.9565217391303,4,2,2,5,0,0
25658,-86.9565217391303,4,2,2,55,0,0
25824,-86.9565217391303,4,2,2,5,0,0
25908,-86.9565217391303,4,2,2,55,0,0
30741,-133.333333333333,4,2,2,55,0,0
31408,-66.6666666666667,4,2,2,55,0,0
32074,-66.6666666666667,4,2,2,55,0,0
42741,-100,4,2,98,55,0,0
48074,-100,4,2,2,55,0,0
56074,-83.3333333333333,4,2,2,55,0,1
66074,-83.3333333333333,4,2,2,55,0,0
66741,-76.9230769230769,4,2,2,55,0,1
76074,-76.9230769230769,4,2,2,55,0,0
87607,342.857142857143,4,2,0,40,1,0
87607,-181.818181818181,4,2,0,30,0,0
101321,-181.818181818181,4,2,98,65,0,0
101407,-181.818181818181,4,2,0,30,0,0
121378,-181.818181818181,4,2,0,5,0,0
121464,-181.818181818181,4,2,0,40,0,0
121635,-181.818181818181,4,2,0,5,0,0
121721,-181.818181818181,4,2,0,40,0,0
121892,-100,4,2,98,40,0,0
123264,-100,4,2,2,40,0,0
124292,-222.222222222221,4,2,0,40,0,0
124635,-76.9230769230769,4,2,6,65,0,1
134235,-76.9230769230769,4,2,6,65,0,0
135607,-66.6666666666667,4,2,6,65,0,1
143835,-100,4,2,6,65,0,0
146578,-100,4,2,6,80,0,0
154436,324.324324324324,4,2,2,65,1,0
164814,-79.9999999999999,4,2,97,65,0,1
165138,-60.6060606060606,4,2,97,65,0,1
165625,-80,4,2,97,65,0,1
165787,-60.6060606060606,4,2,97,65,0,1
166111,-80,4,2,97,65,0,1
166436,-60.6060606060606,4,2,97,65,0,1
166760,-80,4,2,97,65,0,1
167084,-60.6060606060606,4,2,97,65,0,1
167408,-80,4,2,97,65,0,1
167733,-60.6060606060606,4,2,97,65,0,1
168057,-80,4,2,97,65,0,1
168381,-60.6060606060606,4,2,97,65,0,1
168706,-80,4,2,97,65,0,1
169030,-60.6060606060606,4,2,97,65,0,1
169354,-80,4,2,97,65,0,1
169679,-60.6060606060606,4,2,97,65,0,1
170003,-80,4,2,97,65,0,1
170327,-60.6060606060606,4,2,97,65,0,1
170652,-80,4,2,97,65,0,1
170976,-60.6060606060606,4,2,97,65,0,1
171300,-80,4,2,97,65,0,1
171625,-60.6060606060606,4,2,97,65,0,1
171949,-80,4,2,97,65,0,1
172273,-60.6060606060606,4,2,97,65,0,1
172598,-80,4,2,97,65,0,1
173571,-60.6060606060606,4,2,97,65,0,1
173895,-80,4,2,97,65,0,1
174219,-60.6060606060606,4,2,97,65,0,1
174706,-80,4,2,97,65,0,1
174868,-60.6060606060606,4,2,97,65,0,1
175192,-74.0740740740741,4,2,97,65,0,1
175517,-57.1428571428571,4,2,97,65,0,1
176003,-74.0740740740741,4,2,97,65,0,1
176165,-57.1428571428571,4,2,97,65,0,1
176490,-74.0740740740741,4,2,97,65,0,1
176814,-57.1428571428571,4,2,97,65,0,1
177138,-74.0740740740741,4,2,97,65,0,1
177463,-57.1428571428571,4,2,97,65,0,1
177787,-74.0740740740741,4,2,97,65,0,1
178111,-57.1428571428571,4,2,97,65,0,1
178435,-74.0740740740741,4,2,97,65,0,1
178760,-57.1428571428571,4,2,97,65,0,1
179084,-74.0740740740741,4,2,97,65,0,1
179408,-57.1428571428571,4,2,97,65,0,1
179733,-74.0740740740741,4,2,97,65,0,1
180057,-57.1428571428571,4,2,97,65,0,1
180381,-74.0740740740741,4,2,97,65,0,1
180706,-57.1428571428571,4,2,97,65,0,1
181030,-74.0740740740741,4,2,97,65,0,1
181354,-57.1428571428571,4,2,97,65,0,1
181679,-74.0740740740741,4,2,97,65,0,1
182003,-57.1428571428571,4,2,97,65,0,1
182327,-74.0740740740741,4,2,97,65,0,1
182652,-57.1428571428571,4,2,97,65,0,1
182976,-74.0740740740741,4,2,97,65,0,1
183300,-57.1428571428571,4,2,97,65,0,1
183625,-74.0740740740741,4,2,97,65,0,1
183949,-57.1428571428571,4,2,97,65,0,1
184760,-74.0740740740741,4,2,97,65,0,1
185246,-57.1428571428571,4,2,97,65,0,1
185571,-57.1428571428571,4,2,97,65,0,0
194327,307.692307692308,4,2,0,45,1,0
194942,-133.333333333333,4,2,0,45,0,0
199249,307.692307692308,4,2,0,60,1,0
199249,-90.9090909090909,4,2,5,60,0,0
204172,-83.3333333333333,4,2,5,80,0,1
218325,-181.818181818181,4,2,5,60,0,1
218633,-86.9565217391303,4,2,5,60,0,1
218941,-86.9565217391303,4,2,5,60,0,0
228787,-181.818181818181,4,2,0,35,0,0
229710,-133.333333333333,4,2,0,35,0,0
229941,-181.818181818181,4,2,0,5,0,0
230018,-181.818181818181,4,2,0,35,0,0
237402,-76.9230769230769,4,2,5,80,0,0
248479,-71.4285714285714,4,2,5,80,0,1
258633,-133.333333333333,4,2,0,45,0,0
265954,300,4,2,0,50,1,0
266554,-153.846153846153,4,2,0,35,0,0
275554,-71.4285714285714,4,2,99,55,0,0
277954,-58.8235294117647,4,2,97,75,0,1
278254,-58.8235294117647,4,2,97,75,0,1
278704,-58.8235294117647,4,2,97,75,0,1
279829,-58.8235294117647,4,2,97,5,0,1
279904,-58.8235294117647,4,2,97,75,0,1
280279,-58.8235294117647,4,2,97,5,0,1
280354,-58.8235294117647,4,2,97,75,0,1
286354,-58.8235294117647,4,2,97,75,0,0
287554,-54.054054054054,4,2,97,75,0,1
296029,-54.054054054054,4,2,97,5,0,1
296104,-54.054054054054,4,2,97,75,0,1
296329,-54.054054054054,4,2,97,5,0,1
296404,-54.054054054054,4,2,97,75,0,1
296629,-54.054054054054,4,2,97,5,0,1
296704,-54.054054054054,4,2,97,75,0,1
296929,-54.054054054054,4,2,97,5,0,1
297004,-54.054054054054,4,2,97,75,0,1
297154,-68.9655172413793,4,2,97,75,0,0
299704,-133.333333333333,4,2,0,45,0,0
301954,-68.9655172413792,4,2,97,75,0,0
304504,-133.333333333333,4,2,0,45,0,0
306754,-68.9655172413793,4,2,97,75,0,0
309304,-133.333333333333,4,2,0,45,0,0
311554,-68.9655172413793,4,2,97,75,0,0
316954,-68.9655172413793,4,2,0,45,0,0
317104,-117.647058823529,4,2,0,45,0,0
325879,-117.647058823529,4,2,0,5,0,0
325954,-100,4,2,97,45,0,0
335554,-76.9230769230769,4,2,8,75,0,1
339154,-76.9230769230769,4,2,88,75,0,1
339229,-76.9230769230769,4,2,8,75,0,1
343954,-76.9230769230769,4,2,88,75,0,1
344029,-76.9230769230769,4,2,8,75,0,1
348754,-76.9230769230769,4,2,88,75,0,1
348829,-76.9230769230769,4,2,8,75,0,1
354754,-76.9230769230769,4,2,8,75,0,0
364619,300,4,2,98,65,1,0
364694,-100,4,2,0,40,0,0
365519,-181.818181818181,4,2,0,40,0,0
367019,-66.6666666666667,4,2,3,77,0,1
376019,-66.6666666666667,4,2,0,77,0,1
376619,-66.6666666666667,4,2,3,77,0,1
383819,-66.6666666666667,4,2,3,77,0,0
384269,-100,4,2,3,77,0,0
384719,-66.6666666666667,4,2,3,77,0,0
385019,-100,4,2,3,77,0,0
385619,-100,4,2,0,77,0,0
386219,-66.6666666666667,4,2,3,77,0,1
403469,-66.6666666666667,4,2,3,77,0,0
405419,-76.9230769230769,4,2,3,60,0,0
435035,300,4,2,0,35,1,0
436535,-181.818181818181,4,2,0,35,0,0
444635,-74.0740740740741,4,2,4,55,0,1
453035,-74.0740740740741,4,2,4,55,0,0
463835,-133.333333333333,4,2,4,35,0,0
478802,285.714285714286,4,2,3,60,1,0
478802,-76.9230769230769,4,2,3,60,0,0
485652,-666.666666666658,4,2,3,60,0,0
487087,-100,4,2,3,60,0,0
487944,-71.4285714285714,4,2,3,75,0,1
489873,-71.4285714285714,4,2,3,5,0,1
489944,-71.4285714285714,4,2,3,75,0,1
492444,-71.4285714285714,4,2,3,5,0,1
492516,-71.4285714285714,4,2,3,75,0,1
493016,-71.4285714285714,4,2,3,5,0,1
493087,-71.4285714285714,4,2,3,75,0,1
493873,-71.4285714285714,4,2,3,5,0,1
493944,-71.4285714285714,4,2,3,75,0,1
494944,-71.4285714285714,4,2,55,75,0,0
497087,-71.4285714285714,4,2,3,75,0,1
497587,-71.4285714285714,4,2,3,5,0,1
497659,-71.4285714285714,4,2,3,75,0,1
500444,-71.4285714285714,4,2,3,5,0,1
500516,-71.4285714285714,4,2,3,75,0,1
501587,-71.4285714285714,4,2,3,5,0,0
501659,-71.4285714285714,4,2,3,75,0,1
502230,-71.4285714285714,4,2,3,75,0,0
502802,-100,4,2,3,75,0,1
503087,-100,4,2,3,75,0,0
503373,-100,4,2,3,75,0,1
503659,-100,4,2,3,75,0,0
503944,-107.52688172043,4,2,3,75,0,0
506159,-107.52688172043,4,2,3,5,0,0
506230,-107.52688172043,4,2,3,75,0,1
506302,-107.52688172043,4,2,55,75,0,1
515373,-83.3333333333333,4,2,55,75,0,1
523373,-83.3333333333333,4,2,55,75,0,0
524516,-83.3333333333333,4,2,4,75,0,0
529087,-83.3333333333333,4,2,55,5,0,0

[Colours]
Combo1 : 255,255,128
Combo2 : 128,255,255
Combo3 : 0,128,255
Combo4 : 128,128,255
Combo5 : 192,192,192

[HitObjects]
126,107,75,6,0,P|136:82|132:38,2,67.5000025749208,2|2|2,0:0|0:0|0:0,0:0:0:0:
42,153,574,2,0,P|84:128|133:235,1,202.500007724762,2|0,0:0|0:0,0:0:0:0:
135,232,2074,2,0,P|158:220|207:219,1,67.5000025749208,2|2,0:0|0:0,0:0:0:0:
316,295,2408,2,0,P|282:294|252:280,1,67.5000025749208,2|2,0:0|0:0,0:0:0:0:
390,229,2741,5,2,0:0:0:0:
299,160,2908,2,0,L|291:93,1,67.5000025749208,2|2,0:0|0:0,0:0:0:0:
347,7,3241,2,0,P|296:71|176:52,1,202.500007724762,2|0,0:0|0:0,0:0:0:0:
184,59,4741,1,2,0:0:0:0:
121,107,4908,2,0,P|106:52|115:18,2,67.5000025749208,2|2|2,0:0|0:0|0:0,0:0:0:0:
195,138,5408,6,0,P|194:171|181:202,1,67.5000025749208,2|2,0:0|0:0,0:0:0:0:
154,311,5741,1,2,0:0:0:0:
113,243,5908,2,0,B|219:202|197:307|313:276,1,202.500007724762,2|0,0:0|0:0,0:0:0:0:
301,278,6574,1,0,0:0:0:0:
373,328,6741,6,0,P|376:295|385:233,1,67.5000025749208
293,210,7074,2,0,P|297:244|301:278,1,67.5000025749208
426,198,7408,5,2,0:0:0:0:
271,138,7574,1,2,0:0:0:0:
432,130,7741,2,0,P|428:164|425:198,1,67.5000025749208,2|2,0:0|0:0,0:0:0:0:
271,138,8074,6,0,P|268:104|264:71,1,67.5000025749208,2|2,0:0|0:0,0:0:0:0:
166,215,8408,1,2,0:0:0:0:
151,80,8574,1,2,0:0:0:0:
165,228,8741,2,0,P|131:223|97:220,1,67.5000025749208
231,290,9074,2,0,P|264:286|298:282,1,67.5000025749208
162,233,9408,6,0,P|128:228|94:225,1,67.5000025749208
228,295,9741,2,0,P|261:291|295:287,1,67.5000025749208
390,308,10074,1,0,0:0:0:0:
347,368,10241,2,0,L|333:209,1,135.000005149842,2|0,0:0|0:0,0:0:0:0:
225,158,10741,6,0,B|336:128|299:235|425:201,1,207.000003948212,8|0,1:0|0:0,0:0:0:0:
428,196,11241,1,8,0:0:0:0:
436,198,11741,1,0,1:0:0:0:
253,284,21408,6,0,P|197:278|154:315,1,103.500001974106,8|0,0:0|0:0,0:0:0:0:
146,332,21658,2,0,P|134:276|85:247,1,103.500001974106,8|0,0:0|0:0,0:0:0:0:
67,245,21908,2,0,P|115:216|128:161,1,103.500001974106,8|0,0:0|0:0,0:0:0:0:
125,143,22158,2,0,P|166:180|223:176,1,103.500001974106,8|0,0:0|0:0,0:0:0:0:
240,167,22408,2,0,P|216:218|238:270,1,103.500001974106,8|8,0:0|0:3,0:0:0:0:
260,280,22658,1,8,0:3:0:0:
260,280,22741,6,0,P|316:274|350:229,1,103.500001974106,8|0,0:0|0:0,0:0:0:0:
403,282,22991,2,0,P|414:226|382:180,1,103.500001974106,8|0,0:0|0:0,0:0:0:0:
449,146,23241,2,0,P|400:117|345:134,1,103.500001974106,8|0,0:0|0:0,0:0:0:0:
334,60,23491,2,0,P|292:97|290:154,1,103.500001974106,8|0,0:0|0:0,0:0:0:0:
303,170,23741,1,8,0:0:0:0:
213,264,23908,1,8,0:3:0:0:
213,264,23991,1,8,0:3:0:0:
213,264,24074,6,0,B|162:253|162:253|116:278,1,103.500001974106,8|0,0:0|0:0,0:0:0:0:
116,278,24324,2,0,B|110:227|110:227|72:191,1,103.500001974106,8|0,0:0|0:0,0:0:0:0:
72,190,24574,2,0,B|118:169|118:169|141:121,1,103.500001974106,8|0,0:0|0:0,0:0:0:0:
141,121,24824,2,0,B|175:158|175:158|227:165,1,103.500001974106,8|0,0:0|0:0,0:0:0:0:
227,165,25074,2,0,B|201:209|201:209|211:260,1,103.500001974106,8|8,0:0|0:3,0:0:0:0:
246,285,25324,1,8,0:3:0:0:
246,285,25408,6,0,P|311:288|347:327,1,103.500001974106,8|0,0:0|0:0,0:0:0:0:
379,369,25658,2,0,L|394:256,1,103.500001974106,8|0,0:0|0:0,0:0:0:0:
462,296,25908,1,8,0:0:0:0:
378,163,26074,6,0,L|373:128,2,25.8750004935265,8|8|8,0:0|0:0|0:0,0:0:0:0:
301,188,26241,2,0,L|297:213,2,25.8750004935265,8|8|8,0:0|0:0|0:0,0:0:0:0:
223,164,26408,2,0,L|208:54,1,103.500001974106,8|8,0:0|0:3,0:0:0:0:
205,35,26630,2,0,L|212:-20,2,34.5000006580353,8|8|0,0:0|0:3|0:0,0:0:0:0:
58,183,26908,6,8,L|65:128,1,51.7500009870529,8|8,0:0|0:0,0:0:0:0:
77,28,27074,1,8,0:0:0:0:
229,215,27241,6,8,L|221:160,1,51.7500009870529
209,61,27407,1,8,0:0:0:0:
400,247,27574,5,8,0:0:0:0:
419,92,27740,1,8,0:0:0:0:
327,301,27908,2,8,P|321:275|320:254,2,34.5000006580353
344,333,28074,5,8,0:0:0:0:
166,287,28241,6,8,L|220:279,1,51.7500009870529
320,267,28407,1,8,0:0:0:0:
102,158,28574,6,8,L|156:165,1,51.7500009870529
256,178,28740,1,8,0:0:0:0:
166,29,28908,5,8,0:0:0:0:
320,9,29074,1,8,0:0:0:0:
256,178,29241,2,8,P|251:151|258:127,2,34.5000006580353
321,227,29408,5,8,0:0:0:0:
364,205,29491,1,0,0:0:0:0:
405,203,29575,1,8,0:0:0:0:
442,222,29658,1,0,0:0:0:0:
469,251,29741,1,8,0:0:0:0:
478,280,29825,1,0,0:0:0:0:
478,308,29908,1,8,0:0:0:0:
471,330,29991,1,0,0:0:0:0:
465,343,30075,1,8,0:0:0:0:
454,356,30158,1,0,0:0:0:0:
440,367,30241,1,8,0:0:0:0:
426,375,30324,1,0,0:0:0:0:
414,376,30408,1,8,0:0:0:0:
397,376,30491,1,0,0:0:0:0:
384,375,30574,1,8,0:0:0:0:
375,371,30658,1,0,0:0:0:0:
370,363,30741,6,0,L|373:312,3,33.7500012874604,8|0|8|0,0:0|0:0|0:0|0:0,0:0:0:0:
288,267,31074,2,0,L|290:300,3,33.7500012874604,8|0|8|0,0:0|0:0|0:0|0:0,0:0:0:0:
206,363,31408,6,8,L|208:329,2,33.7500012874604
124,267,31574,2,8,L|126:300,2,33.7500012874604
200,345,31741,6,8,L|202:311,2,33.7500012874604
118,249,31907,2,8,L|120:282,2,33.7500012874604
36,153,32074,5,4,1:2:0:0:
121,78,42741,6,0,P|199:74|227:244,1,270,8|0,1:0|0:0,0:0:0:0:
89,206,43408,2,0,L|186:194,1,90,8|0,0:0|0:0,0:0:0:0:
329,242,43741,2,0,L|239:230,1,90,8|0,0:0|0:0,0:0:0:0:
350,320,44074,6,0,L|373:132,1,180,8|8,0:0|0:0,0:0:0:0:
372,141,44574,1,0,0:0:0:0:
354,52,44741,2,0,P|398:54|435:79,1,90,8|0,0:0|0:0,0:0:0:0:
302,106,45074,2,0,P|281:66|285:22,1,90,8|0,0:0|0:0,0:0:0:0:
372,141,45408,6,0,P|292:138|244:306,1,270,8|0,1:0|0:0,0:0:0:0:
298,370,46074,2,0,P|308:335|304:268,1,90,8|0,0:0|0:0,0:0:0:0:
413,295,46408,2,0,P|403:330|407:397,1,90,8|0,0:0|0:0,0:0:0:0:
235,292,46741,6,0,P|188:307|66:242,1,180,8|8,0:0|0:0,0:0:0:0:
74,255,47241,1,0,0:0:0:0:
124,194,47408,2,0,P|143:164|142:110,1,90,8|0,0:0|0:0,0:0:0:0:
2,78,47741,2,0,P|25:116|65:136,1,90,8|0,0:0|0:0,0:0:0:0:
162,30,48074,5,8,0:0:0:0:
244,199,48241,6,8,L|239:147,1,45
230,64,48408,1,8,0:0:0:0:
388,231,48574,6,8,L|393:179,1,45
401,96,48741,1,8,0:0:0:0:
239,154,48908,5,8,0:0:0:0:
318,329,49074,2,8,L|428:316,1,90
451,312,49297,6,8,L|495:317,2,30
244,263,49574,6,8,L|238:218,1,45
227,128,49741,1,8,0:0:0:0:
126,288,49908,6,8,L|132:243,1,45
143,153,50075,1,8,0:0:0:0:
5,281,50241,6,8,L|22:239,1,45
56,155,50408,1,8,0:0:0:0:
259,158,50574,6,8,P|271:134|274:118,2,30
227,222,50741,5,8,0:0:0:0:
256,238,50824,1,0,0:0:0:0:
289,241,50907,1,8,0:0:0:0:
321,231,50991,1,0,0:0:0:0:
345,208,51074,1,8,0:0:0:0:
369,185,51157,1,0,0:0:0:0:
401,174,51240,1,8,0:0:0:0:
434,177,51324,1,0,0:0:0:0:
463,194,51408,5,8,0:0:0:0:
487,232,51491,1,0,0:0:0:0:
488,276,51574,1,8,0:0:0:0:
465,314,51658,1,0,0:0:0:0:
426,335,51741,1,8,0:0:0:0:
381,332,51824,1,0,0:0:0:0:
345,306,51908,1,8,0:0:0:0:
328,265,51991,1,0,0:0:0:0:
334,221,52074,5,8,0:0:0:0:
353,163,52157,1,0,0:0:0:0:
338,104,52240,1,8,0:0:0:0:
294,61,52324,1,0,0:0:0:0:
234,49,52407,1,8,0:0:0:0:
176,69,52490,1,0,0:0:0:0:
138,117,52574,1,8,0:0:0:0:
131,178,52657,1,0,0:0:0:0:
157,233,52741,6,8,L|192:226,2,22.5
232,336,52908,2,8,L|197:328,2,22.5
206,223,53074,6,8,L|240:215,2,22.5
280,325,53241,2,8,L|245:317,2,22.5
254,212,53408,5,6,1:2:0:0:
438,292,53574,1,2,0:2:0:0:
416,93,53741,1,2,0:2:0:0:
346,252,53908,5,2,0:2:0:0:
426,192,54074,1,2,0:2:0:0:
335,152,54241,1,2,0:2:0:0:
412,257,54408,5,2,0:2:0:0:
398,132,54574,1,2,0:2:0:0:
297,206,54741,1,2,0:2:0:0:
455,189,54908,5,2,0:2:0:0:
317,129,55074,1,2,0:2:0:0:
334,278,55241,1,2,0:2:0:0:
316,110,55408,6,0,L|213:98,1,90,2|2,0:0|0:0,0:0:0:0:
118,228,55741,2,0,L|221:216,1,90,2|2,1:2|0:0,0:0:0:0:
88,306,56074,6,0,P|95:244|50:147,1,161.999995056153,6|0,1:2|0:0,0:0:0:0:
34,129,56408,2,0,P|86:138|137:110,1,107.999996704102,10|0,0:0|0:0,0:0:0:0:
194,56,56658,5,0,0:0:0:0:
194,56,56741,2,0,P|212:97|210:130,1,53.9999983520508,2|0,0:0|0:0,0:0:0:0:
207,217,56908,5,0,1:0:0:0:
207,217,56991,1,2,0:0:0:0:
207,217,57074,2,0,P|233:180|263:166,1,53.9999983520508,8|0,0:0|0:0,0:0:0:0:
340,126,57241,5,2,0:0:0:0:
340,126,57324,1,0,0:0:0:0:
340,126,57408,5,2,0:0:0:0:
459,246,57574,1,0,1:0:0:0:
480,174,57741,2,0,B|387:156|423:237|301:214,1,161.999995056153,10|0,0:0|0:0,0:0:0:0:
252,232,58074,6,0,P|259:257|276:279,1,53.9999983520508,2|0,0:0|0:0,0:0:0:0:
177,181,58241,5,0,1:0:0:0:
177,181,58324,1,2,0:0:0:0:
177,181,58408,2,0,P|163:204|160:230,1,53.9999983520508,8|0,0:0|0:0,0:0:0:0:
159,90,58574,5,2,0:0:0:0:
159,90,58658,1,0,0:0:0:0:
159,90,58741,6,0,B|222:84|222:84|256:105|256:105|320:99,1,161.999995056153,2|0,1:2|0:0,0:0:0:0:
375,144,59074,2,0,P|389:98|354:38,1,107.999996704102,10|0,0:0|0:0,0:0:0:0:
306,174,59324,1,0,0:0:0:0:
306,174,59408,5,2,0:0:0:0:
321,196,59491,1,0,0:0:0:0:
343,211,59574,1,0,1:0:0:0:
369,217,59658,1,2,0:0:0:0:
396,213,59741,1,8,0:0:0:0:
412,371,59908,1,2,0:0:0:0:
412,371,59991,1,0,0:0:0:0:
412,371,60074,6,0,P|412:323|455:257,1,107.999996704102,2|0,0:0|1:0,0:0:0:0:
512,116,60408,2,0,B|468:153|468:153|348:125,1,161.999995056153,8|0,0:0|0:0,0:0:0:0:
305,71,60741,2,0,P|289:101|284:140,1,53.9999983520508,2|0,0:0|0:0,0:0:0:0:
324,277,60908,5,0,1:0:0:0:
324,277,60991,1,2,0:0:0:0:
324,277,61074,2,0,P|306:248|274:224,1,53.9999983520508,8|0,0:0|0:0,0:0:0:0:
136,190,61242,5,2,0:0:0:0:
136,190,61325,1,0,0:0:0:0:
135,190,61408,6,0,P|88:254|88:333,1,161.999995056153,2|0,1:2|0:0,0:0:0:0:
151,374,61741,2,0,P|160:349|160:323,1,53.9999983520508,10|0,0:0|0:0,0:0:0:0:
136,190,61908,5,0,0:0:0:0:
136,190,61991,1,0,0:0:0:0:
136,190,62074,2,0,P|152:210|176:224,1,53.9999983520508,2|0,0:0|0:0,0:0:0:0:
303,269,62241,5,0,1:0:0:0:
303,269,62324,1,2,0:0:0:0:
303,269,62408,2,0,P|276:273|253:286,1,53.9999983520508,8|0,0:0|0:0,0:0:0:0:
346,367,62574,5,2,0:0:0:0:
346,367,62658,1,0,0:0:0:0:
346,367,62741,6,0,P|333:308|409:204,1,161.999995056153,2|0,0:0|0:0,0:0:0:0:
415,192,63074,2,0,P|343:189|314:138,1,107.999996704102,10|0,0:0|0:0,0:0:0:0:
357,36,63324,5,0,0:0:0:0:
357,36,63408,2,0,P|389:79|381:131,1,107.999996704102,2|0,0:0|1:0,0:0:0:0:
253,165,63658,1,2,0:0:0:0:
253,165,63741,2,0,P|291:104|350:104,1,107.999996704102,8|2,0:0|0:0,0:0:0:0:
295,253,63991,1,0,0:0:0:0:
295,253,64074,6,0,P|250:205|133:188,1,161.999995056153,2|0,1:2|0:0,0:0:0:0:
102,234,64408,2,0,P|85:206|85:173,1,53.9999983520508,8|0,0:0|0:0,0:0:0:0:
206,73,64574,5,2,0:0:0:0:
206,73,64658,1,0,0:0:0:0:
206,73,64741,2,0,P|190:101|161:118,1,53.9999983520508,2|0,0:0|0:0,0:0:0:0:
15,64,64908,5,0,1:0:0:0:
15,64,64991,1,0,0:0:0:0:
15,64,65074,2,0,P|47:63|76:79,1,53.9999983520508,8|0,0:0|0:0,0:0:0:0:
242,152,65241,5,0,0:0:0:0:
242,152,65324,1,0,0:0:0:0:
242,152,65408,6,0,L|369:138,1,107.999996704102,0|0,0:0|1:0,0:0:0:0:
497,227,65741,2,0,L|370:213,1,107.999996704102,8|0,0:0|0:0,0:0:0:0:
384,72,66074,6,0,L|360:286,1,215.999993408203,2|0,1:2|0:0,0:0:0:0:
359,286,66741,6,0,B|318:326|318:326|186:307,1,175.499991966248,2|0,1:2|0:0,0:0:0:0:
124,340,67074,6,0,P|117:307|132:268,1,58.4999973220826,10|0,0:0|0:0,0:0:0:0:
230,197,67241,5,0,0:0:0:0:
230,197,67324,1,0,0:0:0:0:
230,197,67408,2,0,P|204:219|163:226,1,58.4999973220826,2|0,0:0|0:0,0:0:0:0:
54,177,67574,5,0,1:0:0:0:
54,177,67658,1,2,0:0:0:0:
54,177,67741,2,0,P|86:187|112:219,1,58.4999973220826,8|0,0:0|0:0,0:0:0:0:
261,272,67908,5,2,0:0:0:0:
261,272,67991,1,0,0:0:0:0:
261,272,68074,6,0,B|355:296|332:216|436:244,1,175.499991966248,2|0,0:0|0:0,0:0:0:0:
461,273,68408,1,10,0:0:0:0:
397,102,68574,5,0,0:0:0:0:
397,102,68658,1,0,0:0:0:0:
397,102,68741,2,0,B|353:139|353:139|266:132,1,116.999994644165,2|0,0:0|1:0,0:0:0:0:
240,63,68991,1,2,0:0:0:0:
240,63,69074,5,8,0:0:0:0:
280,242,69241,1,2,0:0:0:0:
397,102,69408,6,0,L|384:271,1,116.999994644165,2|0,1:2|0:0,0:0:0:0:
500,335,69741,2,0,B|430:328|430:328|408:302|408:302|337:296,1,175.499991966248,10|0,0:0|0:0,0:0:0:0:
261,332,70074,6,0,P|254:298|262:266,1,58.4999973220826,2|0,0:0|0:0,0:0:0:0:
132,257,70241,5,0,1:0:0:0:
132,257,70324,1,2,0:0:0:0:
132,257,70408,2,0,P|151:228|179:211,1,58.4999973220826,8|0,0:0|0:0,0:0:0:0:
93,112,70574,5,2,0:0:0:0:
93,112,70658,1,0,0:0:0:0:
93,112,70741,6,0,P|127:105|217:153,1,116.999994644165,2|0,0:0|1:0,0:0:0:0:
258,274,71074,2,0,P|251:195|308:103,1,175.499991966248,8|0,0:0|0:0,0:0:0:0:
355,57,71408,6,0,P|323:37|283:33,1,58.4999973220826,2|0,0:0|0:0,0:0:0:0:
380,144,71574,5,0,1:0:0:0:
380,144,71658,1,2,0:0:0:0:
380,144,71741,2,0,P|413:126|436:93,1,58.4999973220826,8|0,0:0|0:0,0:0:0:0:
296,112,71908,5,2,0:0:0:0:
296,112,71991,1,0,0:0:0:0:
296,112,72074,6,0,B|289:183|289:183|311:209|311:209|303:305,1,175.499991966248,2|0,1:2|0:0,0:0:0:0:
280,330,72408,2,0,L|289:204,1,116.999994644165,10|0,0:0|0:0,0:0:0:0:
103,271,72741,2,0,P|157:297|229:269,1,116.999994644165,2|0,0:0|1:0,0:0:0:0:
217,205,72991,5,2,0:0:0:0:
217,205,73074,2,0,P|163:179|91:207,1,116.999994644165,8|2,0:0|0:0,0:0:0:0:
38,224,73324,5,0,0:0:0:0:
38,224,73408,2,0,B|74:192|74:192|55:66,1,175.499991966248,2|0,0:0|0:0,0:0:0:0:
51,36,73741,2,0,P|104:21|169:69,1,116.999994644165,10|2,0:0|0:0,0:0:0:0:
199,117,73991,5,0,0:0:0:0:
199,117,74074,2,0,P|225:93|234:56,1,58.4999973220826,2|0,0:0|0:0,0:0:0:0:
331,122,74241,5,0,1:0:0:0:
331,122,74324,1,2,0:0:0:0:
331,122,74408,2,0,P|332:86|312:54,1,58.4999973220826,8|0,0:0|0:0,0:0:0:0:
427,32,74575,5,2,0:0:0:0:
427,32,74658,1,0,0:0:0:0:
427,32,74741,6,0,P|410:124|408:238,1,175.499991966248,2|0,1:2|0:0,0:0:0:0:
448,276,75074,2,0,P|479:242|480:170,1,116.999994644165,8|0,0:0|0:0,0:0:0:0:
362,280,75324,1,0,0:0:0:0:
362,280,75408,2,0,P|375:323|437:360,1,116.999994644165,0|0,0:0|1:0,0:0:0:0:
406,205,75741,2,0,B|334:198|334:198|308:220|308:220|238:214,1,175.499991966248,8|0,0:0|0:0,0:0:0:0:
208,211,76074,5,0,1:0:0:0:
208,211,77408,5,6,0:0:0:0:
69,92,87607,6,0,P|51:138|101:227,2,148.50000453186,2|2|2,0:0|0:0|0:0,0:0:0:0:
231,58,88978,1,2,0:0:0:0:
207,138,89492,1,2,0:0:0:0:
289,119,90007,1,2,0:0:0:0:
243,56,90349,5,2,0:0:0:0:
199,127,90863,1,2,0:0:0:0:
283,130,91378,1,2,0:0:0:0:
189,204,91721,2,0,P|185:154|119:79,2,148.50000453186,2|2|2,0:0|0:0|0:0,0:0:0:0:
108,198,93092,6,0,P|66:226|34:321,2,148.50000453186,2|2|2,0:0|0:0|0:0,0:0:0:0:
144,272,94464,1,2,0:0:0:0:
238,298,94978,1,2,0:0:0:0:
214,204,95492,1,2,0:0:0:0:
271,370,95835,6,0,P|286:326|392:295,2,148.50000453186,2|2|2,0:0|0:0|0:0,0:0:0:0:
440,350,97207,2,0,P|460:280|422:220,2,148.50000453186,2|2|2,0:0|0:0|0:0,0:0:0:0:
440,350,98578,1,2,0:0:0:0:
336,308,101321,6,0,P|305:296|277:295,1,49.5000015106202,8|2,1:0|0:0,0:0:0:0:
234,355,101664,2,0,P|211:364|187:368,1,49.5000015106202,2|2,0:0|0:0,0:0:0:0:
121,313,102007,2,0,P|130:263|129:225,2,74.2500022659302,2|2|2,0:0|0:0|0:0,0:0:0:0:
55,178,103207,1,2,0:0:0:0:
141,138,103378,6,0,P|100:120|81:120,1,49.5000015106202,2|2,0:0|0:0,0:0:0:0:
151,217,103721,2,0,P|175:211|196:198,1,49.5000015106202,2|2,0:0|0:0,0:0:0:0:
261,139,104064,1,2,0:0:0:0:
291,252,104235,1,2,0:0:0:0:
256,117,104407,2,0,P|290:102|321:102,1,49.5000015106202,2|2,0:0|0:0,0:0:0:0:
364,165,104749,2,0,P|407:167|453:151,2,74.2500022659302,2|2|2,0:0|0:0|0:0,0:0:0:0:
364,165,105949,1,2,0:0:0:0:
413,231,106121,6,0,L|401:298,1,49.5000015106202,2|2,0:0|0:0,0:0:0:0:
337,352,106464,2,0,L|328:303,1,49.5000015106202,2|2,0:0|0:0,0:0:0:0:
310,205,106807,1,2,0:0:0:0:
249,335,106978,1,2,0:0:0:0:
249,195,107149,2,0,P|288:190|314:197,1,49.5000015106202,2|2,0:0|0:0,0:0:0:0:
189,262,107492,2,0,L|101:246,2,74.2500022659302,2|2|2,0:0|0:0|0:0,0:0:0:0:
189,262,108692,1,2,0:0:0:0:
151,184,108864,6,0,P|143:145|153:95,2,74.2500022659302,2|2|2,0:0|0:0|0:0,0:0:0:0:
151,184,110064,1,2,0:0:0:0:
243,198,110235,6,0,P|252:159|282:118,2,74.2500022659302,2|2|2,0:0|0:0|0:0,0:0:0:0:
243,198,111435,5,2,0:0:0:0:
320,249,111607,2,0,P|333:232|357:219,1,49.5000015106202,2|2,0:0|0:0,0:0:0:0:
426,308,111949,2,0,P|402:304|382:291,1,49.5000015106202,2|2,0:0|0:0,0:0:0:0:
426,187,112292,6,0,P|433:206|433:233,2,49.5000015106202,2|2|2,0:0|0:0|0:0,0:0:0:0:
361,132,112807,1,2,0:0:0:0:
441,103,112978,2,0,P|444:64|457:13,2,74.2500022659302,2|2|2,0:0|0:0|0:0,0:0:0:0:
441,103,114178,1,2,0:0:0:0:
312,120,114349,6,0,L|361:132,1,49.5000015106202,2|2,0:0|0:0,0:0:0:0:
474,175,114692,2,0,L|425:186,1,49.5000015106202,2|2,0:0|0:0,0:0:0:0:
297,33,115035,1,2,0:0:0:0:
328,208,115207,1,2,0:0:0:0:
216,143,115378,2,0,L|264:131,1,49.5000015106202,2|2,0:0|0:0,0:0:0:0:
159,205,115721,2,0,P|152:152|139:118,2,74.2500022659302,2|2|2,0:0|0:0|0:0,0:0:0:0:
159,205,116921,1,2,0:0:0:0:
131,333,117092,6,0,P|122:300|127:278,1,49.5000015106202,2|2,0:0|0:0,0:0:0:0:
212,274,117435,2,0,P|221:307|216:329,1,49.5000015106202,2|2,0:0|0:0,0:0:0:0:
159,205,117778,1,2,0:0:0:0:
245,193,117949,1,2,0:0:0:0:
73,168,118121,2,0,L|22:160,1,49.5000015106202,2|2,0:0|0:0,0:0:0:0:
159,205,118464,2,0,P|148:173|145:111,2,74.2500022659302,2|2|2,0:0|0:0|0:0,0:0:0:0:
159,205,119664,1,2,0:0:0:0:
216,128,119835,6,0,P|252:114|302:121,2,74.2500022659302,2|2|2,0:0|0:0|0:0,0:0:0:0:
216,128,121035,1,2,0:0:0:0:
251,233,121207,6,0,P|267:205|265:172,1,49.5000015106202,2|0,0:0|0:0,0:0:0:0:
306,179,121464,2,0,P|321:206|351:222,1,49.5000015106202,2|0,0:0|0:0,0:0:0:0:
324,254,121721,1,2,0:0:0:0:
155,331,121892,5,12,0:1:0:0:
143,329,121977,1,0,0:0:0:0:
132,328,122063,1,0,0:0:0:0:
121,326,122149,1,0,0:0:0:0:
110,325,122234,1,0,0:0:0:0:
99,324,122320,1,0,0:0:0:0:
87,322,122406,1,0,0:0:0:0:
76,321,122492,1,0,0:0:0:0:
65,320,122578,5,8,0:0:0:0:
36,303,122663,1,0,0:0:0:0:
11,267,122749,1,0,0:0:0:0:
4,220,122835,1,0,0:0:0:0:
22,174,122921,1,0,0:0:0:0:
62,143,123006,1,0,0:0:0:0:
109,140,123092,1,0,0:0:0:0:
158,164,123178,1,0,0:0:0:0:
180,218,123264,5,4,1:2:0:0:
180,218,124292,6,0,L|182:238,1,20.2499993820191
250,273,124464,2,0,L|252:252,1,20.2499993820191
223,138,124635,6,0,P|218:96|236:66,1,58.4999973220826,6|0,1:2|0:0,0:0:0:0:
305,40,124807,2,0,P|343:56|360:87,1,58.4999973220826,2|0,0:0|0:0,0:0:0:0:
324,179,124978,6,0,B|355:156|355:156|454:173,1,116.999994644165,10|2,0:0|0:0,0:0:0:0:
383,341,125235,1,0,0:0:0:0:
383,341,125321,2,0,B|360:310|360:310|373:232,1,116.999994644165,2|0,1:2|0:0,0:0:0:0:
489,284,125578,1,2,0:0:0:0:
489,284,125664,2,0,L|432:292,1,58.4999973220826,8|0,0:0|0:0,0:0:0:0:
295,328,125835,2,0,L|237:320,1,58.4999973220826,2|0,0:0|0:0,0:0:0:0:
152,368,126007,6,0,P|169:325|134:258,1,116.999994644165,0|0,1:0|0:0,0:0:0:0:
116,196,126264,1,0,0:0:0:0:
116,196,126349,2,0,P|144:232|220:235,1,116.999994644165,8|2,0:0|0:0,0:0:0:0:
242,170,126607,1,0,0:0:0:0:
242,170,126692,6,0,P|214:162|186:170,1,58.4999973220826,2|0,1:2|0:0,0:0:0:0:
379,171,126864,2,0,P|386:144|379:115,1,58.4999973220826,2|0,0:0|0:0,0:0:0:0:
311,142,127035,6,0,P|296:117|271:102,1,58.4999973220826,10|0,0:0|0:0,0:0:0:0:
406,240,127207,2,0,P|431:225|446:200,1,58.4999973220826,2|0,0:0|0:0,0:0:0:0:
271,102,127378,5,2,1:2:0:0:
310,338,127549,1,2,0:0:0:0:
224,240,127721,6,0,P|174:209|109:225,1,116.999994644165,10|2,0:2|0:0,0:0:0:0:
84,284,127978,1,0,0:0:0:0:
84,284,128064,2,0,L|71:160,1,116.999994644165,2|0,1:2|0:0,0:0:0:0:
12,125,128321,1,0,0:0:0:0:
12,125,128407,2,0,P|68:133|116:103,1,116.999994644165,10|0,0:0|0:0,0:0:0:0:
154,49,128664,1,0,0:0:0:0:
154,49,128749,6,0,P|202:18|258:27,1,116.999994644165,0|0,1:0|0:0,0:0:0:0:
310,175,129092,2,0,P|259:148|238:95,1,116.999994644165,8|2,0:0|0:0,0:0:0:0:
258,27,129349,1,0,0:0:0:0:
258,27,129435,6,0,L|330:37,1,58.4999973220826,2|0,1:2|0:0,0:0:0:0:
405,110,129607,2,0,L|462:101,1,58.4999973220826,2|0,1:2|0:0,0:0:0:0:
255,18,129778,6,0,L|312:26,1,58.4999973220826,10|0,0:0|0:0,0:0:0:0:
402,101,129949,2,0,L|459:92,1,58.4999973220826,2|0,1:2|0:0,0:0:0:0:
358,224,130121,6,0,L|238:205,1,116.999994644165,2|2,1:2|0:0,0:0:0:0:
76,340,130464,2,0,L|191:321,1,116.999994644165,10|2,0:0|0:0,0:0:0:0:
237,314,130721,1,0,0:0:0:0:
237,314,130807,2,0,B|259:278|259:278|239:194,1,116.999994644165,2|0,1:2|0:0,0:0:0:0:
175,166,131064,1,2,0:0:0:0:
175,166,131149,2,0,P|222:176|288:120,1,116.999994644165,8|2,0:0|0:0,0:0:0:0:
257,62,131407,1,0,0:0:0:0:
257,62,131492,6,0,P|210:52|144:108,1,116.999994644165,0|0,1:0|0:0,0:0:0:0:
83,125,131749,1,0,0:0:0:0:
83,125,131835,2,0,P|115:89|99:4,1,116.999994644165,8|2,0:0|0:0,0:0:0:0:
39,56,132092,1,0,0:0:0:0:
39,56,132178,2,0,L|75:242,2,175.499991966248,2|2|2,1:2|0:0|0:0,0:0:0:0:
41,297,132864,6,0,P|79:263|153:278,1,116.999994644165,0|0,1:0|0:0,0:0:0:0:
204,317,133121,1,0,0:0:0:0:
204,317,133207,2,0,P|260:324|304:289,1,116.999994644165,8|2,0:0|0:0,0:0:0:0:
331,223,133464,1,0,0:0:0:0:
331,223,133549,2,0,P|343:289|448:322,2,175.499991966248,2|2|2,1:2|0:0|0:0,0:0:0:0:
419,239,134235,5,0,1:0:0:0:
409,236,135607,6,0,P|426:201|418:141,1,67.5000025749208,6|0,1:2|0:0,0:0:0:0:
289,131,135778,2,0,P|307:159|335:179,1,67.5000025749208,2|0,0:0|0:0,0:0:0:0:
337,52,135949,6,0,B|296:32|296:32|180:59,1,135.000005149842,10|2,0:0|0:0,0:0:0:0:
175,167,136207,1,0,0:0:0:0:
175,167,136292,2,0,P|218:118|210:54,1,135.000005149842,2|0,1:2|0:0,0:0:0:0:
95,163,136549,1,2,0:0:0:0:
95,163,136635,2,0,L|107:244,1,67.5000025749208,8|0,0:0|0:0,0:0:0:0:
198,348,136807,2,0,L|207:281,1,67.5000025749208,2|0,0:0|0:0,0:0:0:0:
175,167,136978,2,0,P|226:180|309:182,1,135.000005149842,0|0,1:0|0:0,0:0:0:0:
420,383,137321,6,0,L|404:248,1,135.000005149842,8|2,0:0|0:0,0:0:0:0:
376,177,137578,1,0,0:0:0:0:
376,177,137664,6,0,P|415:174|452:190,1,67.5000025749208,2|0,1:2|0:0,0:0:0:0:
229,75,137835,2,0,P|225:41|235:9,1,67.5000025749208,2|0,0:0|0:0,0:0:0:0:
323,96,138007,6,0,P|344:69|374:54,1,67.5000025749208,10|0,0:0|0:0,0:0:0:0:
146,127,138178,2,0,P|116:101|101:64,1,67.5000025749208,2|0,1:2|0:0,0:0:0:0:
137,221,138349,6,0,P|132:255|115:283,1,67.5000025749208,2|0,1:2|0:0,0:0:0:0:
224,181,138521,2,0,P|256:168|289:169,1,67.5000025749208,2|0,0:0|0:0,0:0:0:0:
298,355,138692,6,0,P|254:306|268:243,1,135.000005149842,10|2,0:0|0:0,0:0:0:0:
457,252,138949,1,0,0:0:0:0:
457,252,139035,2,0,L|327:288,1,135.000005149842,2|0,1:2|0:0,0:0:0:0:
482,186,139292,1,0,0:0:0:0:
482,186,139378,2,0,P|525:234|512:298,1,135.000005149842,10|0,0:0|0:0,0:0:0:0:
267,243,139721,6,0,L|279:108,1,135.000005149842,0|0,1:0|0:0,0:0:0:0:
89,20,140064,1,8,0:0:0:0:
108,228,140235,1,2,1:2:0:0:
108,228,140578,1,2,1:2:0:0:
163,164,140749,2,0,P|133:147|100:145,1,67.5000025749208,10|0,0:0|0:0,0:0:0:0:
52,291,140921,2,0,P|82:308|115:310,1,67.5000025749208,2|0,1:2|0:0,0:0:0:0:
259,284,141092,5,2,1:2:0:0:
454,339,141264,1,2,0:0:0:0:
210,340,141435,2,0,P|185:286|249:210,1,135.000005149842,10|2,0:0|0:0,0:0:0:0:
364,231,141692,1,0,0:0:0:0:
364,231,141778,2,0,P|324:283|259:284,1,135.000005149842,2|0,1:2|0:0,0:0:0:0:
193,153,142035,1,2,0:0:0:0:
193,153,142121,1,8,0:0:0:0:
20,305,142292,2,0,P|56:300|86:274,1,67.5000025749208,2|0,0:0|0:0,0:0:0:0:
118,217,142464,6,0,L|128:81,1,135.000005149842,0|0,1:0|0:0,0:0:0:0:
333,277,142807,2,0,L|323:141,1,135.000005149842,8|2,0:0|0:0,0:0:0:0:
397,313,143064,1,0,0:0:0:0:
397,313,143149,2,0,P|368:343|273:318,1,135.000005149842,2|8,1:2|0:0,0:0:0:0:
169,189,143492,1,8,0:0:0:0:
169,189,143578,1,0,0:0:0:0:
169,189,143664,2,0,P|201:197|222:274,1,67.5000025749208
282,330,143835,6,0,P|272:297|286:257,3,45,2|0|0|0,1:2|0:0|0:0|0:0,0:0:0:0:
369,334,144178,2,0,P|374:300|403:269,3,45,0|0|2|0,0:0|0:0|0:0|0:0,0:0:0:0:
446,374,144521,6,0,P|464:345|504:330,2,45,2|0|0,0:0|0:0|0:0,0:0:0:0:
455,263,144778,1,2,0:0:0:0:
455,263,144863,5,0,0:0:0:0:
436,223,144949,1,0,0:0:0:0:
398,199,145035,1,10,0:0:0:0:
354,199,145120,1,0,0:0:0:0:
316,222,145206,1,12,0:0:0:0:
256,192,145292,12,0,146235,1:0:0:0:
46,50,146578,5,6,0:0:0:0:
124,64,154436,5,8,1:2:0:0:
101,279,154598,1,8,0:0:0:0:
276,141,154760,5,8,1:2:0:0:
61,117,154922,1,8,0:0:0:0:
199,293,155084,5,8,1:2:0:0:
223,78,155246,1,8,0:0:0:0:
48,221,155409,5,8,0:0:0:0:
263,245,155571,1,8,0:3:0:0:
263,245,155652,1,8,0:3:0:0:
263,245,155733,5,8,1:2:0:0:
219,57,155895,1,8,0:0:0:0:
404,253,156057,5,8,1:2:0:0:
443,63,156219,1,8,0:0:0:0:
246,254,156381,5,8,1:2:0:0:
185,70,156544,1,8,0:0:0:0:
418,259,156706,5,8,0:0:0:0:
477,76,156868,1,8,0:3:0:0:
477,76,156949,1,8,0:3:0:0:
477,76,157030,5,8,1:2:0:0:
264,158,157192,1,8,0:0:0:0:
336,46,157354,5,8,1:2:0:0:
418,259,157516,1,8,0:0:0:0:
164,294,157679,5,8,1:2:0:0:
246,81,157841,1,8,0:0:0:0:
305,264,158003,5,0,1:0:0:0:
92,182,158165,1,8,0:3:0:0:
92,182,158246,1,8,0:3:0:0:
92,182,158327,5,8,1:2:0:0:
335,144,158490,1,8,0:0:0:0:
190,360,158652,5,8,1:2:0:0:
152,117,158815,1,8,0:0:0:0:
368,262,158976,5,8,1:2:0:0:
125,300,159139,1,8,0:0:0:0:
270,84,159301,5,8,0:0:0:0:
308,327,159464,1,8,0:3:0:0:
308,327,159544,1,8,0:3:0:0:
308,327,159625,5,8,1:2:0:0:
188,57,159787,1,8,0:0:0:0:
316,344,159949,5,8,1:2:0:0:
346,49,160111,1,8,0:0:0:0:
324,361,160273,5,8,1:2:0:0:
204,91,160435,1,8,0:0:0:0:
332,378,160598,5,8,1:2:0:0:
362,83,160760,1,8,0:0:0:0:
362,83,160841,1,8,0:0:0:0:
362,83,160922,5,8,1:2:0:0:
81,180,161084,1,8,0:0:0:0:
379,283,161246,5,8,1:2:0:0:
98,186,161408,1,8,0:0:0:0:
396,95,161571,5,8,1:2:0:0:
115,192,161733,1,8,0:0:0:0:
413,295,161895,5,8,1:2:0:0:
132,198,162057,1,8,0:0:0:0:
132,198,162138,1,8,0:0:0:0:
156,214,162220,5,8,1:2:0:0:
174,206,162300,1,0,1:0:0:0:
158,226,162382,5,8,1:2:0:0:
177,227,162462,1,0,1:0:0:0:
154,239,162545,5,8,1:2:0:0:
172,249,162625,1,0,1:0:0:0:
145,250,162706,5,8,1:2:0:0:
157,265,162786,1,0,1:0:0:0:
133,254,162868,5,8,1:2:0:0:
136,274,162949,1,0,1:0:0:0:
119,254,163029,5,8,1:2:0:0:
115,274,163110,1,0,1:0:0:0:
108,249,163192,5,8,1:2:0:0:
95,265,163273,1,0,1:0:0:0:
99,239,163355,5,8,1:2:0:0:
82,247,163436,1,0,1:0:0:0:
56,214,163517,5,0,0:0:0:0:
54,158,163598,1,0,0:0:0:0:
87,114,163679,1,0,0:0:0:0:
141,101,163760,1,0,0:0:0:0:
191,124,163841,1,0,0:0:0:0:
241,147,163922,1,0,0:0:0:0:
294,133,164003,1,0,0:0:0:0:
328,90,164084,1,0,0:0:0:0:
326,34,164165,6,8,L|309:6,1,22.5
290,61,164246,6,8,L|261:42,1,22.5
270,100,164327,6,8,L|236:94,1,22.5
270,145,164408,6,8,L|237:154,1,22.5
290,185,164490,6,8,L|264:207,1,22.5
326,211,164571,6,8,L|312:241,1,22.5
370,218,164652,6,8,L|370:251,1,22.5
412,204,164733,6,8,L|426:234,1,22.5
444,173,164814,6,0,B|417:264|497:245|468:346,1,168.75,4|0,1:2|0:0,0:0:0:0:
435,353,165138,2,0,B|399:234|503:259|466:128,1,222.75000212431,8|0,0:0|0:0,0:0:0:0:
375,52,165463,2,0,B|338:46|338:46|303:58,1,74.2500007081032
318,184,165625,2,0,B|338:158|338:158|343:136,1,56.25,0|0,1:0|0:0,0:0:0:0:
233,47,165787,2,0,B|143:37|143:37|108:66|108:66|21:56,1,222.75000212431,8|0,0:0|0:0,0:0:0:0:
51,28,166111,6,0,B|122:36|122:36|143:63|143:63|222:73,1,168.75,0|0,1:0|0:0,0:0:0:0:
228,148,166436,2,0,P|201:177|155:186,1,74.2500007081032,8|0,0:0|0:0,0:0:0:0:
188,266,166598,2,0,P|148:267|109:241,1,74.2500007081032
37,238,166760,2,0,P|47:212|68:192,1,56.25
27,112,166922,2,0,P|64:100|109:115,1,56.25,0|0,1:0|0:0,0:0:0:0:
228,148,167084,2,0,B|286:189|286:189|455:147,1,222.75000212431,8|0,0:0|0:0,0:0:0:0:
469,143,167408,6,0,P|462:192|481:235,1,56.25,4|0,1:2|0:0,0:0:0:0:
507,348,167571,2,0,P|514:299|495:256,1,56.25,0|0,1:0|0:0,0:0:0:0:
451,133,167733,2,0,B|414:254|526:209|485:367,1,222.75000212431,8|0,0:0|0:0,0:0:0:0:
415,383,168057,2,0,P|402:356|405:323,1,56.25
276,349,168219,2,0,P|285:320|311:299,1,56.25,0|0,1:0|0:0,0:0:0:0:
378,197,168381,2,0,B|266:237|286:112|144:170,1,222.75000212431,8|0,0:0|0:0,0:0:0:0:
136,232,168706,6,0,B|141:172|141:172|112:138|112:138|117:74,1,168.75,0|0,1:0|0:0,0:0:0:0:
140,49,169030,2,0,B|146:124|146:124|105:173|105:173|113:256,1,222.75000212431,8|0,0:0|0:0,0:0:0:0:
163,321,169354,2,0,P|199:308|217:277,1,56.25
282,348,169517,2,0,P|298:313|289:278,1,56.25,0|0,1:0|0:0,0:0:0:0:
235,175,169679,2,0,B|275:207|275:207|378:186,1,148.500001416206,8|0,0:0|0:0,0:0:0:0:
433,62,170003,6,0,P|351:63|298:126,1,168.75,4|0,1:2|0:0,0:0:0:0:
298,125,170327,2,0,P|324:39|437:72,1,222.75000212431,8|0,0:0|0:0,0:0:0:0:
477,133,170652,2,0,P|471:172|441:210,1,56.25
317,203,170814,2,0,P|354:187|401:194,1,56.25,0|0,1:0|0:0,0:0:0:0:
425,329,170976,2,0,B|395:370|395:370|369:276,1,148.500001416206,8|0,0:0|0:0,0:0:0:0:
298,125,171300,6,0,B|235:130|235:130|213:156|213:156|141:162,1,168.75,0|0,1:0|0:0,0:0:0:0:
54,146,171625,2,0,P|65:207|85:229,1,74.2500007081032,8|0,0:0|0:0,0:0:0:0:
26,295,171787,2,0,P|87:303|114:291,1,74.2500007081032
258,246,171949,2,0,P|238:227|213:215,1,56.25
185,128,172111,2,0,P|160:141|141:162,1,56.25,0|0,1:0|0:0,0:0:0:0:
225,314,172273,2,0,B|282:341|338:296|310:270|364:221|457:268,1,222.75000212431,8|0,0:0|0:0,0:0:0:0:
453,275,172598,6,0,P|441:222|457:150,1,112.5,4|0,1:2|1:0,0:0:0:0:
506,41,172922,1,8,0:0:0:0:
338,154,173084,2,0,B|278:148|278:148|249:114|249:114|185:108,1,168.75,0|0,1:0|0:0,0:0:0:0:
156,105,173408,1,0,1:0:0:0:
48,248,173571,2,0,B|105:221|161:266|133:292|187:341|280:294,1,222.75000212431,8|0,0:0|0:0,0:0:0:0:
281,366,173895,6,0,P|280:288|356:269,1,168.75,0|0,1:0|0:0,0:0:0:0:
416,315,174219,2,0,P|430:273|410:220,1,74.2500007081032,8|0,0:0|0:0,0:0:0:0:
502,124,174381,2,0,B|445:97|389:142|417:168|363:217|270:170,1,222.75000212431
224,194,174706,2,0,P|221:167|242:134,1,56.25,0|0,1:0|0:0,0:0:0:0:
362,33,174868,2,0,B|326:69|326:69|195:49,1,148.500001416206,8|0,0:0|0:0,0:0:0:0:
77,144,175192,6,0,P|122:80|47:57,1,182.250000695229,6|0,1:2|0:0,0:0:0:0:
47,57,175517,2,0,P|145:98|76:143,1,236.250002253056,8|0,0:0|0:0,0:0:0:0:
0,120,175841,2,0,P|1:162|23:197,1,78.7500007510185
146,244,176003,2,0,P|109:223|67:225,1,60.7500002317429,0|0,1:0|0:0,0:0:0:0:
97,342,176165,2,0,B|192:328|192:328|219:292|219:292|314:279,1,236.250002253056,10|0,0:0|0:0,0:0:0:0:
332,362,176490,6,0,L|359:177,1,182.250000695229,0|0,1:0|0:0,0:0:0:0:
273,185,176814,2,0,P|256:149|258:110,1,78.7500007510185,8|0,0:0|0:0,0:0:0:0:
421,239,176976,2,0,P|456:222|495:224,1,78.7500007510185
217,248,177138,2,0,P|180:234|154:205,1,60.7500002317429
358,181,177300,2,0,P|371:144|400:118,1,60.7500002317429,0|0,1:0|0:0,0:0:0:0:
482,6,177463,2,0,B|516:54|516:54|318:33,1,236.250002253056,8|0,0:0|0:0,0:0:0:0:
252,25,177787,6,0,L|245:114,1,60.7500002317429,6|0,1:2|0:0,0:0:0:0:
264,249,177949,2,0,L|268:188,1,60.7500002317429,0|0,1:0|0:0,0:0:0:0:
230,19,178111,2,0,B|221:114|221:114|250:149|250:149|242:244,1,236.250002253056,8|0,0:0|0:0,0:0:0:0:
207,330,178435,2,0,P|181:313|163:289,1,60.7500002317429
65,321,178598,2,0,P|58:296|69:248,1,60.7500002317429,0|0,1:0|0:0,0:0:0:0:
56,133,178760,2,0,B|113:106|169:151|141:177|195:226|288:179,1,236.250002253056,10|0,0:0|0:0,0:0:0:0:
310,118,179084,6,0,L|284:324,1,182.250000695229,0|0,1:0|0:0,0:0:0:0:
310,325,179408,2,0,L|280:89,1,236.250002253056,8|0,0:0|0:0,0:0:0:0:
350,21,179733,2,0,P|390:20|420:40,1,60.7500002317429
453,123,179895,2,0,P|433:158|401:174,1,60.7500002317429,0|0,1:0|0:0,0:0:0:0:
267,188,180057,2,0,B|172:179|172:179|143:145|143:145|47:136,1,236.250002253056,8|0,0:0|0:0,0:0:0:0:
47,136,180381,6,0,P|42:236|132:273,1,182.250000695229,6|0,1:2|0:0,0:0:0:0:
77,348,180706,2,0,B|134:375|190:330|162:304|216:255|309:302,1,236.250002253056,8|0,0:0|0:0,0:0:0:0:
360,333,181030,2,0,L|354:267,1,60.7500002317429
299,170,181192,2,0,L|304:109,1,60.7500002317429,0|0,1:0|0:0,0:0:0:0:
466,48,181354,2,0,B|370:54|370:54|336:25|336:25|241:31,1,236.250002253056,10|0,0:0|0:0,0:0:0:0:
150,37,181679,6,0,P|219:59|159:154,1,182.250000695229,0|0,1:0|0:0,0:0:0:0:
117,179,182003,2,0,B|174:152|230:197|202:223|256:272|349:225,1,236.250002253056,10|0,0:0|0:0,0:0:0:0:
399,190,182327,2,0,P|411:237|405:272,1,60.7500002317429,2|0,0:0|0:0,0:0:0:0:
512,277,182490,2,0,P|480:313|448:328,1,60.7500002317429,0|0,1:0|0:0,0:0:0:0:
332,307,182652,2,0,B|236:300|236:300|202:329|202:329|107:323,1,236.250002253056,10|0,0:0|0:0,0:0:0:0:
35,362,182976,6,0,P|26:318|37:281,1,60.7500002317429,6|0,1:2|0:0,0:0:0:0:
90,150,183138,2,0,P|99:194|88:231,1,60.7500002317429,0|0,1:0|0:0,0:0:0:0:
24,362,183300,2,0,B|-3:305|42:249|68:277|117:223|70:130,1,236.250002253056,10|0,0:0|0:0,0:0:0:0:
46,77,183625,2,0,P|84:60|118:64,1,60.7500002317429,2|0,0:0|0:0,0:0:0:0:
184,153,183787,2,0,P|210:167|240:169,1,60.7500002317429,0|0,1:0|0:0,0:0:0:0:
393,92,183949,2,0,P|286:69|240:169,1,236.250002253056,10|0,0:0|0:0,0:0:0:0:
266,212,184273,5,2,1:2:0:0:
488,163,184435,1,2,1:2:0:0:
439,319,184598,5,10,0:2:0:0:
217,270,184760,2,0,B|150:245|93:300|125:315|71:369|-2:341,1,243.000000926971,2|0,1:2|1:0,0:0:0:0:
0,124,185246,2,0,B|51:187|51:187|38:262,1,157.500001502037,8|0,0:0|0:0,0:0:0:0:
38,261,185571,5,6,1:2:0:0:
107,183,194327,5,6,0:0:0:0:
151,258,194634,1,2,0:0:0:0:
108,333,194942,2,0,L|36:323,2,67.5000025749208,2|2|2,0:0|0:0|0:0,0:0:0:0:
151,258,195403,2,0,L|284:239,1,135.000005149842,2|2,0:0|0:0,0:0:0:0:
342,285,195865,1,0,0:0:0:0:
342,285,196019,2,0,P|299:237|324:154,1,135.000005149842,2|2,0:0|0:0,0:0:0:0:
373,214,196480,1,2,0:0:0:0:
373,214,196788,6,0,B|430:245|430:245|506:232,1,135.000005149842,2|2,0:0|0:0,0:0:0:0:
508,146,197250,2,0,B|451:115|451:115|374:127,1,135.000005149842,2|2,0:0|0:0,0:0:0:0:
381,125,197865,1,2,0:0:0:0:
305,171,198019,6,0,P|292:127|304:89,1,67.5000025749208,2|2,0:0|0:0,0:0:0:0:
409,4,198327,2,0,P|388:30|358:45,1,67.5000025749208,2|2,0:0|0:0,0:0:0:0:
219,0,198634,1,0,0:0:0:0:
235,0,198710,1,0,0:0:0:0:
252,5,198788,1,0,0:0:0:0:
266,12,198864,1,0,0:0:0:0:
279,24,198941,1,2,0:0:0:0:
187,200,199096,1,0,0:0:0:0:
134,147,199249,6,0,L|34:133,1,99.0000030212403,2|0,1:2|1:0,0:0:0:0:
187,200,199556,2,0,P|209:157|189:97,1,99.0000030212403,10|0,0:0|0:0,0:0:0:0:
185,92,199787,1,8,0:0:0:0:
185,92,199864,1,2,0:0:0:0:
129,268,200018,1,2,1:2:0:0:
310,229,200172,1,10,0:0:0:0:
74,325,200325,5,2,0:0:0:0:
74,325,200402,1,8,0:0:0:0:
74,325,200479,2,0,P|48:272|73:212,1,99.0000030212403,0|2,1:0|1:2,0:0:0:0:
310,229,200787,1,10,0:0:0:0:
132,198,200941,2,0,L|203:210,1,49.5000015106202,2|8,1:2|0:0,0:0:0:0:
324,231,201095,2,0,L|306:128,1,99.0000030212403,2|2,0:0|1:2,0:0:0:0:
419,24,201402,2,0,L|401:120,1,99.0000030212403,10|0,0:0|0:0,0:0:0:0:
396,157,201633,1,8,0:0:0:0:
396,157,201710,5,2,1:2:0:0:
220,127,201864,1,0,1:0:0:0:
466,213,202018,2,0,P|485:169|464:102,1,99.0000030212403,8|0,0:0|0:0,0:0:0:0:
382,244,202249,1,8,0:0:0:0:
382,244,202325,2,0,P|409:282|478:297,1,99.0000030212403,8|0,0:0|1:0,0:0:0:0:
476,120,202633,1,8,0:0:0:0:
217,173,202787,1,0,1:0:0:0:
345,249,202940,5,10,0:2:0:0:
364,241,203017,1,0,1:0:0:0:
329,237,203095,5,8,0:0:0:0:
341,221,203171,1,0,1:0:0:0:
309,230,203249,5,8,0:0:0:0:
313,211,203324,1,0,1:0:0:0:
289,231,203402,5,8,0:0:0:0:
284,211,203479,1,0,1:0:0:0:
289,231,203556,5,8,0:0:0:0:
231,262,203632,1,8,0:0:0:0:
167,247,203709,1,8,0:0:0:0:
130,193,203786,1,8,0:0:0:0:
139,127,203863,1,8,0:0:0:0:
139,127,204172,6,0,L|266:98,1,107.999996704102,4|0,1:0|0:0,0:0:0:0:
402,188,204479,2,0,L|275:159,1,107.999996704102,8|0,0:1|0:0,0:0:0:0:
465,152,204710,1,0,0:0:0:0:
465,152,204787,2,0,P|469:214|422:260,1,107.999996704102,0|0,0:0|1:0,0:0:0:0:
230,369,205095,1,8,0:3:0:0:
261,325,205171,1,0,0:0:0:0:
309,302,205248,1,0,1:0:0:0:
362,304,205325,1,0,0:0:0:0:
409,330,205402,5,0,1:0:0:0:
136,258,205556,1,0,1:0:0:0:
372,196,205710,2,0,L|362:304,1,107.999996704102,8|0,0:0|0:0,0:0:0:0:
90,326,206018,5,0,1:0:0:0:
61,288,206095,1,8,0:3:0:0:
57,245,206172,1,0,1:0:0:0:
73,211,206248,1,8,0:3:0:0:
96,188,206325,1,8,0:3:0:0:
121,180,206402,1,0,1:0:0:0:
144,180,206479,1,0,1:0:0:0:
163,186,206556,1,8,0:3:0:0:
178,196,206633,5,4,1:0:0:0:
155,384,206787,1,0,0:0:0:0:
247,126,206941,2,0,P|194:96|136:107,1,107.999996704102,8|0,1:0|0:0,0:0:0:0:
297,177,207172,1,0,0:0:0:0:
297,177,207249,2,0,L|285:39,1,107.999996704102,0|0,0:0|1:0,0:0:0:0:
258,325,207556,2,0,P|282:324|311:309,1,53.9999983520508,8|0,0:3|0:0,0:0:0:0:
411,263,207710,2,0,P|387:250|360:249,1,53.9999983520508,0|0,1:0|1:0,0:0:0:0:
113,334,207864,5,0,1:0:0:0:
70,303,207941,1,0,1:0:0:0:
56,259,208018,1,8,0:0:0:0:
66,217,208094,1,0,1:0:0:0:
91,192,208171,1,8,0:0:0:0:
121,180,208248,1,0,1:0:0:0:
152,182,208325,1,0,1:0:0:0:
179,192,208402,1,8,0:0:0:0:
196,209,208479,5,0,1:0:0:0:
209,230,208556,1,8,0:3:0:0:
223,254,208633,1,8,0:3:0:0:
252,275,208710,1,0,1:0:0:0:
302,280,208787,5,0,1:0:0:0:
348,249,208864,1,0,1:0:0:0:
363,192,208941,1,8,0:3:0:0:
329,137,209018,1,8,0:3:0:0:
262,122,209095,5,4,1:0:0:0:
40,175,209249,1,0,0:0:0:0:
237,373,209402,2,0,P|261:326|251:274,1,107.999996704102,8|0,0:1|0:0,0:0:0:0:
79,298,209633,1,0,1:0:0:0:
79,298,209710,2,0,L|185:312,1,107.999996704102,0|0,0:0|1:0,0:0:0:0:
13,346,210018,1,8,0:3:0:0:
171,205,210172,2,0,L|164:152,1,53.9999983520508,0|0,1:0|1:0,0:0:0:0:
15,103,210325,5,0,1:0:0:0:
66,122,210402,1,0,1:0:0:0:
112,112,210479,1,0,1:0:0:0:
140,82,210556,1,0,1:0:0:0:
156,42,210633,1,8,0:0:0:0:
176,20,210710,1,0,1:0:0:0:
196,10,210787,1,0,1:0:0:0:
219,6,210864,1,0,1:0:0:0:
244,12,210941,5,0,1:0:0:0:
265,21,211018,1,0,1:0:0:0:
290,45,211095,1,0,1:0:0:0:
302,87,211172,1,8,0:3:0:0:
286,136,211248,1,8,0:3:0:0:
236,166,211325,1,0,1:0:0:0:
191,214,211402,1,0,1:0:0:0:
198,283,211479,1,0,1:0:0:0:
258,318,211556,6,0,L|388:296,1,107.999996704102,4|0,1:0|0:0,0:0:0:0:
128,365,211864,2,0,L|109:258,1,107.999996704102,8|0,0:1|0:0,0:0:0:0:
98,188,212095,1,0,0:0:0:0:
98,188,212172,1,0,0:0:0:0:
45,354,212325,1,0,1:0:0:0:
161,151,212479,2,0,P|109:115|54:129,1,107.999996704102,8|0,0:3|0:0,0:0:0:0:
258,233,212787,5,0,1:0:0:0:
195,364,212941,2,0,L|184:295,1,53.9999983520508,0|0,1:0|1:0,0:0:0:0:
252,154,213095,1,8,0:0:0:0:
303,170,213172,1,0,1:0:0:0:
330,205,213248,1,0,1:0:0:0:
333,247,213325,1,8,0:3:0:0:
324,284,213402,5,0,1:0:0:0:
326,320,213479,1,8,0:3:0:0:
345,350,213556,1,8,0:3:0:0:
368,368,213633,1,0,1:0:0:0:
405,375,213710,1,0,1:0:0:0:
452,359,213787,1,8,0:3:0:0:
483,310,213864,1,0,1:0:0:0:
466,247,213941,1,0,1:0:0:0:
406,213,214019,5,4,1:0:0:0:
258,233,214172,1,0,0:0:0:0:
110,253,214325,1,8,0:1:0:0:
269,98,214479,6,0,L|260:206,1,107.999996704102
144,100,214787,1,0,1:0:0:0:
110,253,214941,1,8,0:3:0:0:
110,253,215018,1,0,0:0:0:0:
110,253,215095,2,0,L|100:199,1,53.9999983520508,0|0,1:0|1:0,0:0:0:0:
11,77,215249,6,0,L|131:98,1,107.999996704102,0|0,1:0|1:0,0:0:0:0:
260,206,215556,1,8,0:0:0:0:
337,52,215710,2,0,L|347:112,1,53.9999983520508,8|8,0:0|0:0,0:0:0:0:
260,206,215864,1,8,0:0:0:0:
309,224,215941,1,8,0:0:0:0:
356,201,216017,1,0,1:0:0:0:
372,151,216094,1,8,0:3:0:0:
346,106,216171,1,8,0:3:0:0:
174,164,216325,1,0,0:0:0:0:
174,164,216402,1,0,0:0:0:0:
174,164,216479,6,0,L|195:284,1,107.999996704102,4|0,1:0|0:0,0:0:0:0:
134,365,216787,2,0,P|189:310|267:316,1,161.999995056153,8|0,0:1|0:0,0:0:0:0:
313,368,217095,2,0,P|335:333|317:268,1,107.999996704102,0|0,0:0|1:0,0:0:0:0:
174,164,217402,2,0,P|193:182|219:190,1,53.9999983520508,8|0,0:3|0:0,0:0:0:0:
292,56,217556,2,0,P|266:63|246:82,1,53.9999983520508,0|0,1:0|0:0,0:0:0:0:
320,271,217710,5,0,1:0:0:0:
376,303,217787,1,0,1:0:0:0:
434,298,217864,1,0,1:0:0:0:
474,265,217941,1,0,1:0:0:0:
494,229,218018,1,8,0:0:0:0:
498,197,218095,1,0,1:0:0:0:
489,166,218172,1,0,1:0:0:0:
477,143,218248,1,0,1:0:0:0:
464,128,218325,2,0,L|418:136,3,24.7500007553101,0|8|8|0,1:0|0:0|0:0|1:0,0:0:0:0:
383,174,218633,6,0,L|324:162,1,51.7500009870529,0|0,1:0|1:0,0:0:0:0:
200,127,218787,2,0,L|251:118,1,51.7500009870529,0|0,1:0|1:0,0:0:0:0:
505,68,218941,5,4,0:1:0:0:
505,68,219095,1,0,0:0:0:0:
356,227,228787,6,0,P|328:183|329:120,1,99.0000030212403,2|0,0:0|0:0,0:0:0:0:
445,218,229249,2,0,P|438:166|465:109,1,99.0000030212403,2|0,0:0|0:0,0:0:0:0:
280,273,229710,2,0,P|236:244|210:187,1,101.250003862381,2|2,0:0|0:0,0:0:0:0:
214,173,230018,5,2,0:0:0:0:
214,173,230479,1,0,0:0:0:0:
153,113,230633,2,0,L|104:124,1,49.5000015106202
49,180,230941,2,0,L|0:169,1,49.5000015106202
104,123,231249,6,0,L|126:221,1,99.0000030212403,2|0,0:0|0:0,0:0:0:0:
94,290,231710,2,0,P|117:264|192:271,1,99.0000030212403,2|0,0:0|0:0,0:0:0:0:
250,311,232172,2,0,P|273:337|348:330,1,99.0000030212403,2|0,0:0|0:0,0:0:0:0:
333,370,232941,1,0,0:0:0:0:
405,337,233095,1,0,0:0:0:0:
397,259,233249,1,0,0:0:0:0:
319,242,233402,1,0,0:0:0:0:
280,311,233556,1,0,0:0:0:0:
280,311,233710,6,0,P|276:253|236:211,1,99.0000030212403,2|2,0:0|0:0,0:0:0:0:
252,221,234325,1,0,0:0:0:0:
40,242,234479,1,0,0:0:0:0:
106,284,234633,2,0,L|114:218,1,49.5000015106202
215,277,234941,6,0,L|200:158,1,99.0000030212403,2|2,0:0|0:0,0:0:0:0:
100,101,235556,2,0,P|141:105|197:72,2,99.0000030212403
256,192,236249,12,0,237325,0:0:0:0:
126,66,237402,6,0,P|92:52|21:90,1,116.999994644165,4|0,1:0|0:0,0:0:0:0:
156,131,237633,1,0,0:0:0:0:
156,131,237710,2,0,P|185:108|187:28,1,116.999994644165,8|0,0:1|0:0,0:0:0:0:
84,125,237941,1,0,0:0:0:0:
84,125,238018,5,0,1:0:0:0:
109,185,238095,1,0,1:0:0:0:
172,203,238172,1,0,1:0:0:0:
223,174,238248,1,0,1:0:0:0:
271,168,238325,1,8,0:3:0:0:
312,193,238402,1,0,1:0:0:0:
326,233,238479,1,0,1:0:0:0:
322,263,238556,1,0,1:0:0:0:
309,282,238633,6,0,L|178:298,1,116.999994644165,0|0,1:0|0:0,0:0:0:0:
309,363,238864,1,0,0:0:0:0:
309,363,238941,2,0,L|374:371,1,58.4999973220826,8|0,0:0|0:0,0:0:0:0:
454,263,239095,2,0,L|395:270,1,58.4999973220826
170,363,239249,6,0,P|122:313|121:275,1,58.4999973220826,0|0,1:0|1:0,0:0:0:0:
40,316,239402,2,0,P|72:254|108:242,1,58.4999973220826,0|0,1:0|1:0,0:0:0:0:
237,184,239556,1,8,0:3:0:0:
183,204,239632,1,0,1:0:0:0:
126,191,239709,1,0,1:0:0:0:
87,150,239786,1,0,1:0:0:0:
77,93,239864,6,0,L|212:75,1,116.999994644165,4|0,1:0|0:0,0:0:0:0:
237,184,240095,1,0,0:0:0:0:
237,184,240172,2,0,L|352:199,1,116.999994644165,8|0,0:1|0:0,0:0:0:0:
411,71,240402,1,0,0:0:0:0:
411,71,240479,5,0,1:0:0:0:
379,136,240556,1,0,1:0:0:0:
421,191,240633,1,0,1:0:0:0:
479,205,240710,1,0,0:0:0:0:
512,253,240787,1,8,0:3:0:0:
502,301,240864,1,0,1:0:0:0:
470,326,240941,1,0,1:0:0:0:
437,327,241018,1,0,1:0:0:0:
415,319,241095,6,0,P|368:294|284:323,1,116.999994644165,0|0,1:0|0:0,0:0:0:0:
235,361,241325,1,0,0:0:0:0:
235,361,241402,2,0,L|216:208,1,116.999994644165,8|0,0:0|0:0,0:0:0:0:
83,126,241710,5,8,0:3:0:0:
132,80,241787,1,8,0:3:0:0:
192,75,241864,1,0,1:0:0:0:
236,100,241941,1,8,0:3:0:0:
258,142,242018,1,0,0:3:0:0:
259,184,242095,1,0,1:0:0:0:
250,211,242172,1,0,1:0:0:0:
235,233,242248,1,0,1:0:0:0:
220,244,242325,6,0,L|67:225,1,116.999994644165,4|0,1:0|0:0,0:0:0:0:
42,280,242556,1,0,0:0:0:0:
42,280,242633,2,0,P|22:222|66:158,1,116.999994644165,8|0,0:1|0:0,0:0:0:0:
258,142,242941,5,0,1:0:0:0:
214,134,243017,1,0,1:0:0:0:
171,126,243094,1,0,1:0:0:0:
128,118,243171,1,0,1:0:0:0:
85,110,243249,1,8,0:3:0:0:
113,104,243325,1,0,1:0:0:0:
142,99,243402,1,0,1:0:0:0:
171,94,243479,1,0,1:0:0:0:
200,89,243556,5,0,1:0:0:0:
337,106,243710,5,4,0:3:0:0:
333,76,243786,1,4,0:3:0:0:
431,166,243941,5,4,0:3:0:0:
435,136,244017,1,4,0:3:0:0:
348,230,244172,5,8,0:0:0:0:
340,252,244248,1,8,0:0:0:0:
321,271,244325,1,0,1:0:0:0:
295,283,244402,1,8,0:0:0:0:
255,284,244479,1,8,0:0:0:0:
207,257,244556,1,0,1:0:0:0:
152,229,244633,1,0,1:0:0:0:
89,249,244710,1,8,0:0:0:0:
63,314,244787,6,0,B|100:345|100:345|190:327,1,116.999994644165,4|0,1:0|0:0,0:0:0:0:
255,284,245018,1,0,0:0:0:0:
255,284,245095,2,0,L|230:169,1,116.999994644165,8|0,0:1|0:0,0:0:0:0:
226,368,245325,1,0,0:0:0:0:
226,368,245402,5,0,1:0:0:0:
300,369,245479,1,0,1:0:0:0:
345,340,245556,1,0,1:0:0:0:
377,300,245633,1,0,0:0:0:0:
391,263,245710,1,8,0:3:0:0:
389,226,245787,1,0,1:0:0:0:
378,198,245864,1,0,1:0:0:0:
367,176,245941,1,0,1:0:0:0:
354,164,246018,5,0,1:0:0:0:
185,117,246172,5,4,0:3:0:0:
213,112,246248,1,0,1:0:0:0:
117,195,246402,5,4,0:3:0:0:
145,200,246478,1,0,1:0:0:0:
63,333,246633,6,0,L|49:255,3,58.4999973220826,0|0|0|0,1:0|0:0|1:0|0:0,0:0:0:0:
153,297,246941,2,0,L|142:354,3,58.4999973220826,0|0|0|0,1:0|0:0|1:0|0:0,0:0:0:0:
243,333,247249,5,0,1:0:0:0:
256,192,247325,12,0,248402,0:0:0:0:
63,98,248479,6,0,B|35:134|35:134|57:238,1,125.999996154785,4|0,1:0|0:0,0:0:0:0:
208,211,248710,1,0,0:0:0:0:
208,211,248787,2,0,P|174:160|113:154,1,125.999996154785,8|0,0:1|0:0,0:0:0:0:
213,290,249018,1,0,0:0:0:0:
213,290,249095,6,0,P|252:277|278:244,1,62.9999980773926,0|0,1:0|1:0,0:0:0:0:
328,97,249249,2,0,P|319:137|335:176,1,62.9999980773926,0|0,1:0|1:0,0:0:0:0:
215,300,249402,6,0,P|257:285|286:249,1,62.9999980773926,8|0,0:3|1:0,0:0:0:0:
341,88,249556,2,0,P|331:132|349:175,1,62.9999980773926,0|0,1:0|1:0,0:0:0:0:
461,303,249710,6,0,P|427:272|381:266,1,62.9999980773926,0|0,1:0|1:0,0:0:0:0:
217,310,249864,2,0,P|259:295|288:259,1,62.9999980773926,0|0,1:0|1:0,0:0:0:0:
481,314,250018,6,0,P|444:281|393:273,1,62.9999980773926,8|0,0:0|1:0,0:0:0:0:
213,321,250172,2,0,P|260:306|291:266,1,62.9999980773926,0|0,1:0|1:0,0:0:0:0:
354,79,250325,6,0,P|344:123|362:166,1,62.9999980773926,0|0,1:0|1:0,0:0:0:0:
501,325,250479,2,0,P|463:291|413:284,1,62.9999980773926,0|8,1:0|0:3,0:0:0:0:
218,384,250633,5,8,0:3:0:0:
213,321,250709,1,0,1:0:0:0:
208,258,250786,1,0,1:0:0:0:
203,195,250863,1,0,1:0:0:0:
198,132,250941,6,0,P|165:98|73:124,1,125.999996154785,4|0,1:0|0:0,0:0:0:0:
50,166,251172,1,0,0:0:0:0:
50,166,251249,2,0,L|63:22,1,125.999996154785,8|0,0:1|0:0,0:0:0:0:
53,241,251479,1,0,0:0:0:0:
53,241,251556,6,0,P|87:231|113:197,1,62.9999980773926,0|0,1:0|1:0,0:0:0:0:
279,91,251710,2,0,P|270:121|278:152,1,62.9999980773926,0|0,1:0|0:0,0:0:0:0:
44,247,251864,6,0,P|82:236|110:199,1,62.9999980773926,8|0,0:3|1:0,0:0:0:0:
285,81,252018,2,0,P|276:114|284:147,1,62.9999980773926,0|0,1:0|0:0,0:0:0:0:
450,384,252172,5,0,1:0:0:0:
500,346,252248,1,0,1:0:0:0:
509,290,252325,1,0,1:0:0:0:
486,248,252402,1,0,1:0:0:0:
453,228,252479,1,8,0:0:0:0:
420,227,252556,1,0,1:0:0:0:
398,235,252633,1,0,1:0:0:0:
380,248,252710,1,8,0:3:0:0:
360,266,252787,5,0,1:0:0:0:
298,298,252864,1,0,1:0:0:0:
232,288,252941,1,8,0:3:0:0:
188,249,253018,1,0,1:0:0:0:
174,201,253095,1,0,1:0:0:0:
179,155,253172,1,0,1:0:0:0:
202,122,253248,1,0,1:0:0:0:
225,104,253325,1,0,1:0:0:0:
248,92,253402,6,0,B|311:81|311:81|391:113,1,125.999996154785,4|0,1:0|0:0,0:0:0:0:
425,180,253633,1,0,0:0:0:0:
425,180,253710,2,0,B|362:191|362:191|282:159,1,125.999996154785,8|0,0:1|0:0,0:0:0:0:
485,141,253941,1,0,0:0:0:0:
485,141,254018,6,0,P|498:179|480:224,1,62.9999980773926,0|0,1:0|1:0,0:0:0:0:
388,288,254172,2,0,P|414:257|462:250,1,62.9999980773926,0|0,1:0|0:0,0:0:0:0:
436,380,254325,1,8,0:3:0:0:
404,375,254401,1,0,1:0:0:0:
373,371,254478,1,0,1:0:0:0:
342,367,254555,1,0,0:0:0:0:
311,363,254633,6,0,B|300:335|300:335|305:291,1,62.9999980773926,0|0,1:0|1:0,0:0:0:0:
353,131,254787,5,0,1:0:0:0:
353,131,254864,1,0,0:0:0:0:
353,131,254941,2,0,B|334:154|334:154|293:172,1,62.9999980773926,8|0,0:0|1:0,0:0:0:0:
132,211,255095,5,0,1:0:0:0:
132,211,255172,1,0,0:0:0:0:
132,211,255249,6,0,B|161:215|161:215|197:241,1,62.9999980773926,8|8,0:3|0:3,0:0:0:0:
153,327,255402,2,0,B|123:322|123:322|87:296,1,62.9999980773926,0|8,1:0|0:3,0:0:0:0:
31,201,255556,1,8,0:3:0:0:
35,154,255632,1,0,1:0:0:0:
40,107,255710,1,0,1:0:0:0:
45,60,255786,1,0,1:0:0:0:
50,13,255864,6,0,P|80:33|120:35,1,62.9999980773926,4|0,1:0|0:0,0:0:0:0:
152,119,256018,5,0,0:0:0:0:
152,119,256095,2,0,P|188:112|218:85,1,62.9999980773926,0|8,0:0|0:0,0:0:0:0:
298,122,256248,5,0,0:0:0:0:
298,122,256325,2,0,P|318:91|320:51,1,62.9999980773926
429,21,256479,5,0,1:0:0:0:
399,57,256555,1,0,1:0:0:0:
394,103,256632,1,0,1:0:0:0:
413,146,256709,1,0,1:0:0:0:
452,171,256787,1,8,0:0:0:0:
490,196,256863,1,0,1:0:0:0:
510,239,256940,1,0,1:0:0:0:
504,285,257018,1,0,1:0:0:0:
475,321,257095,6,0,P|436:328|402:312,1,62.9999980773926,0|0,1:0|0:0,0:0:0:0:
340,368,257249,5,0,0:0:0:0:
330,365,257325,2,0,P|301:337|295:300,1,62.9999980773926,0|8,0:0|0:0,0:0:0:0:
214,281,257480,5,0,0:0:0:0:
210,271,257556,2,0,P|216:231|243:205,1,62.9999980773926,0|8,0:0|0:3,0:0:0:0:
394,103,257710,5,0,1:0:0:0:
361,136,257787,1,0,1:0:0:0:
308,149,257864,1,8,0:0:0:0:
256,131,257941,1,0,1:0:0:0:
208,89,258018,1,0,1:0:0:0:
146,80,258095,1,0,1:0:0:0:
84,116,258172,1,0,1:0:0:0:
58,185,258248,1,0,1:0:0:0:
85,255,258325,5,4,1:0:0:0:
85,255,258633,6,0,P|132:237|221:244,2,135.000005149842
85,255,259556,5,0,0:0:0:0:
110,222,265954,5,2,1:2:0:0:
110,222,266554,1,2,0:0:0:0:
173,173,266704,2,0,L|235:180,1,58.4999973220826,2|0,0:0|0:0,0:0:0:0:
110,222,267004,2,0,L|96:105,2,116.999994644165,2|2|2,0:0|0:0|0:0,0:0:0:0:
168,270,267754,2,0,P|114:253|53:301,1,116.999994644165,2|0,0:0|0:0,0:0:0:0:
63,280,268354,5,2,0:0:0:0:
63,280,268954,1,2,0:0:0:0:
115,384,269104,2,0,L|121:325,1,58.4999973220826,2|0,0:0|0:0,0:0:0:0:
135,209,269404,2,0,P|171:230|252:215,2,116.999994644165,2|2|2,0:0|0:0|0:0,0:0:0:0:
85,149,270154,2,0,L|98:265,1,116.999994644165,2|0,0:0|0:0,0:0:0:0:
98,265,270754,5,2,0:0:0:0:
98,265,271354,1,2,0:0:0:0:
162,326,271504,2,0,P|208:325|230:305,1,58.4999973220826,2|0,0:0|0:0,0:0:0:0:
233,163,271804,2,0,P|189:200|182:256,2,116.999994644165,2|2|2,0:0|0:0|0:0,0:0:0:0:
297,138,272554,2,0,L|171:111,1,116.999994644165,2|0,0:0|0:0,0:0:0:0:
182,113,273154,5,2,0:0:0:0:
182,113,273754,1,2,0:0:0:0:
114,173,273904,2,0,L|106:109,1,58.4999973220826,2|0,0:0|0:0,0:0:0:0:
220,178,274204,2,0,L|235:50,1,116.999994644165,2|2,0:0|0:0,0:0:0:0:
95,26,274654,1,2,0:0:0:0:
242,0,274804,1,2,0:0:0:0:
106,114,274954,6,0,L|114:173,1,58.4999973220826,2|2,0:0|0:0,0:0:0:0:
220,178,275254,2,0,L|212:236,1,58.4999973220826,2|2,0:0|0:0,0:0:0:0:
123,322,275554,5,10,0:3:0:0:
154,339,275629,1,2,0:0:0:0:
187,344,275704,1,2,0:0:0:0:
230,333,275779,1,10,0:3:0:0:
262,301,275854,1,2,0:0:0:0:
283,252,275929,1,2,0:0:0:0:
326,218,276004,1,10,0:3:0:0:
386,212,276079,1,2,0:0:0:0:
439,248,276154,5,6,0:3:0:0:
377,272,276229,1,2,0:0:0:0:
318,255,276304,1,2,0:0:0:0:
286,224,276379,1,6,0:3:0:0:
273,187,276454,1,2,0:0:0:0:
273,153,276529,1,2,0:0:0:0:
280,127,276604,1,6,0:3:0:0:
291,109,276679,1,2,0:0:0:0:
305,96,276754,6,0,L|373:104,3,62.9999980773926,6|2|2|10,0:3|0:0|0:0|0:3,0:0:0:0:
245,35,277054,6,0,P|223:24|176:27,1,62.9999980773926,2|2,0:0|0:0,0:0:0:0:
143,97,277204,2,0,P|114:109|83:108,1,62.9999980773926,10|2,0:3|0:0,0:0:0:0:
32,42,277354,5,6,0:3:0:0:
0,94,277429,1,0,0:0:0:0:
13,154,277504,1,0,0:0:0:0:
63,189,277579,1,4,0:3:0:0:
124,180,277654,1,0,0:0:0:0:
181,158,277729,1,0,0:0:0:0:
238,182,277804,1,8,0:3:0:0:
263,238,277879,1,0,0:0:0:0:
243,296,277954,6,0,B|359:269|319:390|468:358,1,229.500004377365,6|0,1:2|0:0,0:0:0:0:
489,350,278254,1,8,0:0:0:0:
488,178,278404,2,0,P|431:138|445:259,1,229.500004377365,2|0,0:0|0:0,0:0:0:0:
421,265,278704,1,2,1:2:0:0:
185,343,278854,2,0,P|172:307|182:250,1,76.5000014591217,10|0,0:0|0:0,0:0:0:0:
296,135,279004,2,0,P|271:165|238:182,1,76.5000014591217,2|0,0:0|0:0,0:0:0:0:
62,143,279154,5,0,1:0:0:0:
219,97,279304,1,2,0:0:0:0:
219,97,279379,1,0,0:0:0:0:
219,97,279454,2,0,L|139:82,1,76.5000014591217,8|0,0:0|0:0,0:0:0:0:
0,254,279604,2,0,B|94:237|94:237|120:200|120:200|207:184,1,229.500004377365,2|0,1:2|0:0,0:0:0:0:
238,182,279904,1,0,1:0:0:0:
373,289,280054,2,0,B|341:337|341:337|309:145,1,229.500004377365,8|0,0:0|0:0,0:0:0:0:
309,148,280354,5,2,1:2:0:0:
481,77,280504,1,0,0:0:0:0:
481,77,280579,1,0,0:0:0:0:
481,77,280654,2,0,B|450:57|450:57|401:60,1,76.5000014591217,8|0,0:0|0:0,0:0:0:0:
394,162,280804,2,0,B|425:182|425:182|474:179,1,76.5000014591217,2|0,1:2|0:0,0:0:0:0:
316,53,280954,1,2,1:2:0:0:
244,233,281104,1,2,1:2:0:0:
215,5,281254,2,0,P|210:47|183:83,1,76.5000014591217,10|0,0:0|0:0,0:0:0:0:
22,151,281404,6,0,B|83:139|102:74|102:74|105:141|178:166,1,229.500004377365,2|0,1:2|0:0,0:0:0:0:
231,170,281704,2,0,P|217:205|187:228,1,76.5000014591217,2|0,1:2|0:0,0:0:0:0:
7,250,281854,2,0,P|44:244|79:258,1,76.5000014591217,8|0,0:0|0:0,0:0:0:0:
193,363,282004,2,0,B|280:352|280:352|308:316|308:316|419:302,1,229.500004377365,2|0,1:2|0:0,0:0:0:0:
431,302,282304,1,0,1:0:0:0:
299,125,282454,2,0,P|306:174|341:212,1,76.5000014591217,8|0,0:0|0:0,0:0:0:0:
417,219,282604,2,0,P|455:188|471:139,1,76.5000014591217,0|0,1:0|0:0,0:0:0:0:
439,69,282754,6,0,B|376:97|323:60|341:30|286:-1|228:20,1,229.500004377365,6|0,1:2|0:0,0:0:0:0:
195,47,283054,1,8,0:0:0:0:
231,252,283204,2,0,B|263:256|279:288|279:288|263:112,1,229.500004377365,2|0,1:2|0:0,0:0:0:0:
261,102,283504,1,2,1:2:0:0:
57,257,283654,2,0,P|103:246|130:213,1,76.5000014591217,10|0,0:0|0:0,0:0:0:0:
64,99,283804,2,0,P|50:134|57:171,1,76.5000014591217,2|0,0:0|0:0,0:0:0:0:
196,184,283954,5,0,1:2:0:0:
144,351,284104,1,2,0:0:0:0:
144,351,284179,1,0,0:0:0:0:
144,351,284254,2,0,L|229:338,1,76.5000014591217,8|0,0:0|0:0,0:0:0:0:
408,310,284404,2,0,P|376:288|472:272,1,229.500004377365,2|0,1:2|0:0,0:0:0:0:
480,272,284704,1,2,1:2:0:0:
300,200,284854,2,0,P|348:142|421:124,1,153.000002918243,10|2,0:0|0:0,0:0:0:0:
189,177,285154,5,0,1:0:0:0:
133,355,285304,1,0,0:0:0:0:
133,355,285379,1,0,0:0:0:0:
133,355,285454,2,0,L|224:342,1,76.5000014591217,8|0,0:0|0:0,0:0:0:0:
416,312,285604,2,0,P|382:288|485:271,1,229.500004377365,2|0,1:2|0:0,0:0:0:0:
493,271,285904,1,2,1:2:0:0:
509,141,286054,2,0,P|463:118|372:133,1,76.5000014591217,10|0,0:0|0:0,0:0:0:0:
294,191,286204,2,0,P|337:162|369:75,1,76.5000014591217,2|0,1:2|0:0,0:0:0:0:
363,0,286354,5,2,1:2:0:0:
51,275,287554,6,0,P|11:205|147:181,1,249.749999047279,6|0,1:2|0:0,0:0:0:0:
154,188,287854,1,8,0:0:0:0:
192,376,288004,2,0,B|158:249|280:284|250:146,1,249.749999047279,2|0,0:0|0:0,0:0:0:0:
226,68,288304,2,0,P|262:65|315:100,1,83.2499996824265,2|0,1:2|0:0,0:0:0:0:
354,258,288454,2,0,P|333:228|337:164,1,83.2499996824265,10|0,0:0|0:0,0:0:0:0:
455,52,288604,1,2,0:0:0:0:
354,258,288754,5,0,1:2:0:0:
500,296,288904,1,2,0:0:0:0:
500,296,288979,1,0,0:0:0:0:
500,296,289054,2,0,B|461:307|461:307|423:288,1,83.2499996824265,8|0,0:0|0:0,0:0:0:0:
163,291,289204,2,0,B|224:257|290:304|263:343|330:380|398:346,1,249.749999047279,2|0,1:2|0:0,0:0:0:0:
393,349,289504,1,0,1:0:0:0:
375,105,289654,2,0,B|339:99|319:63|319:63|349:242,1,249.749999047279,8|0,0:0|0:0,0:0:0:0:
354,258,289954,5,2,1:2:0:0:
163,291,290104,1,0,0:0:0:0:
163,291,290179,1,0,0:0:0:0:
163,291,290254,2,0,P|151:247|163:209,1,83.2499996824265,8|0,0:0|0:0,0:0:0:0:
258,107,290404,2,0,P|225:139|186:148,1,83.2499996824265,2|0,0:0|0:0,0:0:0:0:
49,114,290554,1,2,0:0:0:0:
10,277,290704,2,0,B|58:312|58:312|163:291,1,166.499999364853,2|10,1:2|0:0,0:0:0:0:
357,224,291004,6,0,P|279:194|296:331,1,249.749999047279,2|0,1:2|0:0,0:0:0:0:
291,329,291304,1,2,1:2:0:0:
438,257,291454,2,0,P|443:210|425:171,1,83.2499996824265,8|0,0:0|0:0,0:0:0:0:
331,75,291604,2,0,B|301:131|301:131|499:100,1,249.749999047279,2|0,1:2|0:0,0:0:0:0:
510,97,291904,1,2,1:2:0:0:
371,1,292054,2,0,B|309:-32|243:14|270:53|203:90|135:56,1,249.749999047279,8|0,0:0|0:0,0:0:0:0:
107,38,292354,6,0,B|98:133|98:133|127:176|127:176|116:295,1,249.749999047279,6|0,1:2|0:0,0:0:0:0:
115,298,292654,1,8,0:0:0:0:
308,297,292804,2,0,P|337:236|195:241,1,249.749999047279,2|0,1:2|0:0,0:0:0:0:
194,224,293104,1,2,1:2:0:0:
288,373,293254,2,0,L|470:351,1,166.499999364853,10|2,0:0|0:0,0:0:0:0:
194,224,293554,5,0,1:0:0:0:
396,290,293704,2,0,P|419:260|422:210,1,83.2499996824265,2|0,1:2|0:0,0:0:0:0:
512,217,293854,2,0,P|507:179|474:141,1,83.2499996824265,10|0,0:0|0:0,0:0:0:0:
254,62,294004,2,0,B|349:51|349:51|384:80|384:80|511:67,1,249.749999047279,2|0,1:2|0:0,0:0:0:0:
512,67,294304,1,2,1:2:0:0:
325,127,294454,1,10,0:0:0:0:
150,37,294604,1,2,1:2:0:0:
81,78,294754,5,0,1:0:0:0:
81,88,294829,1,0,0:0:0:0:
82,98,294904,1,0,0:0:0:0:
83,109,294979,1,0,0:0:0:0:
84,119,295054,1,0,0:0:0:0:
85,129,295129,1,0,0:0:0:0:
86,140,295204,1,0,0:0:0:0:
87,150,295279,1,0,0:0:0:0:
88,160,295354,5,2,1:2:0:0:
325,127,295504,1,2,1:2:0:0:
472,314,295654,1,2,1:2:0:0:
416,244,295804,6,0,B|328:253|328:253|295:290|295:290|172:301,1,249.749999047279,2|0,1:2|0:0,0:0:0:0:
118,306,296104,2,0,B|153:313|171:343|171:343|146:138,1,249.749999047279,2|0,1:2|0:0,0:0:0:0:
70,125,296404,2,0,B|132:158|196:110|171:73|238:33|311:64,1,249.749999047279,2|0,1:2|0:0,0:0:0:0:
266,220,296704,2,0,P|224:193|305:205,1,249.749999047279,2|0,1:2|0:0,0:0:0:0:
269,169,297004,5,0,0:0:0:0:
431,352,297154,6,0,B|440:245|440:245|412:194|412:194|421:98,1,261.000007965088,6|8,1:2|0:0,0:0:0:0:
421,98,297754,1,2,1:2:0:0:
207,77,297904,2,0,B|242:112|242:112|323:106,1,130.500003982544,2|8,1:2|0:0,0:0:0:0:
127,42,298204,2,0,B|92:149|197:117|153:244,1,195.750005973816,2|0,1:2|0:0,0:0:0:0:
148,252,298504,1,0,0:0:0:0:
62,368,298654,1,8,0:0:0:0:
203,302,298804,2,0,L|74:284,1,130.500003982544,2|0,1:2|0:0,0:0:0:0:
320,235,299104,2,0,L|302:364,2,130.500003982544,2|8|2,1:2|0:0|0:0,0:0:0:0:
127,42,299554,5,0,1:0:0:0:
108,127,299704,5,2,0:0:0:0:
108,127,299779,1,2,0:0:0:0:
108,127,299854,2,0,P|155:124|180:106,1,67.5000025749208,2|2,0:0|0:0,0:0:0:0:
255,38,300154,2,0,P|234:80|237:110,1,67.5000025749208,2|2,0:0|0:0,0:0:0:0:
258,209,300454,2,0,P|231:169|203:157,1,67.5000025749208,2|2,0:0|0:0,0:0:0:0:
170,299,300754,2,0,P|217:296|242:278,1,67.5000025749208,2|2,0:0|0:0,0:0:0:0:
136,177,301054,2,0,P|115:219|118:249,1,67.5000025749208,2|2,0:0|0:0,0:0:0:0:
188,228,301354,1,2,0:0:0:0:
234,359,301504,2,0,P|253:320|344:299,1,135.000005149842,2|2,1:2|1:2,0:0:0:0:
508,171,301954,6,0,B|402:161|402:161|367:198|367:198|263:189,1,261.000007965088,6|8,1:2|0:0,0:0:0:0:
263,189,302554,1,2,1:2:0:0:
315,7,302704,2,0,P|351:59|340:122,1,130.500003982544,2|10,1:2|0:0,0:0:0:0:
131,144,303004,2,0,B|94:108|94:108|249:81,1,195.750005973816,2|0,1:2|0:0,0:0:0:0:
273,76,303304,1,0,0:0:0:0:
220,291,303454,2,0,L|198:163,1,130.500003982544,8|0,0:0|0:0,0:0:0:0:
70,384,303754,1,2,1:2:0:0:
29,306,303904,2,0,B|97:270|166:324|127:348|193:404|280:360,1,261.000007965088,2|2,1:2|0:0,0:0:0:0:
437,292,304354,5,4,1:2:0:0:
372,350,304504,5,2,0:0:0:0:
372,350,304579,1,2,0:0:0:0:
372,350,304654,2,0,P|351:306|352:263,1,67.5000025749208,2|2,0:0|0:0,0:0:0:0:
439,163,304954,2,0,P|422:192|397:214,1,67.5000025749208,2|2,0:0|0:0,0:0:0:0:
244,199,305254,2,0,P|292:202|329:225,1,67.5000025749208,2|2,0:0|0:0,0:0:0:0:
205,274,305554,6,0,P|205:215|157:132,1,135.000005149842,2|2,0:0|0:0,0:0:0:0:
112,93,306004,1,2,0:0:0:0:
11,232,306154,5,2,1:2:0:0:
244,199,306304,1,2,1:2:0:0:
81,380,306454,5,2,1:2:0:0:
48,147,306604,1,2,1:2:0:0:
215,367,306754,6,0,B|321:358|321:358|349:315|349:315|453:306,1,261.000007965088,6|8,1:2|0:0,0:0:0:0:
452,306,307354,2,0,L|436:149,1,130.500003982544,2|2,0:0|1:2,0:0:0:0:
235,121,307654,1,8,0:0:0:0:
424,45,307804,1,2,0:0:0:0:
186,61,307954,6,0,P|164:149|242:196,1,195.750005973816,0|0,1:0|1:0,0:0:0:0:
317,200,308254,2,0,P|294:141|235:121,1,130.500003982544,8|0,0:0|1:0,0:0:0:0:
166,295,308554,1,2,0:0:0:0:
125,217,308704,2,0,B|193:181|262:235|223:259|289:315|376:271,1,261.000007965088,2|2,1:2|0:0,0:0:0:0:
458,149,309154,5,4,1:2:0:0:
357,279,309304,5,2,0:0:0:0:
357,279,309379,1,2,0:0:0:0:
357,279,309454,2,0,P|359:237|328:193,1,67.5000025749208,2|2,0:0|0:0,0:0:0:0:
228,228,309754,2,0,P|255:248|288:254,1,67.5000025749208,2|2,0:0|0:0,0:0:0:0:
336,141,310054,2,0,P|305:154|283:180,1,67.5000025749208,2|0,0:0|0:0,0:0:0:0:
212,299,310354,5,2,0:0:0:0:
177,127,310504,1,2,0:0:0:0:
220,326,310654,2,0,L|154:341,1,67.5000025749208,2|2,0:0|0:0,0:0:0:0:
177,127,310954,6,0,L|242:111,1,67.5000025749208,2|2,0:0|0:0,0:0:0:0:
65,257,311254,5,2,1:2:0:0:
19,64,311404,1,2,0:0:0:0:
21,334,311554,6,0,B|100:327|100:327|129:292|129:292|257:281,1,195.750005973816,6|0,1:2|0:0,0:0:0:0:
232,282,311854,1,8,0:0:0:0:
438,261,312004,1,0,0:0:0:0:
327,384,312154,2,0,L|311:218,1,130.500003982544,2|2,0:0|1:2,0:0:0:0:
470,89,312454,1,8,0:0:0:0:
438,261,312604,1,2,0:0:0:0:
260,196,312754,6,0,P|219:131|350:56,1,261.000007965088,0|8,1:2|0:0,0:0:0:0:
314,254,313204,2,0,L|105:226,1,195.750005973816,0|0,1:0|0:0,0:0:0:0:
54,219,313504,1,2,1:2:0:0:
202,384,313654,2,0,L|182:237,1,130.500003982544,8|2,0:0|0:0,0:0:0:0:
454,225,313954,5,8,0:0:0:0:
197,189,314104,1,10,0:0:0:0:
422,40,314254,5,10,0:0:0:0:
388,297,314404,1,10,0:0:0:0:
239,72,314554,5,10,0:0:0:0:
496,108,314704,1,10,0:0:0:0:
269,256,314854,5,10,0:0:0:0:
305,0,315004,1,10,0:0:0:0:
329,336,315154,6,0,B|224:323|224:323|197:279|197:279|93:266,1,261.000007965088,2|0,1:2|0:0,0:0:0:0:
17,384,315604,2,0,L|0:254,1,130.500003982544,2|0,1:2|0:0,0:0:0:0:
183,111,315904,2,0,P|296:141|268:255,1,261.000007965088,2|2,1:2|0:0,0:0:0:0:
0,254,316354,5,4,1:2:0:0:
0,254,316954,1,2,0:0:0:0:
48,195,317104,2,0,L|129:205,1,76.5000014591217,2|0,0:0|0:0,0:0:0:0:
162,276,317404,2,0,L|143:124,2,153.000002918243,2|2|2,0:0|0:0|0:0,0:0:0:0:
99,309,318154,2,0,B|180:284|161:359|250:336,1,153.000002918243,2|0,0:0|0:0,0:0:0:0:
241,337,318754,5,2,0:0:0:0:
241,337,319354,1,2,0:0:0:0:
279,273,319504,2,0,P|305:266|353:288,1,76.5000014591217,2|0,0:0|0:0,0:0:0:0:
241,337,319804,2,0,L|225:167,2,153.000002918243,2|2|2,0:0|0:0|0:0,0:0:0:0:
299,170,320554,2,0,P|271:127|167:139,1,153.000002918243,2|0,0:0|0:0,0:0:0:0:
177,128,321154,5,2,0:0:0:0:
177,128,321754,1,2,0:0:0:0:
72,209,321904,2,0,P|116:215|148:199,1,76.5000014591217,2|0,0:0|0:0,0:0:0:0:
22,156,322204,2,0,P|46:222|46:328,2,153.000002918243,2|2|2,0:0|0:0|0:0,0:0:0:0:
67,83,322954,2,0,B|130:77|130:77|156:99|156:99|228:92,1,153.000002918243,2|0,0:0|0:0,0:0:0:0:
211,94,323554,5,2,0:0:0:0:
211,94,324154,1,2,0:0:0:0:
261,152,324304,2,0,B|298:161|298:161|347:143,1,76.5000014591217,2|0,0:0|0:0,0:0:0:0:
211,94,324604,2,0,P|225:167|232:278,1,153.000002918243,2|2,0:0|0:0,0:0:0:0:
85,219,325054,2,0,B|120:206|120:206|158:215,1,76.5000014591217,2|2,0:0|0:0,0:0:0:0:
231,245,325354,2,0,B|268:254|268:254|304:241,1,76.5000014591217,2|2,0:0|0:0,0:0:0:0:
370,207,325654,2,0,P|328:250|345:326,1,114.750002188683,2|0,0:0|0:0,0:0:0:0:
356,326,325954,6,0,P|406:305|494:398,1,180,2|0,0:0|0:0,0:0:0:0:
263,357,326454,5,0,0:0:0:0:
263,357,326554,2,0,L|243:235,1,90,2|2,0:0|0:0,0:0:0:0:
70,207,326854,2,0,B|105:234|105:234|198:211,1,135
236,200,327154,1,0,0:0:0:0:
120,153,327304,1,2,0:0:0:0:
307,135,327454,6,0,L|338:132,5,30,0|0|0|2|0|0,0:0|0:0|0:0|0:0|0:0|0:0,0:0:0:0:
365,129,327754,2,0,L|355:224,1,90,2|0,0:0|0:0,0:0:0:0:
236,200,328054,6,0,L|205:197,5,30
178,194,328354,2,0,L|187:289,1,90,2|0,0:0|0:0,0:0:0:0:
307,265,328654,6,0,L|338:262,5,30
365,259,328954,2,0,L|355:354,1,90,2|2,0:0|0:0,0:0:0:0:
489,327,329254,2,0,L|475:192,1,135
470,147,329554,1,0,0:0:0:0:
500,46,329704,2,0,B|397:22|421:117|316:89,1,180,2|2,0:0|0:0,0:0:0:0:
236,54,330154,6,0,L|226:134,1,45,2|0,0:0|0:0,0:0:0:0:
316,185,330304,2,0,L|321:229,1,45
223,49,330454,6,0,L|213:129,1,45
303,180,330604,2,0,L|308:224,1,45
253,290,330754,6,0,L|163:278,1,90,2|0,0:0|0:0,0:0:0:0:
8,329,331054,1,0,0:0:0:0:
52,196,331204,1,0,0:0:0:0:
112,371,331354,2,0,L|202:359,2,90,2|2|2,0:0|0:0|0:0,0:0:0:0:
163,278,331804,1,2,0:0:0:0:
52,196,331954,2,0,L|64:286,1,90,0|2,0:0|0:0,0:0:0:0:
199,325,332254,6,0,L|193:280,5,30,0|0|0|2|0|0,0:0|0:0|0:0|0:0|0:0|0:0,0:0:0:0:
163,278,332554,2,0,L|174:189,1,90,2|0,0:0|0:0,0:0:0:0:
346,248,332854,6,0,L|351:203,5,30
382,200,333154,2,0,L|370:111,1,90,2|0,0:0|0:0,0:0:0:0:
199,170,333454,6,0,L|193:125,5,30
163,122,333754,2,0,L|174:33,1,90,2|2,0:0|0:0,0:0:0:0:
369,110,334054,6,0,L|374:65,5,30
429,60,334354,5,2,1:2:0:0:
475,159,334504,5,2,0:0:0:0:
451,245,334654,5,2,0:0:0:0:
386,291,334804,5,2,0:0:0:0:
318,298,334954,5,2,0:0:0:0:
272,284,335104,5,2,0:0:0:0:
239,262,335254,5,2,0:0:0:0:
221,239,335404,5,2,0:0:0:0:
213,222,335554,6,0,P|176:173|67:183,1,175.499991966248,6|0,1:2|0:0,0:0:0:0:
49,201,335854,1,8,0:0:0:0:
219,371,336004,2,0,P|221:287|312:169,1,233.999989288331,2|2,0:0|1:2,0:0:0:0:
399,311,336454,2,0,B|347:337|347:337|276:317,1,116.999994644165,8|2,0:0|0:0,0:0:0:0:
414,180,336754,5,0,1:2:0:0:
497,346,336904,2,0,P|503:290|512:230,1,116.999994644165,2|8,0:0|0:0,0:0:0:0:
409,106,337204,2,0,B|350:100|350:100|321:66|321:66|250:59,1,175.499991966248,2|0,1:2|0:0,0:0:0:0:
220,56,337504,1,0,1:0:0:0:
155,221,337654,2,0,P|222:236|277:119,1,175.499991966248,8|0,0:0|0:0,0:0:0:0:
285,134,337954,5,6,1:2:0:0:
96,43,338104,1,0,0:0:0:0:
96,43,338179,1,0,0:0:0:0:
96,43,338254,2,0,L|110:179,1,116.999994644165,8|2,0:0|0:0,0:0:0:0:
23,343,338554,1,0,1:0:0:0:
118,275,338704,1,2,1:2:0:0:
240,384,338854,2,0,L|251:267,1,116.999994644165,8|2,0:0|1:2,0:0:0:0:
107,159,339154,5,6,1:2:0:0:
230,62,339304,2,0,L|241:178,1,116.999994644165,2|8,1:2|0:0,0:0:0:0:
34,87,339604,2,0,B|129:102|98:15|202:34,1,175.499991966248,2|0,1:2|0:0,0:0:0:0:
230,62,339904,1,0,1:0:0:0:
416,13,340054,2,0,L|299:1,1,116.999994644165,8|0,0:0|0:0,0:0:0:0:
386,208,340354,6,0,P|471:179|490:73,1,175.499991966248,6|0,1:2|0:0,0:0:0:0:
494,67,340654,1,8,0:0:0:0:
307,149,340804,2,0,B|315:244|315:244|350:273|350:273|358:369,1,233.999989288331,2|2,1:2|1:2,0:0:0:0:
175,344,341254,2,0,P|221:309|279:310,1,116.999994644165,8|2,0:0|0:2,0:0:0:0:
461,373,341554,5,0,1:0:0:0:
440,178,341704,1,2,0:0:0:0:
440,178,341779,1,0,1:0:0:0:
440,178,341854,2,0,L|425:294,1,116.999994644165,8|2,0:0|1:2,0:0:0:0:
276,139,342154,1,0,0:0:0:0:
231,247,342304,5,2,1:2:0:0:
391,123,342454,1,10,0:2:0:0:
205,47,342604,1,2,0:2:0:0:
133,276,342754,6,0,P|180:259|259:397,1,233.999989288331,6|8,1:2|0:0,0:0:0:0:
265,384,343354,2,0,L|387:371,1,116.999994644165,2|2,1:2|1:2,0:0:0:0:
418,178,343654,1,10,0:2:0:0:
497,358,343804,1,2,1:2:0:0:
409,156,343954,6,0,L|292:168,1,116.999994644165,6|2,1:2|1:2,0:0:0:0:
487,232,344254,1,10,0:0:0:0:
247,235,344404,2,0,P|213:169|301:92,1,175.499991966248,2|0,1:2|0:0,0:0:0:0:
291,93,344704,1,0,1:0:0:0:
387,309,344854,1,8,0:0:0:0:
487,232,345004,1,0,1:0:0:0:
291,93,345154,6,0,P|282:152|263:206,1,116.999994644165,6|0,1:2|0:0,0:0:0:0:
283,242,345379,1,0,0:0:0:0:
283,242,345454,1,8,0:0:0:0:
107,355,345604,2,0,P|98:295|79:241,1,116.999994644165,2|0,0:0|0:0,0:0:0:0:
162,158,345904,1,2,1:2:0:0:
29,60,346054,2,0,L|47:176,1,116.999994644165,8|2,0:0|0:0,0:0:0:0:
242,245,346354,6,0,P|278:207|419:188,1,175.499991966248,0|0,1:0|0:0,0:0:0:0:
427,203,346654,1,8,0:0:0:0:
232,367,346804,2,0,P|230:252|151:149,1,233.999989288331,2|0,1:2|1:0,0:0:0:0:
30,292,347254,2,0,L|145:274,1,116.999994644165,8|0,0:0|0:0,0:0:0:0:
239,112,347554,6,0,P|156:71|75:155,1,175.499991966248,6|0,1:2|0:0,0:0:0:0:
73,142,347854,1,8,0:0:0:0:
223,285,348004,2,0,B|290:302|340:258|306:230|362:183|447:207,1,233.999989288331,2|2,1:2|1:2,0:0:0:0:
471,350,348454,1,8,0:0:0:0:
500,151,348604,1,2,1:2:0:0:
400,374,348754,6,0,L|285:356,1,116.999994644165,4|2,1:2|0:0,0:0:0:0:
508,244,349054,1,8,0:0:0:0:
284,355,349204,2,0,B|292:262|292:262|262:227|262:227|271:132,1,233.999989288331,2|0,1:2|1:0,0:0:0:0:
453,20,349654,2,0,P|392:66|287:50,1,175.499991966248,8|0,0:0|0:0,0:0:0:0:
280,43,349954,6,0,P|195:31|125:80,1,175.499991966248,6|0,1:2|0:0,0:0:0:0:
123,109,350254,1,8,0:0:0:0:
236,249,350404,2,0,B|288:209|288:209|95:185,1,233.999989288331,2|2,1:2|1:2,0:0:0:0:
0,340,350854,2,0,L|115:324,1,116.999994644165,8|2,0:0|1:2,0:0:0:0:
351,264,351154,6,0,L|236:249,1,116.999994644165,0|2,0:0|1:2,0:0:0:0:
423,367,351454,5,10,0:0:0:0:
446,193,351604,1,2,1:2:0:0:
234,248,351754,5,2,1:2:0:0:
213,76,351904,1,2,1:2:0:0:
400,80,352054,6,0,P|352:47|213:72,1,175.499991966248,10|0,0:0|0:0,0:0:0:0:
213,76,352354,5,6,1:2:0:0:
148,245,352504,1,0,0:0:0:0:
148,245,352579,1,0,0:0:0:0:
148,245,352654,2,0,P|144:183|125:120,1,116.999994644165,8|0,0:0|1:0,0:0:0:0:
106,323,352954,5,2,0:2:0:0:
357,266,353104,1,2,1:2:0:0:
185,383,353254,5,10,0:2:0:0:
129,130,353404,1,2,1:2:0:0:
129,130,353704,5,2,1:2:0:0:
129,130,354004,5,2,1:2:0:0:
356,255,354754,5,6,1:0:0:0:
111,302,364619,5,8,1:0:0:0:
86,172,364769,1,2,0:0:0:0:
86,172,365069,5,2,0:0:0:0:
46,374,365219,1,2,0:0:0:0:
46,374,365519,6,0,P|79:339|181:348,1,148.50000453186,2|2,0:0|0:0,0:0:0:0:
242,384,366119,2,0,L|299:377,1,49.5000015106202,2|0,0:0|0:0,0:0:0:0:
173,342,366419,2,0,L|185:243,1,99.0000030212403,2|0,0:0|0:0,0:0:0:0:
184,243,367019,6,0,B|198:208|198:208|188:161,1,67.5000025749208,4|0,1:2|0:0,0:0:0:0:
33,153,367169,2,0,B|86:175|134:147|118:107|173:77|234:108,1,202.500007724762
246,116,367469,1,0,0:0:0:0:
348,243,367619,1,0,0:0:0:0:
344,209,367694,1,0,0:0:0:0:
340,175,367769,1,0,1:0:0:0:
337,142,367844,1,0,0:0:0:0:
333,108,367919,2,0,P|377:70|466:97,1,135.000005149842,10|0,0:0|0:0,0:0:0:0:
381,335,368219,6,0,B|304:328|304:328|274:293|274:293|195:286,1,202.500007724762,2|0,1:2|0:0,0:0:0:0:
146,351,368519,2,0,P|124:329|113:288,1,67.5000025749208,10|0,0:0|0:0,0:0:0:0:
178,161,368669,2,0,P|169:193|146:218,1,67.5000025749208
0,229,368819,1,0,0:0:0:0:
2,195,368894,1,0,0:0:0:0:
5,161,368969,1,0,1:0:0:0:
8,128,369044,1,0,0:0:0:0:
11,94,369119,2,0,B|44:83|44:83|80:97,1,67.5000025749208,10|0,0:0|0:0,0:0:0:0:
217,45,369269,2,0,B|184:56|184:56|148:42,1,67.5000025749208
270,124,369419,6,0,P|308:108|359:116,1,67.5000025749208,2|0,1:2|0:0,0:0:0:0:
387,300,369569,2,0,B|358:309|344:341|344:341|320:191,1,202.500007724762
318,179,369869,1,2,0:0:0:0:
200,309,370019,1,0,0:0:0:0:
200,309,370094,1,0,0:0:0:0:
200,309,370169,2,0,P|240:310|270:290,1,67.5000025749208,0|0,1:2|0:0,0:0:0:0:
133,240,370319,2,0,B|99:286|99:286|121:384,1,135.000005149842,10|0,0:0|0:0,0:0:0:0:
44,229,370619,6,0,B|78:183|78:183|56:85,1,135.000005149842,0|0,1:0|0:0,0:0:0:0:
201,20,370919,2,0,B|168:16|168:16|139:35,1,67.5000025749208,8|0,0:0|0:0,0:0:0:0:
163,127,371069,2,0,B|195:130|195:130|224:111,1,67.5000025749208
334,47,371219,1,2,0:0:0:0:
382,33,371294,1,0,0:0:0:0:
428,52,371369,1,0,1:0:0:0:
451,96,371444,1,0,0:0:0:0:
442,144,371519,2,0,L|300:122,1,135.000005149842,10|0,0:0|0:0,0:0:0:0:
380,342,371819,6,0,B|412:345|412:345|441:326,1,67.5000025749208,2|0,1:2|0:0,0:0:0:0:
389,241,371969,2,0,B|336:219|288:247|304:287|249:317|188:286,1,202.500007724762
176,278,372269,1,2,0:0:0:0:
44,384,372419,1,0,0:0:0:0:
44,384,372494,1,0,0:0:0:0:
44,384,372569,2,0,P|36:351|41:318,1,67.5000025749208,0|0,1:0|0:0,0:0:0:0:
120,232,372719,1,10,0:0:0:0:
160,179,372794,1,0,0:0:0:0:
155,113,372869,1,0,0:0:0:0:
108,67,372944,1,0,0:0:0:0:
42,64,373019,6,0,B|116:106|184:47|135:18|208:-37|291:6,1,270.000010299683,0|8,1:0|0:0,0:0:0:0:
424,119,373469,2,0,B|439:85|439:85|424:33,1,67.5000025749208
272,205,373619,1,2,0:0:0:0:
305,201,373694,1,0,0:0:0:0:
339,197,373769,1,0,1:0:0:0:
372,193,373844,1,0,0:0:0:0:
406,189,373919,2,0,L|479:180,1,67.5000025749208,10|0,0:0|0:0,0:0:0:0:
380,308,374069,2,0,L|306:299,1,67.5000025749208
144,280,374219,5,2,1:2:0:0:
95,65,374369,1,0,1:0:0:0:
211,142,374519,5,8,0:0:0:0:
162,358,374669,1,0,1:0:0:0:
103,103,374819,5,8,0:0:0:0:
276,197,374969,1,0,1:0:0:0:
276,197,375044,1,0,1:0:0:0:
276,197,375119,2,0,P|299:147|268:82,1,67.5000025749208,8|0,0:0|0:0,0:0:0:0:
172,40,375269,2,0,B|259:30|259:30|285:52|285:52|373:42,1,202.500007724762,0|0,1:0|0:0,0:0:0:0:
399,39,375569,1,2,1:2:0:0:
380,200,375719,2,0,B|365:170|365:170|365:129,1,67.5000025749208,10|0,0:0|0:0,0:0:0:0:
466,116,375869,2,0,B|480:145|480:145|480:186,1,67.5000025749208,0|0,1:0|0:0,0:0:0:0:
446,272,376019,5,2,0:2:0:0:
408,295,376094,1,2,0:2:0:0:
356,298,376169,1,2,0:2:0:0:
305,270,376244,1,2,0:2:0:0:
277,217,376319,1,2,0:2:0:0:
228,172,376394,1,2,0:2:0:0:
151,171,376469,1,2,0:2:0:0:
96,226,376544,1,2,0:2:0:0:
96,303,376619,6,0,B|127:319|127:319|177:306,1,67.5000025749208,6|0,1:2|0:0,0:0:0:0:
12,150,376769,2,0,B|5:229|5:229|26:263|26:263|18:351,1,202.500007724762
16,378,377069,1,0,0:0:0:0:
241,307,377219,1,0,0:0:0:0:
237,273,377294,1,0,0:0:0:0:
234,239,377369,1,0,1:0:0:0:
231,206,377444,1,0,0:0:0:0:
228,172,377519,1,10,0:0:0:0:
155,44,377669,2,0,P|131:28|93:30,1,67.5000025749208
225,138,377819,6,0,B|333:167|307:62|421:98,1,202.500007724762,2|0,1:2|0:0,0:0:0:0:
492,101,378119,2,0,P|483:133|463:160,1,67.5000025749208,10|0,0:0|0:0,0:0:0:0:
319,218,378269,2,0,P|351:208|384:213,1,67.5000025749208
507,310,378419,1,0,0:0:0:0:
330,357,378569,1,0,1:0:0:0:
330,357,378644,1,0,0:0:0:0:
330,357,378719,2,0,B|322:323|322:323|328:288,1,67.5000025749208,10|0,0:0|0:0,0:0:0:0:
422,290,378869,2,0,B|430:324|430:324|424:359,1,67.5000025749208
235,355,379019,6,0,B|227:321|227:321|233:286,1,67.5000025749208,2|0,1:2|0:0,0:0:0:0:
317,148,379169,2,0,B|209:119|235:224|121:188,1,202.500007724762
100,176,379469,1,2,0:0:0:0:
142,7,379619,1,0,0:0:0:0:
168,28,379694,1,0,0:0:0:0:
182,59,379769,1,0,1:0:0:0:
180,92,379844,1,0,0:0:0:0:
164,122,379919,1,10,0:0:0:0:
0,65,380069,1,0,0:0:0:0:
61,248,380219,6,0,L|71:105,1,135.000005149842,0|0,1:0|0:0,0:0:0:0:
37,316,380519,2,0,P|77:321|105:306,1,67.5000025749208,8|0,0:0|0:0,0:0:0:0:
220,245,380669,2,0,P|189:232|156:238,1,67.5000025749208
283,354,380819,1,2,0:0:0:0:
285,320,380894,1,0,0:0:0:0:
287,286,380969,1,0,1:0:0:0:
290,252,381044,1,0,0:0:0:0:
292,219,381119,2,0,B|327:208|327:208|369:221,1,67.5000025749208,10|0,0:0|0:0,0:0:0:0:
473,281,381269,2,0,B|438:292|438:292|396:279,1,67.5000025749208
411,150,381419,6,0,B|445:138|445:138|487:151,1,67.5000025749208,2|0,1:2|0:0,0:0:0:0:
292,219,381569,2,0,B|215:212|215:212|185:177|185:177|106:170,1,202.500007724762
38,164,381869,2,0,P|43:198|63:224,1,67.5000025749208,2|0,0:0|0:0,0:0:0:0:
252,145,382019,1,0,0:0:0:0:
268,115,382094,1,0,0:0:0:0:
271,82,382169,1,0,1:0:0:0:
260,51,382244,1,0,0:0:0:0:
237,26,382319,2,0,L|102:14,1,135.000005149842,10|0,0:0|0:0,0:0:0:0:
252,145,382619,5,0,1:0:0:0:
453,127,382769,2,0,P|467:152|466:200,1,67.5000025749208
397,304,382919,2,0,B|382:268|382:268|398:174,1,135.000005149842,8|0,0:0|0:0,0:0:0:0:
461,346,383144,1,0,0:0:0:0:
461,346,383219,2,0,P|438:371|403:382,1,67.5000025749208,2|0,0:0|0:0,0:0:0:0:
266,275,383369,2,0,P|299:282|326:307,1,67.5000025749208,0|0,1:0|0:0,0:0:0:0:
197,376,383519,1,10,0:0:0:0:
193,342,383594,1,0,0:0:0:0:
190,308,383669,1,0,0:0:0:0:
187,275,383744,1,0,0:0:0:0:
184,241,383819,5,2,1:2:0:0:
469,168,383969,2,0,L|338:201,1,135.000005149842,0|0,1:0|0:0,0:0:0:0:
315,113,384269,5,2,1:2:0:0:
360,288,384419,2,0,L|338:201,1,90,0|0,1:0|0:0,0:0:0:0:
469,73,384719,5,2,1:2:0:0:
184,146,384869,2,0,L|314:112,1,135.000005149842,0|0,1:0|0:0,0:0:0:0:
456,320,385169,5,2,1:2:0:0:
410,144,385319,2,0,L|432:231,1,90,2|0,1:2|0:0,0:0:0:0:
372,328,385619,5,2,0:0:0:0:
323,366,385694,1,2,0:0:0:0:
266,361,385769,1,2,0:0:0:0:
227,328,385844,1,2,0:0:0:0:
211,290,385919,1,2,0:0:0:0:
203,248,385994,1,2,0:0:0:0:
181,213,386069,1,2,0:0:0:0:
142,195,386144,1,2,0:0:0:0:
106,193,386219,6,0,L|30:209,1,67.5000025749208,6|0,1:2|0:0,0:0:0:0:
87,48,386369,2,0,B|165:61|165:61|191:98|191:98|286:115,1,202.500007724762
300,118,386669,1,0,0:0:0:0:
443,74,386819,1,0,0:0:0:0:
443,74,386894,1,0,0:0:0:0:
443,74,386969,2,0,B|445:106|445:106|430:144,1,67.5000025749208,0|0,1:0|0:0,0:0:0:0:
321,251,387119,2,0,L|300:118,1,135.000005149842,8|0,0:0|0:0,0:0:0:0:
396,292,387419,6,0,P|311:338|238:276,1,202.500007724762,2|0,1:2|0:0,0:0:0:0:
179,233,387719,2,0,P|165:271|169:305,1,67.5000025749208,8|0,0:0|0:0,0:0:0:0:
50,326,387869,2,0,P|24:294|-7:281,1,67.5000025749208,2|0,0:0|0:0,0:0:0:0:
33,167,388019,1,0,0:0:0:0:
66,162,388094,1,0,0:0:0:0:
94,145,388169,1,0,1:0:0:0:
113,117,388244,1,0,0:0:0:0:
116,80,388319,2,0,P|142:19|204:0,1,135.000005149842,10|0,0:0|0:0,0:0:0:0:
307,139,388619,6,0,B|300:107|300:107|309:72,1,67.5000025749208,2|0,1:2|0:0,0:0:0:0:
410,193,388769,2,0,P|344:165|303:275,1,202.500007724762
329,285,389069,1,2,0:0:0:0:
162,375,389219,1,0,0:0:0:0:
157,341,389294,1,0,0:0:0:0:
152,308,389369,1,0,1:0:0:0:
148,274,389444,1,0,0:0:0:0:
143,241,389519,2,0,B|179:245|179:245|217:228,1,67.5000025749208,10|0,0:0|0:0,0:0:0:0:
190,127,389669,2,0,B|154:123|154:123|125:136,1,67.5000025749208
45,286,389819,6,0,B|51:209|51:209|22:174|22:174|29:94,1,202.500007724762,0|0,1:0|0:0,0:0:0:0:
32,53,390119,2,0,P|66:55|106:34,1,67.5000025749208,8|0,0:0|0:0,0:0:0:0:
190,127,390269,2,0,P|215:104|228:61,1,67.5000025749208
343,2,390419,1,2,0:0:0:0:
364,28,390494,1,0,0:0:0:0:
374,60,390569,1,0,1:0:0:0:
373,94,390644,1,0,0:0:0:0:
360,125,390719,2,0,P|345:189|377:247,1,135.000005149842,10|0,0:0|0:0,0:0:0:0:
512,384,391019,6,0,L|495:296,1,67.5000025749208,2|0,1:2|0:0,0:0:0:0:
377,247,391169,2,0,B|297:255|297:255|262:226|262:226|185:234,1,202.500007724762
151,237,391469,1,2,0:0:0:0:
41,376,391619,1,0,0:0:0:0:
36,342,391694,1,0,0:0:0:0:
32,308,391769,1,0,1:0:0:0:
28,275,391844,1,0,0:0:0:0:
24,241,391919,2,0,L|14:158,1,67.5000025749208,10|0,0:0|0:0,0:0:0:0:
176,36,392069,2,0,L|167:103,1,67.5000025749208
151,237,392219,5,0,1:0:0:0:
426,196,392369,2,0,B|321:227|344:122|225:160,1,202.500007724762
215,175,392669,1,0,0:0:0:0:
356,374,392819,2,0,B|366:342|366:342|358:301,1,67.5000025749208,2|0,0:0|0:0,0:0:0:0:
267,251,392969,2,0,B|234:257|234:257|203:285,1,67.5000025749208,0|0,1:0|0:0,0:0:0:0:
87,374,393119,2,0,B|65:335|65:335|83:236,1,135.000005149842,10|0,0:0|0:0,0:0:0:0:
237,136,393419,6,0,L|104:112,1,135.000005149842,2|0,1:2|0:0,0:0:0:0:
286,204,393719,1,8,0:0:0:0:
309,180,393794,1,0,0:0:0:0:
322,149,393869,1,0,0:0:0:0:
322,115,393944,1,0,0:0:0:0:
308,85,394019,1,0,0:0:0:0:
104,112,394169,1,0,1:0:0:0:
308,85,394319,2,0,L|440:61,1,135.000005149842,8|0,0:0|0:0,0:0:0:0:
325,281,394619,6,0,B|245:269|245:269|218:233|218:233|142:222,1,202.500007724762,2|0,1:2|0:0,0:0:0:0:
40,208,394919,2,0,B|34:171|34:171|50:131,1,67.5000025749208,10|0,0:0|0:0,0:0:0:0:
152,157,395069,2,0,B|155:195|155:195|142:222,1,67.5000025749208
27,359,395219,1,2,0:0:0:0:
60,354,395294,1,0,0:0:0:0:
93,349,395369,1,0,1:0:0:0:
127,344,395444,1,0,0:0:0:0:
160,339,395519,2,0,L|293:358,1,135.000005149842,10|0,0:0|0:0,0:0:0:0:
391,266,395819,6,0,P|411:226|398:183,1,67.5000025749208,2|0,1:2|0:0,0:0:0:0:
238,110,395969,2,0,B|317:103|317:103|352:132|352:132|447:123,1,202.500007724762
462,122,396269,1,0,0:0:0:0:
249,180,396419,1,0,0:0:0:0:
215,178,396494,1,0,0:0:0:0:
186,161,396569,1,0,1:0:0:0:
168,133,396644,1,0,0:0:0:0:
165,99,396719,2,0,L|154:233,1,135.000005149842,10|0,0:0|0:0,0:0:0:0:
0,288,397019,6,0,B|104:260|74:356|189:329,1,202.500007724762,2|0,1:2|0:0,0:0:0:0:
258,371,397319,2,0,P|269:343|254:284,1,67.5000025749208,10|0,0:0|0:0,0:0:0:0:
358,273,397469,2,0,P|345:245|293:214,1,67.5000025749208
168,133,397619,1,0,0:0:0:0:
168,133,397694,1,0,0:0:0:0:
168,133,397769,2,0,B|201:139|201:139|231:121,1,67.5000025749208,0|0,1:0|0:0,0:0:0:0:
93,62,397919,2,0,B|59:109|59:109|87:234,1,135.000005149842,10|0,0:0|0:0,0:0:0:0:
187,329,398219,6,0,L|167:240,1,67.5000025749208,2|0,1:2|0:0,0:0:0:0:
230,121,398369,2,0,B|336:88|313:185|431:155,1,202.500007724762
452,146,398669,1,2,0:0:0:0:
484,341,398819,1,0,0:0:0:0:
488,307,398894,1,0,0:0:0:0:
492,274,398969,1,0,1:0:0:0:
497,240,399044,1,0,0:0:0:0:
501,207,399119,2,0,L|483:73,1,135.000005149842,10|0,0:0|0:0,0:0:0:0:
298,20,399419,6,0,P|225:18|207:143,1,202.500007724762,0|0,1:0|0:0,0:0:0:0:
199,208,399719,2,0,P|233:200|266:161,1,67.5000025749208,8|0,0:0|0:0,0:0:0:0:
338,264,399869,2,0,P|356:234|352:183,1,67.5000025749208
260,86,400019,2,0,L|405:75,1,135.000005149842,2|0,0:0|1:0,0:0:0:0:
237,281,400319,2,0,B|160:274|160:274|130:239|130:239|51:232,1,202.500007724762,10|0,0:0|0:0,0:0:0:0:
0,227,400619,6,0,P|22:193|22:154,1,67.5000025749208,2|0,1:2|0:0,0:0:0:0:
0,12,400769,2,0,B|42:57|42:57|200:32,1,202.500007724762
214,29,401069,1,2,0:0:0:0:
357,202,401219,1,0,0:0:0:0:
323,196,401294,1,0,0:0:0:0:
290,190,401369,1,0,1:0:0:0:
257,185,401444,1,0,0:0:0:0:
223,179,401519,1,10,0:0:0:0:
466,82,401669,1,0,0:0:0:0:
424,236,401819,6,0,B|453:129|350:167|388:26,1,202.500007724762,0|0,1:0|0:0,0:0:0:0:
381,7,402119,2,0,P|339:23|301:20,1,67.5000025749208,8|0,0:0|0:0,0:0:0:0:
260,114,402269,2,0,P|222:88|203:55,1,67.5000025749208
102,76,402419,1,2,0:0:0:0:
102,76,402494,1,0,0:0:0:0:
102,76,402569,2,0,P|101:31|117:-3,1,67.5000025749208,0|0,1:0|0:0,0:0:0:0:
164,144,402719,2,0,P|95:116|75:238,1,202.500007724762,10|0,0:0|0:0,0:0:0:0:
74,248,403019,5,10,0:0:0:0:
396,213,403169,1,8,0:0:0:0:
416,217,403469,5,2,1:2:0:0:
257,185,403619,1,0,1:0:0:0:
237,181,403919,5,2,1:2:0:0:
396,149,404069,1,0,1:0:0:0:
416,145,404369,5,2,1:2:0:0:
257,113,404519,1,2,1:2:0:0:
237,109,404819,5,2,1:2:0:0:
237,109,405419,6,0,L|101:79,1,116.999994644165,4|0,1:0|0:0,0:0:0:0:
327,65,405719,1,8,0:0:0:0:
262,223,405869,1,0,0:0:0:0:
255,194,405944,1,0,0:0:0:0:
249,165,406019,1,0,0:0:0:0:
243,137,406094,1,0,0:0:0:0:
236,108,406169,1,0,1:0:0:0:
213,279,406319,2,0,P|266:297|324:264,1,116.999994644165,8|0,0:0|0:0,0:0:0:0:
177,204,406619,6,0,P|134:240|134:307,1,116.999994644165,0|0,1:0|0:0,0:0:0:0:
337,357,406919,1,8,0:0:0:0:
330,328,406994,1,0,0:0:0:0:
324,299,407069,1,0,0:0:0:0:
318,271,407144,1,0,0:0:0:0:
311,242,407219,1,0,0:0:0:0:
419,141,407369,1,0,1:0:0:0:
251,79,407519,2,0,L|233:193,1,116.999994644165,8|0,0:0|0:0,0:0:0:0:
82,249,407819,6,0,P|142:244|184:389,1,233.999989288331,0|8,1:0|0:0,0:0:0:0:
34,303,408269,1,0,0:0:0:0:
15,280,408344,1,0,0:0:0:0:
8,252,408419,1,0,0:0:0:0:
12,223,408494,1,0,0:0:0:0:
26,198,408569,1,0,1:0:0:0:
174,145,408719,2,0,L|51:125,1,116.999994644165,8|0,0:0|0:0,0:0:0:0:
155,250,409019,6,0,B|249:234|249:234|276:198|276:198|371:183,1,233.999989288331,0|8,1:0|0:0,0:0:0:0:
511,301,409469,1,0,0:0:0:0:
336,382,409619,1,0,0:0:0:0:
331,353,409694,1,0,0:0:0:0:
327,324,409769,1,0,1:0:0:0:
323,295,409844,1,0,0:0:0:0:
319,267,409919,1,8,0:0:0:0:
460,127,410069,1,0,0:0:0:0:
460,127,410144,1,0,0:0:0:0:
460,127,410219,6,0,L|442:242,1,116.999994644165,0|0,1:0|0:0,0:0:0:0:
352,69,410519,1,8,0:0:0:0:
225,183,410669,1,0,0:0:0:0:
251,195,410744,1,0,0:0:0:0:
280,198,410819,1,0,0:0:0:0:
308,190,410894,1,0,0:0:0:0:
332,173,410969,1,0,1:0:0:0:
131,75,411119,2,0,L|148:190,1,116.999994644165,8|0,0:0|0:0,0:0:0:0:
315,288,411419,6,0,L|332:173,1,116.999994644165,0|0,1:0|0:0,0:0:0:0:
250,345,411719,1,8,0:0:0:0:
272,363,411794,1,0,0:0:0:0:
299,373,411869,1,0,0:0:0:0:
328,373,411944,1,0,0:0:0:0:
356,363,412019,2,0,P|412:353|462:381,1,116.999994644165,0|0,0:0|1:0,0:0:0:0:
176,384,412319,2,0,L|165:261,1,116.999994644165,8|0,0:0|0:0,0:0:0:0:
287,176,412619,6,0,P|182:206|120:116,1,233.999989288331,0|8,1:0|0:0,0:0:0:0:
224,0,413069,1,0,0:0:0:0:
221,29,413144,1,0,0:0:0:0:
219,58,413219,1,0,0:0:0:0:
216,87,413294,1,0,0:0:0:0:
214,117,413369,1,0,1:0:0:0:
58,251,413519,2,0,L|47:134,1,116.999994644165,8|0,0:0|0:0,0:0:0:0:
216,348,413819,6,0,B|271:362|271:362|351:323,1,116.999994644165,0|0,1:0|0:0,0:0:0:0:
164,252,414119,1,8,0:0:0:0:
139,236,414194,1,0,0:0:0:0:
111,230,414269,1,0,0:0:0:0:
82,235,414344,1,0,0:0:0:0:
58,251,414419,1,0,0:0:0:0:
216,348,414569,1,0,1:0:0:0:
174,135,414719,2,0,L|164:252,1,116.999994644165,8|0,0:0|0:0,0:0:0:0:
222,68,415019,6,0,B|317:76|317:76|346:111|346:111|458:120,1,233.999989288331,0|8,1:0|0:0,0:0:0:0:
278,146,415469,1,0,0:0:0:0:
491,172,415619,1,0,0:0:0:0:
506,147,415694,1,0,0:0:0:0:
512,119,415769,1,0,1:0:0:0:
507,90,415844,1,0,0:0:0:0:
491,65,415919,1,8,0:0:0:0:
375,196,416069,1,0,0:0:0:0:
375,196,416144,1,0,0:0:0:0:
375,196,416219,6,0,P|397:232|471:248,1,116.999994644165,0|0,1:0|0:0,0:0:0:0:
300,362,416519,1,8,0:0:0:0:
302,332,416594,1,0,0:0:0:0:
304,303,416669,1,0,0:0:0:0:
307,274,416744,1,0,0:0:0:0:
309,245,416819,1,0,0:0:0:0:
132,203,416969,1,0,1:0:0:0:
298,128,417119,2,0,L|308:244,1,116.999994644165,8|0,0:0|0:0,0:0:0:0:
227,60,417419,6,0,B|322:51|322:51|357:80|357:80|449:72,1,233.999989288331,0|8,1:0|0:0,0:0:0:0:
308,244,417869,1,0,0:0:0:0:
305,215,417944,1,0,0:0:0:0:
303,186,418019,1,0,0:0:0:0:
300,157,418094,1,0,0:0:0:0:
298,127,418169,1,0,1:0:0:0:
439,189,418319,2,0,L|428:305,1,116.999994644165,8|0,0:0|0:0,0:0:0:0:
224,358,418619,6,0,P|145:360|159:211,1,233.999989288331,0|8,1:0|0:0,0:0:0:0:
229,94,419069,1,0,0:0:0:0:
199,91,419144,1,0,0:0:0:0:
170,88,419219,1,0,0:0:0:0:
141,86,419294,1,0,0:0:0:0:
112,83,419369,1,0,1:0:0:0:
8,241,419519,2,0,L|125:231,1,116.999994644165,8|0,0:0|0:0,0:0:0:0:
357,316,419819,6,0,P|383:264|380:207,1,116.999994644165,0|0,1:0|0:0,0:0:0:0:
181,116,420119,1,8,0:0:0:0:
193,142,420194,1,0,0:0:0:0:
212,164,420269,1,0,0:0:0:0:
237,180,420344,1,0,0:0:0:0:
264,190,420419,1,0,0:0:0:0:
327,24,420569,1,0,1:0:0:0:
380,207,420719,2,0,L|369:90,1,116.999994644165,8|0,0:0|0:0,0:0:0:0:
265,287,421019,6,0,P|318:309|386:268,1,116.999994644165,0|0,1:0|0:0,0:0:0:0:
152,192,421319,1,8,0:0:0:0:
127,175,421394,1,0,0:0:0:0:
99,170,421469,1,0,0:0:0:0:
70,175,421544,1,0,0:0:0:0:
46,190,421619,1,0,0:0:0:0:
199,276,421769,1,0,1:0:0:0:
89,375,421919,2,0,L|100:258,1,116.999994644165,8|0,0:0|0:0,0:0:0:0:
369,381,422219,6,0,L|346:137,1,233.999989288331,0|8,1:0|0:0,0:0:0:0:
230,21,422669,1,0,0:0:0:0:
253,38,422744,1,0,0:0:0:0:
281,46,422819,1,0,0:0:0:0:
310,43,422894,1,0,0:0:0:0:
336,31,422969,1,0,1:0:0:0:
479,0,423119,2,0,L|468:116,1,116.999994644165,8|0,0:0|0:0,0:0:0:0:
357,264,423419,6,0,L|347:148,1,116.999994644165,0|0,1:0|0:0,0:0:0:0:
150,173,423719,1,8,0:0:0:0:
172,191,423794,1,0,0:0:0:0:
199,202,423869,1,0,0:0:0:0:
228,203,423944,1,0,0:0:0:0:
256,195,424019,1,0,0:0:0:0:
76,121,424169,1,0,1:0:0:0:
229,2,424319,2,0,L|219:119,1,116.999994644165,8|0,0:0|0:0,0:0:0:0:
41,122,424619,5,4,0:0:0:0:
73,151,435035,5,2,0:0:0:0:
101,242,435485,1,2,0:0:0:0:
36,311,435935,1,2,0:0:0:0:
36,311,436535,2,0,P|81:294|146:300,2,99.0000030212403
174,357,437285,1,0,0:0:0:0:
174,357,437360,1,0,0:0:0:0:
174,357,437435,5,2,0:0:0:0:
283,275,437885,1,2,0:0:0:0:
408,328,438335,2,0,P|405:272|460:191,1,148.50000453186,2|0,0:0|0:0,0:0:0:0:
417,120,438935,2,0,P|382:129|351:119,1,49.5000015106202
353,8,439235,2,0,P|378:33|385:65,1,49.5000015106202
289,119,439535,2,0,P|298:84|322:62,1,49.5000015106202
323,193,439835,5,2,0:0:0:0:
164,136,440285,1,2,0:0:0:0:
194,303,440735,1,2,0:0:0:0:
256,192,441035,12,0,444035,0:0:0:0:
164,74,444635,6,0,P|158:113|181:153,1,60.7500002317429,6|0,1:2|0:0,0:0:0:0:
56,152,444785,2,0,P|79:183|123:195,1,60.7500002317429,2|0,1:2|0:0,0:0:0:0:
34,283,444935,2,0,P|73:289|113:266,1,60.7500002317429,10|0,0:0|0:0,0:0:0:0:
367,253,445085,2,0,B|324:214|324:214|195:239,1,182.250000695229,2|0,1:2|0:0,0:0:0:0:
172,242,445385,1,2,1:2:0:0:
405,313,445535,2,0,P|431:288|441:250,1,60.7500002317429,10|0,0:0|0:0,0:0:0:0:
434,112,445685,1,2,1:2:0:0:
436,126,445760,1,2,0:2:0:0:
439,141,445835,5,2,0:2:0:0:
364,186,445910,1,2,0:2:0:0:
281,191,445985,1,2,1:2:0:0:
215,166,446060,1,2,0:2:0:0:
168,126,446135,1,10,0:2:0:0:
143,88,446210,1,2,0:2:0:0:
130,52,446285,1,2,0:2:0:0:
128,22,446360,1,2,1:2:0:0:
133,2,446435,5,10,0:2:0:0:
151,7,446510,1,2,0:2:0:0:
174,18,446585,1,2,1:2:0:0:
201,42,446660,1,2,0:2:0:0:
222,84,446735,1,10,0:2:0:0:
229,141,446810,1,2,0:2:0:0:
203,194,446885,1,2,1:2:0:0:
149,235,446960,1,2,0:2:0:0:
76,241,447035,6,0,P|57:184|70:151,1,60.7500002317429,6|0,1:2|0:0,0:0:0:0:
58,340,447185,2,0,P|35:361|6:370,1,60.7500002317429,2|0,1:2|0:0,0:0:0:0:
150,307,447335,2,0,P|179:317|201:337,1,60.7500002317429,10|0,0:2|0:0,0:0:0:0:
329,380,447485,2,0,B|334:316|334:316|313:282|313:282|322:178,1,182.250000695229,2|0,1:2|0:0,0:0:0:0:
323,173,447785,1,2,1:2:0:0:
480,65,447935,2,0,P|443:82|419:77,1,60.7500002317429,10|0,0:0|0:0,0:0:0:0:
221,71,448085,1,2,1:2:0:0:
250,69,448160,1,0,0:0:0:0:
276,85,448235,5,2,1:2:0:0:
262,168,448310,1,2,1:2:0:0:
206,222,448385,1,2,1:2:0:0:
130,240,448460,1,2,0:2:0:0:
66,221,448535,1,10,0:2:0:0:
20,175,448610,1,2,1:2:0:0:
2,123,448685,1,2,1:2:0:0:
2,76,448760,1,2,0:2:0:0:
14,48,448835,6,0,L|80:36,1,60.7500002317429,10|2,0:0|1:2,0:0:0:0:
202,157,448985,2,0,L|262:168,1,60.7500002317429,2|2,1:2|0:0,0:0:0:0:
22,40,449135,6,0,L|88:28,1,60.7500002317429,2|2,1:2|0:0,0:0:0:0:
210,149,449285,2,0,L|269:159,1,60.7500002317429,2|2,1:2|0:0,0:0:0:0:
380,62,449435,6,0,P|398:94|428:112,1,60.7500002317429,6|0,1:2|0:0,0:0:0:0:
341,235,449585,2,0,P|358:209|363:180,1,60.7500002317429,2|0,1:2|0:0,0:0:0:0:
512,181,449735,2,0,P|481:179|453:190,1,60.7500002317429,10|0,0:0|0:0,0:0:0:0:
276,320,449885,2,0,B|403:298|403:298|458:338,1,182.250000695229,2|0,1:2|0:0,0:0:0:0:
470,347,450185,1,2,1:2:0:0:
232,380,450335,2,0,P|205:341|207:291,1,60.7500002317429,10|0,0:0|0:0,0:0:0:0:
84,213,450485,2,0,P|100:168|142:141,1,60.7500002317429,2|0,1:2|0:0,0:0:0:0:
352,13,450635,5,2,0:2:0:0:
410,71,450710,1,2,0:2:0:0:
417,152,450785,1,2,1:2:0:0:
376,214,450860,1,2,0:2:0:0:
309,240,450935,1,10,0:2:0:0:
247,230,451010,1,2,0:2:0:0:
207,203,451085,1,2,0:2:0:0:
188,175,451160,1,2,1:2:0:0:
180,149,451235,5,10,0:2:0:0:
170,125,451310,1,2,0:2:0:0:
148,103,451385,1,2,1:2:0:0:
100,82,451460,1,2,0:2:0:0:
39,96,451535,1,10,0:2:0:0:
2,146,451610,1,2,0:2:0:0:
5,215,451685,1,2,1:2:0:0:
57,262,451760,1,2,1:2:0:0:
133,259,451835,6,0,L|210:240,1,60.7500002317429,6|0,1:2|0:0,0:0:0:0:
291,346,451985,2,0,L|232:331,1,60.7500002317429,2|0,1:2|0:0,0:0:0:0:
341,248,452135,2,0,P|420:242|418:326,1,182.250000695229,10|0,0:0|0:0,0:0:0:0:
385,340,452435,1,0,0:0:0:0:
224,170,452585,2,0,B|219:137|219:137|230:106,1,60.7500002317429,2|0,1:2|0:0,0:0:0:0:
317,123,452735,2,0,B|321:155|321:155|310:186,1,60.7500002317429,10|0,0:0|0:0,0:0:0:0:
191,244,452885,1,2,0:0:0:0:
116,99,453035,6,0,P|131:72|128:21,3,60.7500002317429,2|2|2|2,1:2|0:0|0:0|0:0,0:0:0:0:
47,125,453335,2,0,P|62:151|108:174,3,60.7500002317429,10|2|2|2,0:2|0:0|0:0|0:0,0:0:0:0:
191,244,453635,5,10,0:2:0:0:
175,242,453710,1,2,0:2:0:0:
160,244,453785,1,2,0:2:0:0:
146,249,453860,1,2,0:2:0:0:
133,256,453935,5,2,1:2:0:0:
172,301,454010,1,2,0:2:0:0:
229,319,454085,1,2,0:2:0:0:
287,305,454160,1,2,0:2:0:0:
329,262,454235,6,0,B|311:129,1,121.500000463486,6|2,1:2|1:2,0:0:0:0:
446,40,454535,1,10,0:0:0:0:
409,66,454610,1,0,0:0:0:0:
365,72,454685,1,2,1:2:0:0:
323,55,454760,1,0,0:0:0:0:
295,20,454835,2,0,B|234:28,1,60.7500002317429,2|0,0:0|0:0,0:0:0:0:
132,117,454985,2,0,B|192:125,1,60.7500002317429,2|0,1:2|0:0,0:0:0:0:
73,238,455135,2,0,B|78:169|78:169|57:143|57:143|64:64,1,182.250000695229,10|0,0:0|0:0,0:0:0:0:
67,33,455435,5,2,0:0:0:0:
4,194,455585,1,2,1:2:0:0:
273,165,455735,2,0,P|290:136|288:80,1,60.7500002317429,10|0,0:0|0:0,0:0:0:0:
135,195,455885,2,0,B|186:175|228:207|212:224|253:260|331:227,1,182.250000695229,2|0,1:2|0:0,0:0:0:0:
320,232,456185,1,2,1:2:0:0:
337,227,456260,1,2,0:2:0:0:
354,222,456335,5,10,0:2:0:0:
413,219,456410,1,2,0:2:0:0:
460,255,456485,1,2,1:2:0:0:
474,313,456560,1,2,0:2:0:0:
448,366,456635,6,0,L|376:356,1,60.7500002317429,2|0,1:2|0:0,0:0:0:0:
252,313,456785,2,0,L|396:292,2,121.500000463486,2|10|2,0:0|0:0|0:0,0:0:0:0:
187,362,457160,1,0,0:0:0:0:
187,362,457235,2,0,P|169:324|172:283,1,60.7500002317429,2|0,0:0|0:0,0:0:0:0:
278,203,457385,2,0,P|254:238|217:256,1,60.7500002317429,2|0,1:2|0:0,0:0:0:0:
119,212,457535,2,0,L|105:74,1,121.500000463486,10|2,0:0|0:0,0:0:0:0:
104,62,457760,1,0,0:0:0:0:
104,62,457835,6,0,P|141:57|173:67,1,60.7500002317429,2|0,0:0|0:0,0:0:0:0:
277,30,457985,2,0,P|306:52|322:82,1,60.7500002317429,2|0,1:2|0:0,0:0:0:0:
197,206,458135,1,10,0:2:0:0:
239,247,458210,1,2,0:2:0:0:
298,255,458285,1,2,0:2:0:0:
350,225,458360,1,2,1:2:0:0:
373,170,458435,5,10,0:2:0:0:
312,190,458510,1,2,0:2:0:0:
279,237,458585,1,2,1:2:0:0:
281,286,458660,1,2,0:2:0:0:
302,327,458735,1,10,0:2:0:0:
331,347,458810,1,2,0:2:0:0:
360,355,458885,1,2,0:2:0:0:
385,356,458960,1,2,0:2:0:0:
408,349,459035,6,0,L|397:284,1,60.7500002317429,2|0,1:2|0:0,0:0:0:0:
512,214,459185,2,0,L|501:273,1,60.7500002317429,2|0,0:2|0:0,0:0:0:0:
284,133,459335,1,10,0:0:0:0:
321,108,459410,1,0,0:0:0:0:
366,108,459485,1,2,0:0:0:0:
403,133,459560,1,0,0:0:0:0:
420,175,459635,1,2,0:0:0:0:
174,203,459785,1,2,1:2:0:0:
306,329,459935,2,0,L|292:208,1,121.500000463486,10|2,0:0|1:2,0:0:0:0:
284,133,460160,1,2,0:0:0:0:
284,133,460235,5,2,0:0:0:0:
168,72,460385,1,2,1:2:0:0:
174,203,460535,1,2,1:2:0:0:
174,203,460835,5,2,0:0:0:0:
174,203,461435,6,0,B|138:232|138:232|34:214,1,121.500000463486,2|2,1:2|0:0,0:0:0:0:
46,27,461735,1,10,0:0:0:0:
89,36,461810,1,0,0:0:0:0:
121,68,461885,1,2,0:0:0:0:
131,112,461960,1,0,0:0:0:0:
117,154,462035,1,2,0:0:0:0:
14,277,462185,1,2,1:2:0:0:
154,378,462335,2,0,L|134:258,1,121.500000463486,10|2,0:0|0:0,0:0:0:0:
286,57,462635,6,0,L|266:176,1,121.500000463486,2|2,1:2|1:2,0:0:0:0:
356,240,462935,2,0,P|375:222|387:172,1,60.7500002317429,10|0,0:0|0:0,0:0:0:0:
479,199,463085,2,0,P|479:172|452:128,1,60.7500002317429,2|0,1:2|0:0,0:0:0:0:
225,94,463235,5,2,0:2:0:0:
179,48,463310,1,2,0:2:0:0:
104,44,463385,1,2,1:2:0:0:
45,81,463460,1,2,0:2:0:0:
14,139,463535,1,10,0:2:0:0:
16,190,463610,1,2,0:2:0:0:
30,233,463685,1,2,0:2:0:0:
52,257,463760,1,2,0:2:0:0:
74,266,463835,6,0,L|146:255,2,67.5000025749208,6|0|0,0:0|0:0|0:0,0:0:0:0:
121,337,464285,2,0,L|187:347,2,67.5000025749208,2|0|0,0:0|0:0|0:0,0:0:0:0:
221,266,464735,2,0,P|276:260|326:347,1,135.000005149842,2|2,0:0|0:0,0:0:0:0:
326,314,465335,1,0,0:0:0:0:
362,384,465485,2,0,L|375:249,1,135.000005149842,2|0,0:0|0:0,0:0:0:0:
312,179,465935,2,0,L|305:111,1,67.5000025749208,2|0,0:0|0:0,0:0:0:0:
397,13,466235,6,0,L|391:81,2,67.5000025749208,2|0|0,0:0|0:0|0:0,0:0:0:0:
305,111,466685,2,0,L|312:179,2,67.5000025749208,2|0|0,0:0|0:0|0:0,0:0:0:0:
245,36,467135,2,0,B|171:12|181:75|102:51,1,135.000005149842,2|2,0:0|0:0,0:0:0:0:
116,54,467735,1,0,0:0:0:0:
26,25,467885,2,0,P|47:73|51:169,1,135.000005149842,2|0,0:0|0:0,0:0:0:0:
31,232,468335,2,0,P|73:217|96:217,1,67.5000025749208,2|2,0:0|0:0,0:0:0:0:
147,284,468635,6,0,P|177:298|211:300,2,67.5000025749208,2|0|0,0:0|0:0|0:0,0:0:0:0:
226,384,469085,2,0,P|257:371|282:349,2,67.5000025749208,2|0|0,0:0|0:0|0:0,0:0:0:0:
357,383,469535,2,0,P|348:322|377:243,1,135.000005149842,2|2,0:0|0:0,0:0:0:0:
370,253,470135,1,0,0:0:0:0:
440,223,470285,2,0,L|300:208,1,135.000005149842,2|0,0:0|0:0,0:0:0:0:
236,267,470735,2,0,L|228:197,1,67.5000025749208,2|0,0:0|0:0,0:0:0:0:
312,141,471035,6,0,L|304:208,2,67.5000025749208,2|0|0,0:0|0:0|0:0,0:0:0:0:
236,267,471485,2,0,L|228:197,2,67.5000025749208,2|0|0,0:0|0:0|0:0,0:0:0:0:
287,339,471935,2,0,P|252:305|153:318,1,135.000005149842,2|2,0:0|0:0,0:0:0:0:
169,305,472535,1,0,0:0:0:0:
85,307,472685,2,0,P|131:293|170:201,1,135.000005149842,2|2,0:0|0:0,0:0:0:0:
37,170,473135,2,0,L|85:219,1,67.5000025749208,2|2,0:0|0:0,0:0:0:0:
97,347,478802,5,4,1:0:0:0:
74,220,479087,1,0,1:0:0:0:
201,197,479373,1,0,1:0:0:0:
224,324,479659,1,0,1:0:0:0:
451,347,479945,5,0,1:0:0:0:
478,194,480230,1,0,1:0:0:0:
326,166,480516,1,0,1:0:0:0:
298,319,480802,1,0,1:0:0:0:
55,320,481087,5,0,1:0:0:0:
22,136,481372,1,0,1:0:0:0:
205,102,481658,1,0,1:0:0:0:
238,286,481944,1,0,1:0:0:0:
444,382,482231,5,0,1:0:0:0:
499,74,482516,1,0,1:0:0:0:
193,17,482802,1,0,1:0:0:0:
137,325,483087,2,0,P|136:277|100:212,1,116.999994644165,0|0,1:0|0:0,0:0:0:0:
46,157,483373,5,0,1:0:0:0:
268,116,483516,1,0,1:0:0:0:
137,325,483659,5,0,1:0:0:0:
96,103,483802,1,0,1:0:0:0:
305,234,483944,5,0,1:0:0:0:
83,275,484087,1,0,1:0:0:0:
214,66,484230,5,0,1:0:0:0:
255,288,484373,1,0,1:0:0:0:
325,31,484516,5,0,1:0:0:0:
424,233,484659,1,0,1:0:0:0:
195,66,484802,5,0,1:0:0:0:
208,291,484945,1,0,1:0:0:0:
353,4,485087,5,0,1:0:0:0:
500,174,485230,1,0,1:0:0:0:
175,63,485373,5,0,1:0:0:0:
160,287,485516,1,0,1:0:0:0:
442,115,485659,6,0,L|513:72,1,80.9999975280763,4|0,1:2|0:0,0:0:0:0:
405,195,486802,5,0,1:0:0:0:
374,177,486873,1,0,0:0:0:0:
355,148,486944,1,0,0:0:0:0:
349,113,487016,1,0,0:0:0:0:
360,79,487087,2,0,L|269:133,1,90
217,242,487373,1,0,0:0:0:0:
164,59,487516,1,0,0:0:0:0:
100,324,487659,5,0,1:0:0:0:
100,324,487944,6,0,B|211:312|211:312|246:340|246:340|342:330,1,251.999992309571,6|8,1:2|0:0,0:0:0:0:
508,313,488373,1,0,0:0:0:0:
275,251,488516,1,2,1:2:0:0:
404,369,488659,1,0,0:0:0:0:
404,369,488730,1,2,0:0:0:0:
404,369,488802,2,0,L|418:236,1,125.999996154785,8|2,0:0|0:0,0:0:0:0:
257,93,489087,6,0,L|271:219,1,125.999996154785,2|0,1:2|0:0,0:0:0:0:
275,251,489302,1,0,0:0:0:0:
275,251,489373,2,0,P|216:268|161:231,1,125.999996154785,8|0,0:0|0:0,0:0:0:0:
43,73,489659,2,0,B|149:39|127:138|233:105,1,188.999994232178,2|0,1:2|0:0,0:0:0:0:
257,93,489944,1,8,0:0:0:0:
439,39,490087,1,0,0:0:0:0:
381,237,490230,6,0,L|366:104,1,125.999996154785,2|0,1:2|0:0,0:0:0:0:
470,176,490444,1,0,0:0:0:0:
470,176,490516,2,0,L|456:301,1,125.999996154785,8|0,0:0|0:0,0:0:0:0:
271,224,490802,6,0,P|318:204|390:259,1,125.999996154785,2|0,1:2|0:0,0:0:0:0:
249,293,491016,1,2,0:0:0:0:
249,293,491087,2,0,P|209:261|220:172,1,125.999996154785,8|2,0:0|0:0,0:0:0:0:
143,49,491373,5,2,1:2:0:0:
77,241,491516,1,0,0:0:0:0:
31,22,491659,1,8,0:0:0:0:
83,269,491801,1,0,0:0:0:0:
83,269,491873,1,0,0:0:0:0:
83,269,491944,2,0,L|208:253,1,125.999996154785,2|0,1:2|0:0,0:0:0:0:
418,137,492230,2,0,P|332:150|333:237,1,188.999994232178,8|0,0:0|0:0,0:0:0:0:
472,183,492516,6,0,P|489:145|438:67,1,125.999996154785,2|0,1:2|0:0,0:0:0:0:
179,40,492802,2,0,B|258:31|258:31|293:60|293:60|373:51,1,188.999994232178,8|0,0:0|0:0,0:0:0:0:
389,50,493087,1,2,1:2:0:0:
253,216,493230,1,0,0:0:0:0:
253,216,493302,1,2,0:0:0:0:
253,216,493373,2,0,P|219:165|236:107,1,125.999996154785,8|2,0:0|0:0,0:0:0:0:
334,261,493659,6,0,P|259:238|193:318,1,188.999994232178,2|0,1:2|0:0,0:0:0:0:
199,346,493944,2,0,L|73:333,1,125.999996154785,8|0,0:0|0:0,0:0:0:0:
168,61,494230,1,2,1:2:0:0:
184,204,494372,1,0,0:0:0:0:
41,220,494516,1,8,0:0:0:0:
25,77,494659,1,0,0:0:0:0:
127,336,494802,5,2,1:2:0:0:
309,218,494944,5,2,0:2:0:0:
246,211,495015,1,2,0:2:0:0:
184,204,495087,1,10,0:2:0:0:
287,332,495230,5,2,0:2:0:0:
318,328,495301,1,2,0:2:0:0:
349,324,495372,1,2,1:2:0:0:
316,208,495517,5,2,0:2:0:0:
247,199,495588,1,2,0:2:0:0:
178,191,495659,1,10,0:2:0:0:
286,348,495802,5,2,0:2:0:0:
320,343,495873,1,2,0:2:0:0:
354,339,495944,1,2,1:2:0:0:
323,196,496088,5,2,0:2:0:0:
248,187,496159,1,2,0:2:0:0:
172,178,496230,1,10,0:2:0:0:
284,365,496374,5,2,0:2:0:0:
322,360,496445,1,2,0:2:0:0:
359,355,496516,1,2,1:2:0:0:
331,182,496660,5,2,0:2:0:0:
248,173,496731,1,2,0:2:0:0:
165,163,496802,1,10,0:2:0:0:
83,358,496944,1,2,1:2:0:0:
6,82,497087,6,0,L|132:69,1,125.999996154785,2|0,1:2|0:0,0:0:0:0:
331,182,497373,2,0,B|302:217|302:217|282:65,1,188.999994232178,8|0,0:0|0:0,0:0:0:0:
280,53,497659,1,2,1:2:0:0:
490,132,497802,1,0,0:0:0:0:
490,132,497873,1,2,0:0:0:0:
490,132,497944,2,0,L|364:119,1,125.999996154785,8|2,0:0|0:0,0:0:0:0:
211,227,498230,6,0,P|275:206|282:356,1,251.999992309571,2|8,1:2|0:0,0:0:0:0:
70,253,498659,1,0,0:0:0:0:
200,352,498802,2,0,L|211:227,1,125.999996154785,2|0,1:2|0:0,0:0:0:0:
59,127,499087,2,0,L|70:253,1,125.999996154785,10|0,0:0|0:0,0:0:0:0:
226,38,499373,6,0,P|282:67|358:47,1,125.999996154785,2|0,1:2|0:0,0:0:0:0:
419,39,499587,1,0,0:0:0:0:
419,39,499659,2,0,P|366:73|345:148,1,125.999996154785,8|0,0:0|0:0,0:0:0:0:
322,205,499872,1,0,0:0:0:0:
322,205,499944,1,2,1:2:0:0:
226,38,500087,1,2,0:0:0:0:
167,240,500230,2,0,B|219:217|267:248|247:274|289:302|354:285,1,188.999994232178,10|0,0:0|0:0,0:0:0:0:
374,279,500516,5,2,1:2:0:0:
179,365,500659,1,0,0:0:0:0:
179,365,500730,1,0,0:0:0:0:
179,365,500802,2,0,L|167:240,1,125.999996154785,8|0,0:0|0:0,0:0:0:0:
403,122,501087,1,0,1:0:0:0:
148,51,501229,1,0,0:0:0:0:
407,199,501373,2,0,P|470:158|417:50,1,188.999994232178,10|0,0:0|0:0,0:0:0:0:
403,122,501659,5,6,1:2:0:0:
403,122,502230,5,4,0:3:0:0:
440,231,502444,5,4,0:3:0:0:
364,317,502659,5,4,0:3:0:0:
304,250,502802,2,0,B|202:219|237:310|121:275,1,180,4|0,1:2|0:0,0:0:0:0:
164,197,503230,1,0,0:0:0:0:
62,139,503373,6,0,B|105:176|105:176|235:153,1,180,4|0,1:2|0:0,0:0:0:0:
402,90,503944,6,0,B|372:75|364:42|364:42|336:200|336:200|328:246|352:274|375:311|473:315|496:229|470:191|460:175|460:175|436:157|397:164|403:227,1,585.900018327256,4|0,1:2|0:0,0:0:0:0:
310,347,505087,6,0,P|288:335|221:332,1,83.7000026181794,0|0,1:0|0:0,0:0:0:0:
221,281,505302,1,0,0:0:0:0:
221,281,505373,2,0,P|196:288|147:333,1,83.7000026181794,0|0,1:0|0:0,0:0:0:0:
32,384,505659,2,0,P|37:359|23:294,1,83.7000026181794,0|0,1:0|0:0,0:0:0:0:
37,168,505944,2,0,P|55:185|172:188,1,125.550003927269,0|0,1:0|0:0,0:0:0:0:
181,178,506230,5,4,1:2:0:0:
276,151,506373,1,0,0:0:0:0:
346,219,506516,1,8,0:0:0:0:
251,246,506659,1,0,0:0:0:0:
511,178,506802,5,0,1:0:0:0:
416,151,506945,1,0,0:0:0:0:
346,219,507087,1,8,0:0:0:0:
441,246,507231,1,0,0:0:0:0:
251,246,507373,5,0,1:0:0:0:
278,341,507516,1,0,0:0:0:0:
183,368,507659,1,8,0:0:0:0:
156,273,507802,1,0,0:0:0:0:
279,153,507944,5,0,1:0:0:0:
306,58,508087,1,2,0:2:0:0:
94,54,508230,5,10,0:2:0:0:
156,273,508373,1,2,0:2:0:0:
278,341,508516,5,2,1:2:0:0:
368,312,508659,1,0,0:0:0:0:
411,227,508802,1,8,0:0:0:0:
321,256,508944,1,0,0:0:0:0:
205,357,509087,5,0,1:0:0:0:
113,332,509230,1,0,0:0:0:0:
65,248,509374,5,8,0:0:0:0:
247,198,509516,1,0,0:0:0:0:
197,265,509659,5,0,1:0:0:0:
180,148,509802,1,0,0:0:0:0:
297,131,509944,1,8,0:0:0:0:
314,248,510087,1,0,0:0:0:0:
412,287,510230,5,0,1:0:0:0:
438,112,510373,5,2,0:2:0:0:
281,23,510516,5,10,0:2:0:0:
297,131,510659,1,2,0:2:0:0:
210,197,510802,5,2,1:2:0:0:
101,182,510944,1,0,0:0:0:0:
143,284,511087,1,8,0:0:0:0:
252,299,511230,1,0,0:0:0:0:
319,212,511373,5,0,1:0:0:0:
406,279,511516,1,0,0:0:0:0:
339,366,511659,1,8,0:0:0:0:
252,299,511802,1,2,0:2:0:0:
283,98,511944,5,2,1:2:0:0:
319,212,512087,1,2,0:2:0:0:
167,124,512230,5,8,0:0:0:0:
203,10,512373,1,0,0:0:0:0:
216,198,512516,5,0,1:0:0:0:
102,162,512659,1,0,0:0:0:0:
137,270,512802,5,10,0:2:0:0:
319,212,512945,1,2,0:2:0:0:
420,264,513087,5,2,1:2:0:0:
415,151,513230,1,0,0:0:0:0:
314,98,513373,1,8,0:0:0:0:
319,212,513516,1,0,0:0:0:0:
137,270,513659,5,0,1:0:0:0:
246,236,513802,1,0,0:0:0:0:
212,362,513944,5,8,0:0:0:0:
28,304,514087,1,0,0:0:0:0:
53,192,514230,5,0,1:0:0:0:
149,130,514373,1,0,0:0:0:0:
261,155,514516,1,8,0:0:0:0:
165,217,514659,1,0,0:0:0:0:
133,43,514802,5,0,1:0:0:0:
246,68,514944,1,0,0:0:0:0:
455,154,515087,5,10,0:2:0:0:
165,217,515229,1,2,1:2:0:0:
266,279,515373,6,0,B|361:270|361:270|390:235|390:235|502:226,1,215.999993408203,2|8,1:2|0:0,0:0:0:0:
425,308,515802,1,0,0:0:0:0:
323,201,515944,1,0,1:0:0:0:
364,58,516087,1,0,0:0:0:0:
465,229,516230,5,10,0:2:0:0:
282,343,516373,1,2,1:2:0:0:
72,293,516516,6,2,B|78:218|78:218|113:189|113:189|121:93,1,215.999993408203,2|10,1:2|0:0,0:0:0:0:
44,145,516944,1,0,0:0:0:0:
148,260,517087,1,0,1:0:0:0:
299,227,517230,1,0,0:0:0:0:
195,113,517373,5,10,0:2:0:0:
289,256,517516,1,2,1:2:0:0:
459,245,517659,6,0,P|472:171|344:141,1,215.999993408203,2|8,1:2|0:0,0:0:0:0:
207,240,518087,1,0,0:0:0:0:
400,195,518230,1,0,1:0:0:0:
278,363,518373,2,0,L|289:245,2,107.999996704102,2|0|2,0:0|1:0|1:2,0:0:0:0:
91,367,518802,5,2,1:2:0:0:
207,240,518944,1,0,0:0:0:0:
156,77,519087,1,8,0:0:0:0:
40,204,519230,1,0,0:0:0:0:
167,320,519373,5,0,1:0:0:0:
330,268,519516,1,0,0:0:0:0:
393,351,519659,5,10,0:0:0:0:
460,139,519802,1,2,0:2:0:0:
321,33,519944,5,2,1:2:0:0:
354,139,520087,1,0,0:0:0:0:
248,172,520230,1,8,0:0:0:0:
215,66,520373,1,0,0:0:0:0:
171,253,520516,5,0,1:0:0:0:
269,306,520659,1,0,0:0:0:0:
505,284,520802,5,8,0:0:0:0:
367,359,520944,1,0,0:0:0:0:
297,224,521087,6,0,B|176:200|225:320|90:288,1,215.999993408203,0|8,1:0|0:0,0:0:0:0:
71,146,521516,1,0,0:0:0:0:
131,209,521659,5,0,1:0:0:0:
96,63,521802,1,0,0:0:0:0:
244,34,521944,1,10,0:2:0:0:
279,180,522087,5,2,0:2:0:0:
227,261,522230,5,2,1:2:0:0:
303,319,522373,1,2,0:2:0:0:
213,356,522516,5,8,0:0:0:0:
50,229,522659,1,0,1:0:0:0:
139,276,522802,6,0,B|131:181|131:181|96:152|96:152|90:77,1,215.999993408203,0|8,1:0|0:0,0:0:0:0:
174,107,523230,1,0,1:0:0:0:
50,229,523373,5,4,1:2:0:0:
173,337,523516,2,0,P|200:314|209:269,1,53.9999983520508,0|0,1:0|1:0,0:0:0:0:
227,219,523659,5,0,1:0:0:0:
265,206,523730,1,0,1:0:0:0:
304,214,523801,1,8,0:3:0:0:
335,239,523873,1,8,0:3:0:0:
351,276,523944,5,8,0:3:0:0:
379,326,524015,1,8,0:3:0:0:
434,345,524086,1,4,0:3:0:0:
488,324,524158,1,4,0:3:0:0:
512,272,524229,1,4,0:3:0:0:
500,216,524301,1,4,0:3:0:0:
452,183,524373,2,0,L|443:252,1,53.9999983520508,4|8,0:3|0:3,0:0:0:0:
467,76,524516,5,4,1:2:0:0:
256,192,524587,12,0,529087,0:0:0:0:
