osu file format v14

[General]
AudioFilename: audio.mp3
AudioLeadIn: 0
PreviewTime: 59113
Countdown: 0
SampleSet: Soft
StackLeniency: 0.3
Mode: 0
LetterboxInBreaks: 0
WidescreenStoryboard: 1

[Editor]
Bookmarks: 11156,22127,33099,35842,41327,48185,75613,81099,87185,89327,98927,109899,118127,120870,133213,141442,144185,174356,190813,196299
DistanceSpacing: 1.5
BeatDivisor: 4
GridSize: 4
TimelineZoom: 1.9

[Metadata]
Title:Scarlet Night
TitleUnicode:Scarlet Night
Artist:Fractal Dreamers
ArtistUnicode:Fractal Dreamers
Creator:Nuvolina
Version:Collab Hard
Source:osu!
Tags:Monolithia FA featured artist mappers' guild Anto skymuted Helblinde electronic hardstyle
BeatmapID:2078473
BeatmapSetID:986376

[Difficulty]
HPDrainRate:5
CircleSize:4
OverallDifficulty:6
ApproachRate:8
SliderMultiplier:1.3
SliderTickRate:1

[Events]
//Background and Video events
0,0,"scarlet night BG.jpg",0,0
//Break Periods
2,81299,88577
//Storyboard Layer 0 (Background)
//Storyboard Layer 1 (Fail)
//Storyboard Layer 2 (Pass)
//Storyboard Layer 3 (Foreground)
//Storyboard Sound Samples

[TimingPoints]
185,342.857142857143,4,2,1,100,1,0
11156,-100,4,2,1,60,0,0
14585,-100,4,2,1,60,0,0
16985,-100,4,2,1,60,0,0
19385,-100,4,2,1,70,0,0
20756,-100,4,2,1,80,0,0
22127,-133.333333333333,4,2,1,60,0,0
35842,-133.333333333333,4,2,1,50,0,0
41327,-133.333333333333,4,2,1,60,0,0
44070,-133.333333333333,4,2,1,70,0,0
48185,-83.3333333333333,4,2,1,90,0,0
50927,-83.3333333333333,4,2,1,90,0,0
53670,-83.3333333333333,4,2,1,90,0,0
55727,-83.3333333333333,4,2,1,90,0,0
56070,-83.3333333333333,4,2,1,90,0,0
57785,-133.333333333333,4,2,1,70,0,0
59156,-76.9230769230769,4,2,1,90,0,1
63270,-76.9230769230769,4,2,1,100,0,1
63527,-76.9230769230769,4,2,1,100,0,1
63956,-76.9230769230769,4,2,1,100,0,1
64642,-76.9230769230769,4,2,1,90,0,1
68756,-76.9230769230769,4,2,1,100,0,1
69442,-76.9230769230769,4,2,1,100,0,1
70127,-76.9230769230769,4,2,1,90,0,1
72870,-76.9230769230769,4,2,1,90,0,1
75613,-76.9230769230769,4,2,1,90,0,1
76299,-76.9230769230769,4,2,1,90,0,1
78356,-76.9230769230769,4,2,1,90,0,1
81099,-76.9230769230769,4,2,1,60,0,1
81442,-100,4,2,1,60,0,0
84185,-100,4,2,1,60,0,0
89327,-100,4,2,1,60,0,0
89585,-100,4,2,1,60,0,0
89670,-100,4,2,1,60,0,0
89927,-100,4,2,1,60,0,0
90013,-100,4,2,1,60,0,0
90270,-100,4,2,1,60,0,0
90356,-100,4,2,1,60,0,0
90699,-100,4,2,1,60,0,0
90956,-100,4,2,1,60,0,0
91042,-100,4,2,1,60,0,0
91299,-100,4,2,1,60,0,0
91385,-100,4,2,1,60,0,0
91642,-100,4,2,1,60,0,0
91727,-100,4,2,1,60,0,0
92070,-100,4,2,1,60,0,0
92327,-100,4,2,1,60,0,0
92413,-100,4,2,1,60,0,0
92670,-100,4,2,1,60,0,0
92756,-100,4,2,1,60,0,0
93013,-100,4,2,1,60,0,0
93099,-100,4,2,1,60,0,0
93356,-100,4,2,1,60,0,0
93442,-100,4,2,1,60,0,0
93699,-100,4,2,1,60,0,0
93785,-100,4,2,1,60,0,0
95070,-100,4,2,1,60,0,0
95156,-100,4,2,1,60,0,0
95413,-100,4,2,1,60,0,0
95499,-100,4,2,1,60,0,0
95756,-100,4,2,1,60,0,0
95842,-100,4,2,1,60,0,0
96185,-100,4,2,1,60,0,0
96442,-100,4,2,1,60,0,0
96527,-100,4,2,1,60,0,0
96785,-100,4,2,1,60,0,0
96870,-100,4,2,1,60,0,0
98927,-100,4,2,1,50,0,0
99185,-100,4,2,1,50,0,0
99270,-100,4,2,1,50,0,0
99870,-100,4,2,1,50,0,0
99956,-100,4,2,1,50,0,0
100556,-100,4,2,1,50,0,0
100642,-100,4,2,1,50,0,0
101927,-100,4,2,1,50,0,0
102013,-100,4,2,1,50,0,0
102613,-100,4,2,1,50,0,0
102699,-100,4,2,1,50,0,0
103299,-100,4,2,1,50,0,0
103385,-100,4,2,1,50,0,0
104413,-100,4,2,1,60,0,0
104670,-100,4,2,1,60,0,0
104756,-100,4,2,1,60,0,0
105356,-100,4,2,1,60,0,0
105442,-100,4,2,1,60,0,0
106042,-100,4,2,1,60,0,0
106127,-100,4,2,1,60,0,0
107413,-100,4,2,1,60,0,0
107499,-100,4,2,1,60,0,0
108099,-100,4,2,1,60,0,0
108185,-100,4,2,1,60,0,0
108785,-100,4,2,1,60,0,0
108870,-100,4,2,1,60,0,0
109899,-100,4,2,1,70,0,0
110156,-100,4,2,1,70,0,0
110242,-100,4,2,1,70,0,0
110842,-100,4,2,1,70,0,0
110927,-100,4,2,1,70,0,0
111527,-100,4,2,1,70,0,0
111613,-100,4,2,1,70,0,0
112899,-100,4,2,1,70,0,0
112985,-100,4,2,1,70,0,0
115642,-100,4,2,1,70,0,0
115727,-100,4,2,1,70,0,0
116327,-100,4,2,1,70,0,0
116413,-100,4,2,1,70,0,0
117013,-100,4,2,1,70,0,0
117099,-100,4,2,1,70,0,0
118127,-100,4,2,1,60,0,0
118385,-100,4,2,1,60,0,0
118470,-100,4,2,1,60,0,0
119070,-100,4,2,1,60,0,0
119156,-100,4,2,1,60,0,0
119756,-100,4,2,1,60,0,0
119842,-100,4,2,1,60,0,0
120870,-100,4,2,1,50,0,0
121127,-100,4,2,1,50,0,0
121213,-100,4,2,1,50,0,0
122242,-133.333333333333,4,2,1,60,0,0
128070,-133.333333333333,4,2,1,60,0,0
130813,-133.333333333333,4,2,1,60,0,0
133213,-90.9090909090909,4,2,1,50,0,0
141442,-100,4,2,1,70,0,0
144185,-76.9230769230769,4,2,1,90,0,1
148299,-76.9230769230769,4,2,1,100,0,1
148556,-76.9230769230769,4,2,1,100,0,1
148985,-76.9230769230769,4,2,1,100,0,1
149670,-76.9230769230769,4,2,1,90,0,1
153785,-76.9230769230769,4,2,1,100,0,1
154470,-76.9230769230769,4,2,1,100,0,1
155156,-76.9230769230769,4,2,1,90,0,1
160642,-76.9230769230769,4,2,1,90,0,1
166127,-100,4,2,1,70,0,0
174356,-100,4,2,1,70,0,0
182585,-100,4,2,1,70,0,0
190813,-100,4,2,1,50,0,0

[Colours]
Combo1 : 245,192,10
Combo2 : 255,0,0
Combo3 : 255,128,64

[HitObjects]
483,323,11156,5,4,1:2:0:0:
483,323,11499,2,0,P|453:330|413:321,1,65,0|0,1:2|0:0,0:0:0:0:
386,246,11842,2,0,P|354:240|322:247,1,65,2|0,1:2|0:0,0:0:0:0:
280,320,12185,2,0,P|250:327|210:318,1,65,0|0,1:2|0:0,0:0:0:0:
170,250,12527,6,0,P|162:216|181:175,1,65,2|0,1:2|0:0,0:0:0:0:
240,139,12870,1,0,1:2:0:0:
385,52,13213,2,0,P|419:44|461:65,2,65,2|0|2,1:2|1:2|1:2,0:0:0:0:
324,111,13727,1,0,1:2:0:0:
383,170,13899,5,2,1:2:0:0:
383,170,14242,2,0,L|383:244,1,65,0|0,1:2|0:0,0:0:0:0:
467,246,14585,2,0,L|465:310,1,65,2|0,1:2|0:0,0:0:0:0:
395,358,14927,1,0,1:2:0:0:
241,287,15270,6,0,P|209:294|167:278,2,65,2|0|2,1:2|1:2|1:2,0:0:0:0:
292,218,15785,1,0,1:2:0:0:
231,158,15956,2,0,P|221:126|241:85,2,65,2|0|2,1:2|1:2|1:2,0:0:0:0:
292,218,16470,1,0,1:2:0:0:
365,175,16642,5,2,1:2:0:0:
365,175,16985,2,0,P|375:143|355:102,1,65,0|0,1:2|0:0,0:0:0:0:
336,34,17328,2,0,L|263:33,1,65,2|0,1:2|0:0,0:0:0:0:
196,72,17670,2,0,L|116:72,1,65,0|0,1:2|0:0,0:0:0:0:
51,43,18013,6,0,P|45:74|55:114,1,65,2|0,1:2|0:0,0:0:0:0:
104,172,18356,1,0,1:2:0:0:
189,317,18699,2,0,P|197:348|181:393,2,65,2|0|2,1:2|1:2|1:2,0:0:0:0:
255,264,19213,1,0,1:2:0:0:
311,200,19385,6,0,L|387:199,2,65,0|0|0,1:2|1:2|1:2,0:0:0:0:
246,145,19899,1,0,1:2:0:0:
308,88,20070,2,0,L|385:89,2,65,0|0|0,1:2|1:2|1:2,0:0:0:0:
248,26,20585,1,0,1:2:0:0:
192,89,20756,6,0,L|151:87,3,32.5,0|0|0|0,1:2|1:0|1:0|1:0,0:0:0:0:
121,106,21099,2,0,L|120:147,3,32.5,0|0|0|0,1:0|1:0|1:0|1:0,0:0:0:0:
140,175,21442,2,0,L|138:229,3,32.5,0|0|0|0,3:0|3:0|3:0|3:0,0:0:0:0:
147,248,21785,2,0,L|196:248,3,32.5,0|0|0|0,3:0|3:0|3:0|3:0,0:0:0:0:
207,234,22127,6,0,P|277:215|344:239,1,146.250005578995,4|0,1:2|0:0,0:0:0:0:
314,311,22813,2,0,P|381:335|451:316,1,146.250005578995,8|2,0:0|0:0,0:0:0:0:
485,245,23499,6,0,L|486:181,1,48.750001859665,2|0,1:2|0:0,0:0:0:0:
414,164,23842,2,0,L|415:93,1,48.750001859665,0|0,1:2|0:0,0:0:0:0:
477,68,24185,2,0,P|418:33|344:77,1,146.250005578995,8|0,0:0|0:0,0:0:0:0:
300,120,24870,6,0,P|236:150|175:114,1,146.250005578995,2|0,1:2|0:0,0:0:0:0:
139,45,25556,2,0,L|72:45,1,48.750001859665,8|0,0:0|0:0,0:0:0:0:
29,93,25899,2,0,P|25:117|36:158,1,48.750001859665,2|0,0:0|1:2,0:0:0:0:
44,160,26156,1,0,1:2:0:0:
64,174,26242,6,0,P|68:202|52:236,1,48.750001859665,2|0,1:2|0:0,0:0:0:0:
14,289,26585,2,0,P|9:313|19:351,1,48.750001859665,0|0,1:2|0:0,0:0:0:0:
80,374,26927,1,10,0:0:0:0:
151,342,27099,1,0,1:2:0:0:
226,361,27270,2,0,L|283:359,1,48.750001859665,2|0,0:0|0:0,0:0:0:0:
359,358,27613,6,0,P|372:306|310:240,1,146.250005578995,2|0,1:2|0:0,0:0:0:0:
238,256,28299,2,0,P|185:208|194:139,1,146.250005578995,8|2,0:0|0:0,0:0:0:0:
259,182,28985,6,0,L|316:158,1,48.750001859665,2|0,1:2|0:0,0:0:0:0:
351,101,29327,2,0,L|402:124,1,48.750001859665,0|0,1:2|0:0,0:0:0:0:
455,171,29670,2,0,P|477:221|436:308,1,146.250005578995,8|0,0:0|0:0,0:0:0:0:
388,247,30356,6,0,P|322:222|245:266,1,146.250005578995,2|0,1:2|0:0,0:0:0:0:
234,326,31042,2,0,P|207:330|171:324,1,48.750001859665,8|0,0:0|0:0,0:0:0:0:
120,285,31385,2,0,P|117:258|132:217,1,48.750001859665,2|0,1:2|1:2,0:0:0:0:
138,219,31642,1,0,1:2:0:0:
159,208,31727,6,0,P|163:182|151:143,1,48.750001859665,2|0,1:2|0:0,0:0:0:0:
96,113,32070,2,0,L|120:51,1,48.750001859665,2|0,0:0|0:0,0:0:0:0:
67,3,32413,1,10,0:0:0:0:
3,46,32585,1,0,0:0:0:0:
20,121,32756,2,0,L|20:188,1,48.750001859665,2|0,0:0|0:0,0:0:0:0:
256,192,33099,12,2,34470,0:0:0:0:
32,344,35842,6,0,L|84:348,1,48.750001859665,2|0,0:0|0:0,0:0:0:0:
152,316,36185,2,0,L|204:320,1,48.750001859665,2|0,0:0|0:0,0:0:0:0:
272,288,36527,2,0,L|324:292,1,48.750001859665,2|0,0:0|0:0,0:0:0:0:
380,240,36870,1,2,0:0:0:0:
380,240,37042,1,0,0:0:0:0:
348,168,37213,6,0,P|340:140|344:112,1,48.750001859665,2|0,0:0|0:0,0:0:0:0:
388,56,37556,1,2,0:0:0:0:
419,128,37727,2,0,L|452:130,2,24.3750009298325,2|2|2,0:0|0:0|0:0,0:0:0:0:
342,121,38070,1,0,0:0:0:0:
264,116,38242,2,0,L|204:112,1,48.750001859665,2|0,0:0|0:0,0:0:0:0:
144,148,38585,6,0,L|140:208,1,48.750001859665,2|0,0:0|0:0,0:0:0:0:
216,208,38927,2,0,L|212:268,1,48.750001859665,2|0,0:0|0:0,0:0:0:0:
288,268,39270,2,0,L|284:328,1,48.750001859665,2|0,0:0|0:0,0:0:0:0:
360,328,39613,1,2,0:0:0:0:
360,328,39785,1,0,0:0:0:0:
400,260,39956,6,0,P|396:224|384:204,1,48.750001859665,2|0,0:0|0:0,0:0:0:0:
396,136,40299,2,0,P|360:140|340:152,1,48.750001859665,2|0,0:0|0:0,0:0:0:0:
272,140,40642,2,0,P|276:176|288:196,1,48.750001859665,2|0,0:0|0:0,0:0:0:0:
276,264,40985,1,2,0:0:0:0:
276,264,41156,1,0,0:0:0:0:
212,308,41327,6,0,L|156:316,1,48.750001859665,2|0,0:0|0:0,0:0:0:0:
88,328,41670,1,2,0:0:0:0:
88,328,41842,1,0,0:0:0:0:
76,252,42013,2,0,L|68:196,1,48.750001859665,2|0,0:0|0:0,0:0:0:0:
56,128,42356,1,2,0:0:0:0:
56,128,42528,1,0,0:0:0:0:
124,92,42699,6,0,P|152:92|180:104,1,48.750001859665,2|0,0:0|0:0,0:0:0:0:
232,52,43042,1,2,0:0:0:0:
292,104,43213,2,0,P|284:115|262:122,2,24.3750009298325,2|2|2,0:0|0:0|0:0,0:0:0:0:
328,36,43556,1,0,0:0:0:0:
404,52,43727,2,0,P|399:70|388:85,3,24.3750009298325,2|2|2|2,0:0|0:0|0:0|0:0,0:0:0:0:
404,112,44070,6,0,P|408:136|424:160,1,48.750001859665,2|0,0:0|0:0,0:0:0:0:
484,204,44413,1,2,0:0:0:0:
484,204,44585,1,0,0:0:0:0:
424,252,44756,2,0,P|392:252|372:264,1,48.750001859665,2|0,0:0|0:0,0:0:0:0:
316,308,45099,1,2,0:0:0:0:
316,308,45270,1,0,0:0:0:0:
284,236,45442,2,0,P|260:212|244:204,1,48.750001859665,2|0,0:0|0:0,0:0:0:0:
172,176,45785,1,2,0:0:0:0:
172,176,45956,1,0,0:0:0:0:
112,224,46127,6,0,L|116:316,1,73.1250027894975,2|0,0:3|0:0,0:0:0:0:
136,328,46470,2,0,P|172:328|204:348,1,73.1250027894975,2|0,0:3|0:0,0:0:0:0:
236,328,46813,2,0,B|276:304|336:312|376:336|400:368|400:368|396:316|408:280|440:256|480:244,1,341.250013017655,2|0,0:3|0:0,0:0:0:0:
452,156,48185,5,4,1:2:0:0:
452,156,48270,1,2,0:0:0:0:
452,156,48356,2,0,P|384:160|340:120,1,116.999996429443,2|0,0:0|0:0,0:0:0:0:
332,88,48699,2,0,L|368:64,2,38.9999988098145,2|2|0,0:0|0:0|1:2,0:0:0:0:
240,72,49042,1,0,0:0:0:0:
204,160,49213,2,0,L|228:216,2,38.9999988098145,0|2|2,1:2|0:0|0:0,0:0:0:0:
96,120,49556,6,0,P|88:156|96:204,1,77.999997619629,0|2,1:2|0:0,0:0:0:0:
72,288,49899,2,0,P|103:307|150:316,1,77.999997619629,0|2,1:2|0:0,0:0:0:0:
221,368,50242,2,0,P|250:345|274:303,1,77.999997619629,0|2,1:2|0:0,0:0:0:0:
304,224,50585,1,0,1:2:0:0:
252,144,50756,1,0,1:0:0:0:
340,40,50927,5,0,1:2:0:0:
340,40,51013,1,2,0:0:0:0:
340,40,51099,2,0,P|392:40|444:76,1,116.999996429443,2|0,0:0|0:0,0:0:0:0:
468,116,51442,2,0,L|508:100,2,38.9999988098145,2|2|0,0:0|0:0|1:2,0:0:0:0:
380,144,51785,1,0,0:0:0:0:
392,236,51956,2,0,L|396:280,2,38.9999988098145,0|2|2,1:2|0:0|1:2,0:0:0:0:
284,120,52385,6,0,L|236:128,1,38.9999988098145,0|2,1:2|1:2,0:0:0:0:
152,144,52642,1,2,1:2:0:0:
172,284,52899,2,0,L|124:292,1,38.9999988098145,2|2,1:2|1:2,0:0:0:0:
40,308,53156,1,2,1:2:0:0:
0,196,53327,5,8,1:2:0:0:
56,88,53499,5,2,0:0:0:0:
56,88,53585,1,0,0:0:0:0:
56,88,53670,2,0,P|120:100|188:44,1,155.999995239258,0|0,1:2|1:2,0:0:0:0:
280,64,54185,1,2,0:0:0:0:
280,64,54271,1,2,0:0:0:0:
280,64,54356,2,0,P|344:52|412:108,1,155.999995239258,0|0,1:2|1:2,0:0:0:0:
500,80,54870,1,2,1:2:0:0:
476,264,55213,5,0,1:2:0:0:
384,288,55385,2,0,P|336:284|304:256,1,77.999997619629,2|2,1:2|1:2,0:0:0:0:
252,196,55727,2,0,P|219:175|180:175,1,77.999997619629,2|2,1:2|1:2,0:0:0:0:
96,216,56070,1,2,1:2:0:0:
96,216,56242,1,2,1:2:0:0:
140,300,56413,6,0,L|184:288,3,38.9999988098145,2|2|2|2,1:2|1:2|1:2|1:2,0:0:0:0:
224,276,56756,1,8,0:0:0:0:
252,92,57099,2,0,L|296:80,3,38.9999988098145,2|2|2|2,1:2|1:2|1:2|1:2,0:0:0:0:
336,68,57442,1,8,0:0:0:0:
448,36,57785,5,0,1:0:0:0:
173,217,59156,6,0,P|188:255|167:311,1,84.4999961318971,0|0,1:2|0:0,0:0:0:0:
248,369,59499,2,0,P|289:379|338:357,1,84.4999961318971,0|0,1:2|0:0,0:0:0:0:
319,264,59842,2,0,P|358:251|442:288,1,126.749994197846,2|2,1:2|0:2,0:0:0:0:
480,303,60185,1,0,1:2:0:0:
413,379,60356,1,2,1:2:0:0:
319,264,60527,6,0,P|301:221|319:177,1,84.4999961318971,0|0,1:2|0:0,0:0:0:0:
392,125,60870,2,0,P|402:85|384:48,1,84.4999961318971,0|0,1:2|0:0,0:0:0:0:
296,100,61213,2,0,P|233:133|162:113,1,126.749994197846,2|2,1:2|0:2,0:0:0:0:
141,91,61556,1,0,1:2:0:0:
51,44,61727,1,2,1:2:0:0:
51,44,61813,1,0,1:2:0:0:
51,44,61899,6,0,P|40:81|48:131,1,84.4999961318971,0|0,1:2|0:0,0:0:0:0:
134,176,62242,2,0,P|140:215|110:274,1,84.4999961318971,0|0,1:2|0:0,0:0:0:0:
67,340,62585,2,0,P|136:358|195:319,1,126.749994197846,2|2,1:2|0:2,0:0:0:0:
218,299,62927,1,0,1:2:0:0:
313,264,63099,1,2,1:2:0:0:
396,320,63270,6,0,P|412:252|377:186,2,126.749994197846,2|2|2,1:2|1:2|1:2,0:0:0:0:
313,264,63956,2,0,P|296:199|332:134,2,126.749994197846,2|2|2,1:2|1:2|1:2,0:0:0:0:
396,320,64642,6,0,P|436:327|481:313,1,84.4999961318971,0|0,1:2|0:0,0:0:0:0:
476,213,64985,2,0,P|465:173|472:132,1,84.4999961318971,0|0,1:2|0:0,0:0:0:0:
478,30,65327,2,0,P|425:0|344:21,1,126.749994197846,2|2,1:2|0:2,0:0:0:0:
336,52,65670,1,0,1:2:0:0:
388,138,65842,1,2,1:2:0:0:
292,169,66013,6,0,P|284:211|305:258,1,84.4999961318971,0|0,1:2|0:0,0:0:0:0:
399,248,66356,2,0,P|413:287|404:328,1,84.4999961318971,0|0,1:2|0:0,0:0:0:0:
306,357,66699,2,0,P|258:325|182:340,1,126.749994197846,2|2,1:2|0:2,0:0:0:0:
151,364,67042,1,0,1:2:0:0:
57,324,67213,1,2,1:2:0:0:
119,243,67385,6,0,L|235:246,1,84.4999961318971,0|0,1:2|0:0,0:0:0:0:
253,157,67727,2,0,L|161:155,1,84.4999961318971,0|0,1:2|0:0,0:0:0:0:
66,159,68070,2,0,P|48:95|96:33,1,126.749994197846,2|2,1:2|0:2,0:0:0:0:
123,26,68413,1,0,1:2:0:0:
224,36,68585,1,2,1:2:0:0:
224,36,68670,1,0,1:2:0:0:
224,36,68756,6,0,P|285:54|348:25,2,126.749994197846,0|0|0,1:2|1:2|1:2,0:0:0:0:
123,26,69442,2,0,P|60:6|-6:39,2,126.749994197846,0|0|0,1:2|1:2|1:2,0:0:0:0:
171,114,70127,6,0,P|181:146|162:214,1,84.4999961318971,0|2,1:2|0:0,0:0:0:0:
74,220,70470,2,0,P|65:264|91:316,1,84.4999961318971,2|2,1:2|0:0,0:0:0:0:
171,339,70813,2,0,P|210:350|271:328,1,84.4999961318971,2|2,1:2|0:0,0:0:0:0:
259,239,71156,2,0,P|301:233|355:265,1,84.4999961318971,2|2,1:2|0:0,0:0:0:0:
393,334,71499,5,0,1:0:0:0:
393,334,71670,1,0,1:0:0:0:
494,335,71842,1,0,1:0:0:0:
494,335,72013,1,0,1:0:0:0:
440,248,72185,2,0,P|437:222|443:193,3,42.2499980659486,0|0|0|0,1:0|1:0|1:0|1:0,0:0:0:0:
479,176,72527,2,0,P|484:155|472:129,3,42.2499980659486,0|0|0|0,1:0|1:0|1:0|1:0,0:0:0:0:
470,85,72870,6,0,P|430:72|383:89,1,84.4999961318971,0|2,1:2|0:0,0:0:0:0:
288,72,73213,2,0,P|276:112|298:161,1,84.4999961318971,2|2,1:2|0:0,0:0:0:0:
238,239,73556,2,0,P|252:286|231:334,1,84.4999961318971,2|2,1:2|0:0,0:0:0:0:
143,342,73899,2,0,P|100:331|46:358,1,84.4999961318971,2|2,1:2|0:0,0:0:0:0:
41,243,74242,6,0,L|-16:242,2,42.2499980659486,0|2|2,1:2|1:2|1:2,0:0:0:0:
118,177,74585,2,0,L|171:176,2,42.2499980659486,0|2|2,1:2|1:2|1:2,0:0:0:0:
52,99,74927,2,0,L|-4:100,2,42.2499980659486,0|2|2,1:2|1:2|1:2,0:0:0:0:
133,37,75270,2,0,L|186:38,2,42.2499980659486,0|2|2,1:2|1:2|1:2,0:0:0:0:
55,102,75613,5,0,1:2:0:0:
55,102,75785,1,0,1:2:0:0:
118,177,75956,1,0,1:2:0:0:
118,177,76127,1,0,1:2:0:0:
216,148,76299,2,0,P|248:120|264:68,1,84.4999961318971,0|0,1:2|1:2,0:0:0:0:
360,48,76642,2,0,P|384:84|428:100,1,84.4999961318971,0|0,1:2|1:2,0:0:0:0:
476,184,76985,5,0,1:2:0:0:
476,184,77156,1,0,1:2:0:0:
420,268,77327,1,0,1:2:0:0:
420,268,77499,1,0,1:2:0:0:
320,248,77670,2,0,L|224:228,1,84.4999961318971,0|0,1:2|1:2,0:0:0:0:
96,336,78013,2,0,L|184:316,1,84.4999961318971,0|0,1:2|1:2,0:0:0:0:
237,230,78356,6,0,P|249:178|305:122,2,126.749994197846,0|0|0,1:2|1:2|1:2,0:0:0:0:
178,317,79042,2,0,P|166:265|110:209,2,126.749994197846,0|0|0,1:2|1:2|1:2,0:0:0:0:
272,360,79727,1,0,1:2:0:0:
256,192,79899,12,4,81099,0:0:0:0:
45,253,89327,6,0,P|107:274|189:247,2,130,0|0|0,3:0|3:0|3:0,0:0:0:0:
104,80,90356,2,0,L|105:33,2,32.5,2|2|2,3:2|0:0|0:0,0:0:0:0:
169,143,90699,5,2,3:2:0:0:
308,25,91042,1,0,3:0:0:0:
308,25,91385,1,0,3:0:0:0:
443,146,91727,1,2,3:2:0:0:
387,218,91899,1,2,0:2:0:0:
327,149,92070,6,0,P|261:128|200:156,2,130,2|0|0,3:2|3:0|3:0,0:0:0:0:
257,318,93099,1,0,3:0:0:0:
90,244,93442,5,2,3:2:0:0:
159,75,93785,1,2,3:2:0:0:
159,75,94470,1,2,3:2:0:0:
219,143,94642,1,2,0:2:0:0:
270,67,94813,6,0,P|327:54|395:70,2,130,2|0|0,3:2|3:0|3:0,0:0:0:0:
323,241,95842,1,0,3:0:0:0:
227,281,96013,1,2,0:0:0:0:
246,178,96185,5,2,3:2:0:0:
246,178,96870,1,2,3:2:0:0:
143,326,97213,1,2,3:2:0:0:
29,183,97556,5,2,3:2:0:0:
29,183,98927,6,0,P|55:135|25:41,1,130,2|0,3:2|0:0,0:0:0:0:
123,18,99442,1,2,0:0:0:0:
199,67,99613,2,0,P|246:82|332:52,1,130,2|0,0:0|0:0,0:0:0:0:
409,35,100127,1,2,0:0:0:0:
484,85,100299,6,0,P|503:148|469:222,1,130,2|0,0:0|0:0,0:0:0:0:
408,259,100813,1,0,3:0:0:0:
408,259,100899,1,0,3:0:0:0:
408,259,100985,2,0,L|317:258,1,65,0|2,3:0|0:0,0:0:0:0:
239,181,101327,2,0,L|331:179,1,65,0|2,3:0|0:0,0:0:0:0:
274,298,101670,6,0,L|137:300,1,130,0|0,3:0|0:0,0:0:0:0:
52,299,102185,1,2,0:0:0:0:
144,299,102356,2,0,P|150:246|111:181,1,130,2|0,0:0|0:0,0:0:0:0:
52,112,102870,1,2,0:0:0:0:
116,45,103042,6,0,P|176:25|246:60,1,130,2|0,0:0|0:0,0:0:0:0:
258,137,103556,1,0,3:0:0:0:
258,137,103642,1,0,3:0:0:0:
258,137,103727,2,0,L|338:135,1,65,0|2,3:0|0:0,0:0:0:0:
408,53,104070,2,0,L|325:54,1,65,0|2,3:0|0:0,0:0:0:0:
408,141,104413,6,0,L|407:287,1,130,0|0,3:0|0:0,0:0:0:0:
341,334,104928,1,2,0:0:0:0:
277,269,105099,2,0,L|279:133,1,130,2|0,0:0|0:0,0:0:0:0:
344,75,105613,1,2,0:0:0:0:
265,27,105785,6,0,P|203:10|131:41,1,130,2|0,0:0|0:0,0:0:0:0:
188,116,106299,1,0,3:0:0:0:
188,116,106385,1,0,3:0:0:0:
188,116,106470,2,0,L|192:188,1,65,0|2,3:0|0:0,0:0:0:0:
100,174,106813,2,0,L|110:253,1,65,0|2,3:0|0:0,0:0:0:0:
62,317,107156,6,0,P|120:325|190:278,1,130,0|0,3:0|0:0,0:0:0:0:
254,236,107671,1,2,0:0:0:0:
314,303,107842,2,0,P|361:318|447:288,1,130,2|0,0:0|0:0,0:0:0:0:
486,220,108356,1,2,0:0:0:0:
435,144,108527,6,0,P|388:129|302:159,1,130,2|0,0:0|0:0,0:0:0:0:
261,242,109042,1,0,3:0:0:0:
261,242,109128,1,0,3:0:0:0:
261,242,109214,2,0,L|170:241,1,65,0|2,3:0|0:0,0:0:0:0:
93,169,109556,2,0,L|185:167,1,65,0|2,3:0|0:0,0:0:0:0:
259,149,109899,6,0,P|276:104|250:25,1,130,0|0,3:0|0:0,0:0:0:0:
161,64,110414,1,2,0:0:0:0:
61,52,110585,2,0,P|55:105|94:170,1,130,2|0,0:0|0:0,0:0:0:0:
178,199,111099,1,2,0:0:0:0:
260,160,111271,6,0,P|280:220|245:290,1,130,2|0,0:0|0:0,0:0:0:0:
179,328,111785,1,0,3:0:0:0:
179,328,111871,1,0,3:0:0:0:
179,328,111956,2,0,L|99:326,1,65,0|2,3:0|0:0,0:0:0:0:
24,244,112299,2,0,L|88:243,1,65,0|2,3:0|0:0,0:0:0:0:
178,199,112642,6,0,L|177:53,1,130,0|0,3:0|0:0,0:0:0:0:
261,32,113157,1,2,0:0:0:0:
320,100,113328,2,0,P|387:118|458:92,1,130,2|0,0:0|0:0,0:0:0:0:
495,26,113842,1,2,0:0:0:0:
443,101,114014,6,0,P|426:163|457:235,1,130,2|0,0:0|0:0,0:0:0:0:
495,300,114528,1,0,3:0:0:0:
495,300,114614,1,0,3:0:0:0:
495,300,114699,2,0,P|499:337|490:373,1,65,0|2,3:0|0:0,0:0:0:0:
402,360,115042,2,0,P|398:323|407:287,1,65,0|2,3:0|0:0,0:0:0:0:
446,223,115385,6,0,L|299:222,1,130,0|0,3:0|0:0,0:0:0:0:
225,234,115900,1,2,0:0:0:0:
149,183,116071,2,0,P|134:136|164:50,1,130,2|0,0:0|0:0,0:0:0:0:
262,26,116585,1,2,0:0:0:0:
330,129,116757,6,0,P|267:148|193:114,1,130,2|0,0:0|0:0,0:0:0:0:
163,67,117271,1,0,3:0:0:0:
163,67,117357,1,0,3:0:0:0:
163,67,117443,2,0,L|72:66,1,65,0|2,3:0|0:0,0:0:0:0:
14,151,117785,2,0,L|106:149,1,65,0|2,3:0|0:0,0:0:0:0:
148,200,118128,6,0,P|164:261|136:341,1,130,0|0,3:0|0:0,0:0:0:0:
58,347,118643,1,2,0:0:0:0:
147,324,118814,2,0,L|298:326,1,130,2|0,0:0|0:0,0:0:0:0:
363,355,119328,1,2,0:0:0:0:
443,312,119500,6,0,P|453:246|411:182,1,130,2|0,0:0|0:0,0:0:0:0:
332,183,120014,1,0,3:0:0:0:
332,183,120100,1,0,3:0:0:0:
332,183,120185,2,0,L|334:103,1,65,0|2,3:0|0:0,0:0:0:0:
411,38,120528,2,0,L|410:121,1,65,0|2,3:0|0:0,0:0:0:0:
332,39,120870,6,0,P|272:22|199:49,1,130,2|2,0:0|0:0,0:0:0:0:
174,126,121385,1,2,0:0:0:0:
174,126,121470,1,2,0:0:0:0:
174,126,121556,2,0,L|171:202,1,65,2|0,0:0|0:0,0:0:0:0:
80,187,121899,2,0,L|85:265,1,65,2|0,0:0|0:0,0:0:0:0:
100,338,122242,6,0,P|170:357|237:333,1,146.250005578995,4|0,1:2|0:0,0:0:0:0:
211,258,122928,2,0,P|280:238|348:262,1,146.250005578995,8|2,0:0|0:0,0:0:0:0:
382,331,123613,5,2,1:2:0:0:
382,331,123957,2,0,L|439:332,1,48.750001859665,0|0,1:2|0:0,0:0:0:0:
500,367,124300,2,0,P|513:312|459:229,1,146.250005578995,8|0,0:0|0:0,0:0:0:0:
401,203,124985,5,2,1:2:0:0:
401,203,125327,2,0,L|400:145,1,48.750001859665,0|0,0:0|0:0,0:0:0:0:
337,106,125671,2,0,L|337:49,1,48.750001859665,8|0,0:0|0:0,0:0:0:0:
262,34,126014,2,0,L|214:36,1,48.750001859665,2|0,0:0|1:2,0:0:0:0:
167,99,126357,6,0,L|102:101,1,48.750001859665,2|0,1:2|0:0,0:0:0:0:
40,100,126699,1,0,1:2:0:0:
76,168,126870,1,0,0:0:0:0:
34,234,127042,1,10,0:0:0:0:
71,302,127214,1,0,1:2:0:0:
128,249,127385,2,0,L|188:249,1,48.750001859665,2|0,0:0|0:0,0:0:0:0:
255,249,127728,6,0,P|268:197|206:131,1,146.250005578995,2|0,1:2|0:0,0:0:0:0:
154,78,128414,2,0,P|224:50|282:86,1,146.250005578995,8|2,0:0|0:0,0:0:0:0:
320,150,129100,6,0,P|347:149|380:128,1,48.750001859665,2|0,1:2|0:0,0:0:0:0:
381,63,129442,2,0,P|403:57|435:72,1,48.750001859665,0|0,1:2|0:0,0:0:0:0:
455,137,129785,2,0,P|427:205|462:275,1,146.250005578995,8|0,0:0|0:0,0:0:0:0:
487,339,130471,6,0,P|421:364|344:320,1,146.250005578995,2|0,1:2|0:0,0:0:0:0:
303,275,131157,2,0,L|238:272,1,48.750001859665,8|0,0:0|0:0,0:0:0:0:
184,308,131500,2,0,L|118:299,1,48.750001859665,2|0,1:2|1:2,0:0:0:0:
46,291,131842,6,0,P|42:265|54:226,1,48.750001859665,2|0,1:2|0:0,0:0:0:0:
111,199,132185,2,0,P|119:176|109:135,1,48.750001859665,2|0,0:0|0:0,0:0:0:0:
66,92,132528,1,10,0:0:0:0:
60,13,132700,1,0,0:0:0:0:
137,22,132871,2,0,L|202:28,1,48.750001859665,2|0,0:0|0:0,0:0:0:0:
272,36,133213,6,0,L|307:38,2,35.7500010910034,2|2|2,1:2|0:2|0:2,0:0:0:0:
208,196,133727,2,0,L|160:192,2,35.7500010910034,2|2|10,0:2|0:2|0:2,0:0:0:0:
320,332,134242,2,0,L|355:334,2,35.7500010910034,2|2|2,0:2|0:2|0:2,0:0:0:0:
232,332,134585,6,0,P|188:344|164:364,1,71.5000021820069,0|2,1:0|0:0,0:0:0:0:
120,288,134927,2,0,P|76:288|40:276,1,71.5000021820069,0|2,1:0|0:0,0:0:0:0:
24,196,135270,2,0,P|56:180|68:112,1,107.25000327301,8|0,0:0|0:0,0:0:0:0:
96,80,135613,2,0,L|140:88,3,35.7500010910034,2|2|2|2,0:0|0:0|0:0|0:0,0:0:0:0:
172,68,135956,6,0,P|184:48|192:24,2,35.7500010910034,2|2|2,1:2|0:0|0:0,0:0:0:0:
248,220,136470,2,0,P|238:235|231:251,2,35.7500010910034,2|2|10,0:0|0:0|0:0,0:0:0:0:
404,148,136985,2,0,P|416:128|424:104,2,35.7500010910034,2|2|2,0:0|0:0|0:0,0:0:0:0:
432,228,137327,5,0,1:2:0:0:
472,304,137499,2,0,L|492:340,2,35.7500010910034,2|2|0,0:0|0:0|1:2,0:0:0:0:
432,228,137842,1,2,0:0:0:0:
348,208,138013,2,0,P|308:204|260:224,1,71.5000021820069,8|2,0:0|0:0,0:0:0:0:
208,264,138356,2,0,L|212:304,3,35.7500010910034,2|2|2|2,0:0|0:0|0:0|0:0,0:0:0:0:
216,344,138699,6,0,L|264:336,2,35.7500010910034,2|2|2,1:2|0:0|0:0,0:0:0:0:
80,236,139213,2,0,L|32:228,2,35.7500010910034,2|2|10,0:0|0:0|0:0,0:0:0:0:
212,124,139727,2,0,L|260:116,2,35.7500010910034,2|2|2,0:0|0:0|0:0,0:0:0:0:
212,124,140242,5,2,0:0:0:0:
220,208,140413,2,0,P|256:224|296:220,1,71.5000021820069,0|2,1:2|0:0,0:0:0:0:
372,232,140756,2,0,P|388:196|384:156,1,71.5000021820069,8|2,0:2|0:0,0:0:0:0:
396,80,141099,2,0,P|360:64|320:68,1,71.5000021820069,2|2,0:0|0:0,0:0:0:0:
244,56,141442,1,6,3:2:0:0:
256,192,141613,12,0,143842,0:0:0:0:
23,93,144185,6,0,P|8:131|29:187,1,84.4999961318971,0|0,1:2|0:0,0:0:0:0:
114,123,144528,2,0,P|155:113|204:135,1,84.4999961318971,0|0,1:2|0:0,0:0:0:0:
208,232,144871,2,0,P|247:245|331:208,1,126.749994197846,2|0,1:2|0:0,0:0:0:0:
360,180,145214,1,0,1:2:0:0:
257,136,145385,1,2,0:0:0:0:
208,232,145556,6,0,P|190:275|208:319,1,84.4999961318971,0|0,1:2|0:0,0:0:0:0:
286,364,145899,2,0,P|326:374|363:356,1,84.4999961318971,0|0,1:2|0:0,0:0:0:0:
439,287,146242,2,0,P|425:229|457:161,1,126.749994197846,2|2,1:2|0:0,0:0:0:0:
483,130,146585,1,0,1:2:0:0:
454,32,146756,1,2,1:2:0:0:
366,84,146928,6,0,P|322:104|277:83,1,84.4999961318971,0|0,1:2|0:0,0:0:0:0:
212,26,147271,2,0,P|171:29|135:62,1,84.4999961318971,0|0,1:0|0:0,0:0:0:0:
200,136,147614,2,0,P|218:205|179:264,1,126.749994197846,0|0,1:0|0:0,0:0:0:0:
168,295,147956,1,0,1:2:0:0:
109,211,148128,1,2,0:0:0:0:
28,271,148299,6,0,P|12:203|47:137,2,126.749994197846,2|2|2,1:2|1:2|1:2,0:0:0:0:
109,211,148985,2,0,P|126:146|90:81,2,126.749994197846,2|2|2,1:2|1:2|1:2,0:0:0:0:
168,295,149671,6,0,P|208:308|247:281,1,84.4999961318971,0|0,1:2|0:0,0:0:0:0:
272,190,150014,2,0,P|317:188|351:214,1,84.4999961318971,0|0,1:0|0:0,0:0:0:0:
327,308,150356,2,0,P|380:338|461:317,1,126.749994197846,2|2,1:2|0:0,0:0:0:0:
485,301,150699,1,0,1:2:0:0:
447,206,150871,1,2,1:2:0:0:
347,209,151042,6,0,P|339:167|360:120,1,84.4999961318971,0|0,1:2|0:0,0:0:0:0:
454,123,151385,2,0,P|468:84|459:43,1,84.4999961318971,0|0,1:2|0:0,0:0:0:0:
359,25,151727,1,2,1:2:0:0:
359,25,151899,1,0,1:2:0:0:
270,74,152070,1,0,1:2:0:0:
270,74,152242,1,2,1:2:0:0:
170,28,152414,6,0,P|164:69|176:114,1,84.4999961318971,0|0,1:2|0:0,0:0:0:0:
97,176,152756,2,0,P|112:212|95:268,1,84.4999961318971,0|0,1:2|0:0,0:0:0:0:
27,322,153099,1,2,1:2:0:0:
27,322,153270,1,0,1:2:0:0:
110,380,153442,1,0,1:2:0:0:
110,380,153614,1,2,1:2:0:0:
201,336,153785,6,0,P|262:318|325:347,2,126.749994197846,2|2|2,1:2|1:2|1:2,0:0:0:0:
110,380,154471,2,0,P|90:317|109:249,2,126.749994197846,2|0|2,1:2|1:0|1:2,0:0:0:0:
201,336,155156,6,0,P|212:295|199:256,1,84.4999961318971,0|2,1:2|0:0,0:0:0:0:
150,167,155499,2,0,P|197:156|242:179,1,84.4999961318971,0|2,1:2|0:0,0:0:0:0:
318,218,155842,2,0,P|329:179|307:118,1,84.4999961318971,0|2,1:2|0:0,0:0:0:0:
230,88,156185,2,0,P|224:46|256:-8,1,84.4999961318971,0|2,1:2|0:0,0:0:0:0:
339,26,156527,6,0,P|402:14|463:61,1,126.749994197846,0|0,1:2|1:2,0:0:0:0:
470,93,156870,1,2,0:0:0:0:
391,157,157042,2,0,L|389:214,1,42.2499980659486,0|0,1:2|1:2,0:0:0:0:
349,231,157214,2,0,P|323:234|294:228,3,42.2499980659486,0|0|0|0,1:2|1:2|1:2|1:0,0:0:0:0:
256,229,157556,2,0,P|235:224|209:236,3,42.2499980659486,0|0|0|0,1:2|1:2|1:2|1:2,0:0:0:0:
176,262,157899,6,0,P|136:275|89:258,1,84.4999961318971,0|2,1:2|0:0,0:0:0:0:
9,210,158242,2,0,P|-3:170|19:121,1,84.4999961318971,0|2,1:2|0:0,0:0:0:0:
111,133,158585,2,0,P|125:86|104:38,1,84.4999961318971,0|2,1:2|0:0,0:0:0:0:
200,108,158928,2,0,P|211:151|184:205,1,84.4999961318971,0|2,1:2|0:0,0:0:0:0:
141,271,159270,5,0,1:2:0:0:
229,320,159442,2,0,L|229:376,2,42.2499980659486,0|0|0,1:2|1:2|1:2,0:0:0:0:
286,236,159785,1,0,1:2:0:0:
366,297,159956,2,0,L|365:360,2,42.2499980659486,0|0|0,1:2|1:2|1:2,0:0:0:0:
436,223,160299,1,0,1:2:0:0:
436,223,160470,1,0,1:2:0:0:
383,135,160642,6,0,P|339:125|299:147,1,84.4999961318971,0|2,1:2|0:0,0:0:0:0:
252,228,160985,2,0,P|209:240|164:208,1,84.4999961318971,0|2,1:2|0:0,0:0:0:0:
87,171,161327,2,0,L|90:79,1,84.4999961318971,0|2,1:2|0:0,0:0:0:0:
168,22,161670,1,0,1:2:0:0:
168,22,161842,1,0,1:2:0:0:
236,96,162013,6,0,P|278:105|336:77,1,84.4999961318971,0|2,1:2|0:0,0:0:0:0:
408,49,162356,2,0,P|424:83|418:145,1,84.4999961318971,0|2,1:2|0:0,0:0:0:0:
349,198,162699,1,0,1:2:0:0:
349,198,162870,1,0,1:2:0:0:
383,293,163042,1,0,1:2:0:0:
383,293,163213,1,0,1:2:0:0:
260,352,163385,6,0,P|216:360|176:340,1,84.4999961318971,0|0,1:2|1:2,0:0:0:0:
52,263,163727,2,0,P|90:246|131:255,1,84.4999961318971,0|0,1:2|1:2,0:0:0:0:
196,180,164070,1,0,1:2:0:0:
196,180,164242,1,0,1:2:0:0:
152,88,164413,1,0,1:2:0:0:
152,88,164585,1,0,1:2:0:0:
268,28,164756,5,0,1:2:0:0:
368,48,164927,2,0,L|424:60,2,42.2499980659486,0|0|0,1:2|1:2|1:2,0:0:0:0:
416,140,165270,2,0,L|472:152,2,42.2499980659486,0|0|0,1:2|1:2|1:2,0:0:0:0:
312,138,165613,1,2,0:0:0:0:
282,239,165785,1,0,1:2:0:0:
109,331,166127,5,0,1:2:0:0:
109,331,166470,2,0,L|29:330,1,65,2|0,1:2|0:0,0:0:0:0:
27,247,166813,2,0,L|111:248,1,65,0|0,1:2|0:0,0:0:0:0:
176,271,167156,1,2,1:2:0:0:
252,235,167327,1,0,1:2:0:0:
327,274,167499,5,0,1:2:0:0:
327,274,167842,2,0,P|339:240|336:207,1,65,2|0,1:2|0:0,0:0:0:0:
279,149,168185,2,0,P|275:123|295:81,1,65,0|0,1:2|0:0,0:0:0:0:
367,58,168527,2,0,L|409:57,3,32.5,2|0|0|0,1:2|1:2|1:2|1:2,0:0:0:0:
441,58,168870,5,0,1:2:0:0:
441,58,169213,2,0,P|449:91|441:129,1,65,2|0,1:2|0:0,0:0:0:0:
376,172,169556,2,0,P|371:203|379:235,1,65,0|0,1:2|0:0,0:0:0:0:
412,313,169899,2,0,L|336:319,1,65,2|0,1:2|0:0,0:0:0:0:
279,266,170242,6,0,L|214:280,1,65,0|0,1:2|0:0,0:0:0:0:
168,350,170585,2,0,L|95:338,1,65,2|0,1:2|0:0,0:0:0:0:
39,284,170927,2,0,P|38:250|50:220,1,65,0|0,1:2|0:0,0:0:0:0:
125,184,171270,1,2,1:2:0:0:
120,268,171442,1,0,1:2:0:0:
49,221,171613,5,0,1:2:0:0:
49,221,171956,2,0,P|42:183|53:141,1,65,2|0,1:2|0:0,0:0:0:0:
117,110,172299,2,0,P|117:74|102:43,1,65,0|0,1:2|0:0,0:0:0:0:
25,19,172642,2,0,P|25:55|40:86,1,65,2|0,1:2|0:0,0:0:0:0:
117,110,172985,5,0,1:2:0:0:
117,110,173327,2,0,P|147:121|190:107,1,65,2|0,1:2|0:0,0:0:0:0:
257,83,173670,2,0,P|267:114|248:163,1,65,0|0,1:2|0:0,0:0:0:0:
196,200,174013,2,0,P|192:219|198:249,3,32.5,2|0|0|0,1:2|1:2|1:2|1:2,0:0:0:0:
212,264,174356,6,0,P|224:292|232:328,1,65,0|0,1:2|0:0,0:0:0:0:
300,360,174699,2,0,P|307:328|319:298,1,65,2|0,1:2|0:0,0:0:0:0:
356,228,175042,2,0,P|348:196|336:166,1,65,0|0,1:2|0:0,0:0:0:0:
304,96,175385,1,2,1:2:0:0:
304,96,175727,6,0,P|272:100|240:88,1,65,0|0,1:2|0:0,0:0:0:0:
180,44,176070,2,0,P|148:40|116:52,1,65,2|0,1:2|0:0,0:0:0:0:
52,96,176413,1,0,1:2:0:0:
52,96,176585,1,0,0:0:0:0:
48,172,176756,2,0,L|44:240,1,65,2|0,1:2|0:0,0:0:0:0:
92,300,177099,6,0,L|160:304,1,65,0|0,1:2|0:0,0:0:0:0:
224,264,177442,2,0,P|236:208|212:132,1,130,2|0,1:2|1:2,0:0:0:0:
188,68,177956,1,0,0:0:0:0:
188,68,178127,1,2,1:2:0:0:
336,24,178470,6,0,P|368:36|392:60,1,65,0|0,1:2|0:0,0:0:0:0:
432,124,178813,2,0,P|400:136|376:160,1,65,2|0,1:2|0:0,0:0:0:0:
336,224,179156,2,0,P|368:236|392:260,1,65,0|0,1:2|0:0,0:0:0:0:
432,324,179499,1,2,1:2:0:0:
372,376,179670,1,0,1:2:0:0:
300,348,179842,6,0,L|212:312,1,65,0|0,1:2|0:0,0:0:0:0:
224,248,180185,2,0,L|136:212,1,65,2|0,1:2|0:0,0:0:0:0:
148,148,180527,2,0,L|60:112,1,65,0|0,1:2|0:0,0:0:0:0:
72,48,180870,1,2,1:2:0:0:
72,48,181213,6,0,P|108:32|144:36,1,65,0|0,1:2|0:0,0:0:0:0:
192,84,181556,2,0,P|224:83|253:68,1,65,2|0,1:2|0:0,0:0:0:0:
320,28,181899,1,0,1:2:0:0:
372,84,182070,1,0,1:2:0:0:
332,152,182242,2,0,L|336:192,3,32.5,2|0|0|0,1:2|1:2|1:2|1:2,0:0:0:0:
340,224,182585,5,0,1:2:0:0:
284,280,182756,1,0,1:2:0:0:
220,232,182927,2,0,B|204:204|204:204|204:164,1,65,2|0,1:2|0:0,0:0:0:0:
208,92,183270,1,0,1:2:0:0:
144,44,183442,1,0,1:2:0:0:
100,108,183613,2,0,B|84:136|84:136|84:168,1,65,2|0,1:2|0:0,0:0:0:0:
116,240,183956,6,0,P|168:248|232:200,1,130,0|2,1:2|1:2,0:0:0:0:
252,132,184470,2,0,P|301:92|364:97,1,130,0|0,1:2|1:2,0:0:0:0:
436,132,184985,1,2,1:2:0:0:
436,132,185327,5,0,1:2:0:0:
476,200,185499,1,0,1:2:0:0:
420,252,185670,2,0,P|388:252|360:268,1,65,2|0,1:2|0:0,0:0:0:0:
300,320,186013,1,0,1:2:0:0:
236,276,186185,1,0,1:2:0:0:
252,200,186356,2,0,P|252:168|236:140,1,65,2|0,1:2|0:0,0:0:0:0:
180,84,186699,6,0,L|100:92,1,65,0|0,1:2|0:0,0:0:0:0:
56,140,187042,1,2,1:2:0:0:
56,140,187213,2,0,B|60:188|60:188|44:212|44:212|48:276,1,130,0|0,1:2|1:2,0:0:0:0:
56,344,187727,1,2,1:2:0:0:
208,372,188070,5,0,1:2:0:0:
252,308,188242,1,0,1:2:0:0:
212,240,188413,2,0,L|220:156,1,65,2|0,1:2|0:0,0:0:0:0:
176,108,188756,1,0,1:2:0:0:
232,52,188927,1,0,1:2:0:0:
300,88,189099,2,0,L|368:92,1,65,2|0,1:2|0:0,0:0:0:0:
436,128,189442,6,0,P|452:164|404:260,1,130,0|2,1:2|1:2,0:0:0:0:
352,272,189956,2,0,P|304:272|240:324,1,130,0|0,1:2|1:2,0:0:0:0:
172,356,190470,1,2,1:2:0:0:
44,264,190813,5,4,3:2:0:0:
172,356,191156,1,0,3:0:0:0:
264,228,191499,1,0,3:0:0:0:
136,136,191842,1,0,3:0:0:0:
228,8,192185,5,0,3:0:0:0:
356,100,192527,1,0,3:0:0:0:
420,148,192699,2,0,L|464:180,2,32.5,2|2|0,0:0|0:0|3:0,0:0:0:0:
316,264,193213,1,0,3:0:0:0:
224,140,193556,5,0,3:0:0:0:
132,16,193899,1,0,3:0:0:0:
8,108,194242,1,0,3:0:0:0:
100,232,194585,1,0,3:0:0:0:
224,140,194927,6,0,L|280:96,1,65,0|0,3:0|3:0,0:0:0:0:
324,160,195270,2,0,L|272:200,1,65,0|0,3:0|3:0,0:0:0:0:
212,248,195613,1,0,3:0:0:0:
364,280,195956,1,0,3:0:0:0:
416,88,196299,5,2,3:0:0:0:
