osu file format v14

[General]
AudioFilename: audio.mp3
AudioLeadIn: 0
PreviewTime: 98902
Countdown: 0
SampleSet: Soft
StackLeniency: 0.3
Mode: 0
LetterboxInBreaks: 0
WidescreenStoryboard: 1

[Editor]
Bookmarks: 19200,30000,49200,63600,68400,87600,99600,109200,133200,138000,176400
DistanceSpacing: 0.9
BeatDivisor: 2
GridSize: 8
TimelineZoom: 2.5

[Metadata]
Title:Paradigm Shift
TitleUnicode:Paradigm Shift
Artist:Fractal Dreamers
ArtistUnicode:Fractal Dreamers
Creator:appleeaterx
Version:Normal
Source:
Tags:kingdom of silence ep captin1 pishifat
BeatmapID:1513625
BeatmapSetID:716441

[Difficulty]
HPDrainRate:4
CircleSize:3.3
OverallDifficulty:4
ApproachRate:5
SliderMultiplier:1.1
SliderTickRate:1

[Events]
//Background and Video events
0,0,"paradigm-shift.jpg",0,0
//Break Periods
2,87777,95977
2,138177,146377
//Storyboard Layer 0 (Background)
//Storyboard Layer 1 (Fail)
//Storyboard Layer 2 (Pass)
//Storyboard Layer 3 (Foreground)
//Storyboard Sound Samples

[TimingPoints]
-23,300,4,2,0,45,1,0
19177,-100,4,2,1,40,0,0
29977,-100,4,2,1,65,0,0
46777,-100,4,2,1,40,0,0
48577,-100,4,2,1,50,0,0
48877,-100,4,2,1,45,0,0
49177,-100,4,2,1,80,0,0
63577,-100,4,2,1,45,0,0
63652,-100,4,2,1,30,0,0
68377,-100,4,2,1,45,0,0
97177,-100,4,2,1,45,0,0
98677,-100,4,2,1,50,0,0
98977,-100,4,2,1,40,0,0
99577,-100,4,2,1,75,0,0
107977,-100,4,2,1,45,0,0
109177,-100,4,2,1,75,0,0
116377,-100,4,2,1,45,0,0
117277,-100,4,2,1,55,0,0
118777,-100,4,2,1,75,0,0
121177,-100,4,2,1,45,0,0
122377,-100,4,2,1,35,0,0
123427,-100,4,2,1,45,0,0
123577,-100,4,2,1,75,0,0
126127,-100,4,2,1,45,0,0
127177,-100,4,2,1,50,0,0
127777,-100,4,2,1,55,0,0
128077,-100,4,2,1,65,0,0
128377,-100,4,2,1,75,0,0
130927,-100,4,2,1,45,0,0
131977,-100,4,2,1,50,0,0
132577,-100,4,2,1,55,0,0
133177,-100,4,2,1,75,0,0
135577,-100,4,2,1,70,0,0
135877,-100,4,2,1,75,0,0
136177,-100,4,2,1,80,0,0
136477,-100,4,2,1,85,0,0
136777,-100,4,2,1,75,0,0
137527,-100,4,2,1,45,0,0
137677,-100,4,2,1,75,0,0
137977,-100,4,2,1,45,0,0
147577,-100,4,2,1,45,0,0
156577,-100,4,2,1,40,0,0
157177,-100,4,2,1,70,0,0
175327,-100,4,2,1,60,0,0
175627,-100,4,2,1,50,0,0
176377,-100,4,2,1,70,0,0
178777,-100,4,2,1,65,0,0
193177,-100,4,2,1,45,0,0
194752,-100,4,2,1,55,0,0
195127,-100,4,2,1,45,0,0

[Colours]
Combo1 : 108,204,255
Combo2 : 238,238,238

[HitObjects]
25,76,19177,6,0,P|75:27|177:42,1,165,2|2,3:2|0:0,0:0:0:0:
191,74,19777,1,8,0:1:0:0:
114,136,20077,2,0,B|72:179|72:179|89:285,1,165,0|2,0:0|0:0,0:0:0:0:
101,330,20677,1,0,0:0:0:0:
200,330,20977,2,0,L|186:392,2,55,8|0|2,0:1|0:0|0:0,0:0:0:0:
298,319,21577,6,0,L|331:154,1,165,2|2,3:2|0:0,0:0:0:0:
370,128,22177,1,8,0:1:0:0:
343,32,22477,2,0,P|295:77|198:73,1,165,2|0,0:0|0:0,0:0:0:0:
177,30,23077,1,0,0:0:0:0:
86,70,23377,2,0,L|73:8,2,55,8|0|2,0:1|0:0|0:0,0:0:0:0:
58,110,23827,1,8,0:1:0:0:
58,110,23977,6,0,L|20:278,1,165,2|0,3:2|0:0,0:0:0:0:
39,316,24577,1,8,0:1:0:0:
126,270,24877,2,0,B|234:248|234:248|296:272,1,165,0|0,0:0|0:0,0:0:0:0:
322,300,25477,1,2,0:0:0:0:
415,331,25777,2,0,L|428:384,2,55,2|0|2,0:0|0:0|0:0,0:0:0:0:
398,233,26377,6,0,P|443:160|431:84,1,165,2|0,3:2|0:0,0:0:0:0:
396,49,26977,1,8,0:1:0:0:
300,23,27277,1,2,0:0:0:0:
222,84,27577,1,0,0:0:0:0:
30,297,29977,6,0,L|145:271,1,110,2|8,3:2|0:0,0:0:0:0:
181,294,30427,1,0,0:0:0:0:
181,294,30577,2,0,L|169:359,2,55,0|0|8,0:0|3:0|0:0,0:0:0:0:
271,254,31177,2,0,L|290:136,1,110,2|8,3:2|0:0,0:0:0:0:
254,109,31627,1,0,3:0:0:0:
254,109,31777,2,0,L|196:126,2,55,0|0|8,0:0|3:0|0:0,0:0:0:0:
304,23,32377,6,0,P|361:46|388:86,1,110,2|8,3:2|0:0,0:0:0:0:
423,118,32827,1,0,0:0:0:0:
423,118,32977,2,0,L|482:101,2,55,0|0|8,3:0|3:0|0:0,0:0:0:0:
354,189,33577,2,0,B|328:238|328:238|341:292,1,110,2|8,3:2|0:0,0:0:0:0:
352,339,34027,2,0,L|237:318,1,110,0|0,3:0|3:0,0:0:0:0:
210,355,34477,1,8,0:0:0:0:
126,301,34777,6,0,P|104:247|117:198,1,110,2|8,3:2|0:0,0:0:0:0:
132,151,35227,1,0,0:0:0:0:
132,151,35377,2,0,L|59:166,2,55,0|0|8,3:0|3:0|0:0,0:0:0:0:
211,92,35977,2,0,L|232:204,1,110,2|8,3:2|0:0,0:0:0:0:
277,218,36427,1,0,3:0:0:0:
277,218,36577,2,0,L|290:154,2,55,0|0|8,0:0|3:0|0:0,0:0:0:0:
308,311,37177,6,0,P|354:287|428:292,1,110,2|8,3:2|0:0,0:0:0:0:
453,312,37627,1,0,0:0:0:0:
453,312,37777,2,0,L|439:384,2,55,0|0|8,3:0|3:0|0:0,0:0:0:0:
492,221,38377,2,0,B|472:170|472:170|491:110,1,110,2|8,3:2|0:0,0:0:0:0:
485,67,38827,2,0,L|376:87,1,110,0|0,3:0|3:0,0:0:0:0:
352,43,39277,1,8,0:0:0:0:
278,108,39577,6,0,L|266:175,2,55,2|0|8,3:2|0:0|0:0,0:0:0:0:
242,73,40027,1,0,0:0:0:0:
242,73,40177,2,0,P|191:40|138:45,1,110,0|8,0:0|0:0,0:0:0:0:
76,115,40777,2,0,L|17:130,2,55,2|0|8,3:2|0:0|0:0,0:0:0:0:
114,146,41227,1,0,3:0:0:0:
114,146,41377,2,0,L|86:258,1,110,0|8,0:0|0:0,0:0:0:0:
174,301,41977,6,0,L|191:237,2,55,2|0|8,3:2|0:0|0:0,0:0:0:0:
197,345,42427,1,0,0:0:0:0:
197,345,42577,2,0,P|247:366|300:356,1,110,0|8,0:0|0:0,0:0:0:0:
390,314,43177,2,0,L|404:370,2,55,2|0|8,3:2|0:0|0:0,0:0:0:0:
413,270,43627,1,0,3:0:0:0:
413,270,43777,2,0,L|300:250,1,110,0|8,0:0|0:0,0:0:0:0:
219,199,44377,6,0,B|199:148|199:148|222:91,1,110,2|8,3:2|0:0,0:0:0:0:
299,37,44977,2,0,L|418:22,1,110,0|8,0:0|0:0,0:0:0:0:
448,51,45427,1,0,0:0:0:0:
448,51,45577,2,0,P|477:94|469:157,1,110,2|8,3:2|0:0,0:0:0:0:
383,194,46177,2,0,L|367:258,1,55,0|0,0:0|3:0,0:0:0:0:
321,259,46477,2,0,L|337:323,1,55,8|0,0:0|0:0,0:0:0:0:
316,358,46777,6,0,P|228:298|111:319,1,220,6|2,3:2|0:0,0:0:0:0:
14,146,47977,2,0,L|127:127,1,110,2|2,3:2|0:0,0:0:0:0:
213,88,48577,2,0,L|227:146,1,55,2|0,0:0|3:0,0:0:0:0:
197,182,48877,1,8,0:0:0:0:
269,249,49177,6,0,L|250:357,2,110,2|8|0,3:2|0:0|0:0,0:0:0:0:
311,159,50077,1,8,0:0:0:0:
385,234,50377,2,0,B|438:245|438:245|490:213,1,110,2|8,3:2|0:0,0:0:0:0:
493,166,50827,2,0,B|504:113|504:113|472:61,1,110,0|0,3:0|3:0,0:0:0:0:
443,26,51277,1,10,0:0:0:0:
359,78,51577,6,0,L|247:62,1,110,2|8,3:2|0:0,0:0:0:0:
204,82,52027,1,0,3:0:0:0:
204,82,52177,2,0,L|195:13,2,55,0|0|8,0:0|3:0|0:0,0:0:0:0:
172,175,52777,2,0,B|128:209|128:209|65:197,1,110,2|8,3:2|0:0,0:0:0:0:
33,171,53227,2,0,L|9:289,1,110,0|0,3:0|3:0,0:0:0:0:
36,321,53677,1,10,0:0:0:0:
125,364,53977,6,0,P|173:341|231:348,1,110,2|8,3:2|0:0,0:0:0:0:
271,371,54427,1,0,0:0:0:0:
271,371,54577,2,0,L|339:359,2,55,0|0|8,0:0|3:0|0:0,0:0:0:0:
270,271,55177,2,0,L|292:162,1,110,2|8,3:2|0:0,0:0:0:0:
252,132,55627,1,0,3:0:0:0:
252,132,55777,2,0,L|174:146,2,55,0|0|8,0:0|3:0|0:0,0:0:0:0:
302,46,56377,6,0,B|348:71|348:71|418:58,2,110,2|8|0,3:2|0:0|0:0,0:0:0:0:
210,6,57277,1,10,0:0:0:0:
111,19,57577,2,0,L|92:130,1,110,2|8,3:2|0:0,0:0:0:0:
42,127,58027,2,0,L|23:238,1,110,0|0,3:0|3:0,0:0:0:0:
58,269,58477,1,8,0:0:0:0:
94,360,58777,6,0,L|160:349,1,55,2|2,3:2|3:2,0:0:0:0:
192,373,59077,1,8,0:0:0:0:
229,281,59377,2,0,L|240:224,2,55,2|2|8,3:2|3:2|0:0,0:0:0:0:
291,360,59977,2,0,P|344:364|397:338,1,110,2|8,3:2|0:0,0:0:0:0:
428,376,60427,2,0,P|468:341|487:285,1,110,0|0,3:0|3:0,0:0:0:0:
458,248,60877,1,8,0:0:0:0:
378,188,61177,6,0,L|322:203,2,55,2|2|8,3:2|3:2|0:0,0:0:0:0:
443,113,61777,2,0,L|457:46,1,55,0|2,3:0|3:2,0:0:0:0:
425,19,62077,1,8,0:0:0:0:
328,41,62377,2,0,B|285:76|285:76|216:65,1,110,2|8,3:2|0:0,0:0:0:0:
192,98,62827,2,0,B|138:106|138:106|95:71,1,110,0|0,3:0|3:0,0:0:0:0:
47,85,63277,2,0,L|30:155,1,55,10|2,0:0|3:2,0:0:0:0:
43,186,63577,6,0,P|139:220|130:349,1,220,2|2,3:2|0:0,0:0:0:0:
340,373,64777,2,0,P|345:314|377:259,1,110,2|0,3:2|0:0,0:0:0:0:
457,227,65377,2,0,P|453:172|428:123,1,110,2|0,0:0|0:0,0:0:0:0:
360,51,65977,6,0,B|232:80|275:4|139:46,1,220,2|2,3:2|0:0,0:0:0:0:
83,232,67177,2,0,L|98:344,2,110,2|0|2,3:2|0:0|0:0,0:0:0:0:
256,136,68377,5,4,3:0:0:0:
398,176,68827,1,0,0:0:0:0:
398,176,68977,2,0,P|436:232|433:281,1,110,4|0,0:3|0:0,0:0:0:0:
418,319,69427,2,0,L|302:299,1,110,4|0,0:3|0:0,0:0:0:0:
268,272,69877,1,4,0:3:0:0:
247,368,70177,1,0,0:0:0:0:
107,227,70777,6,0,L|-8:258,2,110,2|4|4,3:2|0:3|0:3,0:0:0:0:
132,131,71677,1,0,0:0:0:0:
132,131,71827,2,0,P|182:156|240:147,1,110,4|0,0:3|0:0,0:0:0:0:
274,120,72277,1,4,0:3:0:0:
354,177,72577,2,0,L|341:240,2,55,0|0|4,0:0|0:0|0:3,0:0:0:0:
437,123,73177,6,0,P|481:173|487:224,1,110,2|0,3:2|0:0,0:0:0:0:
456,252,73627,1,0,0:0:0:0:
456,252,73777,2,0,P|417:290|405:343,1,110,4|0,0:3|0:0,0:0:0:0:
363,370,74227,2,0,L|245:343,1,110,4|0,0:3|0:0,0:0:0:0:
211,367,74677,1,4,0:3:0:0:
201,265,74977,1,0,0:0:0:0:
358,145,75577,6,0,L|340:266,2,110,2|4|4,3:2|0:3|0:3,0:0:0:0:
310,58,76477,1,0,0:0:0:0:
310,58,76627,2,0,P|261:92|213:92,1,110,4|0,0:3|0:0,0:0:0:0:
173,60,77077,1,4,0:3:0:0:
83,103,77377,2,0,L|64:218,1,110,0|4,0:0|0:3,0:0:0:0:
78,309,77977,6,0,L|190:285,1,110,2|0,3:2|0:0,0:0:0:0:
214,245,78427,1,0,0:0:0:0:
214,245,78577,2,0,P|260:278|275:336,1,110,4|0,0:3|0:0,0:0:0:0:
314,358,79027,2,0,L|429:337,1,110,4|0,0:3|0:0,0:0:0:0:
461,368,79477,1,4,0:3:0:0:
492,274,79777,1,0,0:0:0:0:
340,146,80377,6,0,L|354:261,2,110,2|4|4,3:2|0:3|0:3,0:0:0:0:
275,70,81277,1,0,0:0:0:0:
275,70,81427,2,0,P|221:78|163:34,1,110,4|0,0:3|0:0,0:0:0:0:
133,23,81877,1,4,0:3:0:0:
116,120,82177,1,0,0:0:0:0:
91,316,82777,6,0,L|209:298,1,110,2|0,3:2|0:0,0:0:0:0:
239,329,83227,1,0,0:0:0:0:
239,329,83377,2,0,P|255:268|237:221,1,110,4|0,0:3|0:0,0:0:0:0:
200,195,83827,2,0,L|220:81,1,110,4|0,0:3|0:0,0:0:0:0:
248,46,84277,1,4,0:3:0:0:
344,24,84577,1,0,0:0:0:0:
460,183,85177,6,0,L|483:58,2,110,2|4|4,3:2|0:3|0:3,0:0:0:0:
362,204,86077,1,0,0:0:0:0:
362,204,86227,2,0,P|325:247|320:315,1,110,4|0,0:3|0:0,0:0:0:0:
351,333,86677,1,4,0:3:0:0:
255,357,86977,2,0,L|140:341,1,110,0|4,0:0|0:3,0:0:0:0:
48,357,87577,1,2,3:2:0:0:
256,192,97177,12,2,98377,3:2:0:0:
255,62,98977,6,0,L|361:47,2,82.5,4|4|4,0:3|0:3|0:3,0:0:0:0:
241,109,99577,6,0,P|202:81|129:88,1,110,6|8,3:2|0:0,0:0:0:0:
103,50,100027,2,0,P|59:69|28:136,1,110,0|0,0:0|3:0,0:0:0:0:
45,169,100477,1,8,0:0:0:0:
97,253,100777,2,0,L|210:232,1,110,2|8,3:2|0:0,0:0:0:0:
249,211,101227,2,0,B|275:261|275:261|259:319,1,110,0|0,3:0|3:0,0:0:0:0:
281,358,101677,2,0,L|354:345,1,55,10|2,0:0|0:0,0:0:0:0:
380,369,101977,5,2,3:2:0:0:
448,297,102277,2,0,L|459:230,1,55,8|0,0:0|3:0,0:0:0:0:
414,217,102577,2,0,L|425:150,1,55,0|2,3:0|3:2,0:0:0:0:
383,132,102877,1,8,0:0:0:0:
383,132,103027,2,0,L|499:107,2,110,0|0|0,3:0|3:0|3:0,0:0:0:0:
306,68,103927,1,2,3:2:0:0:
306,68,104077,2,0,L|249:58,1,55,8|0,0:0|3:0,0:0:0:0:
217,22,104377,6,0,P|178:69|177:118,1,110,2|8,3:2|0:0,0:0:0:0:
176,165,104827,2,0,P|129:126|80:125,1,110,0|0,0:0|3:0,0:0:0:0:
43,155,105277,1,8,0:0:0:0:
96,238,105577,2,0,L|112:352,1,110,2|8,3:2|0:0,0:0:0:0:
155,368,106027,2,0,B|200:337|200:337|271:351,1,110,0|0,3:0|3:0,0:0:0:0:
303,358,106477,2,0,L|289:293,1,55,10|2,0:0|0:0,0:0:0:0:
323,266,106777,5,2,3:2:0:0:
238,213,107077,1,8,0:0:0:0:
238,213,107227,2,0,P|223:154|238:102,1,110,2|0,3:2|3:0,0:0:0:0:
268,70,107677,2,0,L|259:10,2,55,10|2|2,0:0|3:2|3:2,0:0:0:0:
182,296,109177,6,0,P|129:303|69:260,1,110,2|8,3:2|0:0,0:0:0:0:
32,288,109627,2,0,P|15:237|47:170,1,110,2|0,0:0|3:0,0:0:0:0:
59,142,110077,1,8,0:0:0:0:
126,69,110377,2,0,L|244:53,1,110,2|8,3:2|0:0,0:0:0:0:
276,27,110827,2,0,B|303:76|303:76|287:138,1,110,0|0,3:0|3:0,0:0:0:0:
244,149,111277,2,0,L|229:208,1,55,8|2,0:0|0:0,0:0:0:0:
192,235,111577,5,2,3:2:0:0:
256,310,111877,1,8,0:0:0:0:
256,310,112027,2,0,L|373:292,1,110,0|0,0:0|3:0,0:0:0:0:
402,325,112477,2,0,L|461:313,1,55,8|2,0:0|3:2,0:0:0:0:
485,274,112777,1,2,3:2:0:0:
431,190,113077,1,8,0:0:0:0:
431,190,113227,2,0,P|422:125|438:81,1,110,0|0,3:0|3:0,0:0:0:0:
473,51,113677,1,10,0:0:0:0:
378,20,113977,6,0,L|263:33,1,110,2|8,3:2|0:0,0:0:0:0:
255,80,114427,2,0,L|140:93,1,110,0|0,3:0|3:0,0:0:0:0:
108,59,114877,1,8,0:0:0:0:
56,143,115177,2,0,L|-6:152,2,55,2|0|8,3:2|3:0|0:0,0:0:0:0:
85,182,115627,2,0,B|107:231|107:231|89:295,1,110,2|0,3:2|3:0,0:0:0:0:
107,332,116077,2,0,L|181:317,1,55,10|2,0:0|3:2,0:0:0:0:
184,364,116377,5,2,3:2:0:0:
255,179,116977,2,0,L|321:170,1,55,2|2,3:2|3:2,0:0:0:0:
348,201,117277,2,0,L|414:192,1,55,2|2,3:2|3:2,0:0:0:0:
439,160,117577,1,2,3:2:0:0:
439,160,117727,2,0,L|459:36,2,110,0|2|0,3:0|3:2|3:0,0:0:0:0:
454,206,118477,2,0,L|443:265,1,55,2|2,0:0|0:0,0:0:0:0:
439,309,118777,6,0,P|387:284|333:297,1,110,2|8,3:2|0:0,0:0:0:0:
241,320,119377,2,0,L|229:387,2,55,2|0|8,3:2|3:0|0:0,0:0:0:0:
203,287,119827,1,2,3:2:0:0:
203,287,119977,2,0,B|154:316|154:316|96:305,1,110,0|8,0:0|0:0,0:0:0:0:
70,212,120577,2,0,L|81:148,1,55,2|0,0:0|3:0,0:0:0:0:
128,149,120877,2,0,L|139:85,1,55,8|2,0:0|0:0,0:0:0:0:
169,56,121177,6,0,B|312:28|240:98|389:74,1,220,2|2,3:2|0:0,0:0:0:0:
495,237,122377,2,0,P|393:247|365:361,1,220,2|2,3:2|0:0,0:0:0:0:
314,367,123127,2,0,L|199:344,1,110,0|0,3:0|0:0,0:0:0:0:
163,370,123577,5,6,3:2:0:0:
72,329,123877,2,0,P|58:275|77:215,1,110,8|2,0:0|3:2,0:0:0:0:
110,192,124327,1,0,3:0:0:0:
110,192,124477,2,0,L|175:179,1,55,8|0,0:0|3:0,0:0:0:0:
205,208,124777,2,0,L|228:83,1,110,2|8,3:2|0:0,0:0:0:0:
315,60,125377,2,0,L|305:0,2,55,2|2|8,3:2|3:2|0:0,0:0:0:0:
343,100,125827,1,2,0:0:0:0:
343,100,125977,6,0,P|439:132|422:263,1,220,2|2,3:2|0:0,0:0:0:0:
301,374,127177,2,0,L|187:352,1,110,2|2,3:2|0:0,0:0:0:0:
109,300,127777,2,0,L|123:230,1,55,2|2,3:2|3:2,0:0:0:0:
78,218,128077,2,0,L|92:148,1,55,2|2,3:2|3:2,0:0:0:0:
45,139,128377,6,0,L|172:111,1,110,6|8,3:2|0:0,0:0:0:0:
235,60,128977,2,0,L|223:3,2,55,2|0|8,0:0|3:0|0:0,0:0:0:0:
278,82,129427,1,2,0:0:0:0:
278,82,129577,6,0,L|256:193,1,110,2|8,3:2|0:0,0:0:0:0:
225,282,130177,2,0,L|169:293,1,55,2|0,0:0|3:0,0:0:0:0:
136,327,130477,2,0,L|80:338,1,55,8|2,0:0|0:0,0:0:0:0:
47,373,130777,6,0,B|78:232|8:300|58:157,1,220,2|2,3:2|0:0,0:0:0:0:
211,32,131977,2,0,P|276:109|386:57,1,220,0|2,3:2|0:0,0:0:0:0:
454,134,132877,1,2,3:2:0:0:
396,214,133177,6,0,L|373:328,1,110,6|8,3:2|0:0,0:0:0:0:
279,351,133777,1,2,0:0:0:0:
279,351,133927,2,0,L|209:334,1,55,0|8,3:0|0:0,0:0:0:0:
182,363,134227,1,2,0:0:0:0:
182,363,134377,2,0,P|162:304|182:247,1,110,2|8,3:2|0:0,0:0:0:0:
244,189,134977,2,0,L|233:132,2,55,2|0|8,0:0|3:0|0:0,0:0:0:0:
332,233,135577,6,0,L|317:297,2,55,10|8|8,3:2|0:0|0:0,0:0:0:0:
370,201,136027,1,8,0:0:0:0:
370,201,136177,2,0,L|357:147,2,55,8|8|8,0:0|0:0|0:0,0:0:0:0:
421,285,136777,2,0,P|458:237|463:185,1,110,6|0,3:2|0:0,0:0:0:0:
482,143,137227,2,0,P|458:86|416:56,1,110,6|6,0:0|0:0,0:0:0:0:
372,44,137677,1,2,0:0:0:0:
278,77,137977,5,6,3:2:0:0:
59,338,147577,6,0,P|166:355|249:281,1,220,2|8,3:2|0:1,0:0:0:0:
300,203,148477,1,0,0:0:0:0:
380,259,148777,2,0,L|360:369,2,110,2|2|8,3:2|0:0|0:1,0:0:0:0:
460,201,149677,1,2,0:0:0:0:
416,111,149977,6,0,B|276:108|359:42|205:58,1,220,2|8,3:2|0:1,0:0:0:0:
111,48,150877,1,8,0:1:0:0:
50,126,151177,2,0,L|34:184,2,55,2|2|0,3:2|0:0|0:0,0:0:0:0:
129,185,151777,2,0,L|113:243,2,55,8|0|8,0:1|0:0|0:1,0:0:0:0:
168,154,152227,1,0,0:0:0:0:
168,154,152377,6,0,P|274:171|323:288,1,220,2|8,3:2|0:1,0:0:0:0:
388,338,153277,1,0,0:0:0:0:
462,273,153577,2,0,L|484:150,1,110,2|2,3:2|0:0,0:0:0:0:
416,90,154177,1,0,0:0:0:0:
324,127,154477,1,2,0:0:0:0:
247,64,154777,6,0,P|191:41|133:43,1,110,2|2,3:2|0:0,0:0:0:0:
93,127,155377,2,0,P|45:163|17:215,1,110,8|0,0:1|0:0,0:0:0:0:
63,295,155977,1,2,3:2:0:0:
342,362,157177,6,0,L|363:236,1,110,6|8,3:2|0:0,0:0:0:0:
328,215,157627,1,2,0:0:0:0:
328,215,157777,2,0,L|261:232,2,55,0|0|8,0:0|3:0|0:0,0:0:0:0:
417,172,158377,2,0,L|436:60,1,110,2|8,3:2|0:0,0:0:0:0:
397,32,158827,2,0,B|348:60|348:60|292:50,1,110,2|0,3:2|3:0,0:0:0:0:
249,31,159277,1,8,0:0:0:0:
154,59,159577,6,0,P|114:114|113:157,1,110,2|8,3:2|0:0,0:0:0:0:
141,194,160027,1,0,0:0:0:0:
141,194,160177,2,0,L|213:180,1,55,0|0,3:0|3:0,0:0:0:0:
232,215,160477,2,0,L|304:201,1,55,8|0,0:0|3:0,0:0:0:0:
327,176,160777,1,2,3:2:0:0:
327,176,160927,2,0,L|303:295,2,110,0|0|0,3:0|3:0|3:0,0:0:0:0:
364,143,161677,1,8,0:0:0:0:
432,72,161977,6,0,P|464:120|456:184,1,110,2|8,3:2|0:0,0:0:0:0:
459,220,162427,1,2,3:2:0:0:
459,220,162577,2,0,L|392:230,2,55,0|0|8,0:0|3:0|0:0,0:0:0:0:
480,316,163177,2,0,L|370:333,1,110,2|8,3:2|0:0,0:0:0:0:
330,360,163627,2,0,B|283:330|283:330|214:348,1,110,2|0,3:2|3:0,0:0:0:0:
182,355,164077,2,0,L|194:290,1,55,8|2,0:0|0:0,0:0:0:0:
216,257,164377,5,2,3:2:0:0:
143,190,164677,1,8,0:0:0:0:
210,117,164977,2,0,L|271:103,1,55,0|0,3:0|3:0,0:0:0:0:
303,133,165277,2,0,L|356:120,1,55,8|0,0:0|3:0,0:0:0:0:
398,94,165577,1,2,3:2:0:0:
398,94,165727,2,0,B|373:203,1,110,2|0,3:2|3:0,0:0:0:0:
399,296,166327,2,0,L|453:286,2,55,0|8|0,3:0|0:0|3:0,0:0:0:0:
351,312,166777,6,0,P|295:280|271:231,1,110,2|8,3:2|0:0,0:0:0:0:
226,225,167227,2,0,P|225:160|256:115,1,110,0|0,0:0|3:0,0:0:0:0:
285,90,167677,1,8,0:0:0:0:
203,34,167977,2,0,L|92:52,1,110,2|8,3:2|0:0,0:0:0:0:
48,32,168427,2,0,B|28:84|28:84|55:141,1,110,2|0,3:2|3:0,0:0:0:0:
86,168,168877,2,0,L|67:236,1,55,8|0,0:0|0:0,0:0:0:0:
30,250,169177,5,2,3:2:0:0:
90,328,169477,1,8,0:0:0:0:
90,328,169627,2,0,L|209:309,1,110,2|0,3:2|3:0,0:0:0:0:
235,344,170077,2,0,L|252:275,1,55,8|0,0:0|3:0,0:0:0:0:
281,253,170377,1,2,3:2:0:0:
375,282,170677,1,8,0:0:0:0:
375,282,170827,2,0,L|360:167,1,110,2|0,3:2|3:0,0:0:0:0:
390,133,171277,1,8,0:0:0:0:
331,53,171577,6,0,P|281:92|223:90,1,110,2|8,3:2|0:0,0:0:0:0:
207,134,172027,2,0,P|148:110|120:58,1,110,0|0,3:0|3:0,0:0:0:0:
97,30,172477,1,8,0:0:0:0:
8,74,172777,2,0,L|29:188,1,110,2|8,3:2|0:0,0:0:0:0:
72,205,173227,1,2,3:2:0:0:
72,205,173377,2,0,L|55:267,1,55,0|0,3:0|3:0,0:0:0:0:
106,269,173677,2,0,L|91:322,1,55,8|2,0:0|3:2,0:0:0:0:
123,360,173977,5,2,3:2:0:0:
221,366,174277,1,8,0:0:0:0:
297,303,174577,2,0,L|313:235,2,55,0|0|8,0:0|3:0|0:0,0:0:0:0:
323,344,175027,2,0,L|440:325,2,110,2|2|2,3:2|3:2|3:2,0:0:0:0:
116,206,176377,6,0,P|97:151|126:96,1,110,6|8,3:2|0:0,0:0:0:0:
160,84,176827,1,0,0:0:0:0:
160,84,176977,2,0,L|147:18,2,55,0|0|8,0:0|3:0|0:0,0:0:0:0:
249,125,177577,2,0,L|361:152,1,110,2|8,3:2|0:0,0:0:0:0:
376,195,178027,1,0,3:0:0:0:
376,195,178177,2,0,L|441:179,2,55,0|0|8,0:0|3:0|0:0,0:0:0:0:
306,265,178777,6,0,P|258:288|200:281,1,110,2|8,3:2|0:0,0:0:0:0:
158,259,179227,1,0,0:0:0:0:
158,259,179377,2,0,L|145:323,2,55,0|0|8,0:0|3:0|0:0,0:0:0:0:
67,218,179977,2,0,L|53:97,1,110,2|8,3:2|0:0,0:0:0:0:
91,76,180427,2,0,B|145:88|145:88|198:51,1,110,0|0,3:0|3:0,0:0:0:0:
217,15,180877,1,8,0:0:0:0:
306,57,181177,6,0,L|366:44,2,55,2|0|8,3:2|0:0|0:0,0:0:0:0:
275,95,181627,1,0,0:0:0:0:
275,95,181777,2,0,P|246:154|254:197,1,110,0|8,0:0|0:0,0:0:0:0:
297,284,182377,2,0,L|285:341,2,55,2|0|8,3:2|0:0|0:0,0:0:0:0:
334,251,182827,1,0,3:0:0:0:
334,251,182977,2,0,L|464:232,1,110,0|8,0:0|0:0,0:0:0:0:
461,137,183577,6,0,L|473:78,2,55,2|0|8,3:2|0:0|0:0,0:0:0:0:
412,147,184027,1,0,0:0:0:0:
412,147,184177,2,0,P|362:120|305:128,1,110,0|8,0:0|0:0,0:0:0:0:
225,175,184777,2,0,L|207:61,1,110,2|8,3:2|0:0,0:0:0:0:
165,41,185227,2,0,B|108:34|108:34|59:72,1,110,0|0,3:0|3:0,0:0:0:0:
44,110,185677,1,8,0:0:0:0:
98,194,185977,6,0,P|71:243|83:305,1,110,2|8,3:2|0:0,0:0:0:0:
114,327,186427,1,0,0:0:0:0:
114,327,186577,2,0,L|99:385,2,55,0|0|8,0:0|3:0|0:0,0:0:0:0:
195,269,187177,2,0,L|312:252,1,110,2|8,3:2|0:0,0:0:0:0:
329,295,187627,1,0,3:0:0:0:
329,295,187777,2,0,L|317:355,2,55,0|0|8,0:0|3:0|0:0,0:0:0:0:
388,215,188377,6,0,P|371:180|398:114,1,110,2|8,3:2|0:0,0:0:0:0:
425,78,188827,1,0,0:0:0:0:
425,78,188977,2,0,L|487:66,2,55,0|0|8,0:0|3:0|0:0,0:0:0:0:
310,53,189577,2,0,L|197:39,1,110,2|8,3:2|0:0,0:0:0:0:
152,52,190027,2,0,B|171:105|171:105|149:159,1,110,0|0,3:0|3:0,0:0:0:0:
103,171,190477,1,8,0:0:0:0:
72,265,190777,6,0,L|16:275,2,55,2|0|8,3:2|0:0|0:0,0:0:0:0:
110,296,191227,1,0,0:0:0:0:
110,296,191377,2,0,L|220:275,1,110,0|8,0:0|0:0,0:0:0:0:
285,203,191977,2,0,L|352:216,2,55,2|0|8,3:2|0:0|0:0,0:0:0:0:
249,168,192427,1,0,3:0:0:0:
249,168,192577,2,0,L|235:49,1,110,0|8,0:0|0:0,0:0:0:0:
326,18,193177,1,6,3:2:0:0:
256,192,193327,12,2,195577,3:2:0:0:
