osu file format v14

[General]
AudioFilename: audio.mp3
AudioLeadIn: 0
PreviewTime: 98902
Countdown: 0
SampleSet: Soft
StackLeniency: 0.3
Mode: 0
LetterboxInBreaks: 0
WidescreenStoryboard: 1

[Editor]
Bookmarks: 19200,30000,49200,63600,68400,87600,99600,109200,133200,138000,176400
DistanceSpacing: 1.1
BeatDivisor: 4
GridSize: 8
TimelineZoom: 2.5

[Metadata]
Title:Paradigm Shift
TitleUnicode:Paradigm Shift
Artist:Fractal Dreamers
ArtistUnicode:Fractal Dreamers
Creator:appleeaterx
Version:Easy
Source:
Tags:kingdom of silence ep captin1 pishifat
BeatmapID:1513622
BeatmapSetID:716441

[Difficulty]
HPDrainRate:3
CircleSize:3
OverallDifficulty:2
ApproachRate:3
SliderMultiplier:0.8
SliderTickRate:1

[Events]
//Background and Video events
0,0,"paradigm-shift.jpg",0,0
//Break Periods
2,87777,95737
2,138177,146137
//Storyboard Layer 0 (Background)
//Storyboard Layer 1 (Fail)
//Storyboard Layer 2 (Pass)
//Storyboard Layer 3 (Foreground)
//Storyboard Sound Samples

[TimingPoints]
-23,300,4,2,0,45,1,0
19177,-100,4,2,1,40,0,0
29977,-100,4,2,1,65,0,0
46777,-100,4,2,1,40,0,0
48577,-100,4,2,1,50,0,0
48877,-100,4,2,1,45,0,0
49177,-100,4,2,1,80,0,0
63577,-100,4,2,1,45,0,0
63652,-100,4,2,1,30,0,0
68377,-100,4,2,1,45,0,0
97177,-100,4,2,1,45,0,0
98677,-100,4,2,1,50,0,0
98977,-100,4,2,1,40,0,0
99577,-100,4,2,1,75,0,0
107977,-100,4,2,1,45,0,0
109177,-100,4,2,1,75,0,0
116377,-100,4,2,1,45,0,0
117277,-100,4,2,1,55,0,0
118777,-100,4,2,1,75,0,0
121177,-100,4,2,1,45,0,0
122377,-100,4,2,1,35,0,0
123427,-100,4,2,1,45,0,0
123577,-100,4,2,1,75,0,0
126127,-100,4,2,1,45,0,0
127177,-100,4,2,1,50,0,0
127777,-100,4,2,1,55,0,0
128077,-100,4,2,1,65,0,0
128377,-100,4,2,1,75,0,0
130927,-100,4,2,1,45,0,0
131977,-100,4,2,1,50,0,0
132577,-100,4,2,1,55,0,0
133177,-100,4,2,1,75,0,0
135577,-100,4,2,1,70,0,0
135877,-100,4,2,1,75,0,0
136177,-100,4,2,1,80,0,0
136477,-100,4,2,1,85,0,0
136777,-100,4,2,1,75,0,0
137527,-100,4,2,1,45,0,0
137677,-100,4,2,1,75,0,0
137977,-100,4,2,1,45,0,0
147577,-100,4,2,1,45,0,0
156577,-100,4,2,1,40,0,0
157177,-100,4,2,1,70,0,0
175327,-100,4,2,1,60,0,0
175627,-100,4,2,1,50,0,0
176377,-100,4,2,1,70,0,0
178777,-100,4,2,1,65,0,0
193177,-100,4,2,1,45,0,0
194752,-100,4,2,1,55,0,0
195127,-100,4,2,1,45,0,0

[Colours]
Combo1 : 108,204,255
Combo2 : 238,238,238

[HitObjects]
77,185,19177,6,0,P|44:114|74:36,2,160,2|8|0,3:2|0:1|3:2,0:0:0:0:
157,149,20677,1,0,0:0:0:0:
236,185,20977,2,0,L|219:268,1,80,8|2,0:1|0:0,0:0:0:0:
261,341,21577,6,0,B|361:354|313:301|418:320,1,160,2|8,3:2|0:1,0:0:0:0:
472,152,22777,2,0,L|488:62,1,80,8|0,0:1|0:0,0:0:0:0:
409,29,23377,2,0,L|393:119,1,80,8|2,0:1|0:0,0:0:0:0:
312,138,23977,6,0,P|233:131|166:173,2,160,2|8|8,3:2|0:1|0:1,0:0:0:0:
379,194,25477,1,2,0:0:0:0:
313,253,25777,2,0,L|298:333,1,80,2|2,0:0|0:0,0:0:0:0:
212,347,26377,6,0,P|133:354|66:312,1,160,2|8,3:2|0:1,0:0:0:0:
28,233,27277,1,2,0:0:0:0:
61,151,27577,1,0,0:0:0:0:
447,94,29977,6,0,L|420:255,1,160,2|0,3:2|0:0,0:0:0:0:
356,311,30877,1,8,0:0:0:0:
278,269,31177,2,0,L|192:283,1,80,2|8,3:2|0:0,0:0:0:0:
137,345,31777,2,0,L|51:359,1,80,0|8,0:0|0:0,0:0:0:0:
24,276,32377,6,0,P|31:199|104:152,1,160,2|0,3:2|3:0,0:0:0:0:
180,170,33277,1,8,0:0:0:0:
250,116,33577,2,0,L|238:28,2,80,2|8|0,3:2|0:0|0:0,0:0:0:0:
334,141,34477,1,8,0:0:0:0:
406,91,34777,6,0,L|492:73,1,80,2|8,3:2|0:0,0:0:0:0:
498,159,35377,2,0,L|412:177,1,80,0|8,3:0|0:0,0:0:0:0:
349,229,35977,2,0,P|299:288|307:373,2,160,2|0|2,3:2|0:0|3:2,0:0:0:0:
339,141,37477,5,8,0:0:0:0:
286,70,37777,2,0,L|196:87,1,80,0|8,3:0|0:0,0:0:0:0:
144,147,38377,2,0,L|54:164,1,80,2|8,3:2|0:0,0:0:0:0:
12,232,38977,1,0,0:0:0:0:
118,372,39577,6,0,P|197:378|274:315,1,160,2|0,3:2|0:0,0:0:0:0:
314,263,40477,1,8,0:0:0:0:
397,286,40777,2,0,L|487:271,1,80,2|8,3:2|0:0,0:0:0:0:
468,184,41377,2,0,L|378:199,1,80,0|8,0:0|0:0,0:0:0:0:
306,165,41977,6,0,L|336:1,1,160,2|0,3:2|0:0,0:0:0:0:
248,25,42877,1,8,0:0:0:0:
169,64,43177,2,0,L|85:51,1,80,2|8,3:2|0:0,0:0:0:0:
34,119,43777,2,0,L|19:197,1,80,0|8,0:0|0:0,0:0:0:0:
58,276,44377,6,0,B|214:235|121:332|299:292,1,240,2|8,3:2|0:0,0:0:0:0:
357,347,45577,2,0,P|453:290|435:170,1,240,2|8,3:2|0:0,0:0:0:0:
372,118,46777,1,6,3:2:0:0:
103,188,48877,5,8,0:0:0:0:
24,226,49177,2,0,P|85:271|179:238,1,160,2|0,3:2|0:0,0:0:0:0:
193,171,50077,1,8,0:0:0:0:
280,166,50377,2,0,P|325:227|292:321,1,160,2|0,3:2|0:0,0:0:0:0:
368,368,51277,1,10,0:0:0:0:
449,334,51577,6,0,L|470:237,1,80,2|8,3:2|0:0,0:0:0:0:
427,176,52177,2,0,L|448:79,1,80,0|8,0:0|0:0,0:0:0:0:
372,47,52777,2,0,P|328:75|291:82,1,80,2|8,3:2|0:0,0:0:0:0:
229,131,53377,2,0,P|182:106|158:78,1,80,0|10,0:0|0:0,0:0:0:0:
87,42,53977,6,0,L|55:199,1,160,2|0,3:2|0:0,0:0:0:0:
13,276,54877,1,8,0:0:0:0:
81,331,55177,2,0,P|148:290|241:306,1,160,2|0,3:2|0:0,0:0:0:0:
285,232,56077,1,8,0:0:0:0:
222,169,56377,6,0,L|138:184,1,80,2|8,3:2|0:0,0:0:0:0:
70,133,56977,1,0,0:0:0:0:
101,51,57277,1,10,0:0:0:0:
185,75,57577,2,0,L|269:60,1,80,2|8,3:2|0:0,0:0:0:0:
338,14,58177,1,0,0:0:0:0:
378,185,58777,6,0,L|363:274,1,80,2|8,3:2|0:0,0:0:0:0:
307,330,59377,2,0,L|217:311,1,80,2|8,3:2|0:0,0:0:0:0:
143,292,59977,2,0,P|101:327|27:332,2,120,2|0|8,3:2|3:0|0:0,0:0:0:0:
205,229,61177,6,0,L|222:139,1,80,2|8,3:2|0:0,0:0:0:0:
197,64,61777,2,0,L|290:42,1,80,0|8,3:0|0:0,0:0:0:0:
354,83,62377,2,0,P|415:80|466:114,2,120,2|0|10,3:2|3:0|0:0,0:0:0:0:
387,164,63577,6,0,L|355:326,1,160,2|2,3:2|0:0,0:0:0:0:
186,368,64777,2,0,L|97:351,1,80,2|0,3:2|0:0,0:0:0:0:
96,265,65377,2,0,L|185:282,1,80,2|0,0:0|0:0,0:0:0:0:
255,314,65977,6,0,P|277:238|259:154,1,160,2|2,3:2|0:0,0:0:0:0:
126,47,67177,2,0,L|296:21,1,160,2|2,3:2|0:0,0:0:0:0:
433,115,68377,6,0,P|479:180|464:268,1,160,4|4,3:0|0:3,0:0:0:0:
364,334,69427,2,0,L|234:313,1,120,4|4,0:3|0:3,0:0:0:0:
176,369,70177,1,0,0:0:0:0:
36,261,70777,6,0,L|23:168,2,80,2|4|4,3:2|0:3|0:3,0:0:0:0:
167,273,71827,2,0,L|188:154,1,120,4|4,0:3|0:3,0:0:0:0:
204,68,72577,1,0,0:0:0:0:
305,211,73177,6,0,P|381:211|440:152,1,160,2|4,3:2|0:3,0:0:0:0:
390,32,74227,2,0,L|252:9,1,120,4|4,0:3|0:3,0:0:0:0:
204,68,74977,1,0,0:0:0:0:
335,185,75577,6,0,L|320:274,2,80,2|4|4,3:2|0:3|0:3,0:0:0:0:
204,163,76627,2,0,L|221:291,1,120,4|4,0:3|0:3,0:0:0:0:
189,364,77377,2,0,L|104:349,1,80,0|4,0:0|0:3,0:0:0:0:
42,293,77977,6,0,P|18:217|51:143,1,160,2|4,3:2|0:3,0:0:0:0:
123,37,79027,2,0,L|253:58,1,120,4|4,0:3|0:3,0:0:0:0:
303,118,79777,1,0,0:0:0:0:
474,79,80377,6,0,L|491:-19,2,80,2|4|4,3:2|0:3|0:3,0:0:0:0:
378,170,81427,2,0,L|397:294,1,120,4|4,0:3|0:3,0:0:0:0:
337,353,82177,1,0,0:0:0:0:
262,305,82477,1,4,0:3:0:0:
187,351,82777,6,0,P|115:317|26:329,1,160,2|4,3:2|0:3,0:0:0:0:
91,203,83827,2,0,L|211:184,1,120,4|4,0:3|0:3,0:0:0:0:
286,227,84577,1,0,0:0:0:0:
407,100,85177,6,0,L|486:89,2,80,2|4|4,3:2|0:3|0:3,0:0:0:0:
284,50,86227,2,0,L|152:31,1,120,4|4,0:3|0:3,0:0:0:0:
77,43,86977,2,0,P|58:82|61:132,1,80,0|4,0:0|0:3,0:0:0:0:
103,192,87577,1,2,3:2:0:0:
290,225,97177,6,0,P|442:201|296:320,1,480,4|4,3:0|0:3,0:0:0:0:
142,263,99577,5,6,3:2:0:0:
76,204,99877,2,0,L|97:113,1,80,8|2,0:0|0:0,0:0:0:0:
79,39,100477,1,8,0:0:0:0:
163,64,100777,2,0,P|211:27|278:28,2,120,2|0|10,3:2|3:0|0:0,0:0:0:0:
239,108,101977,6,0,L|222:194,1,80,2|8,3:2|0:0,0:0:0:0:
208,273,102577,1,0,3:0:0:0:
279,323,102877,1,8,0:0:0:0:
357,283,103177,2,0,L|491:255,1,120,2|0,3:2|3:0,0:0:0:0:
433,133,104077,1,8,0:0:0:0:
355,92,104377,5,2,3:2:0:0:
268,110,104677,2,0,P|249:152|247:194,1,80,8|2,0:0|0:0,0:0:0:0:
243,273,105277,1,8,0:0:0:0:
171,323,105577,2,0,P|136:289|56:279,2,120,2|0|10,3:2|3:0|0:0,0:0:0:0:
246,375,106777,5,2,3:2:0:0:
369,327,107227,2,0,L|392:188,1,120,2|10,3:2|0:0,0:0:0:0:
449,145,107977,1,2,3:2:0:0:
104,71,109177,5,2,3:2:0:0:
38,129,109477,2,0,L|51:213,1,80,8|0,0:0|0:0,0:0:0:0:
111,271,110077,1,8,0:0:0:0:
171,207,110377,2,0,P|223:236|284:229,2,120,2|0|8,3:2|3:0|0:0,0:0:0:0:
240,153,111577,6,0,L|257:60,1,80,2|8,3:2|0:0,0:0:0:0:
317,12,112177,1,2,0:0:0:0:
402,31,112477,1,8,0:0:0:0:
418,117,112777,2,0,L|396:245,1,120,2|0,3:2|3:0,0:0:0:0:
374,365,113677,1,10,0:0:0:0:
293,322,113977,5,2,3:2:0:0:
214,362,114277,2,0,L|128:351,1,80,8|2,0:0|0:0,0:0:0:0:
140,264,114877,1,8,0:0:0:0:
70,209,115177,2,0,P|26:257|15:320,2,120,2|2|10,3:2|3:2|0:0,0:0:0:0:
150,173,116377,5,2,3:2:0:0:
262,37,116977,2,0,L|388:18,1,120,2|2,3:2|3:2,0:0:0:0:
458,59,117727,2,0,P|481:90|488:136,1,80,0|2,3:0|3:2,0:0:0:0:
447,207,118327,1,0,3:0:0:0:
347,284,118777,6,0,L|251:271,1,80,2|8,3:2|0:0,0:0:0:0:
209,339,119377,1,2,3:2:0:0:
136,289,119677,1,8,0:0:0:0:
68,349,119977,2,0,P|48:298|50:267,1,80,0|8,0:0|0:0,0:0:0:0:
10,194,120577,2,0,P|48:154|77:144,1,80,2|8,0:0|0:0,0:0:0:0:
145,193,121177,6,0,P|240:219|252:92,1,240,2|2,3:2|0:0,0:0:0:0:
337,53,122377,2,0,P|410:32|419:130,1,200,2|0,3:2|3:0,0:0:0:0:
344,237,123577,6,0,L|326:329,1,80,6|8,3:2|0:0,0:0:0:0:
253,361,124177,2,0,L|166:345,1,80,2|8,3:2|0:0,0:0:0:0:
89,370,124777,1,2,3:2:0:0:
108,284,125077,1,8,0:0:0:0:
23,308,125377,2,0,L|10:216,1,80,2|8,3:2|0:0,0:0:0:0:
46,148,125977,6,0,B|199:97|113:194|279:150,1,240,2|2,3:2|0:0,0:0:0:0:
333,83,127177,1,2,3:2:0:0:
483,174,127777,2,0,L|465:269,1,80,2|2,3:2|3:2,0:0:0:0:
402,311,128377,5,6,3:2:0:0:
316,289,128677,1,8,0:0:0:0:
239,331,128977,2,0,L|224:252,1,80,2|8,0:0|0:0,0:0:0:0:
259,171,129577,1,2,3:2:0:0:
187,119,129877,2,0,L|98:141,2,80,8|2|8,0:0|0:0|0:0,0:0:0:0:
242,50,130777,6,0,P|328:52|378:182,1,240,2|2,3:2|0:0,0:0:0:0:
318,244,131977,2,0,P|232:246|182:376,1,240,0|2,3:2|3:2,0:0:0:0:
269,365,133177,6,0,L|356:352,1,80,6|8,3:2|0:0,0:0:0:0:
402,283,133777,2,0,P|452:313|482:375,2,120,2|2|8,0:0|0:0|0:0,0:0:0:0:
318,244,134977,2,0,L|334:155,1,80,2|8,0:0|0:0,0:0:0:0:
368,85,135577,5,10,3:2:0:0:
293,37,135877,1,8,0:0:0:0:
226,94,136177,2,0,L|145:115,1,80,8|8,0:0|0:0,0:0:0:0:
96,43,136777,2,0,P|63:92|62:151,1,120,6|6,3:2|0:0,0:0:0:0:
134,202,137527,1,6,0:0:0:0:
107,331,137977,1,6,3:2:0:0:
34,185,147577,6,0,P|99:140|179:162,1,160,2|8,3:2|0:1,0:0:0:0:
284,294,148777,2,0,L|275:377,2,80,2|2|8,3:2|0:0|0:1,0:0:0:0:
351,236,149677,1,2,0:0:0:0:
435,263,149977,6,0,L|456:94,1,160,2|8,3:2|0:1,0:0:0:0:
296,26,151177,2,0,L|281:119,1,80,2|0,3:2|0:0,0:0:0:0:
238,180,151777,1,8,0:1:0:0:
170,122,152077,1,8,0:1:0:0:
84,142,152377,6,0,P|41:196|42:287,1,160,2|8,3:2|0:1,0:0:0:0:
200,358,153577,2,0,L|369:332,1,160,2|0,3:2|0:0,0:0:0:0:
441,362,154477,1,2,0:0:0:0:
472,279,154777,2,0,P|407:155|292:248,1,320,2|2,3:2|3:2,0:0:0:0:
20,31,157177,5,6,3:2:0:0:
92,80,157477,2,0,L|175:66,1,80,8|0,0:0|0:0,0:0:0:0:
246,21,158077,1,8,0:0:0:0:
333,33,158377,2,0,P|383:65|402:131,2,120,2|2|8,3:2|3:2|0:0,0:0:0:0:
311,118,159577,6,0,L|291:214,1,80,2|8,3:2|0:0,0:0:0:0:
351,263,160177,1,0,3:0:0:0:
276,310,160477,1,8,0:0:0:0:
217,244,160777,2,0,L|82:272,1,120,2|0,3:2|3:0,0:0:0:0:
30,155,161677,1,8,0:0:0:0:
82,84,161977,5,2,3:2:0:0:
160,124,162277,2,0,L|250:105,1,80,8|0,0:0|0:0,0:0:0:0:
301,168,162877,1,8,0:0:0:0:
235,227,163177,2,0,P|178:251|144:313,2,120,2|2|8,3:2|3:2|0:0,0:0:0:0:
317,259,164377,5,2,3:2:0:0:
451,145,164977,2,0,L|466:61,1,80,0|8,3:0|0:0,0:0:0:0:
391,17,165577,1,2,3:2:0:0:
305,38,165877,2,0,L|290:122,1,80,8|0,0:0|0:0,0:0:0:0:
244,191,166477,1,8,0:0:0:0:
172,140,166777,5,2,3:2:0:0:
93,179,167077,2,0,L|81:94,2,80,8|0|8,0:0|0:0|0:0,0:0:0:0:
161,233,167977,2,0,P|118:286|115:351,2,120,2|2|8,3:2|3:2|0:0,0:0:0:0:
227,293,169177,6,0,L|325:276,1,80,2|8,3:2|0:0,0:0:0:0:
353,353,169777,2,0,L|431:339,1,80,0|8,0:0|0:0,0:0:0:0:
472,261,170377,2,0,L|492:129,1,120,2|2,3:2|3:2,0:0:0:0:
388,58,171277,1,8,0:0:0:0:
316,109,171577,5,2,3:2:0:0:
237,69,171877,2,0,L|152:85,1,80,8|0,0:0|0:0,0:0:0:0:
89,29,172477,1,8,0:0:0:0:
50,107,172777,2,0,L|59:196,1,80,2|8,3:2|0:0,0:0:0:0:
122,246,173377,2,0,L|131:335,1,80,0|8,3:0|0:0,0:0:0:0:
208,364,173977,6,0,P|268:314|350:330,1,160,2|0,3:2|0:0,0:0:0:0:
423,364,174877,2,0,L|443:226,1,120,8|2,0:0|3:2,0:0:0:0:
455,158,175627,1,2,3:2:0:0:
255,65,176377,6,0,P|194:117|105:102,1,160,6|0,3:2|0:0,0:0:0:0:
36,78,177277,1,8,0:0:0:0:
38,165,177577,2,0,L|46:254,1,80,2|8,3:2|0:0,0:0:0:0:
75,327,178177,2,0,L|160:309,1,80,0|8,0:0|0:0,0:0:0:0:
203,238,178777,6,0,P|280:239|329:322,1,160,2|0,3:2|0:0,0:0:0:0:
400,349,179677,1,8,0:0:0:0:
466,290,179977,2,0,L|482:207,1,80,2|8,3:2|0:0,0:0:0:0:
417,150,180577,2,0,L|433:67,1,80,0|8,0:0|0:0,0:0:0:0:
351,36,181177,6,0,P|306:78|201:71,1,160,2|0,3:2|0:0,0:0:0:0:
132,38,182077,1,8,0:0:0:0:
91,116,182377,2,0,L|4:136,2,80,2|8|0,3:2|0:0|0:0,0:0:0:0:
160,170,183277,1,8,0:0:0:0:
84,215,183577,6,0,L|64:294,1,80,2|8,3:2|0:0,0:0:0:0:
141,334,184177,2,0,L|161:255,1,80,0|8,0:0|0:0,0:0:0:0:
240,219,184777,2,0,P|317:223|382:161,1,160,2|0,3:2|0:0,0:0:0:0:
412,90,185677,1,8,0:0:0:0:
348,28,185977,6,0,L|250:46,1,80,2|8,3:2|0:0,0:0:0:0:
204,101,186577,2,0,L|125:86,1,80,0|8,0:0|0:0,0:0:0:0:
50,40,187177,2,0,L|20:202,1,160,2|0,3:2|0:0,0:0:0:0:
97,240,188077,1,8,0:0:0:0:
176,201,188377,6,0,L|270:181,1,80,2|8,3:2|0:0,0:0:0:0:
317,122,188977,2,0,L|395:136,1,80,0|8,0:0|0:0,0:0:0:0:
473,177,189577,2,0,L|448:345,1,160,2|0,3:2|0:0,0:0:0:0:
363,356,190477,1,8,0:0:0:0:
289,306,190777,6,0,P|211:303|149:359,1,160,2|0,3:2|0:0,0:0:0:0:
70,319,191677,1,8,0:0:0:0:
48,233,191977,2,0,L|62:144,1,80,2|8,3:2|0:0,0:0:0:0:
119,88,192577,2,0,L|202:64,1,80,0|8,0:0|0:0,0:0:0:0:
281,47,193177,6,0,P|420:97|292:186,1,360,6|2,3:2|3:2,0:0:0:0:
219,169,194827,2,0,L|203:272,1,80,2|2,3:2|3:2,0:0:0:0:
256,370,195577,1,2,3:2:0:0:
