osu file format v14

[General]
AudioFilename: audio.mp3
AudioLeadIn: 0
PreviewTime: 20349
Countdown: 0
SampleSet: Soft
StackLeniency: 0.2
Mode: 0
LetterboxInBreaks: 0
WidescreenStoryboard: 0

[Editor]
Bookmarks: 156819
DistanceSpacing: 0.8
BeatDivisor: 8
GridSize: 32
TimelineZoom: 3.5

[Metadata]
Title:Monolithia
TitleUnicode:Monolithia
Artist:Fractal Dreamers
ArtistUnicode:Fractal Dreamers
Creator:Yugu
Version:Extra
Source:osu!
Tags:featured artist mappers' guild Hey_lululu Hey lululu Present AngelSnow Pata-mon
BeatmapID:2055981
BeatmapSetID:982375

[Difficulty]
HPDrainRate:5.5
CircleSize:5
OverallDifficulty:8.3
ApproachRate:9
SliderMultiplier:1.6
SliderTickRate:1

[Events]
//Background and Video events
0,0,"215125.jpg",0,0
//Break Periods
2,124176,134808
2,167124,176429
//Storyboard Layer 0 (Background)
//Storyboard Layer 1 (Fail)
//Storyboard Layer 2 (Pass)
//Storyboard Layer 3 (Foreground)
//Storyboard Layer 4 (Overlay)
//Storyboard Sound Samples

[TimingPoints]
218,315.789473684211,4,2,1,30,1,0
218,-200,4,2,1,30,0,0
2744,-200,4,2,1,35,0,0
5270,-200,4,2,1,40,0,0
7796,-200,4,2,1,45,0,0
10323,-200,4,2,1,50,0,0
12849,-200,4,2,1,55,0,0
15375,-200,4,2,1,60,0,0
17902,-200,4,2,1,65,0,0
20398,315.789473684211,4,2,1,70,1,0
40608,-182.481751824818,4,2,1,70,0,0
40687,-182.481751824818,4,2,1,5,0,0
50713,-100,4,2,1,70,0,0
60819,-200,4,2,1,40,0,0
70924,-100,4,2,1,70,0,0
91134,-232.558139534884,4,2,1,70,0,0
92240,-232.558139534884,4,2,1,5,0,0
92398,-232.558139534884,4,2,1,15,0,0
92476,-232.558139534884,4,2,1,15,0,0
93582,-232.558139534884,4,2,1,5,0,0
93661,-100,4,2,1,60,0,0
103766,-100,4,2,1,70,0,0
113240,-133.333333333333,4,2,1,60,0,0
113871,-100,4,2,1,60,0,0
136608,-100,4,2,1,50,0,0
136924,-83.3333333333333,4,2,1,50,0,0
137240,-100,4,2,1,50,0,0
137556,-83.3333333333333,4,2,1,50,0,0
137871,-100,4,2,1,50,0,0
138187,-83.3333333333333,4,2,1,50,0,0
138503,-100,4,2,1,50,0,0
139134,-100,4,2,1,50,0,0
139450,-83.3333333333333,4,2,1,50,0,0
139766,-100,4,2,1,50,0,0
140082,-83.3333333333333,4,2,1,50,0,0
140398,-100,4,2,1,50,0,0
140713,-83.3333333333333,4,2,1,50,0,0
141029,-100,4,2,1,50,0,0
141661,-100,4,2,1,50,0,0
141976,-83.3333333333333,4,2,1,50,0,0
142292,-100,4,2,1,50,0,0
142607,-83.3333333333333,4,2,1,50,0,0
142924,-100,4,2,1,50,0,0
143239,-83.3333333333333,4,2,1,50,0,0
143555,-100,4,2,1,50,0,0
144187,-100,4,2,1,50,0,0
144502,-83.3333333333333,4,2,1,50,0,0
144819,-100,4,2,1,50,0,0
145134,-83.3333333333333,4,2,1,50,0,0
145450,-200,4,2,1,50,0,0
146634,-200,4,2,1,5,0,0
146713,-100,4,2,1,70,0,0
161871,-100,4,2,1,80,0,0
177029,-100,4,2,1,70,0,0

[Colours]
Combo1 : 250,140,67
Combo2 : 248,204,90
Combo3 : 241,175,109

[HitObjects]
95,80,218,6,0,L|101:130,1,40,2|0,0:0|0:0,0:0:0:0:
171,87,533,2,0,L|177:137,1,40
270,210,849,2,0,L|276:160,1,40,2|0,0:0|0:0,0:0:0:0:
346,203,1165,2,0,L|352:151,1,40
454,34,1481,6,0,L|497:27,1,40,2|0,0:0|0:0,0:0:0:0:
467,105,1796,2,0,L|510:98,1,40
385,209,2112,2,0,L|342:202,1,40,2|0,0:0|0:0,0:0:0:0:
372,280,2428,2,0,L|329:273,1,40
158,362,2744,6,0,L|115:355,1,40,2|0,0:0|0:0,0:0:0:0:
219,296,3060,2,0,L|262:289,1,40
137,249,3375,2,0,L|94:242,1,40,2|0,0:0|0:0,0:0:0:0:
198,183,3691,2,0,L|241:176,1,40
286,45,4007,6,0,L|273:89,1,40,2|0,0:0|0:0,0:0:0:0:
320,154,4323,2,0,L|364:167,1,40
395,11,4639,2,0,L|351:-2,1,40,2|0,0:0|0:0,0:0:0:0:
429,120,4955,2,0,L|442:76,1,40
216,21,5270,6,0,P|188:46|179:63,1,40,2|0,0:0|0:0,0:0:0:0:
111,46,5586,2,0,P|99:81|99:100,1,40
32,120,5902,2,0,P|39:156|49:173,1,40,2|0,0:0|0:0,0:0:0:0:
0,223,6218,2,0,P|25:250|42:260,1,40
162,303,6533,6,0,P|150:338|150:357,1,40,2|0,0:0|0:0,0:0:0:0:
267,270,6849,2,0,P|239:295|230:312,1,40
374,293,7165,2,0,P|337:300|320:310,1,40,2|0,0:0|0:0,0:0:0:0:
455,366,7481,2,0,P|419:354|400:354,1,40
479,214,7796,6,0,L|488:161,1,40,2|0,0:0|0:0,0:0:0:0:
421,89,8112,2,0,L|430:142,1,40
371,224,8428,2,0,L|380:171,1,40,2|0,0:0|0:0,0:0:0:0:
313,79,8744,2,0,L|322:132,1,40
263,234,9060,6,0,L|272:181,1,40,2|0,0:0|0:0,0:0:0:0:
205,69,9375,2,0,L|214:122,1,40
155,244,9691,2,0,L|164:191,1,40,2|0,0:0|0:0,0:0:0:0:
97,59,10007,2,0,L|106:112,1,40
53,214,10323,6,0,L|47:254,1,40,2|0,0:0|0:0,0:0:0:0:
100,313,10639,1,0,0:0:0:0:
103,317,10718,1,0,0:0:0:0:
106,321,10796,1,0,0:0:0:0:
109,325,10875,1,0,0:0:0:0:
113,329,10954,2,0,L|118:355,3,20,2|0|0|0,0:0|0:0|0:0|0:0,0:0:0:0:
195,312,11270,2,0,L|190:338,3,20
264,354,11586,5,2,0:0:0:0:
269,355,11665,1,0,0:0:0:0:
274,356,11744,1,0,0:0:0:0:
279,357,11823,1,0,0:0:0:0:
284,358,11902,1,0,0:0:0:0:
289,359,11981,1,0,0:0:0:0:
294,360,12060,1,0,0:0:0:0:
299,361,12139,1,0,0:0:0:0:
304,362,12218,6,0,L|325:360,3,20,2|0|0|0,0:0|0:0|0:0|0:0,0:0:0:0:
352,284,12533,2,0,L|364:301,3,20
443,273,12849,5,2,0:0:0:0:
444,267,12928,1,0,0:0:0:0:
445,261,13007,1,0,0:0:0:0:
446,255,13086,1,0,0:0:0:0:
447,249,13165,1,0,0:0:0:0:
448,243,13244,1,0,0:0:0:0:
449,237,13323,1,0,0:0:0:0:
450,231,13402,1,0,0:0:0:0:
451,225,13481,6,0,L|456:194,3,20,2|0|0|0,0:0|0:0|0:0|0:0,0:0:0:0:
389,143,13796,2,0,L|392:162,3,20
340,214,14112,5,2,0:0:0:0:
334,213,14191,1,0,0:0:0:0:
328,212,14270,1,0,0:0:0:0:
239,149,14428,2,0,L|194:155,1,40
148,254,14744,5,2,0:0:0:0:
154,255,14823,1,0,0:0:0:0:
160,256,14902,1,0,0:0:0:0:
93,189,15060,1,0,0:0:0:0:
87,190,15139,1,0,0:0:0:0:
81,191,15218,1,0,0:0:0:0:
125,77,15375,6,0,P|134:106|134:132,1,40,2|0,0:0|0:0,0:0:0:0:
25,84,15691,1,0,0:0:0:0:
23,78,15770,1,0,0:0:0:0:
22,72,15849,1,0,0:0:0:0:
22,66,15928,1,0,0:0:0:0:
23,60,16007,2,0,L|29:29,3,20,2|0|0|0,0:0|0:0|0:0|0:0,0:0:0:0:
96,5,16323,2,0,L|138:1,1,40
262,64,16639,6,0,L|222:67,1,40,2|0,0:0|0:0,0:0:0:0:
335,11,16954,1,0,0:0:0:0:
337,16,17033,1,0,0:0:0:0:
339,21,17112,1,0,0:0:0:0:
401,90,17270,1,2,0:0:0:0:
403,85,17349,1,0,0:0:0:0:
405,80,17428,1,0,0:0:0:0:
324,133,17586,2,0,L|284:136,1,40
376,225,17902,6,0,P|390:259|392:270,1,40,2|0,0:0|0:0,0:0:0:0:
468,301,18218,2,0,P|445:330|437:337,1,40
264,363,18533,1,8,0:3:0:0:
342,380,18691,1,0,0:0:0:0:
262,274,18849,6,0,L|209:289,1,40
147,232,19165,2,0,L|133:285,1,40,2|0,0:0|0:0,0:0:0:0:
53,310,19481,1,0,0:0:0:0:
53,310,19639,1,0,0:0:0:0:
113,158,19796,5,2,0:0:0:0:
45,114,19954,1,0,0:0:0:0:
41,195,20112,1,0,0:0:0:0:
113,158,20270,1,0,0:0:0:0:
113,158,20398,6,0,L|120:104,1,40,8|0,0:3|0:0,0:0:0:0:
169,57,20555,2,0,L|163:17,1,40,2|0,3:0|0:0,0:0:0:0:
237,97,20713,2,0,L|329:86,1,80,0|8,1:0|0:3,0:0:0:0:
409,29,21029,2,0,P|423:70|392:159,1,120
379,174,21345,2,0,P|365:215|396:304,1,120,0|0,1:0|0:0,0:0:0:0:
411,316,21661,5,0,0:0:0:0:
292,270,21819,1,2,3:0:0:0:
277,272,21897,1,0,0:0:0:0:
261,275,21976,1,0,1:0:0:0:
209,338,22134,1,0,0:0:0:0:
193,229,22293,1,0,0:0:0:0:
163,225,22371,1,0,1:0:0:0:
131,219,22450,1,2,3:0:0:0:
53,245,22608,2,0,P|51:206|74:159,1,80,0|2,1:0|3:0,0:0:0:0:
74,73,22924,6,0,L|114:80,1,40,8|0,0:3|0:0,0:0:0:0:
181,36,23082,2,0,L|243:26,1,40,2|0,3:0|0:0,0:0:0:0:
299,18,23240,2,0,L|284:117,1,80,0|8,1:0|0:3,0:0:0:0:
227,166,23555,2,0,P|261:185|300:189,1,80,0|2,0:0|3:0,0:0:0:0:
378,132,23871,2,0,P|412:112|451:108,1,80,0|2,1:0|3:0,0:0:0:0:
435,187,24187,5,0,0:0:0:0:
373,260,24345,2,0,L|326:255,2,40,2|0|0,3:0|0:0|1:0,0:0:0:0:
312,339,24661,1,0,0:0:0:0:
384,332,24819,2,0,L|431:327,2,40,0|0|8,0:0|1:0|0:3,0:0:0:0:
247,296,25134,2,0,P|237:334|244:376,1,80,0|2,1:0|3:0,0:0:0:0:
267,220,25450,6,0,L|220:215,1,40,8|0,0:3|0:0,0:0:0:0:
146,206,25608,2,0,L|99:201,1,40,2|0,3:0|0:0,0:0:0:0:
0,236,25766,2,0,L|47:231,1,40,0|0,1:0|0:0,0:0:0:0:
121,222,25924,2,0,L|168:217,1,40,8|0,0:3|0:0,0:0:0:0:
197,94,26082,6,0,L|192:47,1,40
98,21,26240,2,0,L|103:68,1,40,2|0,3:0|0:0,0:0:0:0:
211,81,26398,2,0,L|206:34,1,40,0|0,1:0|0:0,0:0:0:0:
84,34,26556,2,0,L|89:81,1,40,2|0,3:0|0:0,0:0:0:0:
5,150,26713,6,0,L|14:239,1,80,0|2,0:0|3:0,0:0:0:0:
111,317,27029,2,0,L|120:227,1,80,0|0,1:0|0:0,0:0:0:0:
215,120,27345,2,0,L|209:64,2,40,0|0|2,0:0|1:0|3:0,0:0:0:0:
198,248,27661,1,0,1:0:0:0:
277,259,27819,1,2,3:0:0:0:
408,188,27976,6,0,L|338:197,1,40,8|0,0:3|0:0,0:0:0:0:
288,180,28134,2,0,L|218:189,1,40,2|0,3:0|0:0,0:0:0:0:
227,322,28292,1,0,1:0:0:0:
292,260,28450,5,8,0:3:0:0:
308,262,28528,1,0,0:0:0:0:
324,264,28607,1,0,0:0:0:0:
440,184,28766,5,2,3:0:0:0:
424,186,28844,1,0,0:0:0:0:
408,188,28923,1,0,1:0:0:0:
492,111,29082,1,2,3:0:0:0:
461,265,29240,6,0,P|457:287|458:323,1,40,2|0,3:0|0:0,0:0:0:0:
394,382,29398,2,0,P|393:362|389:342,1,40,2|0,3:0|0:0,0:0:0:0:
327,186,29555,2,0,L|343:82,1,80,0|0,1:0|0:0,0:0:0:0:
257,28,29871,5,2,3:0:0:0:
241,24,29950,1,0,1:0:0:0:
224,23,30029,1,2,3:0:0:0:
208,26,30108,1,0,0:0:0:0:
185,48,30187,1,0,1:0:0:0:
169,52,30266,1,0,0:0:0:0:
152,53,30345,1,2,3:0:0:0:
136,50,30424,1,0,0:0:0:0:
111,29,30503,6,0,L|121:91,1,40,8|0,0:3|0:0,0:0:0:0:
70,134,30661,2,0,L|80:196,1,40,2|0,3:0|0:0,0:0:0:0:
131,232,30819,2,0,L|114:337,1,80,0|8,1:0|0:3,0:0:0:0:
224,274,31134,2,0,P|257:252|296:245,1,80,0|2,0:0|3:0,0:0:0:0:
404,176,31450,2,0,P|364:168|331:147,1,80,0|2,1:0|3:0,0:0:0:0:
310,69,31766,5,0,0:0:0:0:
418,42,31924,1,2,3:0:0:0:
474,140,32082,2,0,P|481:186|468:223,1,80,0|0,1:0|0:0,0:0:0:0:
363,295,32398,5,0,0:0:0:0:
348,293,32476,1,0,1:0:0:0:
333,290,32555,1,2,3:0:0:0:
318,287,32634,1,0,0:0:0:0:
303,284,32713,2,0,L|296:243,3,40,0|0|2|0,1:0|0:0|3:0|0:0,0:0:0:0:
230,196,33029,6,0,L|179:185,1,40,8|0,0:3|0:0,0:0:0:0:
153,115,33187,2,0,L|103:130,1,40,2|0,3:0|0:0,0:0:0:0:
45,83,33345,2,0,L|26:161,1,80,0|8,1:0|0:3,0:0:0:0:
79,221,33661,2,0,P|102:252|116:290,1,80,0|2,0:0|3:0,0:0:0:0:
110,370,33976,2,0,P|149:362|180:339,1,80,0|2,1:0|3:0,0:0:0:0:
37,296,34292,5,0,0:0:0:0:
182,243,34450,1,2,3:0:0:0:
85,141,34608,2,0,L|77:243,1,80,0|0,1:0|0:0,0:0:0:0:
198,256,34924,5,0,0:0:0:0:
213,254,35003,1,0,1:0:0:0:
228,252,35082,1,2,3:0:0:0:
243,250,35161,1,0,0:0:0:0:
258,248,35240,2,0,L|315:239,3,40,8|0|2|0,1:3|0:0|3:0|0:0,0:0:0:0:
350,181,35555,6,0,P|352:161|350:141,1,40,8|0,0:3|0:0,0:0:0:0:
426,112,35713,2,0,P|417:93|406:77,1,40,2|0,3:0|0:0,0:0:0:0:
459,10,35871,2,0,L|380:0,1,80,0|8,1:0|0:3,0:0:0:0:
330,65,36187,2,0,L|231:78,1,80,0|2,0:0|3:0,0:0:0:0:
180,36,36503,2,0,P|172:86|187:123,1,80,0|2,1:0|3:0,0:0:0:0:
248,157,36819,5,0,0:0:0:0:
337,80,36976,1,2,3:0:0:0:
171,17,37134,2,0,L|72:4,1,80,0|0,1:0|0:0,0:0:0:0:
44,110,37450,5,0,0:0:0:0:
53,123,37529,1,0,1:0:0:0:
61,136,37608,1,2,3:0:0:0:
68,150,37687,1,0,0:0:0:0:
73,165,37766,2,0,L|70:208,3,40,0|0|2|0,1:0|0:0|3:0|0:0,0:0:0:0:
157,111,38082,6,0,L|154:154,1,40,8|0,0:3|0:0,0:0:0:0:
148,231,38240,2,0,L|145:274,1,40,2|0,3:0|0:0,0:0:0:0:
192,336,38398,2,0,P|228:351|268:350,1,80,0|8,1:0|0:3,0:0:0:0:
338,312,38713,2,0,P|374:296|414:297,1,80,0|2,0:0|3:0,0:0:0:0:
500,343,39029,2,0,L|490:227,1,80,0|2,1:0|3:0,0:0:0:0:
437,145,39345,6,0,P|379:152|325:126,1,120,2|0,3:0|0:0,0:0:0:0:
305,91,39661,1,0,1:0:0:0:
395,54,39819,1,0,0:0:0:0:
253,30,39976,5,2,0:0:0:0:
242,41,40054,1,0,1:0:0:0:
233,55,40133,1,2,3:0:0:0:
228,70,40212,1,0,0:0:0:0:
226,86,40291,1,0,1:0:0:0:
226,102,40370,1,0,0:0:0:0:
230,117,40449,1,2,3:0:0:0:
237,132,40528,1,0,0:0:0:0:
247,145,40608,6,0,B|290:173|312:249|270:286|254:322|166:339|135:293|115:268|115:268|62:311|62:311|118:394|252:430|364:350|427:232|330:77|239:68|239:68|151:141|151:141|196:185|238:202|234:238|215:238|202:252|172:271|166:232|128:159|128:159|13:253|13:253|-10:225|-9:183|-9:183|206:8|206:8|290:-15|372:48|408:115|423:189|416:254|416:254|408:300|385:338|385:338|471:310|471:310|494:233|487:171|469:98|434:37|389:0,1,2761.92002022891,4|0,1:0|0:0,0:0:0:0:
505,13,50713,5,2,3:0:0:0:
487,91,50871,1,2,3:0:0:0:
385,136,51029,1,0,1:0:0:0:
403,214,51187,2,0,P|448:223|497:204,1,80
421,292,51503,1,2,3:0:0:0:
283,260,51661,1,0,1:0:0:0:
265,338,51819,2,0,P|220:347|171:328,1,80,2|0,3:0|0:0,0:0:0:0:
127,285,52134,5,2,3:0:0:0:
196,170,52292,1,0,1:0:0:0:
116,180,52450,1,0,0:0:0:0:
36,190,52608,1,0,0:0:0:0:
40,158,52687,1,0,1:0:0:0:
45,126,52766,1,2,3:0:0:0:
79,0,52924,2,0,P|83:37|104:72,1,80,0|2,1:0|3:0,0:0:0:0:
215,35,53240,5,2,3:0:0:0:
293,48,53398,1,2,3:0:0:0:
371,174,53555,1,0,1:0:0:0:
292,187,53713,2,0,P|277:223|281:263,1,80
351,303,54029,1,2,3:0:0:0:
197,281,54187,1,0,1:0:0:0:
147,344,54345,2,0,L|49:351,1,80,2|0,3:0|0:0,0:0:0:0:
14,288,54661,5,2,3:0:0:0:
101,178,54819,1,0,1:0:0:0:
76,102,54976,1,0,0:0:0:0:
154,118,55134,1,0,0:0:0:0:
186,118,55213,1,0,1:0:0:0:
215,106,55292,1,2,3:0:0:0:
319,46,55450,2,0,L|241:30,1,80,0|2,1:0|3:0,0:0:0:0:
304,124,55766,5,2,3:0:0:0:
319,46,55924,1,2,3:0:0:0:
383,187,56082,1,0,1:0:0:0:
460,205,56240,2,0,P|472:242|472:282,1,80
440,356,56555,1,2,3:0:0:0:
270,291,56713,1,0,1:0:0:0:
296,217,56871,2,0,P|328:239|347:273,1,80,2|0,3:0|0:0,0:0:0:0:
325,351,57187,5,2,3:0:0:0:
190,302,57345,1,0,1:0:0:0:
110,313,57503,1,0,0:0:0:0:
30,325,57661,1,0,0:0:0:0:
61,330,57740,1,0,1:0:0:0:
92,335,57819,1,2,3:0:0:0:
138,229,57976,2,0,P|134:189|106:147,1,80,0|2,1:0|3:0,0:0:0:0:
202,31,58292,5,2,3:0:0:0:
192,110,58450,1,2,3:0:0:0:
45,69,58608,1,0,1:0:0:0:
100,126,58766,2,0,P|119:91|122:51,1,80
202,31,59082,1,2,3:0:0:0:
366,120,59240,1,0,1:0:0:0:
288,139,59398,2,0,L|278:195,1,40,2|0,3:0|0:0,0:0:0:0:
366,120,59555,6,0,L|356:64,1,40,2|0,3:0|0:0,0:0:0:0:
415,182,59713,1,2,3:0:0:0:
446,187,59792,1,2,3:0:0:0:
477,192,59871,1,0,1:0:0:0:
354,205,60029,2,0,L|412:198,1,40,2|0,3:0|0:0,0:0:0:0:
477,192,60187,1,2,3:0:0:0:
442,311,60345,2,0,L|384:304,1,40,2|0,3:0|0:0,0:0:0:0:
319,298,60503,1,0,1:0:0:0:
512,264,60661,1,2,3:0:0:0:
256,218,60819,5,6,0:0:0:0:
232,222,60976,1,0,0:0:0:0:
208,226,61134,1,0,0:0:0:0:
184,230,61292,1,0,0:0:0:0:
121,272,61608,5,0,0:0:0:0:
97,268,61765,1,0,0:0:0:0:
73,264,61923,1,0,0:0:0:0:
26,188,62082,1,2,0:0:0:0:
26,188,62240,5,0,0:0:0:0:
50,184,62397,1,0,0:0:0:0:
74,180,62555,1,0,0:0:0:0:
121,104,62714,1,2,0:0:0:0:
121,104,62872,5,0,0:0:0:0:
97,100,63029,1,0,0:0:0:0:
73,96,63187,1,8,0:0:0:0:
26,20,63346,1,10,0:0:0:0:
26,20,63504,5,0,0:0:0:0:
50,16,63661,1,0,0:0:0:0:
74,12,63819,1,0,1:0:0:0:
164,35,63976,1,2,0:0:0:0:
164,35,64134,5,0,0:0:0:0:
188,31,64291,1,0,0:0:0:0:
212,27,64449,1,8,0:0:0:0:
290,72,64608,6,0,L|286:122,1,40,2|0,0:0|0:0,0:0:0:0:
218,141,64924,2,0,L|239:186,1,40
190,236,65240,2,0,L|231:264,1,40,2|0,1:2|1:0,0:0:0:0:
213,332,65555,2,0,L|263:336,1,40
324,377,65871,5,10,0:0:0:0:
347,371,66029,1,0,0:0:0:0:
370,365,66187,1,0,0:0:0:0:
393,360,66345,1,0,0:0:0:0:
442,284,66503,1,2,0:0:0:0:
442,284,66661,5,0,0:0:0:0:
419,278,66819,1,0,0:0:0:0:
396,273,66977,1,8,0:3:0:0:
347,197,67134,1,2,0:0:0:0:
347,197,67292,5,0,0:0:0:0:
370,191,67450,1,0,0:0:0:0:
393,186,67608,1,0,0:0:0:0:
442,110,67766,1,2,0:0:0:0:
442,110,67924,5,0,0:0:0:0:
419,104,68082,1,0,0:0:0:0:
396,99,68240,1,8,0:0:0:0:
347,23,68397,1,10,0:0:0:0:
347,23,68555,5,0,0:0:0:0:
324,28,68713,1,0,0:0:0:0:
301,34,68871,1,0,1:0:0:0:
205,15,69029,1,2,0:0:0:0:
205,15,69187,5,0,0:0:0:0:
182,20,69345,1,0,0:0:0:0:
159,26,69503,1,8,0:0:0:0:
114,108,69661,6,0,L|135:153,1,40,2|0,0:0|0:0,0:0:0:0:
86,203,69976,2,0,L|126:231,1,40
109,300,70292,2,0,L|158:303,1,40,2|0,1:2|1:0,0:0:0:0:
177,371,70608,2,0,L|222:349,1,40
319,262,70924,6,0,L|308:364,1,80,4|2,0:0|3:0,0:0:0:0:
462,322,71240,1,0,1:0:0:0:
500,237,71398,1,0,0:0:0:0:
476,215,71476,1,0,0:0:0:0:
447,201,71555,1,0,0:0:0:0:
416,195,71634,1,0,1:0:0:0:
384,197,71713,1,2,3:0:0:0:
302,130,71871,2,0,P|298:90|307:51,1,80,0|2,1:0|3:0,0:0:0:0:
184,11,72187,6,0,L|197:106,1,80,2|2,3:0|3:0,0:0:0:0:
76,194,72503,1,0,1:0:0:0:
165,245,72661,1,0,0:0:0:0:
195,238,72739,1,0,0:0:0:0:
227,238,72818,1,0,0:0:0:0:
258,248,72897,1,0,0:0:0:0:
285,265,72976,1,2,3:0:0:0:
377,355,73134,2,0,P|416:359|454:349,1,80,0|2,1:0|3:0,0:0:0:0:
254,340,73450,6,0,L|171:333,1,80,0|2,0:0|3:0,0:0:0:0:
363,252,73766,1,0,1:0:0:0:
308,174,73924,1,0,0:0:0:0:
306,142,74003,1,0,0:0:0:0:
304,110,74082,1,0,0:0:0:0:
302,78,74161,1,0,1:0:0:0:
300,46,74240,1,2,3:0:0:0:
393,75,74398,2,0,L|486:55,1,80,0|2,1:0|3:0,0:0:0:0:
224,11,74713,6,0,P|217:50|227:88,1,80,2|2,3:0|3:0,0:0:0:0:
60,120,75029,1,0,1:0:0:0:
147,178,75187,1,0,0:0:0:0:
145,210,75266,1,0,0:0:0:0:
143,242,75345,1,0,0:0:0:0:
141,274,75424,1,0,0:0:0:0:
139,306,75503,1,2,3:0:0:0:
266,281,75661,2,0,L|278:365,1,80,0|2,1:0|3:0,0:0:0:0:
387,381,75976,5,2,3:0:0:0:
387,381,76134,1,2,3:0:0:0:
439,309,76292,2,0,P|444:270|437:231,1,80,0|0,1:0|0:0,0:0:0:0:
416,206,76529,1,0,0:0:0:0:
385,199,76608,1,0,0:0:0:0:
354,193,76687,1,0,0:0:0:0:
323,187,76766,1,2,3:0:0:0:
440,113,76924,1,0,1:0:0:0:
312,71,77082,1,0,3:0:0:0:
373,15,77240,5,2,3:0:0:0:
373,15,77398,1,2,3:0:0:0:
285,6,77555,2,0,P|254:31|240:68,1,80,0|0,1:0|0:0,0:0:0:0:
245,100,77792,1,0,0:0:0:0:
248,131,77871,1,0,0:0:0:0:
251,162,77950,1,0,1:0:0:0:
255,193,78029,1,2,3:0:0:0:
137,263,78187,1,0,1:0:0:0:
220,292,78345,1,2,3:0:0:0:
153,350,78503,5,2,3:0:0:0:
153,350,78661,1,2,3:0:0:0:
232,313,78819,2,0,L|320:317,1,80,0|0,1:0|0:0,0:0:0:0:
339,333,79055,1,0,0:0:0:0:
369,343,79134,1,0,0:0:0:0:
401,342,79213,1,0,1:0:0:0:
429,327,79292,1,2,3:0:0:0:
379,248,79450,1,0,1:0:0:0:
503,224,79608,1,2,3:0:0:0:
435,167,79766,6,0,L|431:119,1,40,2|0,3:0|0:0,0:0:0:0:
502,56,79924,2,0,L|498:104,1,40,2|0,3:0|0:0,0:0:0:0:
375,77,80082,1,0,1:0:0:0:
305,22,80240,1,0,0:0:0:0:
273,27,80319,1,0,0:0:0:0:
241,32,80398,1,0,0:0:0:0:
209,37,80476,1,0,1:0:0:0:
177,42,80555,1,2,0:0:0:0:
104,136,80713,2,0,P|94:174|102:213,1,80,0|2,1:0|3:0,0:0:0:0:
217,255,81029,5,0,0:0:0:0:
217,255,81187,1,2,3:0:0:0:
168,329,81345,2,0,L|72:318,1,80,0|0,1:0|0:0,0:0:0:0:
69,293,81582,1,0,0:0:0:0:
65,261,81661,1,0,0:0:0:0:
76,231,81740,1,0,1:0:0:0:
102,213,81819,1,2,3:0:0:0:
241,263,81976,2,0,L|337:252,1,80,0|2,1:0|3:0,0:0:0:0:
393,352,82292,5,2,3:0:0:0:
393,352,82450,1,2,3:0:0:0:
446,282,82608,2,0,P|446:242|463:203,1,80,0|0,1:0|0:0,0:0:0:0:
478,177,82845,1,0,0:0:0:0:
486,146,82924,1,0,0:0:0:0:
485,113,83003,1,0,0:0:0:0:
474,82,83082,1,2,3:0:0:0:
350,51,83240,2,0,P|305:37|267:3,1,80,0|2,1:0|3:0,0:0:0:0:
220,146,83555,6,0,L|124:166,1,80,2|2,3:0|3:0,0:0:0:0:
84,313,83871,1,0,1:0:0:0:
0,284,84029,1,0,0:0:0:0:
15,257,84107,1,0,0:0:0:0:
39,236,84186,1,0,0:0:0:0:
69,225,84265,1,0,1:0:0:0:
100,225,84344,1,2,3:0:0:0:
218,291,84503,2,0,P|257:296|293:281,1,80,0|2,1:0|3:0,0:0:0:0:
403,183,84819,6,0,P|363:177|327:192,1,80,2|2,3:0|3:0,0:0:0:0:
421,267,85134,1,0,1:0:0:0:
486,209,85292,1,0,0:0:0:0:
482,177,85371,1,0,0:0:0:0:
479,145,85450,1,0,0:0:0:0:
476,113,85529,1,0,0:0:0:0:
473,81,85608,1,2,3:0:0:0:
352,17,85766,2,0,L|267:35,1,80,0|2,0:0|3:0,0:0:0:0:
144,120,86082,5,2,3:0:0:0:
199,51,86240,1,2,3:0:0:0:
112,38,86398,1,0,1:0:0:0:
154,113,86555,1,0,0:0:0:0:
102,31,86713,5,0,0:0:0:0:
57,118,86871,1,2,3:0:0:0:
109,200,87029,1,0,1:0:0:0:
65,107,87187,1,0,0:0:0:0:
101,211,87345,6,0,P|99:254|92:298,1,80,2|2,3:0|3:0,0:0:0:0:
207,281,87661,2,0,P|187:319|171:360,1,80,0|0,1:0|0:0,0:0:0:0:
317,354,87976,2,0,L|281:371,2,40,0|0|2,0:0|1:0|3:0,0:0:0:0:
366,253,88292,2,0,P|404:263|436:287,1,80,0|2,1:0|3:0,0:0:0:0:
366,148,88608,5,2,3:0:0:0:
348,234,88766,1,2,3:0:0:0:
369,45,88924,1,0,1:0:0:0:
387,131,89082,1,0,0:0:0:0:
250,69,89240,1,0,0:0:0:0:
250,69,89319,1,0,1:0:0:0:
250,69,89398,1,2,3:0:0:0:
279,156,89555,1,0,1:0:0:0:
353,50,89713,1,2,0:0:0:0:
172,29,89871,6,0,L|115:14,1,40,2|0,3:0|0:0,0:0:0:0:
151,98,90029,2,0,L|94:83,1,40,2|0,3:0|0:0,0:0:0:0:
55,166,90187,2,0,L|112:151,1,40,0|0,1:0|0:0,0:0:0:0:
76,235,90345,2,0,L|133:220,1,40,2|0,3:0|0:0,0:0:0:0:
143,330,90503,5,2,3:0:0:0:
180,344,90582,1,2,3:0:0:0:
219,342,90661,1,2,3:2:0:0:
253,322,90740,1,2,3:0:0:0:
266,302,90819,5,2,3:0:0:0:
289,299,90898,1,2,3:0:0:0:
312,297,90976,1,2,3:0:0:0:
335,295,91055,1,2,3:0:0:0:
333,367,91134,6,0,P|405:288|321:223,1,240.800003674316,2|0,0:0|0:0,0:0:0:0:
335,295,92398,2,2,B|280:294|280:294|265:306|265:306|224:292|224:292|213:300|213:300|172:302|172:302|159:311|159:311|86:315,1,258.000003936768,0|0,0:0|0:0,1:0:0:0:
26,268,93661,6,0,P|20:229|31:191,1,80,2|0,3:0|0:0,0:0:0:0:
111,176,93976,2,0,P|105:137|116:99,1,80,2|0,3:0|0:0,0:0:0:0:
199,89,94292,2,0,P|193:50|204:12,1,80,2|0,3:0|0:0,0:0:0:0:
256,136,94608,5,2,1:2:0:0:
256,148,94687,1,0,1:0:0:0:
256,160,94766,1,0,1:0:0:0:
256,172,94845,1,0,1:0:0:0:
313,89,94924,6,0,P|319:50|308:12,1,80,2|0,3:0|0:0,0:0:0:0:
401,176,95240,2,0,P|407:137|396:99,1,80,2|0,3:0|0:0,0:0:0:0:
486,268,95555,2,0,P|492:229|481:191,3,80,2|0|2|0,3:0|1:0|3:0|1:0,0:0:0:0:
409,320,96187,6,0,L|327:341,1,80,2|0,3:0|0:0,0:0:0:0:
103,320,96503,2,0,L|185:341,1,80,2|0,3:0|0:0,0:0:0:0:
256,208,96819,2,0,L|256:288,1,80,2|0,3:0|0:0,0:0:0:0:
238,138,97134,5,2,1:2:0:0:
250,136,97213,1,0,1:0:0:0:
262,136,97292,1,0,1:0:0:0:
274,138,97371,1,0,1:0:0:0:
256,208,97450,5,2,3:0:0:0:
183,82,97608,1,0,0:0:0:0:
329,82,97766,1,0,1:0:0:0:
256,280,97924,1,2,3:0:0:0:
151,206,98082,2,0,L|107:206,1,40,0|0,1:0|0:0,0:0:0:0:
361,206,98240,2,0,L|405:206,1,40,0|0,1:0|0:0,0:0:0:0:
256,280,98398,5,2,0:0:0:0:
256,303,98476,2,0,L|227:294,1,20,0|0,1:0|1:0,0:0:0:0:
256,327,98555,1,0,1:0:0:0:
256,351,98634,2,0,L|285:342,1,20,0|0,1:0|1:0,0:0:0:0:
256,375,98713,5,2,1:2:0:0:
145,359,98871,1,0,0:0:0:0:
27,365,99029,5,2,3:0:0:0:
138,349,99187,1,0,0:0:0:0:
300,308,99345,5,2,3:0:0:0:
400,284,99503,1,0,0:0:0:0:
307,298,99661,2,0,L|239:282,1,40,2|0,1:2|1:0,0:0:0:0:
407,274,99819,2,0,L|339:258,1,40,0|0,1:0|1:0,0:0:0:0:
256,192,99976,5,2,3:0:0:0:
296,105,100134,1,0,0:0:0:0:
256,192,100292,1,2,3:0:0:0:
343,232,100450,1,0,0:0:0:0:
216,279,100608,5,2,3:0:0:0:
296,105,100766,1,0,1:0:0:0:
343,232,100924,1,2,3:0:0:0:
169,152,101082,1,0,1:0:0:0:
177,9,101240,6,0,P|204:37|216:74,1,80,2|0,3:0|0:0,0:0:0:0:
92,150,101555,2,0,P|103:112|131:83,1,80,2|0,3:0|0:0,0:0:0:0:
254,211,101871,2,0,P|243:248|217:277,1,80,2|0,3:0|0:0,0:0:0:0:
69,245,102187,1,2,1:2:0:0:
57,243,102266,1,0,1:0:0:0:
45,241,102345,1,0,1:0:0:0:
33,239,102424,1,0,1:0:0:0:
96,224,102503,6,0,L|200:211,2,80,2|0|0,3:0|0:0|0:0,0:0:0:0:
21,357,102976,1,2,3:0:0:0:
107,305,103134,2,0,L|116:384,1,80
24,166,103450,1,2,3:0:0:0:
96,224,103608,1,0,0:0:0:0:
146,114,103766,6,0,L|224:100,1,80,6|0,0:0|0:0,0:0:0:0:
385,145,104082,2,0,L|306:158,1,80,2|0,3:0|0:0,0:0:0:0:
281,10,104398,2,0,L|294:88,1,80,2|0,3:0|0:0,0:0:0:0:
250,249,104713,2,0,L|236:170,1,80,2|0,3:0|0:0,0:0:0:0:
273,24,105029,6,0,L|286:102,1,80,2|0,3:0|0:0,0:0:0:0:
258,235,105345,2,0,L|244:156,1,80,2|0,3:0|0:0,0:0:0:0:
406,64,105661,5,2,3:0:0:0:
385,145,105819,1,2,3:0:0:0:
487,85,105976,1,2,3:0:0:0:
466,166,106134,1,2,3:0:0:0:
333,261,106292,6,0,P|320:298|323:338,1,80,2|0,3:0|0:0,0:0:0:0:
445,338,106608,2,0,P|448:298|435:260,1,80,2|0,3:0|0:0,0:0:0:0:
325,261,106924,2,0,P|312:298|315:338,1,80,2|0,3:0|0:0,0:0:0:0:
453,338,107240,2,0,P|456:298|443:260,1,80,2|0,3:0|0:0,0:0:0:0:
383,166,107555,5,2,3:0:0:0:
383,166,107871,1,0,1:0:0:0:
300,149,108029,1,2,3:0:0:0:
400,83,108187,1,2,3:2:0:0:
483,66,108345,1,2,3:2:0:0:
391,76,108503,5,2,3:2:0:0:
432,67,108582,1,0,1:0:0:0:
473,58,108661,1,2,1:2:0:0:
432,49,108740,1,0,1:0:0:0:
391,40,108819,6,0,L|308:60,1,80,2|0,3:0|0:0,0:0:0:0:
212,44,109134,2,0,L|129:64,1,80,2|0,3:0|0:0,0:0:0:0:
43,126,109450,2,0,L|126:146,1,80,2|0,3:0|0:0,0:0:0:0:
222,130,109766,2,0,L|305:150,1,80,2|0,3:0|0:0,0:0:0:0:
123,153,110082,6,0,L|46:135,1,80,2|0,3:0|0:0,0:0:0:0:
302,157,110397,2,0,L|225:139,1,80,2|0,3:0|0:0,0:0:0:0:
144,234,110713,5,2,3:0:0:0:
165,315,110871,1,2,3:0:0:0:
63,255,111028,1,2,3:0:0:0:
84,336,111186,1,2,3:0:0:0:
245,270,111345,6,0,P|255:308|250:347,1,80,2|0,3:0|0:0,0:0:0:0:
267,182,111661,2,0,P|256:220|261:259,1,80,2|0,3:0|0:0,0:0:0:0:
245,94,111976,2,0,P|255:132|250:171,1,80,2|0,3:0|0:0,0:0:0:0:
267,6,112292,2,0,P|256:44|261:83,1,80,2|0,3:0|0:0,0:0:0:0:
355,160,112608,5,6,0:0:0:0:
168,192,112845,1,6,0:0:0:0:
290,338,113082,1,6,0:0:0:0:
360,292,113240,6,0,L|432:304,1,60.0000022888184,6|0,0:0|0:0,0:0:0:0:
285,206,113555,5,2,1:2:0:0:
261,211,113634,1,0,1:0:0:0:
240,223,113713,2,0,L|239:240,1,15.0000005722046,2|0,1:2|1:0,0:0:0:0:
224,241,113792,1,0,1:0:0:0:
214,262,113871,6,0,B|211:301|211:301|220:318|220:318|219:352,3,80,6|0|2|0,0:0|0:0|3:0|0:0,0:0:0:0:
118,212,114503,2,0,B|121:251|121:251|112:268|112:268|113:302,3,80,2|0|2|0,3:0|0:0|3:0|0:0,0:0:0:0:
247,127,115134,5,2,0:3:0:0:
176,108,115292,1,2,0:3:0:0:
195,37,115450,1,2,0:3:0:0:
266,56,115608,1,2,0:3:0:0:
241,238,115766,5,2,0:3:0:0:
206,229,115845,1,2,0:3:0:0:
216,193,115924,1,10,0:3:0:0:
251,203,116003,1,2,0:3:0:0:
313,244,116082,6,0,L|304:268,1,20,2|2,0:3|0:0,0:0:0:0:
321,279,116161,2,0,L|306:299,1,20,2|2,0:0|0:0,0:0:0:0:
320,315,116240,2,0,L|300:331,1,20,2|2,0:0|0:0,0:0:0:0:
405,210,116398,6,0,L|496:197,3,80,2|0|2|0,3:0|0:0|3:0|0:0,0:0:0:0:
340,85,117029,2,0,L|249:72,3,80,2|0|2|0,3:0|0:0|3:0|0:0,0:0:0:0:
256,163,117661,6,0,L|245:235,1,40,2|2,3:0|0:3,0:0:0:0:
197,117,117819,1,2,0:3:0:0:
132,294,117976,2,0,L|142:366,1,40,2|2,0:3|0:3,0:0:0:0:
191,248,118134,1,2,0:3:0:0:
77,178,118292,5,2,0:3:0:0:
57,174,118371,1,2,0:3:0:0:
37,171,118450,1,2,0:3:0:0:
138,71,118608,2,0,L|148:-1,1,40,2|0,3:0|0:0,0:0:0:0:
217,43,118766,2,0,L|227:-29,1,40,2|0,3:0|0:0,0:0:0:0:
59,24,118924,6,0,L|70:118,3,80,2|0|2|0,3:0|0:0|3:0|0:0,0:0:0:0:
151,189,119555,2,0,L|140:283,3,80,2|0|2|0,3:0|0:0|3:0|0:0,0:0:0:0:
51,365,120187,5,2,0:0:0:0:
70,254,120345,2,0,L|76:302,1,40,2|2,0:3|0:3,0:0:0:0:
196,350,120503,2,0,L|201:311,1,40,2|2,0:3|0:3,0:0:0:0:
123,357,120661,1,2,0:3:0:0:
262,263,120819,5,2,0:3:0:0:
416,339,120976,1,2,0:3:0:0:
380,216,121134,2,0,L|358:217,1,20,2|2,0:3|3:0,0:0:0:0:
358,244,121213,2,0,L|369:262,1,20,2|2,3:0|3:0,0:0:0:0:
393,249,121292,2,0,L|403:229,1,20,2|2,3:0|3:0,0:0:0:0:
493,134,121450,6,0,L|408:143,3,80,2|0|2|0,3:0|0:0|3:0|0:0,0:0:0:0:
293,44,122082,2,0,L|208:53,3,80,2|0|2|0,3:0|0:0|3:0|0:0,0:0:0:0:
232,170,122713,5,2,3:0:0:0:
129,20,122871,1,2,0:3:0:0:
156,131,123029,2,0,L|165:90,1,40,2|2,0:3|0:3,0:0:0:0:
244,33,123187,2,0,L|235:72,1,40,2|2,0:3|0:3,0:0:0:0:
249,197,123345,1,2,0:3:0:0:
244,211,123976,5,8,0:3:0:0:
196,143,136608,6,0,L|206:233,1,80,2|0,3:0|0:0,0:0:0:0:
143,311,136924,2,0,L|130:199,1,95.9999970703126,2|0,3:0|0:0,0:0:0:0:
204,150,137240,6,0,L|214:240,1,80,2|0,3:0|0:0,0:0:0:0:
151,318,137556,2,0,L|138:206,1,95.9999970703126,2|0,3:0|0:0,0:0:0:0:
212,157,137871,6,0,L|222:247,1,80,2|0,3:0|0:0,0:0:0:0:
159,325,138187,2,0,L|146:213,1,95.9999970703126,2|0,3:0|0:0,0:0:0:0:
220,164,138503,6,0,L|230:254,1,80,2|0,3:0|0:0,0:0:0:0:
114,131,138819,1,8,0:0:0:0:
318,85,138976,1,8,0:0:0:0:
133,56,139134,6,0,P|114:90|113:130,1,80,2|0,3:0|0:0,0:0:0:0:
208,162,139450,2,0,P|230:120|231:73,1,95.9999970703126,2|0,3:0|0:0,0:0:0:0:
93,148,139766,6,0,P|94:187|113:222,1,80,2|0,3:0|0:0,0:0:0:0:
210,202,140082,2,0,P|208:154|185:113,1,95.9999970703126,2|0,3:0|0:0,0:0:0:0:
104,247,140398,6,0,P|124:280|158:301,1,80,2|0,3:0|0:0,0:0:0:0:
232,235,140713,2,0,P|207:194|166:170,1,95.9999970703126,2|0,3:0|0:0,0:0:0:0:
163,327,141029,6,0,P|197:345|237:346,1,80,2|0,3:0|0:0,0:0:0:0:
454,281,141345,1,8,0:0:0:0:
318,231,141503,1,8,0:0:0:0:
411,137,141661,6,0,P|443:129|464:177,1,80,2|0,3:0|0:0,0:0:0:0:
464,252,141976,2,0,P|431:260|410:211,1,95.9999970703126,2|0,3:0|0:0,0:0:0:0:
422,138,142292,6,0,P|454:135|467:186,1,80,2|0,3:0|0:0,0:0:0:0:
454,260,142608,2,0,P|420:262|408:210,1,95.9999970703126,2|0,3:0|0:0,0:0:0:0:
432,140,142924,6,0,P|464:143|468:195,1,80,2|0,3:0|0:0,0:0:0:0:
442,266,143240,2,0,P|408:262|405:209,1,95.9999970703126,2|0,3:0|0:0,0:0:0:0:
441,143,143555,6,0,P|472:152|466:204,1,80,2|0,3:0|0:0,0:0:0:0:
304,284,143871,1,8,0:0:0:0:
324,91,144029,1,8,0:0:0:0:
208,146,144187,6,0,L|220:239,1,80,2|0,3:0|0:0,0:0:0:0:
198,121,144503,2,0,L|213:241,1,95.9999970703126,2|0,3:0|0:0,0:0:0:0:
124,65,144819,6,0,L|136:158,1,80,2|0,3:0|0:0,0:0:0:0:
114,40,145135,2,0,L|129:160,1,95.9999970703126,2|0,3:0|0:0,0:0:0:0:
79,307,145450,6,0,L|41:10,1,300,2|0,3:0|0:0,0:0:0:0:
114,40,146713,6,0,L|121:100,1,40,4|0,1:0|0:0,0:0:0:0:
190,101,146871,2,0,L|185:61,1,40,2|0,2:1|0:0,0:0:0:0:
249,30,147029,2,0,L|256:90,1,40,0|0,1:0|0:0,0:0:0:0:
325,91,147187,2,0,L|320:51,1,40,2|0,1:0|0:0,0:0:0:0:
384,20,147345,2,0,L|391:80,2,40,0|0|2,1:0|0:0|2:1,0:0:0:0:
439,110,147661,1,0,1:0:0:0:
470,107,147740,1,0,0:0:0:0:
501,104,147819,1,2,1:0:0:0:
460,198,147976,5,0,0:0:0:0:
460,198,148134,1,2,2:1:0:0:
370,174,148292,1,0,0:0:0:0:
370,174,148450,1,2,2:1:0:0:
444,296,148608,5,0,1:0:0:0:
468,206,148766,1,2,1:0:0:0:
378,182,148924,1,0,1:0:0:0:
354,272,149082,1,2,1:0:0:0:
289,355,149240,6,0,L|282:295,1,40,0|0,1:0|0:0,0:0:0:0:
213,294,149398,2,0,L|218:334,1,40,2|0,2:1|0:0,0:0:0:0:
154,365,149555,2,0,L|147:305,1,40,0|0,1:0|0:0,0:0:0:0:
78,304,149713,2,0,L|83:344,1,40,2|0,1:0|0:0,0:0:0:0:
19,375,149871,2,0,L|12:315,2,40,0|0|2,1:0|0:0|2:1,0:0:0:0:
47,238,150187,1,0,1:0:0:0:
78,232,150266,1,0,0:0:0:0:
109,226,150345,1,2,1:0:0:0:
10,156,150503,5,0,0:0:0:0:
41,151,150582,1,0,0:0:0:0:
71,138,150660,1,2,2:1:0:0:
96,119,150740,1,0,0:0:0:0:
116,95,150819,1,0,0:0:0:0:
130,66,150897,1,0,0:0:0:0:
136,34,150976,1,2,2:1:0:0:
134,2,151055,1,0,0:0:0:0:
117,29,151134,5,0,0:0:0:0:
142,11,151212,1,0,0:0:0:0:
174,2,151291,1,2,2:1:0:0:
205,2,151371,1,0,0:0:0:0:
236,6,151450,1,0,1:0:0:0:
265,19,151528,1,0,0:0:0:0:
290,40,151607,1,2,2:1:0:0:
310,66,151686,1,0,0:0:0:0:
349,88,151766,6,0,P|354:113|352:138,1,40,0|0,1:0|0:0,0:0:0:0:
291,229,151924,2,0,P|286:254|288:279,1,40,2|0,2:1|0:0,0:0:0:0:
423,119,152082,2,0,P|421:144|412:168,1,40,0|0,1:0|0:0,0:0:0:0:
356,259,152240,2,0,P|357:284|366:308,1,40,2|0,1:0|0:0,0:0:0:0:
466,333,152398,2,0,L|509:327,2,40,0|0|2,1:0|0:0|2:1,0:0:0:0:
361,371,152713,1,0,1:0:0:0:
329,366,152792,1,0,0:0:0:0:
297,361,152871,1,2,1:0:0:0:
223,290,153029,5,0,0:0:0:0:
223,290,153187,1,2,2:1:0:0:
319,239,153345,1,0,1:0:0:0:
319,239,153503,1,2,2:1:0:0:
268,143,153661,1,0,0:0:0:0:
268,143,153819,1,2,2:1:0:0:
172,194,153976,1,0,0:0:0:0:
172,194,154134,1,2,2:1:0:0:
100,94,154292,6,0,P|80:79|52:73,1,40,0|0,1:0|0:0,0:0:0:0:
83,10,154450,2,0,P|58:7|30:15,1,40,2|0,2:1|0:0,0:0:0:0:
0,152,154608,2,0,L|8:208,1,40,0|0,1:0|0:0,0:0:0:0:
70,159,154766,2,0,L|78:215,1,40,2|0,1:0|0:0,0:0:0:0:
173,116,154924,2,0,L|181:60,2,40,0|0|2,1:0|0:0|2:1,0:0:0:0:
258,44,155240,1,0,1:0:0:0:
263,75,155319,1,0,0:0:0:0:
268,106,155398,1,2,1:0:0:0:
366,184,155555,5,0,0:0:0:0:
366,184,155713,1,2,2:1:0:0:
439,117,155871,1,0,1:0:0:0:
439,117,156029,1,2,2:1:0:0:
460,213,156187,1,0,0:0:0:0:
460,213,156345,1,2,2:1:0:0:
366,184,156503,1,0,1:0:0:0:
366,184,156661,1,2,2:1:0:0:
273,244,156819,6,0,L|290:349,1,80,4|2,1:0|2:1,0:0:0:0:
204,248,157134,2,0,L|221:353,1,80,0|2,1:0|2:1,0:0:0:0:
135,252,157450,2,0,L|152:357,1,80,0|2,1:0|2:1,0:0:0:0:
66,256,157766,2,0,L|83:361,1,80,0|2,1:0|2:1,0:0:0:0:
15,116,158082,6,0,L|32:221,1,80,0|2,1:0|2:1,0:0:0:0:
84,112,158398,2,0,L|101:217,1,80,0|2,1:0|2:1,0:0:0:0:
153,108,158713,2,0,L|170:213,1,80,0|2,1:0|2:1,0:0:0:0:
222,104,159029,2,0,L|239:209,1,80,0|2,1:0|2:1,0:0:0:0:
319,45,159345,6,0,P|350:21|388:9,1,80,0|2,1:0|2:1,0:0:0:0:
390,92,159661,2,0,P|429:86|468:95,1,80,0|2,1:0|2:1,0:0:0:0:
428,167,159976,2,0,P|464:181|494:209,1,80,0|2,1:0|2:1,0:0:0:0:
423,250,160292,2,0,P|447:281|459:319,1,80,0|2,1:0|2:1,0:0:0:0:
377,319,160608,5,0,1:0:0:0:
345,323,160687,1,0,0:0:0:0:
313,327,160766,1,2,2:1:0:0:
281,331,160845,1,0,0:0:0:0:
249,335,160924,1,0,1:0:0:0:
217,339,161003,1,0,0:0:0:0:
185,343,161082,1,2,2:1:0:0:
153,347,161161,1,0,0:0:0:0:
125,330,161240,5,0,1:0:0:0:
157,326,161319,1,0,0:0:0:0:
189,322,161398,1,2,2:1:0:0:
221,318,161477,1,0,0:0:0:0:
253,314,161556,1,0,1:0:0:0:
285,310,161635,1,0,0:0:0:0:
317,306,161714,1,2,2:1:0:0:
349,302,161793,1,0,0:0:0:0:
370,278,161871,6,0,L|374:230,1,40,0|0,1:0|0:0,0:0:0:0:
303,271,162029,2,0,L|307:223,1,40,2|0,1:0|0:0,0:0:0:0:
236,264,162187,2,0,L|240:216,1,40,0|0,1:0|0:0,0:0:0:0:
169,257,162345,2,0,L|173:209,1,40,2|0,1:0|0:0,0:0:0:0:
210,159,162503,6,0,L|214:111,1,40,0|0,1:0|0:0,0:0:0:0:
143,152,162661,2,0,L|147:104,1,40,2|0,1:0|0:0,0:0:0:0:
76,145,162819,2,0,L|80:97,1,40,0|0,1:0|0:0,0:0:0:0:
9,138,162977,2,0,L|13:90,1,40,2|0,1:0|0:0,0:0:0:0:
117,81,163134,6,0,L|113:33,1,40,0|0,1:0|0:0,0:0:0:0:
184,74,163292,2,0,L|180:26,1,40,2|0,1:0|0:0,0:0:0:0:
251,67,163450,2,0,L|247:19,1,40,0|0,1:0|0:0,0:0:0:0:
318,60,163608,2,0,L|314:12,1,40,2|0,1:0|0:0,0:0:0:0:
294,164,163766,6,0,L|290:116,1,40,0|0,1:0|0:0,0:0:0:0:
361,157,163924,2,0,L|357:109,1,40,2|0,1:0|0:0,0:0:0:0:
428,150,164082,2,0,L|424:102,1,40,0|0,1:0|0:0,0:0:0:0:
495,143,164240,2,0,L|491:95,1,40,2|0,1:0|0:0,0:0:0:0:
511,243,164398,5,0,1:0:0:0:
472,240,164476,1,0,1:0:0:0:
433,249,164555,1,2,1:0:0:0:
399,270,164634,1,0,1:0:0:0:
374,301,164713,2,0,L|370:357,3,40,0|0|2|0,1:0|1:0|1:0|1:0,0:0:0:0:
309,241,165029,5,0,1:0:0:0:
269,244,165108,1,0,1:0:0:0:
230,235,165187,1,2,1:0:0:0:
196,214,165265,1,0,1:0:0:0:
171,183,165345,2,0,L|166:127,3,40,0|0|2|0,1:0|1:0|1:0|1:0,0:0:0:0:
75,289,165661,6,0,L|43:281,1,20,0|0,1:0|1:0,0:0:0:0:
81,296,165740,2,0,L|49:288,1,20,0|0,1:0|1:0,0:0:0:0:
87,303,165819,1,2,1:0:0:0:
126,296,165898,1,0,1:0:0:0:
155,269,165976,1,0,1:0:0:0:
167,230,166055,1,0,1:0:0:0:
160,190,166134,1,2,1:0:0:0:
136,157,166213,1,0,1:0:0:0:
97,150,166292,5,0,1:0:0:0:
68,123,166370,1,0,1:0:0:0:
56,84,166449,1,2,1:0:0:0:
63,44,166528,1,0,1:0:0:0:
87,11,166607,1,0,1:0:0:0:
127,12,166687,1,0,1:0:0:0:
167,13,166766,1,2,1:0:0:0:
207,14,166845,1,0,1:0:0:0:
247,15,166924,5,0,1:0:0:0:
273,204,177029,6,0,L|339:190,1,40,2|0,3:0|0:0,0:0:0:0:
379,149,177187,2,0,L|445:135,1,40,2|0,3:0|0:0,0:0:0:0:
306,33,177345,2,0,P|293:70|295:110,1,80,0|0,1:0|0:0,0:0:0:0:
184,169,177661,1,0,0:0:0:0:
273,204,177819,2,0,L|283:265,1,40,2|0,3:0|0:0,0:0:0:0:
150,105,177976,2,0,P|121:132|112:177,1,80,0|2,1:0|3:0,0:0:0:0:
0,256,178292,6,0,L|96:241,1,80,0|2,0:0|3:0,0:0:0:0:
227,303,178608,2,0,L|131:288,1,80,0|0,1:0|0:0,0:0:0:0:
43,171,178924,1,0,0:0:0:0:
37,139,179003,1,0,1:0:0:0:
32,107,179082,1,2,3:0:0:0:
156,19,179240,1,0,1:0:0:0:
138,125,179398,1,2,3:0:0:0:
50,1,179555,6,0,L|105:-14,1,40,2|0,3:0|0:0,0:0:0:0:
169,27,179713,2,0,L|224:12,1,40,2|0,3:0|0:0,0:0:0:0:
292,75,179871,2,0,P|295:114|283:152,1,80,0|0,1:0|0:0,0:0:0:0:
372,241,180187,1,0,0:0:0:0:
424,162,180345,2,0,L|486:149,1,40,2|0,3:0|0:0,0:0:0:0:
362,252,180503,2,0,P|358:291|370:329,1,80,0|2,1:0|3:0,0:0:0:0:
500,230,180819,6,0,P|513:266|512:306,1,80,0|2,0:0|3:0,0:0:0:0:
392,352,181134,2,0,L|278:337,1,80,0|0,1:0|0:0,0:0:0:0:
194,231,181450,1,0,0:0:0:0:
225,224,181529,1,0,1:0:0:0:
256,217,181608,1,2,3:0:0:0:
211,318,181766,1,0,1:0:0:0:
98,292,181924,1,2,3:0:0:0:
68,161,182082,6,0,L|60:109,1,40,2|0,3:0|0:0,0:0:0:0:
143,77,182240,2,0,L|135:129,1,40,2|0,3:0|0:0,0:0:0:0:
9,31,182398,2,0,L|111:19,1,80,0|0,1:0|0:0,0:0:0:0:
226,86,182713,1,0,0:0:0:0:
298,45,182871,2,0,L|305:102,1,40,2|0,3:0|0:0,0:0:0:0:
370,4,183029,2,0,L|381:96,1,80,0|2,1:0|3:0,0:0:0:0:
512,101,183345,6,0,P|479:124|441:133,1,80,2|2,3:0|3:0,0:0:0:0:
300,175,183661,2,0,P|338:184|370:207,1,80,0|0,1:0|0:0,0:0:0:0:
451,350,183976,2,0,L|462:257,1,80,0|2,0:0|3:0,0:0:0:0:
302,262,184292,1,0,1:0:0:0:
376,306,184450,1,2,3:0:0:0:
215,359,184608,6,0,L|206:301,1,40
132,292,184766,2,0,L|141:234,1,40,2|0,3:0|0:0,0:0:0:0:
218,167,184924,2,0,P|225:222|214:257,1,80,0|0,1:0|0:0,0:0:0:0:
86,203,185240,1,0,0:0:0:0:
54,197,185319,1,0,1:0:0:0:
22,192,185398,1,2,3:0:0:0:
150,91,185555,1,0,1:0:0:0:
50,107,185713,1,2,3:0:0:0:
201,35,185871,6,0,P|214:49|222:69,1,40,2|0,3:0|0:0,0:0:0:0:
290,139,186029,2,0,P|303:124|311:104,1,40,2|0,3:0|0:0,0:0:0:0:
419,0,186187,2,0,P|415:43|393:85,1,80,0|0,1:0|0:0,0:0:0:0:
440,186,186503,1,2,3:0:0:0:
469,197,186582,1,2,3:0:0:0:
465,167,186661,1,2,3:0:0:0:
362,258,186819,1,2,1:2:0:0:
333,269,186898,1,2,3:0:0:0:
337,239,186977,1,2,3:0:0:0:
488,330,187134,6,0,L|498:387,1,40,2|0,3:0|0:0,0:0:0:0:
417,323,187292,2,0,L|427:380,1,40,2|0,3:0|0:0,0:0:0:0:
310,358,187450,2,0,L|203:342,1,80,0|0,1:0|0:0,0:0:0:0:
141,256,187766,1,0,0:0:0:0:
65,285,187924,2,0,L|75:342,1,40,2|0,3:0|0:0,0:0:0:0:
210,281,188082,2,0,P|213:241|193:204,1,80,0|2,1:0|3:0,0:0:0:0:
80,148,188398,6,0,L|-11:140,1,80,0|2,0:0|3:0,0:0:0:0:
155,75,188713,2,0,L|246:67,1,80,0|0,1:0|0:0,0:0:0:0:
72,16,189029,1,0,0:0:0:0:
58,44,189108,1,0,1:0:0:0:
53,75,189187,1,2,3:0:0:0:
107,221,189345,1,0,1:0:0:0:
182,148,189503,1,2,3:0:0:0:
307,192,189661,6,0,L|312:231,1,40,2|0,3:0|0:0,0:0:0:0:
388,259,189819,2,0,L|393:219,1,40,2|0,3:0|0:0,0:0:0:0:
467,189,189976,2,0,L|477:268,1,80,0|0,1:0|0:0,0:0:0:0:
375,368,190292,1,0,0:0:0:0:
322,308,190450,2,0,L|282:302,1,40,2|0,3:0|0:0,0:0:0:0:
156,349,190608,2,0,L|51:360,1,80,0|2,1:0|3:0,0:0:0:0:
2,216,190924,6,0,P|35:236|60:268,1,80,0|2,0:0|3:0,0:0:0:0:
188,152,191240,2,0,P|160:181|145:217,1,80,0|0,1:0|0:0,0:0:0:0:
74,129,191555,1,0,0:0:0:0:
70,97,191634,1,0,1:0:0:0:
67,65,191713,1,2,3:0:0:0:
237,77,191871,1,0,1:0:0:0:
162,20,192029,1,2,3:0:0:0:
320,45,192187,6,0,L|310:97,1,40,2|0,3:0|0:0,0:0:0:0:
269,153,192345,2,0,L|279:205,1,40,2|0,3:0|0:0,0:0:0:0:
333,288,192503,2,0,L|314:386,1,80,0|0,1:0|0:0,0:0:0:0:
159,276,192819,1,0,0:0:0:0:
235,250,192976,2,0,L|245:302,1,40,2|0,3:0|0:0,0:0:0:0:
323,278,193134,2,0,L|304:376,1,80,0|2,1:0|3:0,0:0:0:0:
433,368,193450,6,0,L|532:354,1,80,2|2,3:0|3:0,0:0:0:0:
452,229,193766,2,0,L|353:215,1,80,0|0,1:0|0:0,0:0:0:0:
261,119,194082,1,0,0:0:0:0:
334,87,194240,2,0,P|340:105|340:125,1,40,2|0,3:0|0:0,0:0:0:0:
223,188,194398,2,0,L|124:174,1,80,0|2,1:0|3:0,0:0:0:0:
23,39,194713,6,0,P|23:19|29:0,1,40
85,89,194871,2,0,P|91:107|91:127,1,40,2|0,3:0|0:0,0:0:0:0:
10,213,195029,2,0,P|-2:250|2:290,1,80,0|0,1:0|0:0,0:0:0:0:
121,345,195345,1,0,0:0:0:0:
152,339,195424,1,0,1:0:0:0:
183,334,195503,1,2,3:0:0:0:
85,259,195661,1,0,1:0:0:0:
234,278,195819,1,2,3:0:0:0:
161,131,195976,5,2,3:0:0:0:
176,220,196134,1,2,3:0:0:0:
250,116,196292,1,0,1:0:0:0:
265,205,196450,1,0,0:0:0:0:
386,100,196608,5,0,0:0:0:0:
366,215,196766,1,2,3:0:0:0:
270,80,196924,1,0,1:0:0:0:
250,196,197082,1,2,3:0:0:0:
188,18,197240,5,6,2:1:0:0:
