osu file format v14

[General]
AudioFilename: audio.mp3
AudioLeadIn: 0
PreviewTime: 50705
Countdown: 0
SampleSet: Soft
StackLeniency: 0.7
Mode: 0
LetterboxInBreaks: 0
WidescreenStoryboard: 0

[Editor]
Bookmarks: 20389,40600,70915,81021,93652
DistanceSpacing: 0.6
BeatDivisor: 4
GridSize: 4
TimelineZoom: 1.4

[Metadata]
Title:Monolithia
TitleUnicode:Monolithia
Artist:Fractal Dreamers
ArtistUnicode:Fractal Dreamers
Creator:Erasome
Version:Extra
Source:osu!
Tags:
BeatmapID:2002891
BeatmapSetID:956722

[Difficulty]
HPDrainRate:6
CircleSize:4.3
OverallDifficulty:8
ApproachRate:9
SliderMultiplier:2
SliderTickRate:1

[Events]
//Background and Video events
0,0,"maxresdefault (1).jpg",0,0
//Break Periods
2,40800,50105
2,61010,70315
//Storyboard Layer 0 (Background)
//Storyboard Layer 1 (Fail)
//Storyboard Layer 2 (Pass)
//Storyboard Layer 3 (Foreground)
//Storyboard Sound Samples

[TimingPoints]
179,315.789473684211,4,2,0,80,1,0
50705,-83.3333333333333,4,2,0,80,0,0
51179,-200,4,2,0,80,0,0
52126,-83.3333333333333,4,2,0,80,0,0
53705,-200,4,2,0,80,0,0
54652,-83.3333333333333,4,2,0,80,0,0
56231,-200,4,2,0,80,0,0
57179,-83.3333333333333,4,2,0,80,0,0
58757,-200,4,2,0,80,0,0
59547,-100,4,2,0,80,0,0
89863,-90.9090909090909,4,2,0,80,0,0
90336,-83.3333333333333,4,2,0,80,0,0
91126,-200,4,2,0,80,0,0
93652,-90.9090909090909,4,2,0,80,0,0

[Colours]
Combo1 : 138,196,247
Combo2 : 189,243,88
Combo3 : 204,204,230
Combo4 : 172,136,151

[HitObjects]
256,192,17863,12,0,20231,0:0:0:0:
157,95,20389,6,0,L|135:208,1,100
169,343,20705,1,0,0:0:0:0:
169,343,20784,1,0,0:0:0:0:
169,343,20863,1,0,0:0:0:0:
23,272,21021,2,0,B|76:278|76:278|124:269,1,100
343,312,21336,2,0,B|290:306|290:306|242:315,1,100
169,343,21652,5,0,0:0:0:0:
330,231,21810,2,0,L|349:132,1,100
335,20,22126,1,0,0:0:0:0:
426,190,22284,1,0,0:0:0:0:
450,190,22362,1,0,0:0:0:0:
475,191,22441,1,0,0:0:0:0:
259,187,22600,1,0,0:0:0:0:
427,87,22757,1,0,0:0:0:0:
330,231,22915,6,0,P|332:284|361:331,1,100
507,259,23231,2,0,B|457:269|457:269|402:261,1,100
408,261,23468,1,0,0:0:0:0:
408,261,23547,1,0,0:0:0:0:
349,132,23705,1,0,0:0:0:0:
472,142,23863,1,0,0:0:0:0:
507,259,24021,1,0,0:0:0:0:
349,132,24179,6,0,P|350:82|374:37,2,100
408,261,24652,1,0,0:0:0:0:
444,115,24810,1,0,0:0:0:0:
444,115,24889,1,0,0:0:0:0:
444,115,24968,1,0,0:0:0:0:
304,218,25126,2,0,B|251:230|251:230|203:226,1,100
5,123,25442,6,0,L|121:130,1,100
198,64,25757,1,0,0:0:0:0:
257,155,25915,1,0,0:0:0:0:
127,265,26073,1,0,0:0:0:0:
123,240,26151,1,0,0:0:0:0:
119,215,26230,1,0,0:0:0:0:
5,360,26389,2,0,L|16:258,1,100
147,377,26705,5,0,0:0:0:0:
15,260,26863,1,0,0:0:0:0:
196,348,27021,1,0,0:0:0:0:
38,269,27179,1,0,0:0:0:0:
236,268,27336,1,0,0:0:0:0:
239,292,27415,1,0,0:0:0:0:
243,317,27493,1,0,0:0:0:0:
323,231,27652,2,0,L|376:220,1,50
500,286,27810,2,0,L|451:296,1,50
359,315,27968,5,0,0:0:0:0:
224,186,28126,2,0,B|180:177|180:177|151:178|151:178|110:170,2,100
359,315,28600,2,0,B|403:306|403:306|432:307|432:307|473:299,1,100
482,297,28836,1,0,0:0:0:0:
506,293,28915,1,0,0:0:0:0:
407,155,29073,1,0,0:0:0:0:
359,315,29231,5,0,0:0:0:0:
224,186,29389,1,0,0:0:0:0:
218,359,29547,1,0,0:0:0:0:
293,137,29705,1,0,0:0:0:0:
415,250,29863,1,0,0:0:0:0:
415,250,29942,1,0,0:0:0:0:
415,250,30021,1,0,0:0:0:0:
228,284,30179,2,0,P|218:231|224:182,1,100
267,40,30494,6,0,P|171:77|74:32,1,200
16,211,30968,1,0,0:0:0:0:
132,297,31126,2,0,B|185:300|185:300|231:284,2,100
234,143,31600,1,0,0:0:0:0:
229,284,31757,2,0,L|226:386,1,100
226,383,31994,1,0,0:0:0:0:
226,383,32073,1,0,0:0:0:0:
328,306,32231,1,0,0:0:0:0:
140,326,32389,1,0,0:0:0:0:
115,328,32467,1,0,0:0:0:0:
90,330,32546,1,0,0:0:0:0:
159,156,32705,1,0,0:0:0:0:
229,284,32863,1,0,0:0:0:0:
33,337,33021,6,0,L|44:231,1,100
41,212,33257,1,0,0:0:0:0:
38,187,33336,1,0,0:0:0:0:
126,35,33494,2,0,L|122:87,1,50
148,183,33652,1,0,0:0:0:0:
9,89,33810,1,0,0:0:0:0:
230,142,33968,2,0,B|284:148|284:148|332:134,1,100
455,87,34284,5,0,0:0:0:0:
327,135,34442,1,0,0:0:0:0:
423,220,34600,2,0,B|369:214|369:214|321:228,1,100
192,270,34915,1,0,0:0:0:0:
192,270,34994,1,0,0:0:0:0:
192,270,35073,1,0,0:0:0:0:
388,307,35231,2,0,B|442:313|442:313|490:299,1,100
213,369,35547,6,0,B|227:351|227:351|164:356|164:356|137:367|137:367|85:372,1,150
77,373,35863,1,0,0:0:0:0:
21,224,36021,2,0,P|69:208|119:221,1,100
227,352,36336,1,0,0:0:0:0:
69,287,36494,2,0,L|84:187,1,100
105,33,36810,5,0,0:0:0:0:
226,109,36968,2,0,L|240:207,2,100
397,43,37442,1,0,0:0:0:0:
380,61,37520,1,0,0:0:0:0:
364,80,37599,1,0,0:0:0:0:
240,207,37757,2,0,B|284:210|284:210|310:207|310:207|350:208,1,100
512,286,38073,6,0,B|429:285|429:285|384:298|384:298|301:296,1,200
136,289,38547,1,0,0:0:0:0:
280,132,38705,1,0,0:0:0:0:
339,207,38863,1,0,0:0:0:0:
181,178,39021,1,0,0:0:0:0:
426,192,39179,1,0,0:0:0:0:
235,29,39336,6,0,B|163:27|163:27|113:39|113:39|68:40|68:40|82:55|88:90,1,200
67,222,39810,1,0,0:0:0:0:
111,368,39968,1,0,0:0:0:0:
135,366,40046,1,0,0:0:0:0:
160,364,40125,1,0,0:0:0:0:
323,246,40284,2,0,B|273:236|273:236|222:248,1,100
371,350,40600,5,0,0:0:0:0:
174,169,50705,6,0,B|221:172|221:172|257:164|257:164|308:166,1,119.999996337891
443,183,51021,1,0,0:0:0:0:
182,269,51179,2,0,L|174:167,1,100
433,192,51652,1,0,0:0:0:0:
172,278,51810,2,0,L|164:176,1,100
421,203,52284,1,0,0:0:0:0:
160,289,52442,1,0,0:0:0:0:
323,66,52600,1,0,0:0:0:0:
320,95,52678,1,0,0:0:0:0:
317,125,52757,1,0,0:0:0:0:
242,210,52915,1,0,0:0:0:0:
160,289,53073,1,0,0:0:0:0:
64,54,53231,6,0,B|69:102|69:102|79:129|79:129|84:173,1,119.999996337891
129,375,53547,1,0,0:0:0:0:
279,223,53705,2,0,B|270:308|270:308|294:290,1,100
129,375,54179,1,0,0:0:0:0:
279,223,54337,2,0,B|267:214|267:214|276:299,1,100
83,171,54810,1,0,0:0:0:0:
202,331,54968,1,0,0:0:0:0:
364,309,55126,1,0,0:0:0:0:
362,296,55204,1,0,0:0:0:0:
361,284,55283,1,0,0:0:0:0:
477,133,55442,2,0,L|459:252,1,119.999996337891
433,384,55757,5,0,0:0:0:0:
275,298,55915,1,0,0:0:0:0:
459,251,56073,1,0,0:0:0:0:
178,296,56231,2,0,P|232:287|281:301,1,100
225,375,56705,1,0,0:0:0:0:
0,282,56863,2,0,P|1:332|23:377,1,100
125,225,57336,1,0,0:0:0:0:
89,310,57494,1,0,0:0:0:0:
0,120,57652,1,0,0:0:0:0:
27,131,57730,1,0,0:0:0:0:
55,143,57809,1,0,0:0:0:0:
164,52,57968,1,0,0:0:0:0:
178,296,58126,1,0,0:0:0:0:
348,216,58284,5,0,0:0:0:0:
241,202,58442,1,0,0:0:0:0:
373,321,58600,1,0,0:0:0:0:
490,71,58757,2,0,B|491:116|491:116|495:129|495:129|496:179,1,100
512,338,59231,1,0,0:0:0:0:
476,183,59389,1,0,0:0:0:0:
286,351,59547,5,0,0:0:0:0:
185,228,59705,1,0,0:0:0:0:
185,228,59784,1,0,0:0:0:0:
185,228,59863,1,0,0:0:0:0:
149,110,60021,2,0,P|122:113|95:123,1,50
61,276,60179,2,0,P|77:297|99:316,1,50
253,273,60336,2,0,P|263:248|268:219,1,50
154,214,60494,1,0,0:0:0:0:
193,371,60652,1,0,0:0:0:0:
252,127,60810,5,0,0:0:0:0:
403,273,70915,6,0,B|354:281|354:281|300:276,1,100
159,126,71231,2,0,L|269:135,1,100
283,138,71468,1,0,0:0:0:0:
307,140,71546,1,0,0:0:0:0:
332,142,71625,1,0,0:0:0:0:
357,144,71704,1,0,0:0:0:0:
289,283,71863,1,0,0:0:0:0:
176,226,72021,1,0,0:0:0:0:
93,321,72179,5,0,0:0:0:0:
93,321,72336,1,0,0:0:0:0:
1,165,72494,2,0,L|-1:62,1,100
180,261,72810,1,0,0:0:0:0:
204,263,72888,1,0,0:0:0:0:
229,265,72967,1,0,0:0:0:0:
185,128,73126,1,0,0:0:0:0:
1,165,73284,1,0,0:0:0:0:
88,65,73442,6,0,L|89:164,1,100
56,298,73757,1,0,0:0:0:0:
185,128,73915,1,0,0:0:0:0:
208,118,73993,1,0,0:0:0:0:
232,113,74072,1,0,0:0:0:0:
257,112,74151,1,0,0:0:0:0:
282,116,74230,1,0,0:0:0:0:
249,242,74389,1,0,0:0:0:0:
376,271,74547,1,0,0:0:0:0:
437,60,74705,5,0,0:0:0:0:
437,60,74863,1,0,0:0:0:0:
282,116,75021,2,0,L|225:131,1,50
233,128,75179,1,0,0:0:0:0:
234,152,75257,1,0,0:0:0:0:
235,177,75336,1,0,0:0:0:0:
236,202,75415,1,0,0:0:0:0:
237,227,75494,1,0,0:0:0:0:
345,345,75652,2,0,L|241:352,1,100
40,191,75968,6,0,B|73:163|73:163|135:158,1,100
298,153,76284,1,0,0:0:0:0:
197,324,76442,1,0,0:0:0:0:
173,333,76520,1,0,0:0:0:0:
149,338,76599,1,0,0:0:0:0:
124,339,76678,1,0,0:0:0:0:
99,335,76757,1,0,0:0:0:0:
40,191,76915,1,0,0:0:0:0:
337,135,77073,1,0,0:0:0:0:
337,135,77152,1,0,0:0:0:0:
337,135,77231,6,0,B|339:186|339:186|332:235,1,100
281,377,77547,1,0,0:0:0:0:
86,257,77705,2,0,L|142:260,1,50
221,183,77863,1,0,0:0:0:0:
196,183,77941,1,0,0:0:0:0:
171,184,78020,1,0,0:0:0:0:
146,185,78099,1,0,0:0:0:0:
121,186,78178,1,0,0:0:0:0:
0,94,78336,1,0,0:0:0:0:
0,305,78494,5,0,0:0:0:0:
0,305,78652,1,0,0:0:0:0:
87,118,78810,2,0,L|187:103,1,100
211,100,79047,1,0,0:0:0:0:
235,98,79125,1,0,0:0:0:0:
260,100,79204,1,0,0:0:0:0:
285,104,79283,1,0,0:0:0:0:
401,223,79442,2,0,L|398:278,1,50
410,95,79600,2,0,L|407:150,1,50
429,25,79757,5,0,0:0:0:0:
429,25,79836,1,0,0:0:0:0:
429,25,79915,1,0,0:0:0:0:
429,25,79994,1,0,0:0:0:0:
429,25,80073,1,0,0:0:0:0:
398,272,80231,1,0,0:0:0:0:
396,296,80309,1,0,0:0:0:0:
395,321,80388,1,0,0:0:0:0:
393,346,80467,1,0,0:0:0:0:
392,371,80546,1,0,0:0:0:0:
288,251,80705,2,0,P|238:259|186:247,1,100
97,358,81021,6,0,B|45:361|45:361|-6:377,2,100
69,150,81494,1,0,0:0:0:0:
66,174,81572,1,0,0:0:0:0:
64,199,81651,1,0,0:0:0:0:
62,224,81730,1,0,0:0:0:0:
60,249,81809,1,0,0:0:0:0:
196,71,81968,1,0,0:0:0:0:
241,186,82126,1,0,0:0:0:0:
60,249,82284,5,0,0:0:0:0:
140,180,82442,1,0,0:0:0:0:
241,330,82600,2,0,P|290:339|344:331,1,100
363,324,82836,1,0,0:0:0:0:
383,310,82914,1,0,0:0:0:0:
407,301,82993,1,0,0:0:0:0:
431,296,83072,1,0,0:0:0:0:
481,148,83231,1,0,0:0:0:0:
292,257,83389,2,0,L|288:203,1,50
277,75,83547,6,0,B|230:100|230:100|184:105,1,100
0,14,83863,2,0,L|8:133,1,100
9,139,84100,1,0,0:0:0:0:
10,163,84178,1,0,0:0:0:0:
12,188,84257,1,0,0:0:0:0:
14,213,84336,1,0,0:0:0:0:
164,344,84494,1,0,0:0:0:0:
27,331,84652,1,0,0:0:0:0:
27,331,84731,1,0,0:0:0:0:
27,331,84810,5,0,0:0:0:0:
104,262,84968,1,0,0:0:0:0:
207,270,85126,1,0,0:0:0:0:
257,355,85284,1,0,0:0:0:0:
473,252,85442,1,0,0:0:0:0:
377,321,85600,1,0,0:0:0:0:
490,119,85757,2,0,L|485:172,1,50
377,321,85915,2,0,L|382:268,1,50
389,182,86073,6,0,L|184:200,1,200
49,212,86547,1,0,0:0:0:0:
231,98,86705,1,0,0:0:0:0:
231,98,86784,1,0,0:0:0:0:
231,98,86863,1,0,0:0:0:0:
112,284,87021,2,0,P|64:309|8:301,1,100
86,32,87336,6,0,P|103:84|43:215,1,200
231,98,87810,1,0,0:0:0:0:
24,112,87968,1,0,0:0:0:0:
39,131,88046,1,0,0:0:0:0:
61,141,88125,1,0,0:0:0:0:
172,20,88284,1,0,0:0:0:0:
209,197,88442,1,0,0:0:0:0:
375,59,88600,6,0,B|427:47|427:47|484:53,2,100
305,185,89073,1,0,0:0:0:0:
282,195,89151,1,0,0:0:0:0:
257,200,89230,1,0,0:0:0:0:
232,201,89309,1,0,0:0:0:0:
208,196,89388,1,0,0:0:0:0:
54,94,89547,2,0,L|113:89,1,50
0,235,89705,2,0,L|59:230,1,50
137,226,89863,5,0,0:0:0:0:
144,252,89941,1,0,0:0:0:0:
148,279,90020,1,0,0:0:0:0:
146,306,90099,1,0,0:0:0:0:
140,333,90178,1,0,0:0:0:0:
54,94,90336,1,0,0:0:0:0:
80,79,90414,1,0,0:0:0:0:
109,72,90493,1,0,0:0:0:0:
139,72,90572,1,0,0:0:0:0:
168,80,90651,1,0,0:0:0:0:
336,313,90810,1,0,0:0:0:0:
307,290,90889,1,0,0:0:0:0:
319,257,90968,1,0,0:0:0:0:
355,258,91047,1,0,0:0:0:0:
365,292,91126,6,0,B|380:307|384:331|384:331|443:254|392:170|392:170|389:148|402:134|402:134|399:110|392:90|392:90|394:16|394:16|374:37,1,400
67,103,93652,6,0,L|74:245,1,110.000003356934
308,248,93968,2,0,L|296:363,1,110.000003356934
79,318,94284,1,0,0:0:0:0:
318,145,94442,1,0,0:0:0:0:
185,337,94600,2,0,L|182:280,1,55.0000016784668
173,120,94757,2,0,L|175:174,1,55.0000016784668
