osu file format v14

[General]
AudioFilename: audio.mp3
AudioLeadIn: 0
PreviewTime: 64186
Countdown: 0
SampleSet: Soft
StackLeniency: 0.7
Mode: 3
LetterboxInBreaks: 0
SpecialStyle: 0
WidescreenStoryboard: 1

[Editor]
Bookmarks: 187,10853,21520,32186,42853,53520,64186,74853,85520,96186,106853,114853,122853
DistanceSpacing: 1.2
BeatDivisor: 4
GridSize: 4
TimelineZoom: 1.9

[Metadata]
Title:Module_410
TitleUnicode:Module_410
Artist:Fractal Dreamers
ArtistUnicode:Fractal Dreamers
Creator:Yunabi
Version:Hard
Source:osu!
Tags:chill monolithia helblinde skymuted instrumental electronic dnb d&b drum n & and bass piano fa featured artist arccat
BeatmapID:2855453
BeatmapSetID:1382018

[Difficulty]
HPDrainRate:8
CircleSize:4
OverallDifficulty:7.5
ApproachRate:5
SliderMultiplier:1.4
SliderTickRate:1

[Events]
//Background and Video events
0,0,"collab_bg.jpg",0,0
//Break Periods
//Storyboard Layer 0 (Background)
//Storyboard Layer 1 (Fail)
//Storyboard Layer 2 (Pass)
//Storyboard Layer 3 (Foreground)
//Storyboard Layer 4 (Overlay)
//Storyboard Sound Samples
Sample,15353,0,"LR_Snare Drum 2.wav",50
Sample,20686,0,"LR_Snare Drum 2.wav",50
Sample,26020,0,"LR_Snare Drum 2.wav",50
Sample,31353,0,"LR_Snare Drum 2.wav",50
Sample,32186,0,"LR3_BassDrop.wav",80
Sample,63520,0,"LR_Snare Drum 2.wav",50
Sample,68686,0,"LR_Snare Drum 2.wav",50
Sample,69353,0,"LR_Snare Drum 2.wav",50
Sample,74020,0,"LR_Snare Drum 2.wav",50
Sample,90020,0,"LR_Snare Drum 2.wav",50
Sample,95353,0,"LR_Snare Drum 2.wav",50
Sample,100686,0,"LR_Snare Drum 2.wav",50
Sample,106020,0,"LR_Snare Drum 2.wav",50

[TimingPoints]
187,333.333333333333,4,2,1,30,1,0
10853,-100,4,2,1,40,0,0
42853,-100,4,2,1,30,0,0
53520,-100,4,2,1,35,0,0
64186,-100,4,2,1,40,0,1
85520,-100,4,2,1,40,0,0
109520,-100,4,2,1,37,0,0
110853,-100,4,2,1,35,0,0
112186,-100,4,2,1,32,0,0
113520,-100,4,2,1,30,0,0
114853,-100,4,2,1,25,0,0
117520,-100,4,2,1,20,0,0

[HitObjects]
64,192,187,5,0,0:0:0:70:F#5S_Gb5S.wav
320,192,187,1,0,0:0:0:20:normal-hitwhistle.wav
192,192,353,1,0,0:0:0:70:A#5S_Bb5S.wav
448,192,353,1,0,0:0:0:20:normal-hitwhistle.wav
320,192,520,1,0,0:0:0:70:B5S.wav
448,192,686,1,0,0:0:0:70:F#6S_Gb6S.wav
64,192,853,128,0,1186:0:0:0:70:E5S.wav
320,192,1020,1,0,0:0:0:70:B5S.wav
448,192,1186,1,0,0:0:0:70:C#6S_Db6S.wav
64,192,1520,1,0,0:0:0:70:F#5S_Gb5S.wav
320,192,1520,1,0,0:0:0:20:normal-hitwhistle.wav
192,192,1686,1,0,0:0:0:70:A#5S_Bb5S.wav
448,192,1686,1,0,0:0:0:20:normal-hitwhistle.wav
320,192,1853,1,0,0:0:0:70:B5S.wav
448,192,2020,1,0,0:0:0:70:F#6S_Gb6S.wav
64,192,2186,128,0,2520:0:0:0:70:F#5S_Gb5S.wav
448,192,2353,1,0,0:0:0:70:C#6S_Db6S.wav
320,192,2520,1,0,0:0:0:70:B5S.wav
192,192,2686,1,0,0:0:0:70:A#5S_Bb5S.wav
64,192,2853,1,0,0:0:0:70:F#5S_Gb5S.wav
320,192,2853,1,0,0:0:0:20:normal-hitwhistle.wav
192,192,3020,1,0,0:0:0:70:A#5S_Bb5S.wav
448,192,3020,1,0,0:0:0:20:normal-hitwhistle.wav
320,192,3186,1,0,0:0:0:70:B5S.wav
448,192,3353,1,0,0:0:0:70:F#6S_Gb6S.wav
192,192,3520,128,0,3853:0:0:0:70:G#5S_Ab5S.wav
64,192,3686,1,0,0:0:0:70:F#5S_Gb5S.wav
448,192,3853,1,0,0:0:0:70:C#6S_Db6S.wav
64,192,4186,1,0,0:0:0:70:F#5S_Gb5S.wav
320,192,4186,1,0,0:0:0:20:normal-hitwhistle.wav
192,192,4353,1,0,0:0:0:70:A#5S_Bb5S.wav
448,192,4353,1,0,0:0:0:20:normal-hitwhistle.wav
320,192,4520,1,0,0:0:0:70:B5S.wav
192,192,4686,1,0,0:0:0:70:F#5S_Gb5S.wav
64,192,4853,128,0,5186:0:0:0:70:D#5S_Eb5S.wav
448,192,5020,1,0,0:0:0:70:C#6S_Db6S.wav
320,192,5186,1,0,0:0:0:70:B5S.wav
64,192,5520,1,0,0:0:0:70:F#5S_Gb5S.wav
320,192,5520,1,0,0:0:0:20:normal-hitwhistle.wav
192,192,5686,1,0,0:0:0:70:A#5S_Bb5S.wav
448,192,5686,1,0,0:0:0:20:normal-hitwhistle.wav
320,192,5853,1,0,0:0:0:70:B5S.wav
448,192,6020,1,0,0:0:0:70:F#6S_Gb6S.wav
64,192,6186,128,0,6520:0:0:0:70:E5S.wav
320,192,6353,1,0,0:0:0:70:B5S.wav
448,192,6520,1,0,0:0:0:70:C#6S_Db6S.wav
64,192,6853,1,0,0:0:0:70:F#5S_Gb5S.wav
320,192,6853,1,0,0:0:0:20:normal-hitwhistle.wav
192,192,7020,1,0,0:0:0:70:A#5S_Bb5S.wav
448,192,7020,1,0,0:0:0:20:normal-hitwhistle.wav
320,192,7186,1,0,0:0:0:70:B5S.wav
448,192,7353,1,0,0:0:0:70:F#6S_Gb6S.wav
64,192,7520,128,0,7853:0:0:0:70:F#5S_Gb5S.wav
448,192,7686,1,0,0:0:0:70:E6S.wav
320,192,7770,1,0,0:0:0:70:D#6S_Eb6S.wav
192,192,7853,1,0,0:0:0:70:C#6S_Db6S.wav
64,192,8020,1,0,0:0:0:70:A#5S_Bb5S.wav
64,192,8186,1,0,0:0:0:70:F#5S_Gb5S.wav
320,192,8186,1,0,0:0:0:20:normal-hitwhistle.wav
192,192,8353,1,0,0:0:0:70:A#5S_Bb5S.wav
448,192,8353,1,0,0:0:0:20:normal-hitwhistle.wav
320,192,8520,1,0,0:0:0:70:B5S.wav
448,192,8686,1,0,0:0:0:70:F#6S_Gb6S.wav
192,192,8853,128,0,9186:0:0:0:70:G#5S_Ab5S.wav
64,192,9020,1,0,0:0:0:70:F#5S_Gb5S.wav
320,192,9186,1,0,0:0:0:70:C#6S_Db6S.wav
64,192,9520,1,0,0:0:0:70:F#5S_Gb5S.wav
320,192,9520,1,0,0:0:0:20:normal-hitwhistle.wav
192,192,9686,1,0,0:0:0:70:A#5S_Bb5S.wav
448,192,9686,1,0,0:0:0:20:normal-hitwhistle.wav
320,192,9853,1,0,0:0:0:70:B5S.wav
192,192,10020,1,0,0:0:0:70:F#5S_Gb5S.wav
64,192,10186,128,0,10520:0:0:0:70:D#5S_Eb5S.wav
448,192,10353,128,0,10520:0:0:0:70:F#6S_Gb6S.wav
320,192,10520,128,0,10686:0:0:0:100:E6S.wav
192,192,10686,128,0,10853:0:0:0:100:D#6S_Eb6S.wav
64,192,10853,128,0,11020:0:0:0:100:B5S.wav
448,192,10853,1,2,0:0:0:0:
192,192,11020,1,0,0:0:0:0:
320,192,11186,1,0,0:0:0:0:
448,192,11186,1,8,0:0:0:0:
64,192,11353,1,0,0:0:0:0:
320,192,11520,1,0,0:0:0:0:
192,192,11686,1,0,0:0:0:0:
64,192,11686,1,2,0:0:0:0:
192,192,11853,1,0,0:0:0:0:
448,192,11853,1,8,0:0:0:0:
320,192,12020,1,0,0:0:0:100:A#5S_Bb5S.wav
448,192,12103,1,0,0:0:0:100:B5S.wav
320,192,12186,128,0,12353:0:0:0:100:A#5S_Bb5S.wav
192,192,12186,1,2,0:0:0:0:
64,192,12353,1,0,0:0:0:0:
448,192,12520,1,0,0:0:0:0:
192,192,12520,1,8,0:0:0:0:
320,192,12686,1,0,0:0:0:0:
64,192,12853,1,0,0:0:0:0:
320,192,13020,1,2,0:0:0:0:
192,192,13020,1,0,0:0:0:0:
192,192,13186,1,8,0:0:0:0:
448,192,13186,128,0,13353:0:0:0:100:B5S.wav
64,192,13353,1,0,0:0:0:0:
320,192,13520,1,2,0:0:0:0:
448,192,13520,128,0,13686:0:0:0:100:B5S.wav
64,192,13686,1,0,0:0:0:0:
448,192,13853,1,0,0:0:0:0:
192,192,13853,1,8,0:0:0:0:
320,192,14020,1,0,0:0:0:0:
64,192,14186,1,0,0:0:0:0:
192,192,14353,1,0,0:0:0:0:
320,192,14353,1,2,0:0:0:0:
320,192,14520,1,8,0:0:0:0:
64,192,14520,128,0,14686:0:0:0:70:F#5S_Gb5S.wav
192,192,14686,1,0,0:0:0:0:
448,192,14853,128,0,15020:0:0:0:100:D#6S_Eb6S.wav
320,192,14853,1,2,0:0:0:0:
192,192,15020,1,0,0:0:0:0:
64,192,15186,1,8,0:0:0:0:
320,192,15186,1,0,0:0:0:100:E6S.wav
448,192,15353,1,0,0:0:0:100:D#6S_Eb6S.wav
192,192,15436,1,2,0:0:0:0:
64,192,15436,1,0,0:0:0:0:
320,192,15520,1,0,0:0:0:50:LR_Snare Drum 2.wav
64,192,15686,1,2,0:0:0:0:
192,192,15686,1,0,0:0:0:100:C#6S_Db6S.wav
320,192,15770,1,0,0:0:0:50:LR_Snare Drum 2.wav
192,192,15853,1,8,0:0:0:0:
448,192,15853,1,0,0:0:0:0:
448,192,16020,1,0,0:0:0:50:LR_Snare Drum 2.wav
320,192,16020,1,0,0:0:0:0:
64,192,16186,128,0,16353:0:0:0:100:B5S.wav
192,192,16186,1,2,0:0:0:0:
320,192,16353,1,0,0:0:0:0:
448,192,16520,1,8,0:0:0:0:
64,192,16520,1,0,0:0:0:0:
192,192,16686,1,0,0:0:0:0:
448,192,16853,1,0,0:0:0:0:
320,192,17020,1,2,0:0:0:0:
192,192,17020,1,0,0:0:0:0:
448,192,17186,1,8,0:0:0:0:
192,192,17186,128,0,17353:0:0:0:100:A#5S_Bb5S.wav
320,192,17353,128,0,17520:0:0:0:100:B5S.wav
64,192,17520,1,2,0:0:0:0:
448,192,17520,128,0,17686:0:0:0:100:C#6S_Db6S.wav
192,192,17686,1,0,0:0:0:0:
448,192,17853,1,8,0:0:0:0:
320,192,17853,1,0,0:0:0:0:
192,192,18020,1,0,0:0:0:0:
64,192,18186,1,0,0:0:0:0:
448,192,18353,1,2,0:0:0:0:
320,192,18353,1,0,0:0:0:0:
192,192,18436,1,0,0:0:0:0:
448,192,18520,1,8,0:0:0:0:
64,192,18520,128,0,18686:0:0:0:100:B5S.wav
192,192,18686,1,0,0:0:0:0:
320,192,18853,1,2,0:0:0:0:
448,192,18853,128,0,19020:0:0:0:100:D#6S_Eb6S.wav
64,192,19020,1,0,0:0:0:0:
448,192,19186,1,8,0:0:0:0:
192,192,19186,1,0,0:0:0:0:
320,192,19353,1,0,0:0:0:0:
64,192,19520,1,0,0:0:0:0:
320,192,19686,1,0,0:0:0:0:
448,192,19686,1,2,0:0:0:0:
448,192,19853,1,0,0:0:0:0:
192,192,19853,1,8,0:0:0:0:
320,192,20020,1,0,0:0:0:0:
64,192,20186,1,2,0:0:0:0:
448,192,20186,128,0,20353:0:0:0:100:F#6S_Gb6S.wav
320,192,20353,1,0,0:0:0:0:
64,192,20520,1,0,0:0:0:0:
192,192,20520,1,8,0:0:0:0:
448,192,20686,1,0,0:0:0:100:E6S.wav
192,192,20770,1,8,0:0:0:0:
64,192,20770,1,0,0:0:0:0:
320,192,20853,1,0,0:0:0:0:
64,192,21020,1,2,0:0:0:0:
192,192,21020,1,0,0:0:0:100:D#6S_Eb6S.wav
64,192,21186,1,0,0:0:0:0:
448,192,21186,1,8,0:0:0:0:
448,192,21353,1,0,0:0:0:50:LR_Snare Drum 2.wav
320,192,21353,1,0,0:0:0:0:
192,192,21520,128,0,21686:0:0:0:100:C#6S_Db6S.wav
64,192,21520,1,2,0:0:0:0:
448,192,21686,1,0,0:0:0:0:
320,192,21853,128,0,22020:0:0:0:100:D#6S_Eb6S.wav
64,192,21853,1,8,0:0:0:0:
192,192,22020,128,0,22186:0:0:0:100:C#6S_Db6S.wav
320,192,22186,1,0,0:0:0:0:
64,192,22353,128,0,22520:0:0:0:100:B5S.wav
448,192,22353,1,2,0:0:0:0:
192,192,22520,1,8,0:0:0:0:
448,192,22520,1,0,0:0:0:0:
64,192,22686,1,0,0:0:0:0:
192,192,22853,128,0,23020:0:0:0:100:C#6S_Db6S.wav
320,192,22853,1,2,0:0:0:0:
448,192,23020,1,0,0:0:0:0:
320,192,23186,128,0,23353:0:0:0:100:D#6S_Eb6S.wav
64,192,23186,1,8,0:0:0:0:
192,192,23353,128,0,23520:0:0:0:100:C#6S_Db6S.wav
448,192,23520,1,0,0:0:0:0:
64,192,23686,128,0,23853:0:0:0:100:B5S.wav
320,192,23686,1,2,0:0:0:0:
192,192,23853,1,8,0:0:0:0:
320,192,23853,1,0,0:0:0:0:
64,192,24020,1,0,0:0:0:0:
192,192,24186,128,0,24353:0:0:0:100:C#6S_Db6S.wav
320,192,24186,1,2,0:0:0:0:
448,192,24353,1,0,0:0:0:0:
320,192,24520,128,0,24686:0:0:0:100:D#6S_Eb6S.wav
64,192,24520,1,8,0:0:0:0:
448,192,24686,128,0,24853:0:0:0:100:E6S.wav
64,192,24853,1,0,0:0:0:0:
320,192,25020,128,0,25186:0:0:0:100:D#6S_Eb6S.wav
192,192,25020,1,2,0:0:0:0:
448,192,25186,1,0,0:0:0:0:
192,192,25186,1,8,0:0:0:0:
320,192,25353,1,0,0:0:0:0:
448,192,25520,128,0,25686:0:0:0:100:C#6S_Db6S.wav
64,192,25520,1,2,0:0:0:0:
192,192,25686,1,0,0:0:0:0:
320,192,25853,1,0,0:0:0:0:
448,192,25853,1,8,0:0:0:0:
64,192,26020,1,0,0:0:0:100:B5S.wav
320,192,26103,1,2,0:0:0:0:
448,192,26103,1,0,0:0:0:0:
192,192,26186,1,0,0:0:0:50:LR_Snare Drum 2.wav
448,192,26353,1,2,0:0:0:0:
320,192,26353,1,0,0:0:0:100:A#5S_Bb5S.wav
192,192,26436,1,0,0:0:0:50:LR_Snare Drum 2.wav
64,192,26520,1,0,0:0:0:0:
448,192,26520,1,8,0:0:0:0:
64,192,26686,1,0,0:0:0:50:LR_Snare Drum 2.wav
320,192,26686,1,0,0:0:0:0:
192,192,26853,128,0,27020:0:0:0:100:G#5S_Ab5S.wav
448,192,26853,1,2,0:0:0:0:
320,192,27020,1,0,0:0:0:0:
448,192,27186,1,8,0:0:0:0:
64,192,27186,1,0,0:0:0:0:
192,192,27353,1,0,0:0:0:0:
320,192,27520,1,0,0:0:0:0:
192,192,27686,1,0,0:0:0:0:
64,192,27686,1,2,0:0:0:0:
320,192,27853,128,0,28020:0:0:0:100:A#5S_Bb5S.wav
64,192,27853,1,8,0:0:0:0:
192,192,28020,1,0,0:0:0:0:
320,192,28186,128,0,28353:0:0:0:100:A#5S_Bb5S.wav
64,192,28186,1,2,0:0:0:0:
448,192,28353,1,0,0:0:0:0:
320,192,28520,1,0,0:0:0:0:
192,192,28520,1,8,0:0:0:0:
64,192,28686,1,0,0:0:0:0:
448,192,28853,1,0,0:0:0:0:
64,192,29020,1,0,0:0:0:0:
320,192,29020,1,2,0:0:0:0:
192,192,29103,1,0,0:0:0:0:
448,192,29186,128,0,29353:0:0:0:100:B5S.wav
64,192,29186,1,8,0:0:0:0:
192,192,29353,1,0,0:0:0:0:
448,192,29520,128,0,29686:0:0:0:100:B5S.wav
320,192,29520,1,2,0:0:0:0:
192,192,29686,1,0,0:0:0:0:
320,192,29853,1,8,0:0:0:0:
64,192,29853,1,0,0:0:0:0:
448,192,30020,1,0,0:0:0:0:
192,192,30186,1,0,0:0:0:0:
448,192,30353,1,2,0:0:0:0:
320,192,30353,1,0,0:0:0:0:
64,192,30520,128,0,30686:0:0:0:100:F#5S_Gb5S.wav
448,192,30520,1,8,0:0:0:0:
320,192,30686,128,0,30853:0:0:0:100:B5S.wav
64,192,30853,1,2,0:0:0:0:
448,192,30853,1,0,0:0:0:100:D#6S_Eb6S.wav
320,192,31020,1,0,0:0:0:100:C#6S_Db6S.wav
64,192,31186,1,8,0:0:0:0:
192,192,31186,1,0,0:0:0:100:B5S.wav
320,192,31353,1,0,0:0:0:100:A#5S_Bb5S.wav
448,192,31436,1,8,0:0:0:0:
64,192,31436,1,0,0:0:0:0:
192,192,31520,1,0,0:0:0:50:LR_Snare Drum 2.wav
320,192,31686,1,2,0:0:0:0:
448,192,31686,1,0,0:0:0:100:B5S.wav
448,192,31853,1,8,0:0:0:0:
192,192,31853,1,0,0:0:0:100:A#5S_Bb5S.wav
64,192,32020,1,0,0:0:0:50:LR_Snare Drum 2.wav
192,192,32020,1,0,0:0:0:100:F#5S_Gb5S.wav
448,192,32186,1,2,0:0:0:40:LR_CymbalG.wav
320,192,32186,128,0,32686:0:0:0:90:B5S.wav
192,192,32353,128,0,32686:0:0:0:90:A#5S_Bb5S.wav
64,192,32520,128,0,32686:0:0:0:90:F#5S_Gb5S.wav
448,192,32686,128,0,33020:0:0:0:90:C#6S_Db6S.wav
64,192,33020,128,0,33353:0:0:0:90:B5S.wav
192,192,33186,128,0,33353:0:0:0:90:C#6S_Db6S.wav
320,192,33353,128,0,33686:0:0:0:90:D#6S_Eb6S.wav
192,192,33686,128,0,34020:0:0:0:90:E6S.wav
448,192,33853,128,0,34020:0:0:0:90:F#6S_Gb6S.wav
64,192,34020,128,0,34353:0:0:0:90:B5S.wav
320,192,34353,128,0,34520:0:0:0:90:B5S.wav
192,192,34520,128,0,34686:0:0:0:90:A#5S_Bb5S.wav
320,192,34686,128,0,34853:0:0:0:90:B5S.wav
448,192,34853,128,0,35353:0:0:0:90:B6S.wav
320,192,35020,128,0,35353:0:0:0:90:A#6S_Bb6S.wav
192,192,35186,128,0,35353:0:0:0:90:F#6S_Gb6S.wav
64,192,35353,128,0,35686:0:0:0:90:D#6S_Eb6S.wav
320,192,35686,128,0,36020:0:0:0:90:E6S.wav
448,192,35853,128,0,36020:0:0:0:90:F#6S_Gb6S.wav
192,192,36020,128,0,36353:0:0:0:90:C#6S_Db6S.wav
320,192,36353,128,0,36520:0:0:0:90:D#6S_Eb6S.wav
192,192,36520,128,0,36686:0:0:0:90:C#6S_Db6S.wav
64,192,36686,128,0,36853:0:0:0:90:B5S.wav
448,192,36853,128,0,37020:0:0:0:90:A#5S_Bb5S.wav
320,192,37020,128,0,37186:0:0:0:90:B5S.wav
192,192,37186,128,0,37353:0:0:0:90:A#5S_Bb5S.wav
64,192,37353,128,0,37520:0:0:0:90:F#5S_Gb5S.wav
320,192,37520,128,0,38020:0:0:0:90:B5S.wav
192,192,37686,128,0,38020:0:0:0:90:A#5S_Bb5S.wav
64,192,37853,128,0,38020:0:0:0:90:F#5S_Gb5S.wav
448,192,38020,128,0,38353:0:0:0:90:C#6S_Db6S.wav
64,192,38353,128,0,38686:0:0:0:90:B5S.wav
192,192,38520,128,0,38686:0:0:0:90:C#6S_Db6S.wav
320,192,38686,128,0,39020:0:0:0:90:D#6S_Eb6S.wav
192,192,39020,128,0,39353:0:0:0:90:E6S.wav
448,192,39186,128,0,39353:0:0:0:90:F#6S_Gb6S.wav
64,192,39353,128,0,39686:0:0:0:90:B5S.wav
320,192,39686,128,0,39853:0:0:0:90:B5S.wav
192,192,39853,128,0,40020:0:0:0:90:A#5S_Bb5S.wav
320,192,40020,128,0,40186:0:0:0:90:B5S.wav
64,192,40186,128,0,40686:0:0:0:90:B6S.wav
192,192,40353,128,0,40686:0:0:0:90:C#7S_Db7S.wav
448,192,40520,128,0,40686:0:0:0:90:D#7S_Eb7S.wav
320,192,40686,128,0,40770:0:0:0:90:C#7S_Db7S.wav
192,192,41020,128,0,41103:0:0:0:90:B6S.wav
64,192,41353,128,0,41436:0:0:0:90:A#6S_Bb6S.wav
448,192,41686,128,0,41853:0:0:0:90:F#6S_Gb6S.wav
320,192,41853,128,0,42020:0:0:0:90:C#6S_Db6S.wav
192,192,42020,128,0,42186:0:0:0:90:B5S.wav
64,192,42186,128,0,42353:0:0:0:90:A#5S_Bb5S.wav
192,192,42353,128,0,42520:0:0:0:90:B5S.wav
320,192,42520,128,0,42686:0:0:0:90:C#6S_Db6S.wav
448,192,42686,128,0,42853:0:0:0:70:F#6S_Gb6S.wav
64,192,42853,1,0,0:0:0:80:LR3_BassDrop.wav
320,192,42853,128,0,43353:0:0:0:70:B5S.wav
192,192,43353,128,0,43686:0:0:0:70:A#5S_Bb5S.wav
64,192,43686,128,0,44186:0:0:0:70:F#5S_Gb5S.wav
448,192,44186,128,0,44686:0:0:0:70:B5S.wav
320,192,44686,128,0,45020:0:0:0:70:A#5S_Bb5S.wav
192,192,45020,128,0,45520:0:0:0:70:F#5S_Gb5S.wav
448,192,45520,128,0,46020:0:0:0:70:B5S.wav
64,192,45520,1,0,0:0:0:20:normal-hitwhistle.wav
320,192,46020,128,0,46353:0:0:0:70:A#5S_Bb5S.wav
192,192,46353,128,0,46686:0:0:0:70:D#5S_Eb5S.wav
64,192,46686,128,0,47186:0:0:0:70:C#5S_Db5S.wav
320,192,47186,128,0,47520:0:0:0:70:B4S.wav
192,192,47520,128,0,47686:0:0:0:70:A#4S_Bb4S.wav
320,192,47686,128,0,47853:0:0:0:70:B4S.wav
192,192,47853,128,0,48020:0:0:0:57:A#4S_Bb4S.wav
64,192,48020,128,0,48186:0:0:0:70:F#4S_Gb4S.wav
448,192,48186,128,0,48686:0:0:0:80:B6S.wav
320,192,48186,1,0,0:0:0:20:normal-hitwhistle.wav
320,192,48686,128,0,49020:0:0:0:80:A#6S_Bb6S.wav
64,192,49020,128,0,49520:0:0:0:80:F#6S_Gb6S.wav
448,192,49520,128,0,50020:0:0:0:80:B6S.wav
320,192,50020,128,0,50353:0:0:0:80:A#6S_Bb6S.wav
64,192,50353,128,0,50520:0:0:0:80:F#6S_Gb6S.wav
192,192,50520,128,0,50686:0:0:0:80:B6S.wav
320,192,50686,128,0,50853:0:0:0:80:C#7S_Db7S.wav
448,192,50853,128,0,51353:0:0:0:80:D#7S_Eb7S.wav
64,192,50853,1,0,0:0:0:20:normal-hitwhistle.wav
192,192,51353,128,0,51686:0:0:0:80:F#7S_Gb7S.wav
320,192,51686,128,0,51853:0:0:0:80:E7S.wav
192,192,51853,128,0,52020:0:0:0:80:D#7S_Eb7S.wav
64,192,52020,128,0,52520:0:0:0:80:C#7S_Db7S.wav
320,192,52186,1,0,0:0:0:20:normal-hitwhistle.wav
192,192,52520,128,0,52853:0:0:0:80:A#6S_Bb6S.wav
320,192,52853,128,0,53186:0:0:0:80:B6S.wav
448,192,53186,128,0,53520:0:0:0:80:C#7S_Db7S.wav
192,192,53520,1,6,0:0:0:0:
320,192,53520,128,0,53686:0:0:0:90:B5S.wav
64,192,53686,128,0,53853:0:0:0:90:F#5S_Gb5S.wav
192,192,53853,1,8,0:0:0:0:
448,192,53853,128,0,54020:0:0:0:90:F#6S_Gb6S.wav
320,192,54020,128,0,54353:0:0:0:90:A#5S_Bb5S.wav
192,192,54353,128,0,54853:0:0:0:90:F#5S_Gb5S.wav
64,192,54353,1,2,0:0:0:0:
448,192,54520,1,8,0:0:0:0:
320,192,54520,1,0,0:0:0:0:
320,192,54853,128,0,55020:0:0:0:90:B5S.wav
448,192,54853,1,2,0:0:0:0:
64,192,55020,128,0,55186:0:0:0:90:F#5S_Gb5S.wav
448,192,55186,128,0,55353:0:0:0:90:F#6S_Gb6S.wav
192,192,55186,1,8,0:0:0:0:
320,192,55353,128,0,55686:0:0:0:90:A#5S_Bb5S.wav
192,192,55686,128,0,56186:0:0:0:90:F#5S_Gb5S.wav
64,192,55686,1,2,0:0:0:0:
448,192,55853,1,8,0:0:0:0:
320,192,55853,1,0,0:0:0:0:
320,192,56186,128,0,56353:0:0:0:90:B5S.wav
448,192,56186,1,2,0:0:0:0:
64,192,56353,128,0,56520:0:0:0:90:F#5S_Gb5S.wav
448,192,56520,128,0,56686:0:0:0:90:F#6S_Gb6S.wav
192,192,56520,1,8,0:0:0:0:
320,192,56686,128,0,57020:0:0:0:90:A#5S_Bb5S.wav
64,192,57020,128,0,57353:0:0:0:90:B5S.wav
192,192,57020,1,2,0:0:0:0:
448,192,57186,1,8,0:0:0:0:
320,192,57186,1,0,0:0:0:0:
192,192,57353,128,0,57853:0:0:0:90:C#6S_Db6S.wav
64,192,57520,1,2,0:0:0:0:
448,192,57520,1,0,0:0:0:50:LR_Snare Drum 2.wav
448,192,57853,1,0,0:0:0:0:
64,192,57853,1,0,0:0:0:45:LR_Snare Drum 2.wav
448,192,58020,1,2,0:0:0:0:
192,192,58020,1,0,0:0:0:90:D#6S_Eb6S.wav
320,192,58186,1,2,0:0:0:0:
192,192,58186,1,0,0:0:0:0:
64,192,58353,1,0,0:0:0:45:LR_Snare Drum 2.wav
448,192,58353,1,0,0:0:0:90:C#6S_Db6S.wav
192,192,58520,1,8,0:0:0:0:
448,192,58520,1,0,0:0:0:90:B5S.wav
320,192,58603,1,0,0:0:0:0:
64,192,58686,1,0,0:0:0:90:A#5S_Bb5S.wav
192,192,58770,1,0,0:0:0:0:
320,192,58853,128,0,59020:0:0:0:90:B5S.wav
448,192,58853,1,6,0:0:0:0:
64,192,59020,128,0,59186:0:0:0:90:F#5S_Gb5S.wav
448,192,59186,128,0,59353:0:0:0:90:F#6S_Gb6S.wav
192,192,59186,1,8,0:0:0:0:
320,192,59353,128,0,59686:0:0:0:90:A#5S_Bb5S.wav
192,192,59686,128,0,60186:0:0:0:90:F#5S_Gb5S.wav
64,192,59686,1,2,0:0:0:0:
448,192,59853,1,8,0:0:0:0:
320,192,59853,1,0,0:0:0:0:
320,192,60186,128,0,60353:0:0:0:90:B5S.wav
448,192,60186,1,2,0:0:0:0:
64,192,60353,128,0,60520:0:0:0:90:F#5S_Gb5S.wav
448,192,60520,128,0,60686:0:0:0:90:F#6S_Gb6S.wav
192,192,60520,1,8,0:0:0:0:
320,192,60686,128,0,61020:0:0:0:90:A#5S_Bb5S.wav
64,192,61020,128,0,61186:0:0:0:90:F#5S_Gb5S.wav
192,192,61020,1,2,0:0:0:0:
320,192,61186,128,0,61353:0:0:0:90:B5S.wav
448,192,61186,1,8,0:0:0:0:
192,192,61353,128,0,61520:0:0:0:90:C#6S_Db6S.wav
448,192,61520,128,0,62353:0:0:0:90:D#6S_Eb6S.wav
64,192,61520,1,2,0:0:0:0:
192,192,61686,1,0,0:0:0:0:
320,192,61853,1,8,0:0:0:0:
64,192,61853,1,0,0:0:0:0:
192,192,62020,1,0,0:0:0:0:
320,192,62186,1,0,0:0:0:0:
192,192,62353,128,0,62520:0:0:0:90:E6S.wav
64,192,62353,1,2,0:0:0:0:
320,192,62520,128,0,62686:0:0:0:90:F#6S_Gb6S.wav
448,192,62520,1,8,0:0:0:0:
64,192,62686,128,0,63186:0:0:0:90:C#6S_Db6S.wav
448,192,62853,1,2,0:0:0:0:
192,192,63020,1,0,0:0:0:0:
320,192,63186,1,8,0:0:0:0:
448,192,63186,1,0,0:0:0:90:B5S.wav
192,192,63353,1,0,0:0:0:50:LR_Snare Drum 2.wav
320,192,63436,1,0,0:0:0:0:
448,192,63436,1,8,0:0:0:0:
64,192,63520,1,0,0:0:0:90:A#5S_Bb5S.wav
192,192,63686,1,2,0:0:0:0:
320,192,63686,1,0,0:0:0:0:
320,192,63853,1,8,0:0:0:0:
64,192,63853,1,0,0:0:0:90:F#5S_Gb5S.wav
448,192,64020,1,0,0:0:0:45:LR_Snare Drum 2.wav
192,192,64186,1,2,0:0:0:0:
320,192,64186,128,0,64353:0:0:0:100:B5S.wav
64,192,64186,1,4,0:0:0:0:
64,192,64353,128,0,64520:0:0:0:100:A#5S_Bb5S.wav
192,192,64520,128,0,64686:0:0:0:100:B5S.wav
448,192,64520,1,8,0:0:0:0:
320,192,64686,128,0,65020:0:0:0:100:C#6S_Db6S.wav
448,192,64853,1,0,0:0:0:0:
192,192,65020,128,0,65186:0:0:0:100:B5S.wav
64,192,65020,1,2,0:0:0:0:
320,192,65186,128,0,65353:0:0:0:100:C#6S_Db6S.wav
64,192,65186,1,8,0:0:0:0:
448,192,65353,128,0,65686:0:0:0:100:D#6S_Eb6S.wav
192,192,65520,1,2,0:0:0:0:
320,192,65686,128,0,65853:0:0:0:100:E6S.wav
448,192,65853,128,0,66020:0:0:0:100:F#6S_Gb6S.wav
64,192,65853,1,8,0:0:0:0:
192,192,66020,128,0,66353:0:0:0:100:B5S.wav
64,192,66186,1,0,0:0:0:0:
320,192,66353,1,0,0:0:0:0:
448,192,66353,1,2,0:0:0:0:
64,192,66520,128,0,66686:0:0:0:100:A#5S_Bb5S.wav
448,192,66520,1,8,0:0:0:0:
192,192,66686,128,0,66853:0:0:0:100:B5S.wav
448,192,66853,128,0,67020:0:0:0:100:B6S.wav
64,192,66853,1,2,0:0:0:0:
320,192,67020,128,0,67186:0:0:0:100:A#6S_Bb6S.wav
192,192,67186,128,0,67353:0:0:0:100:F#6S_Gb6S.wav
448,192,67186,1,8,0:0:0:0:
64,192,67353,128,0,67686:0:0:0:100:D#6S_Eb6S.wav
192,192,67520,1,0,0:0:0:0:
320,192,67686,128,0,67853:0:0:0:100:E6S.wav
448,192,67686,1,2,0:0:0:0:
448,192,67853,128,0,68020:0:0:0:100:F#6S_Gb6S.wav
64,192,67853,1,8,0:0:0:0:
192,192,68020,128,0,68353:0:0:0:100:C#6S_Db6S.wav
448,192,68186,1,2,0:0:0:0:
320,192,68353,1,0,0:0:0:100:D#6S_Eb6S.wav
448,192,68520,1,8,0:0:0:0:
64,192,68520,1,0,0:0:0:100:C#6S_Db6S.wav
192,192,68686,1,0,0:0:0:100:B5S.wav
320,192,68770,1,2,0:0:0:0:
448,192,68770,1,0,0:0:0:0:
64,192,68853,1,0,0:0:0:100:A#5S_Bb5S.wav
320,192,69020,1,0,0:0:0:50:LR_Snare Drum 2.wav
192,192,69103,1,2,0:0:0:0:
64,192,69103,1,0,0:0:0:0:
448,192,69186,1,8,0:0:0:0:
320,192,69186,1,0,0:0:0:0:
192,192,69353,1,0,0:0:0:100:F#5S_Gb5S.wav
448,192,69353,1,0,0:0:0:50:LR_Snare Drum 2.wav
320,192,69520,128,0,69686:0:0:0:100:B5S.wav
64,192,69520,1,2,0:0:0:0:
192,192,69686,128,0,69853:0:0:0:100:A#5S_Bb5S.wav
64,192,69853,128,0,70020:0:0:0:100:F#5S_Gb5S.wav
448,192,69853,1,8,0:0:0:0:
320,192,70020,128,0,70353:0:0:0:100:C#6S_Db6S.wav
448,192,70186,1,0,0:0:0:0:
192,192,70353,128,0,70520:0:0:0:100:B5S.wav
64,192,70353,1,2,0:0:0:0:
320,192,70520,128,0,70686:0:0:0:100:C#6S_Db6S.wav
64,192,70520,1,8,0:0:0:0:
448,192,70686,128,0,71020:0:0:0:100:D#6S_Eb6S.wav
192,192,70853,1,2,0:0:0:0:
320,192,71020,128,0,71186:0:0:0:100:E6S.wav
448,192,71186,128,0,71353:0:0:0:100:F#6S_Gb6S.wav
64,192,71186,1,8,0:0:0:0:
192,192,71353,128,0,71686:0:0:0:100:B5S.wav
64,192,71520,1,0,0:0:0:0:
320,192,71686,1,2,0:0:0:0:
448,192,71686,1,0,0:0:0:0:
64,192,71853,128,0,72020:0:0:0:100:A#5S_Bb5S.wav
448,192,71853,1,8,0:0:0:0:
320,192,72020,128,0,72186:0:0:0:100:B5S.wav
64,192,72186,1,2,0:0:0:0:
192,192,72186,128,0,72353:0:0:0:100:B6S.wav
320,192,72353,128,0,72520:0:0:0:100:C#7S_Db7S.wav
192,192,72520,1,8,0:0:0:0:
448,192,72520,128,0,72686:0:0:0:100:D#7S_Eb7S.wav
320,192,72686,128,0,72853:0:0:0:100:C#7S_Db7S.wav
64,192,72853,1,0,0:0:0:0:
320,192,73020,1,2,0:0:0:0:
192,192,73020,128,0,73186:0:0:0:100:B6S.wav
320,192,73186,1,0,0:0:0:0:
448,192,73186,1,8,0:0:0:0:
64,192,73353,128,0,73520:0:0:0:100:A#6S_Bb6S.wav
192,192,73520,1,0,0:0:0:0:
448,192,73520,1,2,0:0:0:0:
320,192,73686,1,0,0:0:0:100:A#6S_Bb6S.wav
448,192,73770,1,0,0:0:0:100:B6S.wav
64,192,73853,1,8,0:0:0:0:
320,192,73853,1,0,0:0:0:100:A#6S_Bb6S.wav
448,192,74020,1,0,0:0:0:100:F#6S_Gb6S.wav
192,192,74103,1,8,0:0:0:0:
64,192,74103,1,0,0:0:0:0:
320,192,74186,1,0,0:0:0:100:C#6S_Db6S.wav
64,192,74353,1,2,0:0:0:0:
192,192,74353,1,0,0:0:0:0:
64,192,74520,1,8,0:0:0:0:
320,192,74520,1,0,0:0:0:100:A#5S_Bb5S.wav
192,192,74686,1,0,0:0:0:50:LR_Snare Drum 2.wav
320,192,74686,1,0,0:0:0:100:F#5S_Gb5S.wav
448,192,74853,128,0,75020:0:0:0:100:B5S.wav
64,192,74853,1,2,0:0:0:0:
320,192,75020,128,0,75186:0:0:0:100:A#5S_Bb5S.wav
192,192,75186,1,8,0:0:0:0:
64,192,75186,128,0,75353:0:0:0:100:F#5S_Gb5S.wav
448,192,75353,128,0,75686:0:0:0:100:C#6S_Db6S.wav
64,192,75520,1,0,0:0:0:0:
192,192,75686,128,0,75853:0:0:0:100:B5S.wav
320,192,75686,1,2,0:0:0:0:
320,192,75853,128,0,76020:0:0:0:100:C#6S_Db6S.wav
64,192,75853,1,8,0:0:0:0:
448,192,76020,128,0,76353:0:0:0:100:D#6S_Eb6S.wav
192,192,76186,1,2,0:0:0:0:
320,192,76353,128,0,76520:0:0:0:100:E6S.wav
448,192,76520,128,0,76686:0:0:0:100:F#6S_Gb6S.wav
64,192,76520,1,8,0:0:0:0:
192,192,76686,128,0,77020:0:0:0:100:B5S.wav
448,192,76853,1,0,0:0:0:0:
64,192,77020,1,2,0:0:0:0:
320,192,77020,1,0,0:0:0:100:B5S.wav
448,192,77103,1,0,0:0:0:100:C#6S_Db6S.wav
192,192,77186,1,8,0:0:0:0:
320,192,77186,1,0,0:0:0:100:B5S.wav
64,192,77270,1,0,0:0:0:100:A#5S_Bb5S.wav
192,192,77353,1,0,0:0:0:100:B5S.wav
320,192,77436,1,0,0:0:0:100:C#6S_Db6S.wav
64,192,77520,128,0,77686:0:0:0:100:D#6S_Eb6S.wav
448,192,77520,1,2,0:0:0:0:
192,192,77686,128,0,77853:0:0:0:100:E6S.wav
320,192,77853,128,0,78020:0:0:0:100:F#6S_Gb6S.wav
64,192,77853,1,8,0:0:0:0:
448,192,78020,128,0,78353:0:0:0:100:B6S.wav
64,192,78186,1,0,0:0:0:0:
320,192,78353,128,0,78520:0:0:0:100:A#6S_Bb6S.wav
192,192,78353,1,2,0:0:0:0:
192,192,78520,128,0,78686:0:0:0:100:F#6S_Gb6S.wav
448,192,78520,1,8,0:0:0:0:
64,192,78686,128,0,79020:0:0:0:100:C#6S_Db6S.wav
320,192,78853,1,2,0:0:0:0:
192,192,79020,1,0,0:0:0:100:C#6S_Db6S.wav
320,192,79103,1,0,0:0:0:100:D#6S_Eb6S.wav
448,192,79186,1,8,0:0:0:0:
192,192,79186,128,0,79353:0:0:0:100:C#6S_Db6S.wav
64,192,79353,128,0,79520:0:0:0:100:B5S.wav
320,192,79520,128,0,79686:0:0:0:100:A#5S_Bb5S.wav
448,192,79686,128,0,79853:0:0:0:100:B5S.wav
64,192,79686,1,2,0:0:0:0:
320,192,79853,128,0,80020:0:0:0:100:A#5S_Bb5S.wav
64,192,79853,1,8,0:0:0:0:
192,192,80020,128,0,80186:0:0:0:100:F#5S_Gb5S.wav
320,192,80186,128,0,80353:0:0:0:100:B5S.wav
448,192,80186,1,2,0:0:0:0:
64,192,80353,128,0,80520:0:0:0:100:F#5S_Gb5S.wav
192,192,80520,128,0,80686:0:0:0:100:A#5S_Bb5S.wav
448,192,80520,1,8,0:0:0:0:
320,192,80686,128,0,81020:0:0:0:100:B5S.wav
448,192,80853,1,0,0:0:0:0:
192,192,81020,128,0,81186:0:0:0:100:B5S.wav
64,192,81020,1,2,0:0:0:0:
320,192,81186,128,0,81353:0:0:0:100:C#6S_Db6S.wav
64,192,81186,1,8,0:0:0:0:
448,192,81353,128,0,81686:0:0:0:100:D#6S_Eb6S.wav
192,192,81520,1,2,0:0:0:0:
64,192,81686,128,0,81853:0:0:0:100:E6S.wav
192,192,81853,128,0,82020:0:0:0:100:F#6S_Gb6S.wav
448,192,81853,1,8,0:0:0:0:
320,192,82020,128,0,82353:0:0:0:100:B6S.wav
192,192,82186,1,0,0:0:0:0:
448,192,82353,1,2,0:0:0:0:
64,192,82353,1,0,0:0:0:100:F#6S_Gb6S.wav
448,192,82520,1,8,0:0:0:0:
192,192,82520,1,0,0:0:0:100:B6S.wav
64,192,82603,1,0,0:0:0:100:F#6S_Gb6S.wav
192,192,82686,1,0,0:0:0:100:B6S.wav
320,192,82770,1,0,0:0:0:100:C#7S_Db7S.wav
64,192,82853,1,2,0:0:0:0:
448,192,82853,128,0,83020:0:0:0:100:D#7S_Eb7S.wav
320,192,83020,128,0,83186:0:0:0:100:B6S.wav
448,192,83186,1,8,0:0:0:0:
64,192,83186,128,0,83353:0:0:0:100:F#6S_Gb6S.wav
448,192,83353,128,0,83686:0:0:0:100:C#7S_Db7S.wav
192,192,83520,1,0,0:0:0:0:
64,192,83686,1,2,0:0:0:0:
320,192,83686,128,0,83853:0:0:0:100:B6S.wav
448,192,83853,1,8,0:0:0:0:
64,192,83853,1,0,0:0:0:100:A#6S_Bb6S.wav
320,192,83936,1,0,0:0:0:100:B6S.wav
192,192,84020,128,0,84186:0:0:0:100:F#6S_Gb6S.wav
448,192,84186,1,0,0:0:0:0:
64,192,84186,1,2,0:0:0:0:
320,192,84353,1,0,0:0:0:100:E6S.wav
64,192,84520,1,8,0:0:0:0:
192,192,84520,1,0,0:0:0:100:D#6S_Eb6S.wav
320,192,84686,1,0,0:0:0:100:C#6S_Db6S.wav
64,192,84770,1,8,0:0:0:0:
192,192,84770,1,0,0:0:0:0:
448,192,84853,128,0,85020:0:0:0:100:E6S.wav
320,192,85020,128,0,85186:0:0:0:100:D#6S_Eb6S.wav
64,192,85020,1,2,0:0:0:0:
192,192,85186,128,0,85353:0:0:0:100:C#6S_Db6S.wav
64,192,85353,128,0,85520:0:0:0:70:A#5S_Bb5S.wav
192,192,85520,1,6,0:0:0:0:
320,192,85520,128,0,85686:0:0:0:90:B5S.wav
448,192,85520,1,0,0:0:0:0:
64,192,85686,128,0,85853:0:0:0:90:F#5S_Gb5S.wav
192,192,85853,128,0,86020:0:0:0:90:B5S.wav
320,192,85853,1,8,0:0:0:0:
448,192,86020,128,0,86353:0:0:0:90:F#6S_Gb6S.wav
192,192,86186,1,0,0:0:0:0:
320,192,86353,1,2,0:0:0:0:
64,192,86353,128,0,86520:0:0:0:90:B5S.wav
192,192,86520,128,0,86853:0:0:0:90:C#6S_Db6S.wav
320,192,86520,1,8,0:0:0:0:
448,192,86686,1,0,0:0:0:0:
64,192,86853,128,0,87020:0:0:0:90:F#5S_Gb5S.wav
320,192,86853,1,2,0:0:0:0:
192,192,87020,128,0,87186:0:0:0:90:A#5S_Bb5S.wav
320,192,87186,128,0,87353:0:0:0:90:B5S.wav
64,192,87186,1,8,0:0:0:0:
448,192,87353,128,0,87686:0:0:0:90:F#6S_Gb6S.wav
64,192,87520,1,0,0:0:0:0:
320,192,87686,128,0,87853:0:0:0:90:C#6S_Db6S.wav
192,192,87686,1,2,0:0:0:0:
192,192,87853,128,0,88020:0:0:0:90:B5S.wav
448,192,87853,1,8,0:0:0:0:
64,192,88020,128,0,88186:0:0:0:90:A#5S_Bb5S.wav
192,192,88186,128,0,88353:0:0:0:90:B5S.wav
448,192,88186,1,2,0:0:0:0:
64,192,88353,128,0,88520:0:0:0:90:A#5S_Bb5S.wav
320,192,88520,128,0,88686:0:0:0:90:B5S.wav
192,192,88520,1,8,0:0:0:0:
448,192,88686,128,0,88853:0:0:0:90:F#6S_Gb6S.wav
192,192,88853,128,0,89020:0:0:0:90:G#5S_Ab5S.wav
64,192,89020,128,0,89186:0:0:0:90:F#5S_Gb5S.wav
448,192,89020,1,2,0:0:0:0:
448,192,89186,128,0,89520:0:0:0:90:C#6S_Db6S.wav
320,192,89186,1,8,0:0:0:0:
192,192,89353,1,0,0:0:0:0:
64,192,89520,128,0,89686:0:0:0:90:F#5S_Gb5S.wav
320,192,89520,1,2,0:0:0:0:
192,192,89686,128,0,89853:0:0:0:90:A#5S_Bb5S.wav
320,192,89853,128,0,90020:0:0:0:90:B5S.wav
448,192,89853,1,8,0:0:0:0:
64,192,90020,1,0,0:0:0:90:F#5S_Gb5S.wav
448,192,90103,1,2,0:0:0:0:
320,192,90103,1,0,0:0:0:0:
192,192,90186,1,0,0:0:0:50:LR_Snare Drum 2.wav
64,192,90353,1,0,0:0:0:90:C#6S_Db6S.wav
320,192,90353,1,2,0:0:0:0:
192,192,90436,1,0,0:0:0:50:LR_Snare Drum 2.wav
64,192,90520,1,0,0:0:0:90:B5S.wav
448,192,90520,1,0,0:0:0:50:LR_Snare Drum 2.wav
448,192,90686,1,0,0:0:0:50:LR_Snare Drum 2.wav
192,192,90686,1,0,0:0:0:0:
64,192,90853,128,0,91020:0:0:0:90:F#5S_Gb5S.wav
320,192,90853,1,2,0:0:0:0:
192,192,91020,128,0,91186:0:0:0:90:A#5S_Bb5S.wav
320,192,91186,128,0,91353:0:0:0:90:B5S.wav
64,192,91186,1,8,0:0:0:0:
448,192,91353,128,0,91686:0:0:0:90:F#6S_Gb6S.wav
192,192,91520,1,0,0:0:0:0:
64,192,91686,128,0,91853:0:0:0:90:B5S.wav
320,192,91686,1,2,0:0:0:0:
192,192,91853,128,0,92186:0:0:0:90:C#6S_Db6S.wav
320,192,91853,1,8,0:0:0:0:
448,192,92020,1,0,0:0:0:0:
64,192,92186,128,0,92353:0:0:0:90:F#5S_Gb5S.wav
320,192,92186,1,2,0:0:0:0:
192,192,92353,128,0,92520:0:0:0:90:A#5S_Bb5S.wav
320,192,92520,128,0,92686:0:0:0:90:B5S.wav
64,192,92520,1,8,0:0:0:0:
448,192,92686,128,0,93020:0:0:0:90:F#6S_Gb6S.wav
192,192,92853,1,0,0:0:0:0:
320,192,93020,1,0,0:0:0:90:E6S.wav
192,192,93103,1,0,0:0:0:90:D#6S_Eb6S.wav
64,192,93186,128,0,93353:0:0:0:90:C#6S_Db6S.wav
320,192,93186,1,8,0:0:0:0:
448,192,93353,128,0,93520:0:0:0:90:A#5S_Bb5S.wav
192,192,93520,128,0,93686:0:0:0:90:B5S.wav
320,192,93520,1,2,0:0:0:0:
64,192,93686,128,0,93853:0:0:0:90:A#5S_Bb5S.wav
320,192,93853,128,0,94020:0:0:0:90:B5S.wav
192,192,93853,1,8,0:0:0:0:
448,192,94020,128,0,94186:0:0:0:90:F#6S_Gb6S.wav
192,192,94186,128,0,94353:0:0:0:90:G#5S_Ab5S.wav
64,192,94353,128,0,94520:0:0:0:90:F#5S_Gb5S.wav
448,192,94353,1,2,0:0:0:0:
448,192,94520,128,0,94853:0:0:0:90:C#6S_Db6S.wav
320,192,94520,1,8,0:0:0:0:
192,192,94686,1,0,0:0:0:0:
64,192,94853,128,0,95020:0:0:0:90:F#5S_Gb5S.wav
320,192,94853,1,2,0:0:0:0:
192,192,95020,128,0,95186:0:0:0:90:A#5S_Bb5S.wav
320,192,95186,128,0,95353:0:0:0:90:B5S.wav
448,192,95186,1,8,0:0:0:0:
64,192,95353,1,0,0:0:0:90:F#5S_Gb5S.wav
448,192,95436,1,8,0:0:0:0:
320,192,95436,1,0,0:0:0:0:
192,192,95520,1,0,0:0:0:50:LR_Snare Drum 2.wav
64,192,95686,1,2,0:0:0:0:
448,192,95686,128,0,95853:0:0:0:90:C#6S_Db6S.wav
320,192,95853,128,0,96186:0:0:0:90:B5S.wav
192,192,96020,1,0,0:0:0:50:LR_Snare Drum 2.wav
448,192,96186,1,2,0:0:0:0:
192,192,96186,128,0,96686:0:0:0:100:B6S.wav
64,192,96353,1,0,0:0:0:0:
448,192,96520,1,8,0:0:0:0:
320,192,96520,1,0,0:0:0:0:
64,192,96686,128,0,97186:0:0:0:100:A#6S_Bb6S.wav
448,192,96853,1,0,0:0:0:0:
320,192,97020,1,2,0:0:0:0:
192,192,97186,128,0,97520:0:0:0:100:B6S.wav
448,192,97186,1,8,0:0:0:0:
64,192,97353,1,0,0:0:0:0:
320,192,97520,128,0,98020:0:0:0:100:C#7S_Db7S.wav
448,192,97520,1,2,0:0:0:0:
192,192,97686,1,0,0:0:0:0:
64,192,97853,1,8,0:0:0:0:
448,192,97853,1,0,0:0:0:0:
192,192,98020,128,0,98520:0:0:0:100:B6S.wav
320,192,98186,1,0,0:0:0:0:
64,192,98353,1,2,0:0:0:0:
320,192,98520,128,0,98853:0:0:0:100:C#7S_Db7S.wav
448,192,98520,1,8,0:0:0:0:
192,192,98686,1,0,0:0:0:0:
448,192,98853,128,0,99853:0:0:0:100:D#7S_Eb7S.wav
64,192,98853,1,2,0:0:0:0:
192,192,99020,1,0,0:0:0:0:
64,192,99186,1,8,0:0:0:0:
320,192,99186,1,0,0:0:0:0:
192,192,99353,1,0,0:0:0:0:
64,192,99520,1,0,0:0:0:0:
320,192,99686,1,2,0:0:0:0:
192,192,99853,128,0,100186:0:0:0:100:B6S.wav
64,192,99853,1,8,0:0:0:0:
448,192,100020,1,0,0:0:0:0:
64,192,100186,128,0,100686:0:0:0:100:A#6S_Bb6S.wav
320,192,100186,1,2,0:0:0:0:
192,192,100353,1,0,0:0:0:0:
320,192,100520,1,8,0:0:0:0:
448,192,100520,1,0,0:0:0:0:
192,192,100686,1,0,0:0:0:100:B6S.wav
320,192,100770,1,2,0:0:0:0:
448,192,100770,1,0,0:0:0:0:
64,192,100853,1,0,0:0:0:50:LR_Snare Drum 2.wav
448,192,101020,1,0,0:0:0:50:LR_Snare Drum 2.wav
192,192,101020,1,2,0:0:0:0:
320,192,101103,1,0,0:0:0:50:LR_Snare Drum 2.wav
448,192,101186,1,0,0:0:0:100:C#7S_Db7S.wav
64,192,101186,1,0,0:0:0:50:LR_Snare Drum 2.wav
64,192,101353,1,0,0:0:0:50:LR_Snare Drum 2.wav
320,192,101353,1,0,0:0:0:0:
192,192,101520,128,0,102020:0:0:0:100:B6S.wav
448,192,101520,1,2,0:0:0:0:
64,192,101686,1,0,0:0:0:0:
448,192,101853,1,8,0:0:0:0:
320,192,101853,1,0,0:0:0:0:
64,192,102020,128,0,102520:0:0:0:100:F#6S_Gb6S.wav
448,192,102186,1,0,0:0:0:0:
192,192,102353,1,2,0:0:0:0:
448,192,102520,128,0,102853:0:0:0:100:F#7S_Gb7S.wav
320,192,102520,1,8,0:0:0:0:
64,192,102686,1,0,0:0:0:0:
320,192,102853,128,0,103186:0:0:0:100:E7S.wav
192,192,102853,1,2,0:0:0:0:
64,192,103020,1,0,0:0:0:0:
192,192,103186,128,0,103353:0:0:0:100:D#7S_Eb7S.wav
448,192,103186,1,8,0:0:0:0:
64,192,103353,128,0,103686:0:0:0:100:C#7S_Db7S.wav
192,192,103520,1,0,0:0:0:0:
448,192,103686,128,0,104186:0:0:0:100:B6S.wav
320,192,103686,1,2,0:0:0:0:
192,192,103770,1,0,0:0:0:0:
64,192,103853,1,8,0:0:0:0:
192,192,104020,1,0,0:0:0:0:
320,192,104186,128,0,105186:0:0:0:100:D#7S_Eb7S.wav
64,192,104186,1,2,0:0:0:0:
448,192,104353,1,0,0:0:0:0:
192,192,104520,1,8,0:0:0:0:
64,192,104520,1,0,0:0:0:0:
448,192,104686,1,0,0:0:0:0:
192,192,104853,1,0,0:0:0:0:
64,192,105020,1,2,0:0:0:0:
192,192,105186,128,0,105520:0:0:0:100:B6S.wav
448,192,105186,1,8,0:0:0:0:
64,192,105353,1,0,0:0:0:0:
320,192,105520,128,0,105853:0:0:0:100:C#7S_Db7S.wav
448,192,105520,1,2,0:0:0:0:
64,192,105686,1,0,0:0:0:0:
192,192,105853,128,0,106020:0:0:0:100:B6S.wav
448,192,105853,1,8,0:0:0:0:
64,192,106020,1,0,0:0:0:100:A#6S_Bb6S.wav
320,192,106103,1,8,0:0:0:0:
448,192,106103,1,0,0:0:0:0:
64,192,106186,1,0,0:0:0:50:LR_Snare Drum 2.wav
192,192,106353,128,0,106686:0:0:0:100:C#7S_Db7S.wav
320,192,106353,1,2,0:0:0:0:
448,192,106686,1,0,0:0:0:50:LR_Snare Drum 2.wav
320,192,106686,1,0,0:0:0:0:
192,192,106853,128,0,107853:0:0:0:100:B6S.wav
64,192,106853,1,2,0:0:0:0:
320,192,107020,1,0,0:0:0:0:
448,192,107186,1,8,0:0:0:0:
64,192,107186,1,0,0:0:0:0:
320,192,107353,1,0,0:0:0:0:
64,192,107520,1,0,0:0:0:0:
320,192,107686,1,2,0:0:0:0:
64,192,107853,128,0,108186:0:0:0:100:F#6S_Gb6S.wav
448,192,107853,1,8,0:0:0:0:
320,192,108020,1,0,0:0:0:0:
192,192,108186,128,0,108520:0:0:0:100:C#7S_Db7S.wav
448,192,108186,1,2,0:0:0:0:
64,192,108353,1,0,0:0:0:0:
320,192,108520,128,0,108686:0:0:0:100:D#7S_Eb7S.wav
448,192,108520,1,8,0:0:0:0:
448,192,108686,128,0,109020:0:0:0:100:E7S.wav
64,192,108853,1,0,0:0:0:0:
320,192,109020,128,0,109353:0:0:0:100:D#7S_Eb7S.wav
192,192,109020,1,2,0:0:0:0:
64,192,109186,1,8,0:0:0:0:
448,192,109186,1,0,0:0:0:0:
192,192,109353,1,0,0:0:0:0:
320,192,109520,128,0,110520:0:0:0:90:D#7S_Eb7S.wav
448,192,109520,1,2,0:0:0:0:
192,192,109686,1,0,0:0:0:0:
64,192,109853,1,8,0:0:0:0:
448,192,109853,1,0,0:0:0:0:
192,192,110020,1,0,0:0:0:0:
64,192,110186,1,0,0:0:0:0:
448,192,110353,1,2,0:0:0:0:
64,192,110520,128,0,110853:0:0:0:88:F#6S_Gb6S.wav
192,192,110520,1,8,0:0:0:0:
448,192,110686,1,0,0:0:0:0:
320,192,110853,128,0,111186:0:0:0:86:C#7S_Db7S.wav
192,192,110853,1,2,0:0:0:0:
64,192,111020,1,0,0:0:0:0:
448,192,111186,128,0,111353:0:0:0:84:D#7S_Eb7S.wav
192,192,111186,1,8,0:0:0:0:
320,192,111353,128,0,111686:0:0:0:82:C#7S_Db7S.wav
64,192,111520,1,0,0:0:0:0:
192,192,111686,128,0,112186:0:0:0:80:B6S.wav
448,192,111686,1,2,0:0:0:0:
64,192,111853,1,8,0:0:0:0:
320,192,111853,1,0,0:0:0:0:
448,192,112020,1,0,0:0:0:0:
64,192,112186,128,0,113186:0:0:0:78:G#6S_Ab6S.wav
320,192,112186,1,2,0:0:0:0:
192,192,112353,1,0,0:0:0:0:
448,192,112520,1,8,0:0:0:0:
320,192,112520,1,0,0:0:0:0:
192,192,112686,1,0,0:0:0:0:
448,192,112853,1,0,0:0:0:0:
192,192,113020,1,2,0:0:0:0:
320,192,113186,128,0,113520:0:0:0:76:D#7S_Eb7S.wav
448,192,113186,1,8,0:0:0:0:
192,192,113520,128,0,114520:0:0:0:74:C#7S_Db7S.wav
64,192,113520,1,2,0:0:0:0:
320,192,113686,1,0,0:0:0:0:
448,192,113853,1,8,0:0:0:0:
64,192,113853,1,0,0:0:0:0:
320,192,114020,1,0,0:0:0:0:
64,192,114186,1,0,0:0:0:0:
320,192,114353,1,2,0:0:0:0:
64,192,114520,128,0,114686:0:0:0:72:B6S.wav
448,192,114520,1,8,0:0:0:0:
64,192,114853,128,0,115020:0:0:0:70:B6S.wav
448,192,114853,1,2,0:0:0:0:
320,192,115020,1,0,0:0:0:70:C#6S_Db6S.wav
192,192,115186,1,0,0:0:0:70:B6S.wav
64,192,115353,128,0,115686:0:0:0:70:A#6S_Bb6S.wav
192,192,115686,1,0,0:0:0:70:B6S.wav
448,192,115853,128,0,116186:0:0:0:70:F#6S_Gb6S.wav
320,192,115853,1,2,0:0:0:0:
320,192,116186,1,2,0:0:0:0:
64,192,116186,1,0,0:0:0:70:B5S.wav
192,192,116353,1,0,0:0:0:70:C#7S_Db7S.wav
448,192,116520,1,0,0:0:0:70:B6S.wav
320,192,116686,128,0,117020:0:0:0:70:A#6S_Bb6S.wav
192,192,117020,1,0,0:0:0:70:F#6S_Gb6S.wav
320,192,117186,1,2,0:0:0:0:
64,192,117186,1,0,0:0:0:70:C#6S_Db6S.wav
448,192,117520,1,2,0:0:0:0:
64,192,117520,1,4,0:0:0:0:
192,192,117520,1,0,0:0:0:70:B6S.wav
320,192,117686,1,0,0:0:0:70:C#6S_Db6S.wav
192,192,117853,1,0,0:0:0:70:B6S.wav
64,192,118020,128,0,118353:0:0:0:70:A#6S_Bb6S.wav
192,192,118353,1,0,0:0:0:70:B6S.wav
448,192,118520,128,0,118853:0:0:0:70:F#7S_Gb7S.wav
64,192,118853,1,0,0:0:0:70:B6S.wav
192,192,119020,1,0,0:0:0:70:C#7S_Db7S.wav
320,192,119186,1,0,0:0:0:70:F#7S_Gb7S.wav
192,192,119353,128,0,119686:0:0:0:70:A#6S_Bb6S.wav
64,192,119686,1,0,0:0:0:70:F#6S_Gb6S.wav
448,192,119853,128,0,120186:0:0:0:70:C#7S_Db7S.wav
320,192,120186,128,0,122853:0:0:0:70:B6S.wav
64,192,120186,128,0,122853:0:0:0:70:B5S.wav
