osu file format v14

[General]
AudioFilename: audio.mp3
AudioLeadIn: 0
PreviewTime: 64186
Countdown: 0
SampleSet: Soft
StackLeniency: 0.7
Mode: 3
LetterboxInBreaks: 0
SpecialStyle: 0
WidescreenStoryboard: 1

[Editor]
Bookmarks: 187,10853,21520,32186,42853,53520,64186,74853,85520,96186,106853,114853,122853
DistanceSpacing: 1.2
BeatDivisor: 2
GridSize: 4
TimelineZoom: 1.9

[Metadata]
Title:Module_410
TitleUnicode:Module_410
Artist:Fractal Dreamers
ArtistUnicode:Fractal Dreamers
Creator:Yunabi
Version:Cat's Easy
Source:osu!
Tags:chill monolithia helblinde skymuted instrumental electronic dnb d&b drum n & and bass piano fa featured artist arccat
BeatmapID:2856033
BeatmapSetID:1382018

[Difficulty]
HPDrainRate:7
CircleSize:4
OverallDifficulty:7
ApproachRate:5
SliderMultiplier:1.4
SliderTickRate:1

[Events]
//Background and Video events
0,0,"collab_bg.jpg",0,0
//Break Periods
//Storyboard Layer 0 (Background)
//Storyboard Layer 1 (Fail)
//Storyboard Layer 2 (Pass)
//Storyboard Layer 3 (Foreground)
//Storyboard Layer 4 (Overlay)
//Storyboard Sound Samples
Sample,353,0,"A#5S_Bb5S.wav",70
Sample,686,0,"F#6S_Gb6S.wav",70
Sample,1020,0,"B5S.wav",70
Sample,1686,0,"A#5S_Bb5S.wav",70
Sample,2020,0,"F#6S_Gb6S.wav",70
Sample,3020,0,"A#5S_Bb5S.wav",70
Sample,3353,0,"F#6S_Gb6S.wav",70
Sample,3686,0,"F#5S_Gb5S.wav",70
Sample,4353,0,"A#5S_Bb5S.wav",70
Sample,4686,0,"F#5S_Gb5S.wav",70
Sample,5686,0,"A#5S_Bb5S.wav",70
Sample,6020,0,"F#6S_Gb6S.wav",70
Sample,6353,0,"B5S.wav",70
Sample,7020,0,"A#5S_Bb5S.wav",70
Sample,7353,0,"F#6S_Gb6S.wav",70
Sample,7770,0,"D#6S_Eb6S.wav",70
Sample,8353,0,"A#5S_Bb5S.wav",70
Sample,8686,0,"F#6S_Gb6S.wav",70
Sample,9020,0,"F#5S_Gb5S.wav",70
Sample,9686,0,"A#5S_Bb5S.wav",70
Sample,10020,0,"F#5S_Gb5S.wav",70
Sample,10686,0,"D#6S_Eb6S.wav",100
Sample,12020,0,"A#5S_Bb5S.wav",100
Sample,12103,0,"B5S.wav",100
Sample,15353,0,"D#6S_Eb6S.wav",100
Sample,15686,0,"C#6S_Db6S.wav",100
Sample,17353,0,"B5S.wav",100
Sample,20686,0,"E6S.wav",100
Sample,21020,0,"D#6S_Eb6S.wav",100
Sample,22020,0,"C#6S_Db6S.wav",100
Sample,22353,0,"B5S.wav",100
Sample,23353,0,"C#6S_Db6S.wav",100
Sample,23686,0,"B5S.wav",100
Sample,24686,0,"E6S.wav",100
Sample,25020,0,"D#6S_Eb6S.wav",100
Sample,26020,0,"B5S.wav",100
Sample,26353,0,"A#5S_Bb5S.wav",100
Sample,30686,0,"B5S.wav",100
Sample,31020,0,"C#6S_Db6S.wav",100
Sample,31186,0,"B5S.wav",100
Sample,31353,0,"A#5S_Bb5S.wav",100
Sample,31686,0,"B5S.wav",100
Sample,31853,0,"A#5S_Bb5S.wav",100
Sample,32020,0,"F#5S_Gb5S.wav",100
Sample,32186,0,"B5S.wav",90
Sample,32353,0,"A#5S_Bb5S.wav",90
Sample,33186,0,"C#6S_Db6S.wav",90
Sample,33853,0,"F#6S_Gb6S.wav",90
Sample,34353,0,"B5S.wav",90
Sample,34686,0,"B5S.wav",90
Sample,35020,0,"A#6S_Bb6S.wav",90
Sample,35853,0,"F#6S_Gb6S.wav",90
Sample,36686,0,"B5S.wav",90
Sample,37020,0,"B5S.wav",90
Sample,37353,0,"F#5S_Gb5S.wav",90
Sample,37686,0,"A#5S_Bb5S.wav",90
Sample,38520,0,"C#6S_Db6S.wav",90
Sample,39186,0,"F#6S_Gb6S.wav",90
Sample,40353,0,"C#7S_Db7S.wav",90
Sample,43686,0,"F#5S_Gb5S.wav",70
Sample,45020,0,"F#5S_Gb5S.wav",70
Sample,47686,0,"B4S.wav",70
Sample,48020,0,"F#4S_Gb4S.wav",70
Sample,49020,0,"F#6S_Gb6S.wav",80
Sample,50520,0,"B6S.wav",80
Sample,50686,0,"C#7S_Db7S.wav",80
Sample,51853,0,"D#7S_Eb7S.wav",80
Sample,52020,0,"C#7S_Db7S.wav",80
Sample,52520,0,"A#6S_Bb6S.wav",80
Sample,53186,0,"C#7S_Db7S.wav",80
Sample,53520,0,"B5S.wav",90
Sample,53686,0,"F#5S_Gb5S.wav",90
Sample,53853,0,"F#6S_Gb6S.wav",90
Sample,54353,0,"F#5S_Gb5S.wav",90
Sample,55020,0,"F#5S_Gb5S.wav",90
Sample,55186,0,"F#6S_Gb6S.wav",90
Sample,55686,0,"F#5S_Gb5S.wav",90
Sample,56353,0,"F#5S_Gb5S.wav",90
Sample,56520,0,"F#6S_Gb6S.wav",90
Sample,57020,0,"B5S.wav",90
Sample,57353,0,"C#6S_Db6S.wav",90
Sample,58020,0,"D#6S_Eb6S.wav",90
Sample,58353,0,"C#6S_Db6S.wav",90
Sample,58520,0,"B5S.wav",90
Sample,58686,0,"A#5S_Bb5S.wav",90
Sample,58853,0,"B5S.wav",90
Sample,59020,0,"F#5S_Gb5S.wav",90
Sample,59186,0,"F#6S_Gb6S.wav",90
Sample,59686,0,"F#5S_Gb5S.wav",90
Sample,60353,0,"F#5S_Gb5S.wav",90
Sample,60520,0,"F#6S_Gb6S.wav",90
Sample,61020,0,"F#5S_Gb5S.wav",90
Sample,61186,0,"B5S.wav",90
Sample,62353,0,"E6S.wav",90
Sample,62520,0,"F#6S_Gb6S.wav",90
Sample,63186,0,"B5S.wav",90
Sample,63520,0,"A#5S_Bb5S.wav",90
Sample,63853,0,"F#5S_Gb5S.wav",90
Sample,64186,0,"B5S.wav",100
Sample,64353,0,"A#5S_Bb5S.wav",100
Sample,64686,0,"C#6S_Db6S.wav",100
Sample,65020,0,"B5S.wav",100
Sample,65353,0,"D#6S_Eb6S.wav",100
Sample,65686,0,"E6S.wav",100
Sample,66020,0,"B5S.wav",100
Sample,66686,0,"B5S.wav",100
Sample,66853,0,"B6S.wav",100
Sample,67020,0,"A#6S_Bb6S.wav",100
Sample,67353,0,"D#6S_Eb6S.wav",100
Sample,67686,0,"E6S.wav",100
Sample,68020,0,"C#6S_Db6S.wav",100
Sample,68353,0,"D#6S_Eb6S.wav",100
Sample,68686,0,"B5S.wav",100
Sample,69353,0,"F#5S_Gb5S.wav",100
Sample,69520,0,"B5S.wav",100
Sample,69686,0,"A#5S_Bb5S.wav",100
Sample,70020,0,"C#6S_Db6S.wav",100
Sample,70353,0,"B5S.wav",100
Sample,70686,0,"D#6S_Eb6S.wav",100
Sample,71020,0,"E6S.wav",100
Sample,71353,0,"B5S.wav",100
Sample,72020,0,"B5S.wav",100
Sample,72186,0,"B6S.wav",100
Sample,72353,0,"C#7S_Db7S.wav",100
Sample,72686,0,"C#7S_Db7S.wav",100
Sample,73020,0,"B6S.wav",100
Sample,73353,0,"A#6S_Bb6S.wav",100
Sample,73686,0,"A#6S_Bb6S.wav",100
Sample,73770,0,"B6S.wav",100
Sample,74020,0,"F#6S_Gb6S.wav",100
Sample,74187,0,"C#6S_Db6S.wav",100
Sample,74520,0,"A#5S_Bb5S.wav",100
Sample,74687,0,"F#5S_Gb5S.wav",100
Sample,74853,0,"B5S.wav",100
Sample,75020,0,"A#5S_Bb5S.wav",100
Sample,75353,0,"C#6S_Db6S.wav",100
Sample,75686,0,"B5S.wav",100
Sample,76020,0,"D#6S_Eb6S.wav",100
Sample,76353,0,"E6S.wav",100
Sample,76686,0,"B5S.wav",100
Sample,77020,0,"B5S.wav",100
Sample,77103,0,"C#6S_Db6S.wav",100
Sample,77270,0,"A#5S_Bb5S.wav",100
Sample,77353,0,"B5S.wav",100
Sample,77436,0,"C#6S_Db6S.wav",100
Sample,77520,0,"D#6S_Eb6S.wav",100
Sample,77686,0,"E6S.wav",100
Sample,78020,0,"B6S.wav",100
Sample,78353,0,"A#6S_Bb6S.wav",100
Sample,78686,0,"C#6S_Db6S.wav",100
Sample,79103,0,"D#6S_Eb6S.wav",100
Sample,79353,0,"B5S.wav",100
Sample,79686,0,"B5S.wav",100
Sample,80020,0,"F#5S_Gb5S.wav",100
Sample,80186,0,"B5S.wav",100
Sample,80353,0,"F#5S_Gb5S.wav",100
Sample,80686,0,"B5S.wav",100
Sample,81020,0,"B5S.wav",100
Sample,81353,0,"D#6S_Eb6S.wav",100
Sample,81686,0,"E6S.wav",100
Sample,82020,0,"B6S.wav",100
Sample,82353,0,"F#6S_Gb6S.wav",100
Sample,82603,0,"F#6S_Gb6S.wav",100
Sample,82686,0,"B6S.wav",100
Sample,82770,0,"C#7S_Db7S.wav",100
Sample,82853,0,"D#7S_Eb7S.wav",100
Sample,83020,0,"B6S.wav",100
Sample,83353,0,"C#7S_Db7S.wav",100
Sample,83686,0,"B6S.wav",100
Sample,83936,0,"B6S.wav",100
Sample,84020,0,"F#6S_Gb6S.wav",100
Sample,84353,0,"E6S.wav",100
Sample,84520,0,"D#6S_Eb6S.wav",100
Sample,84686,0,"C#6S_Db6S.wav",100
Sample,84853,0,"E6S.wav",100
Sample,85020,0,"D#6S_Eb6S.wav",100
Sample,85186,0,"C#6S_Db6S.wav",100
Sample,85353,0,"A#5S_Bb5S.wav",100
Sample,85520,0,"B5S.wav",90
Sample,85686,0,"F#5S_Gb5S.wav",90
Sample,86020,0,"F#6S_Gb6S.wav",90
Sample,86353,0,"B5S.wav",90
Sample,86853,0,"F#5S_Gb5S.wav",90
Sample,87020,0,"A#5S_Bb5S.wav",90
Sample,87353,0,"F#6S_Gb6S.wav",90
Sample,87686,0,"C#6S_Db6S.wav",90
Sample,88020,0,"A#5S_Bb5S.wav",90
Sample,88186,0,"B5S.wav",90
Sample,88353,0,"A#5S_Bb5S.wav",90
Sample,88686,0,"F#6S_Gb6S.wav",90
Sample,89020,0,"F#5S_Gb5S.wav",90
Sample,89520,0,"F#5S_Gb5S.wav",90
Sample,89686,0,"A#5S_Bb5S.wav",90
Sample,90020,0,"F#5S_Gb5S.wav",90
Sample,90853,0,"F#5S_Gb5S.wav",90
Sample,91020,0,"A#5S_Bb5S.wav",90
Sample,91353,0,"F#6S_Gb6S.wav",90
Sample,91686,0,"B5S.wav",90
Sample,92186,0,"F#5S_Gb5S.wav",90
Sample,92353,0,"A#5S_Bb5S.wav",90
Sample,92686,0,"F#6S_Gb6S.wav",90
Sample,93020,0,"E6S.wav",90
Sample,93103,0,"D#6S_Eb6S.wav",90
Sample,93353,0,"A#5S_Bb5S.wav",90
Sample,93520,0,"B5S.wav",90
Sample,93686,0,"A#5S_Bb5S.wav",90
Sample,94020,0,"F#6S_Gb6S.wav",90
Sample,94353,0,"F#5S_Gb5S.wav",90
Sample,94853,0,"F#5S_Gb5S.wav",90
Sample,95020,0,"A#5S_Bb5S.wav",90
Sample,95353,0,"F#5S_Gb5S.wav",90
Sample,95686,0,"C#6S_Db6S.wav",90
Sample,95853,0,"B5S.wav",90
Sample,96186,0,"B6S.wav",100
Sample,97520,0,"C#7S_Db7S.wav",100
Sample,98853,0,"D#7S_Eb7S.wav",100
Sample,100186,0,"A#6S_Bb6S.wav",100
Sample,100686,0,"B6S.wav",100
Sample,101520,0,"B6S.wav",100
Sample,102853,0,"E7S.wav",100
Sample,103686,0,"B6S.wav",100
Sample,104186,0,"D#7S_Eb7S.wav",100
Sample,105520,0,"C#7S_Db7S.wav",100
Sample,106020,0,"A#6S_Bb6S.wav",100
Sample,106353,0,"C#7S_Db7S.wav",100
Sample,106853,0,"B6S.wav",100
Sample,108186,0,"C#7S_Db7S.wav",100
Sample,109020,0,"D#7S_Eb7S.wav",100
Sample,109520,0,"D#7S_Eb7S.wav",90
Sample,110853,0,"C#7S_Db7S.wav",86
Sample,111686,0,"B6S.wav",80
Sample,112186,0,"G#6S_Ab6S.wav",78
Sample,113520,0,"soft-hitwhistle.wav",30
Sample,114853,0,"B6S.wav",70
Sample,115020,0,"C#6S_Db6S.wav",70
Sample,115186,0,"B6S.wav",70
Sample,115353,0,"A#6S_Bb6S.wav",70
Sample,115686,0,"B6S.wav",70
Sample,115853,0,"F#6S_Gb6S.wav",70
Sample,116186,0,"B5S.wav",70
Sample,116353,0,"C#7S_Db7S.wav",70
Sample,116520,0,"B6S.wav",70
Sample,116686,0,"A#6S_Bb6S.wav",70
Sample,117020,0,"F#6S_Gb6S.wav",70
Sample,117186,0,"C#6S_Db6S.wav",70
Sample,117520,0,"B6S.wav",70
Sample,117686,0,"C#6S_Db6S.wav",70
Sample,117853,0,"B6S.wav",70
Sample,118020,0,"A#6S_Bb6S.wav",70
Sample,118353,0,"B6S.wav",70
Sample,118520,0,"F#7S_Gb7S.wav",70
Sample,119020,0,"C#7S_Db7S.wav",70
Sample,119186,0,"F#7S_Gb7S.wav",70
Sample,119353,0,"A#6S_Bb6S.wav",70
Sample,119686,0,"F#6S_Gb6S.wav",70
Sample,119853,0,"C#7S_Db7S.wav",70

[TimingPoints]
187,333.333333333333,4,2,1,30,1,0
10853,-100,4,2,1,40,0,0
42853,-100,4,2,1,30,0,0
53520,-100,4,2,1,35,0,0
64186,-100,4,2,1,40,0,1
85520,-100,4,2,1,40,0,0
109520,-100,4,2,1,37,0,0
110853,-100,4,2,1,35,0,0
112186,-100,4,2,1,32,0,0
113520,-100,4,2,1,30,0,0
114853,-100,4,2,1,25,0,0
117520,-100,4,2,1,20,0,0

[HitObjects]
64,192,187,5,0,0:0:0:70:F#5S_Gb5S.wav
320,192,520,1,0,0:0:0:70:B5S.wav
192,192,853,1,0,0:0:0:70:E5S.wav
448,192,1186,128,0,1520:0:0:0:70:C#6S_Db6S.wav
192,192,1520,1,0,0:0:0:70:F#5S_Gb5S.wav
448,192,1853,1,0,0:0:0:70:B5S.wav
320,192,2186,1,0,0:0:0:70:F#5S_Gb5S.wav
64,192,2353,1,0,0:0:0:70:C#6S_Db6S.wav
192,192,2520,1,0,0:0:0:70:B5S.wav
320,192,2686,1,0,0:0:0:70:A#5S_Bb5S.wav
64,192,2853,1,0,0:0:0:70:F#5S_Gb5S.wav
320,192,3186,1,0,0:0:0:70:B5S.wav
192,192,3520,1,0,0:0:0:70:G#5S_Ab5S.wav
448,192,3853,128,0,4186:0:0:0:70:C#6S_Db6S.wav
64,192,4186,1,0,0:0:0:70:F#5S_Gb5S.wav
320,192,4520,1,0,0:0:0:70:B5S.wav
192,192,4853,1,0,0:0:0:70:D#5S_Eb5S.wav
448,192,5020,1,0,0:0:0:70:C#6S_Db6S.wav
320,192,5186,128,0,5520:0:0:0:70:B5S.wav
64,192,5520,1,0,0:0:0:70:F#5S_Gb5S.wav
448,192,5853,1,0,0:0:0:70:B5S.wav
192,192,6186,1,0,0:0:0:70:E5S.wav
320,192,6520,128,0,6853:0:0:0:70:C#6S_Db6S.wav
64,192,6853,1,0,0:0:0:70:F#5S_Gb5S.wav
448,192,7186,1,0,0:0:0:70:B5S.wav
320,192,7520,1,0,0:0:0:70:F#5S_Gb5S.wav
192,192,7686,1,0,0:0:0:70:E6S.wav
448,192,7853,1,0,0:0:0:70:C#6S_Db6S.wav
64,192,8020,1,0,0:0:0:70:A#5S_Bb5S.wav
320,192,8186,1,0,0:0:0:70:F#5S_Gb5S.wav
448,192,8520,1,0,0:0:0:70:B5S.wav
64,192,8853,1,0,0:0:0:70:G#5S_Ab5S.wav
192,192,9186,128,0,9520:0:0:0:70:C#6S_Db6S.wav
320,192,9520,1,0,0:0:0:70:F#5S_Gb5S.wav
448,192,9853,1,0,0:0:0:70:B5S.wav
320,192,10186,1,0,0:0:0:70:D#5S_Eb5S.wav
64,192,10353,1,0,0:0:0:100:F#6S_Gb6S.wav
192,192,10520,128,0,10853:0:0:0:100:E6S.wav
64,192,10853,1,2,0:0:0:0:
448,192,10853,1,0,0:0:0:100:B5S.wav
320,192,11186,1,8,0:0:0:0:
192,192,11186,1,0,0:0:0:0:
320,192,11520,1,0,0:0:0:0:
192,192,11686,1,2,0:0:0:0:
448,192,11853,1,0,0:0:0:0:
64,192,11853,1,8,0:0:0:0:
192,192,12186,1,2,0:0:0:0:
320,192,12186,1,0,0:0:0:100:A#5S_Bb5S.wav
64,192,12520,1,0,0:0:0:0:
320,192,12520,1,8,0:0:0:0:
192,192,12853,1,0,0:0:0:0:
64,192,13020,1,2,0:0:0:0:
320,192,13186,1,0,0:0:0:100:B5S.wav
448,192,13186,1,8,0:0:0:0:
192,192,13520,1,2,0:0:0:0:
448,192,13520,1,0,0:0:0:100:B5S.wav
64,192,13853,1,0,0:0:0:0:
320,192,13853,1,8,0:0:0:0:
448,192,14186,1,0,0:0:0:0:
320,192,14353,1,2,0:0:0:0:
192,192,14520,1,8,0:0:0:0:
64,192,14520,1,0,0:0:0:100:F#5S_Gb5S.wav
320,192,14853,1,2,0:0:0:0:
64,192,14853,1,0,0:0:0:100:D#6S_Eb6S.wav
448,192,15186,1,8,0:0:0:0:
64,192,15186,1,0,0:0:0:100:E6S.wav
192,192,15353,1,0,0:0:0:50:LR_Snare Drum 2.wav
448,192,15520,1,0,0:0:0:50:LR_Snare Drum 2.wav
320,192,15686,1,2,0:0:0:0:
192,192,15853,1,8,0:0:0:0:
64,192,16020,1,0,0:0:0:50:LR_Snare Drum 2.wav
320,192,16186,1,2,0:0:0:0:
448,192,16186,1,0,0:0:0:100:B5S.wav
64,192,16520,1,8,0:0:0:0:
192,192,16520,1,0,0:0:0:0:
448,192,16853,1,0,0:0:0:0:
192,192,17020,1,2,0:0:0:0:
320,192,17186,1,8,0:0:0:0:
64,192,17186,1,0,0:0:0:100:A#5S_Bb5S.wav
192,192,17520,1,2,0:0:0:0:
448,192,17520,1,0,0:0:0:100:C#6S_Db6S.wav
320,192,17853,1,8,0:0:0:0:
192,192,17853,1,0,0:0:0:0:
64,192,18186,1,0,0:0:0:0:
192,192,18353,1,2,0:0:0:0:
320,192,18520,1,8,0:0:0:0:
448,192,18520,1,0,0:0:0:100:B5S.wav
192,192,18853,1,2,0:0:0:0:
448,192,18853,1,0,0:0:0:100:D#6S_Eb6S.wav
64,192,19186,1,0,0:0:0:0:
320,192,19186,1,8,0:0:0:0:
448,192,19520,1,0,0:0:0:0:
320,192,19686,1,2,0:0:0:0:
64,192,19853,1,8,0:0:0:0:
192,192,19853,1,0,0:0:0:0:
192,192,20186,1,0,0:0:0:100:F#6S_Gb6S.wav
448,192,20186,1,2,0:0:0:0:
64,192,20520,1,8,0:0:0:0:
448,192,20520,1,0,0:0:0:0:
320,192,20770,1,8,0:0:0:0:
192,192,20770,1,0,0:0:0:0:
64,192,21020,1,2,0:0:0:0:
448,192,21186,1,8,0:0:0:0:
192,192,21186,1,0,0:0:0:0:
320,192,21353,1,0,0:0:0:50:LR_Snare Drum 2.wav
64,192,21520,1,2,0:0:0:0:
192,192,21520,1,0,0:0:0:100:C#6S_Db6S.wav
320,192,21853,1,8,0:0:0:0:
448,192,21853,1,0,0:0:0:100:D#6S_Eb6S.wav
448,192,22186,1,0,0:0:0:0:
320,192,22353,1,2,0:0:0:0:
192,192,22520,1,8,0:0:0:0:
64,192,22520,1,0,0:0:0:0:
448,192,22853,1,2,0:0:0:0:
64,192,22853,1,0,0:0:0:100:C#6S_Db6S.wav
320,192,23186,1,8,0:0:0:0:
192,192,23186,1,0,0:0:0:100:D#6S_Eb6S.wav
64,192,23520,1,0,0:0:0:0:
320,192,23686,1,2,0:0:0:0:
448,192,23853,1,8,0:0:0:0:
192,192,23853,1,0,0:0:0:0:
320,192,24186,1,2,0:0:0:0:
64,192,24186,1,0,0:0:0:100:C#6S_Db6S.wav
64,192,24520,1,8,0:0:0:0:
192,192,24520,1,0,0:0:0:100:D#6S_Eb6S.wav
448,192,24853,1,0,0:0:0:0:
320,192,25020,1,2,0:0:0:0:
192,192,25186,1,8,0:0:0:0:
64,192,25186,1,0,0:0:0:0:
320,192,25520,1,2,0:0:0:0:
448,192,25520,1,0,0:0:0:100:C#6S_Db6S.wav
192,192,25853,1,8,0:0:0:0:
448,192,25853,1,0,0:0:0:0:
64,192,26020,1,0,0:0:0:50:LR_Snare Drum 2.wav
320,192,26353,1,2,0:0:0:0:
448,192,26520,1,8,0:0:0:0:
192,192,26520,1,0,0:0:0:0:
192,192,26853,1,2,0:0:0:0:
64,192,26853,1,0,0:0:0:100:G#5S_Ab5S.wav
448,192,27186,1,8,0:0:0:0:
320,192,27186,1,0,0:0:0:0:
64,192,27520,1,0,0:0:0:0:
192,192,27686,1,2,0:0:0:0:
320,192,27853,1,8,0:0:0:0:
448,192,27853,1,0,0:0:0:100:A#5S_Bb5S.wav
192,192,28186,1,0,0:0:0:100:A#5S_Bb5S.wav
448,192,28186,1,2,0:0:0:0:
64,192,28520,1,8,0:0:0:0:
320,192,28520,1,0,0:0:0:0:
320,192,28853,1,0,0:0:0:0:
192,192,29020,1,2,0:0:0:0:
448,192,29186,1,8,0:0:0:0:
64,192,29186,1,0,0:0:0:100:B5S.wav
320,192,29520,1,2,0:0:0:0:
64,192,29520,1,0,0:0:0:100:B5S.wav
192,192,29853,1,8,0:0:0:0:
320,192,29853,1,0,0:0:0:0:
448,192,30186,1,0,0:0:0:0:
320,192,30353,1,2,0:0:0:0:
192,192,30520,1,8,0:0:0:0:
64,192,30520,1,0,0:0:0:100:F#5S_Gb5S.wav
448,192,30853,128,2,32186:0:0:0:0:
320,192,30853,1,0,0:0:0:100:D#6S_Eb6S.wav
64,192,31186,1,8,0:0:0:0:
192,192,31436,1,8,0:0:0:0:
320,192,31686,1,2,0:0:0:0:
64,192,31853,1,8,0:0:0:0:
320,192,32186,1,0,0:0:0:40:LR_CymbalG.wav
192,192,32186,1,0,0:0:0:80:LR3_BassDrop.wav
192,192,32520,1,0,0:0:0:90:F#5S_Gb5S.wav
64,192,32686,1,0,0:0:0:90:C#6S_Db6S.wav
320,192,33020,1,0,0:0:0:90:B5S.wav
448,192,33353,1,0,0:0:0:90:D#6S_Eb6S.wav
192,192,33686,1,0,0:0:0:90:E6S.wav
64,192,34020,1,0,0:0:0:90:B5S.wav
320,192,34520,1,0,0:0:0:90:A#5S_Bb5S.wav
192,192,34853,1,0,0:0:0:90:B6S.wav
448,192,35186,1,0,0:0:0:90:F#6S_Gb6S.wav
320,192,35353,1,0,0:0:0:90:D#6S_Eb6S.wav
64,192,35686,1,0,0:0:0:90:E6S.wav
320,192,36020,1,0,0:0:0:90:C#6S_Db6S.wav
192,192,36353,1,0,0:0:0:90:D#6S_Eb6S.wav
448,192,36520,1,0,0:0:0:90:C#6S_Db6S.wav
320,192,36853,1,0,0:0:0:90:A#5S_Bb5S.wav
192,192,37186,1,0,0:0:0:90:A#5S_Bb5S.wav
64,192,37520,1,0,0:0:0:90:B5S.wav
448,192,37853,1,0,0:0:0:90:F#5S_Gb5S.wav
320,192,38020,1,0,0:0:0:90:C#6S_Db6S.wav
64,192,38353,1,0,0:0:0:90:B5S.wav
192,192,38686,1,0,0:0:0:90:D#6S_Eb6S.wav
320,192,39020,1,0,0:0:0:90:E6S.wav
448,192,39353,1,0,0:0:0:90:B5S.wav
192,192,39686,1,0,0:0:0:90:B5S.wav
320,192,39853,1,0,0:0:0:90:A#5S_Bb5S.wav
64,192,40020,1,0,0:0:0:90:B5S.wav
448,192,40186,1,0,0:0:0:90:B6S.wav
320,192,40520,1,0,0:0:0:90:D#7S_Eb7S.wav
192,192,40686,1,0,0:0:0:90:C#7S_Db7S.wav
64,192,41020,1,0,0:0:0:90:B6S.wav
192,192,41353,1,0,0:0:0:90:A#6S_Bb6S.wav
320,192,41686,1,0,0:0:0:90:F#6S_Gb6S.wav
448,192,41853,1,0,0:0:0:90:C#6S_Db6S.wav
192,192,42186,1,0,0:0:0:90:A#5S_Bb5S.wav
320,192,42520,1,0,0:0:0:90:C#6S_Db6S.wav
192,192,42686,1,0,0:0:0:90:F#6S_Gb6S.wav
64,192,42853,128,0,43353:0:0:0:70:B5S.wav
192,192,43353,128,0,44186:0:0:0:70:A#5S_Bb5S.wav
448,192,44186,128,0,44686:0:0:0:70:B5S.wav
320,192,44686,128,0,45520:0:0:0:70:A#5S_Bb5S.wav
64,192,45520,128,0,46020:0:0:0:70:B5S.wav
448,192,46020,128,0,46353:0:0:0:70:A#5S_Bb5S.wav
320,192,46353,128,0,46686:0:0:0:70:D#5S_Eb5S.wav
192,192,46686,128,0,47186:0:0:0:70:C#5S_Db5S.wav
64,192,47186,128,0,47520:0:0:0:70:B4S.wav
320,192,47520,128,0,48186:0:0:0:70:A#4S_Bb4S.wav
192,192,47853,128,0,48186:0:0:0:70:A#4S_Bb4S.wav
448,192,48186,128,0,48686:0:0:0:70:B6S.wav
192,192,48686,128,0,49520:0:0:0:80:A#6S_Bb6S.wav
64,192,49520,128,0,50020:0:0:0:80:B6S.wav
320,192,50020,128,0,50853:0:0:0:80:A#6S_Bb6S.wav
192,192,50353,128,0,50853:0:0:0:80:F#6S_Gb6S.wav
448,192,50853,128,0,51353:0:0:0:80:D#7S_Eb7S.wav
64,192,51353,128,0,52186:0:0:0:80:F#7S_Gb7S.wav
320,192,51686,128,0,52186:0:0:0:80:E7S.wav
192,192,52186,128,0,53520:0:0:0:0:
320,192,52853,128,0,53520:0:0:0:80:B6S.wav
64,192,53520,1,2,0:0:0:0:
448,192,53520,1,4,0:0:0:0:
320,192,53853,1,8,0:0:0:0:
192,192,54020,1,0,0:0:0:90:A#5S_Bb5S.wav
192,192,54353,1,2,0:0:0:0:
320,192,54520,1,8,0:0:0:0:
64,192,54853,1,2,0:0:0:0:
448,192,54853,1,0,0:0:0:90:B5S.wav
320,192,55186,1,8,0:0:0:0:
192,192,55353,1,0,0:0:0:90:A#5S_Bb5S.wav
192,192,55686,1,2,0:0:0:0:
320,192,55853,1,8,0:0:0:0:
64,192,56186,1,2,0:0:0:0:
448,192,56186,1,0,0:0:0:90:B5S.wav
320,192,56520,1,8,0:0:0:0:
192,192,56686,1,0,0:0:0:90:A#5S_Bb5S.wav
192,192,57020,1,2,0:0:0:0:
320,192,57186,1,8,0:0:0:0:
320,192,57520,1,2,0:0:0:0:
448,192,57520,1,0,0:0:0:0:
192,192,57853,1,0,0:0:0:70:LR_Snare Drum 2.wav
64,192,58020,1,2,0:0:0:0:
320,192,58186,128,2,58520:0:0:0:0:
192,192,58520,128,8,58853:0:0:0:0:
448,192,58853,1,2,0:0:0:0:
64,192,58853,1,4,0:0:0:0:
192,192,59186,1,8,0:0:0:0:
448,192,59353,1,0,0:0:0:90:A#5S_Bb5S.wav
448,192,59686,1,2,0:0:0:0:
192,192,59853,1,8,0:0:0:0:
320,192,60186,1,2,0:0:0:0:
64,192,60186,1,0,0:0:0:90:B5S.wav
192,192,60520,1,8,0:0:0:0:
448,192,60686,1,0,0:0:0:90:A#5S_Bb5S.wav
448,192,61020,1,2,0:0:0:0:
192,192,61186,1,8,0:0:0:0:
320,192,61353,1,0,0:0:0:90:C#6S_Db6S.wav
448,192,61520,128,2,62353:0:0:0:0:
64,192,61520,1,0,0:0:0:90:D#6S_Eb6S.wav
192,192,61853,1,8,0:0:0:0:
64,192,62353,1,2,0:0:0:0:
320,192,62520,1,8,0:0:0:0:
192,192,62686,1,0,0:0:0:90:C#6S_Db6S.wav
448,192,62853,1,2,0:0:0:0:
64,192,62853,1,0,0:0:0:0:
192,192,63186,1,8,0:0:0:0:
320,192,63436,1,8,0:0:0:0:
448,192,63686,1,2,0:0:0:0:
320,192,63853,1,8,0:0:0:0:
192,192,64020,1,0,0:0:0:45:LR_Snare Drum 2.wav
448,192,64186,1,2,0:0:0:0:
64,192,64186,1,4,0:0:0:0:
192,192,64520,1,0,0:0:0:100:B5S.wav
320,192,64520,1,8,0:0:0:0:
64,192,64853,1,0,0:0:0:0:
192,192,65020,1,2,0:0:0:0:
448,192,65186,1,8,0:0:0:0:
320,192,65186,1,0,0:0:0:100:C#6S_Db6S.wav
192,192,65520,1,2,0:0:0:0:
320,192,65853,1,8,0:0:0:0:
448,192,65853,1,0,0:0:0:100:F#6S_Gb6S.wav
192,192,66186,1,0,0:0:0:0:
448,192,66353,1,2,0:0:0:0:
320,192,66520,1,8,0:0:0:0:
64,192,66520,128,0,66853:0:0:0:100:A#5S_Bb5S.wav
448,192,66853,1,2,0:0:0:0:
192,192,67186,1,0,0:0:0:100:F#6S_Gb6S.wav
320,192,67186,1,8,0:0:0:0:
448,192,67520,1,0,0:0:0:0:
192,192,67686,1,2,0:0:0:0:
64,192,67853,1,0,0:0:0:100:F#6S_Gb6S.wav
320,192,67853,1,8,0:0:0:0:
448,192,68186,1,2,0:0:0:0:
192,192,68520,1,8,0:0:0:0:
64,192,68520,1,0,0:0:0:100:C#6S_Db6S.wav
448,192,68686,1,0,0:0:0:50:LR_Snare Drum 2.wav
320,192,68853,128,0,69186:0:0:0:100:A#5S_Bb5S.wav
192,192,69186,128,0,69520:0:0:0:0:
64,192,69186,1,8,0:0:0:0:
448,192,69520,1,2,0:0:0:0:
320,192,69853,1,8,0:0:0:0:
64,192,69853,1,0,0:0:0:100:F#5S_Gb5S.wav
192,192,70186,1,0,0:0:0:0:
64,192,70353,1,2,0:0:0:0:
448,192,70520,1,0,0:0:0:100:C#6S_Db6S.wav
320,192,70520,1,8,0:0:0:0:
64,192,70853,1,2,0:0:0:0:
192,192,71186,1,8,0:0:0:0:
448,192,71186,1,0,0:0:0:100:F#6S_Gb6S.wav
320,192,71520,1,0,0:0:0:0:
192,192,71686,1,2,0:0:0:0:
448,192,71853,1,8,0:0:0:0:
64,192,71853,128,0,72186:0:0:0:100:A#5S_Bb5S.wav
192,192,72186,1,2,0:0:0:0:
448,192,72520,1,0,0:0:0:100:D#7S_Eb7S.wav
320,192,72520,1,8,0:0:0:0:
192,192,72853,1,0,0:0:0:0:
320,192,73020,1,2,0:0:0:0:
64,192,73186,1,0,0:0:0:0:
448,192,73186,1,8,0:0:0:0:
192,192,73520,1,2,0:0:0:0:
64,192,73853,128,0,74853:0:0:0:100:A#6S_Bb6S.wav
320,192,73853,1,8,0:0:0:0:
448,192,74103,1,8,0:0:0:0:
320,192,74520,1,8,0:0:0:0:
448,192,74853,1,2,0:0:0:0:
320,192,75186,1,8,0:0:0:0:
192,192,75186,1,0,0:0:0:100:F#5S_Gb5S.wav
448,192,75520,1,0,0:0:0:0:
192,192,75686,1,2,0:0:0:0:
64,192,75853,1,0,0:0:0:100:C#6S_Db6S.wav
320,192,75853,1,8,0:0:0:0:
448,192,76186,1,2,0:0:0:0:
64,192,76520,1,0,0:0:0:100:F#6S_Gb6S.wav
192,192,76520,1,8,0:0:0:0:
64,192,76853,1,0,0:0:0:0:
192,192,77020,1,2,0:0:0:0:
320,192,77186,128,0,77520:0:0:0:100:B5S.wav
448,192,77186,1,8,0:0:0:0:
64,192,77520,1,2,0:0:0:0:
448,192,77853,1,0,0:0:0:100:F#6S_Gb6S.wav
320,192,77853,1,8,0:0:0:0:
64,192,78186,1,0,0:0:0:0:
448,192,78353,1,2,0:0:0:0:
192,192,78520,1,0,0:0:0:100:F#6S_Gb6S.wav
320,192,78520,1,8,0:0:0:0:
64,192,78853,1,2,0:0:0:0:
192,192,79020,1,0,0:0:0:100:C#6S_Db6S.wav
320,192,79186,1,8,0:0:0:0:
448,192,79186,1,0,0:0:0:100:C#6S_Db6S.wav
192,192,79520,1,0,0:0:0:100:A#5S_Bb5S.wav
320,192,79686,1,2,0:0:0:0:
448,192,79853,1,8,0:0:0:0:
64,192,79853,1,0,0:0:0:100:A#5S_Bb5S.wav
320,192,80186,1,2,0:0:0:0:
192,192,80520,1,8,0:0:0:0:
64,192,80520,1,0,0:0:0:100:A#5S_Bb5S.wav
448,192,80853,1,0,0:0:0:0:
192,192,81020,1,2,0:0:0:0:
64,192,81186,1,0,0:0:0:100:C#6S_Db6S.wav
320,192,81186,1,8,0:0:0:0:
448,192,81520,1,2,0:0:0:0:
320,192,81853,1,8,0:0:0:0:
192,192,81853,1,0,0:0:0:100:F#6S_Gb6S.wav
64,192,82186,1,0,0:0:0:0:
192,192,82353,1,2,0:0:0:0:
448,192,82520,128,0,82853:0:0:0:100:B6S.wav
320,192,82520,1,8,0:0:0:0:
192,192,82853,1,2,0:0:0:0:
448,192,83186,1,0,0:0:0:100:F#6S_Gb6S.wav
320,192,83186,1,8,0:0:0:0:
64,192,83520,1,0,0:0:0:0:
448,192,83686,1,2,0:0:0:0:
192,192,83853,128,0,84186:0:0:0:100:A#6S_Bb6S.wav
320,192,83853,1,8,0:0:0:0:
64,192,84186,128,2,85520:0:0:0:0:
192,192,84520,1,8,0:0:0:0:
320,192,84770,1,8,0:0:0:0:
448,192,85020,1,2,0:0:0:0:
192,192,85520,1,4,0:0:0:0:
448,192,85520,1,2,0:0:0:0:
320,192,85853,1,8,0:0:0:0:
64,192,85853,1,0,0:0:0:90:B5S.wav
192,192,86186,1,0,0:0:0:0:
64,192,86353,1,2,0:0:0:0:
448,192,86520,1,0,0:0:0:90:C#6S_Db6S.wav
320,192,86520,1,8,0:0:0:0:
192,192,86853,1,2,0:0:0:0:
448,192,87186,1,0,0:0:0:90:B5S.wav
320,192,87186,1,8,0:0:0:0:
192,192,87520,1,0,0:0:0:0:
448,192,87686,1,2,0:0:0:0:
320,192,87853,1,8,0:0:0:0:
64,192,87853,1,0,0:0:0:90:B5S.wav
448,192,88186,1,2,0:0:0:0:
320,192,88520,1,8,0:0:0:0:
192,192,88520,1,0,0:0:0:90:B5S.wav
448,192,88853,1,0,0:0:0:90:G#5S_Ab5S.wav
320,192,89020,1,2,0:0:0:0:
192,192,89186,1,8,0:0:0:0:
64,192,89186,1,0,0:0:0:90:C#6S_Db6S.wav
320,192,89520,1,2,0:0:0:0:
448,192,89853,1,0,0:0:0:90:B5S.wav
192,192,89853,1,8,0:0:0:0:
64,192,90020,1,0,0:0:0:50:LR_Snare Drum 2.wav
320,192,90186,1,0,0:0:0:70:LR_Snare Drum 2.wav
448,192,90353,1,0,0:0:0:90:C#6S_Db6S.wav
64,192,90520,1,0,0:0:0:90:B5S.wav
192,192,90520,128,0,90853:0:0:0:50:LR_Snare Drum 2.wav
448,192,90853,1,2,0:0:0:0:
320,192,91186,1,0,0:0:0:90:B5S.wav
192,192,91186,1,8,0:0:0:0:
64,192,91520,1,0,0:0:0:0:
320,192,91686,1,2,0:0:0:0:
192,192,91853,1,0,0:0:0:90:C#6S_Db6S.wav
448,192,91853,1,8,0:0:0:0:
64,192,92186,1,2,0:0:0:0:
320,192,92520,1,8,0:0:0:0:
448,192,92520,1,0,0:0:0:90:B5S.wav
64,192,92853,1,0,0:0:0:0:
448,192,93020,1,2,0:0:0:0:
192,192,93186,1,0,0:0:0:90:C#6S_Db6S.wav
320,192,93186,1,8,0:0:0:0:
448,192,93520,1,2,0:0:0:0:
192,192,93853,1,8,0:0:0:0:
64,192,93853,1,0,0:0:0:90:B5S.wav
448,192,94186,1,0,0:0:0:90:G#5S_Ab5S.wav
64,192,94353,1,2,0:0:0:0:
192,192,94520,1,0,0:0:0:90:C#6S_Db6S.wav
320,192,94520,1,8,0:0:0:0:
448,192,94853,1,2,0:0:0:0:
64,192,95186,1,8,0:0:0:0:
320,192,95186,1,0,0:0:0:90:B5S.wav
192,192,95353,1,0,0:0:0:50:LR_Snare Drum 2.wav
320,192,95520,128,0,96020:0:0:0:50:LR_Snare Drum 2.wav
64,192,96020,1,0,0:0:0:50:LR_Snare Drum 2.wav
448,192,96186,1,2,0:0:0:0:
192,192,96520,1,8,0:0:0:0:
64,192,96520,1,0,0:0:0:0:
320,192,96686,1,0,0:0:0:100:A#6S_Bb6S.wav
64,192,97020,1,2,0:0:0:0:
448,192,97186,1,0,0:0:0:100:B6S.wav
320,192,97186,1,8,0:0:0:0:
192,192,97520,1,2,0:0:0:0:
64,192,97853,1,0,0:0:0:0:
448,192,97853,1,8,0:0:0:0:
320,192,98020,1,0,0:0:0:100:B6S.wav
192,192,98353,1,2,0:0:0:0:
448,192,98520,1,8,0:0:0:0:
320,192,98520,1,0,0:0:0:100:C#7S_Db7S.wav
448,192,98853,1,2,0:0:0:0:
192,192,99186,1,8,0:0:0:0:
64,192,99186,1,0,0:0:0:0:
64,192,99520,1,0,0:0:0:0:
192,192,99686,1,2,0:0:0:0:
448,192,99853,1,8,0:0:0:0:
320,192,99853,1,0,0:0:0:100:B6S.wav
192,192,100186,1,2,0:0:0:0:
448,192,100520,1,8,0:0:0:0:
64,192,100520,1,0,0:0:0:0:
192,192,100686,1,0,0:0:0:50:LR_Snare Drum 2.wav
448,192,100853,128,0,101186:0:0:0:50:LR_Snare Drum 2.wav
64,192,101186,1,0,0:0:0:100:C#7S_Db7S.wav
192,192,101186,128,0,101520:0:0:0:50:LR_Snare Drum 2.wav
320,192,101520,1,2,0:0:0:0:
320,192,101853,1,0,0:0:0:0:
448,192,101853,1,8,0:0:0:0:
64,192,102020,1,0,0:0:0:100:F#6S_Gb6S.wav
320,192,102353,1,2,0:0:0:0:
64,192,102520,1,0,0:0:0:100:F#7S_Gb7S.wav
192,192,102520,1,8,0:0:0:0:
448,192,102853,1,2,0:0:0:0:
192,192,103186,1,8,0:0:0:0:
64,192,103186,1,0,0:0:0:100:D#7S_Eb7S.wav
320,192,103353,1,0,0:0:0:100:C#7S_Db7S.wav
448,192,103686,1,2,0:0:0:0:
192,192,103853,1,8,0:0:0:0:
320,192,103853,1,0,0:0:0:0:
448,192,104186,1,2,0:0:0:0:
64,192,104520,1,0,0:0:0:0:
320,192,104520,1,8,0:0:0:0:
448,192,104853,1,0,0:0:0:0:
320,192,105020,1,2,0:0:0:0:
64,192,105186,1,0,0:0:0:100:B6S.wav
192,192,105186,1,8,0:0:0:0:
448,192,105520,1,2,0:0:0:0:
192,192,105853,1,8,0:0:0:0:
320,192,105853,128,0,106686:0:0:0:100:B6S.wav
64,192,106103,1,8,0:0:0:0:
448,192,106353,1,2,0:0:0:0:
192,192,106686,1,0,0:0:0:50:LR_Snare Drum 2.wav
448,192,106853,1,2,0:0:0:0:
320,192,107186,1,0,0:0:0:0:
192,192,107186,1,8,0:0:0:0:
64,192,107520,1,0,0:0:0:0:
192,192,107686,1,2,0:0:0:0:
448,192,107853,1,0,0:0:0:100:F#6S_Gb6S.wav
320,192,107853,1,8,0:0:0:0:
192,192,108186,1,2,0:0:0:0:
448,192,108520,1,8,0:0:0:0:
64,192,108520,1,0,0:0:0:100:D#7S_Eb7S.wav
320,192,108686,1,0,0:0:0:100:E7S.wav
192,192,109020,1,2,0:0:0:0:
448,192,109186,1,8,0:0:0:0:
64,192,109186,1,0,0:0:0:0:
320,192,109520,1,2,0:0:0:0:
192,192,109853,1,8,0:0:0:0:
64,192,109853,1,0,0:0:0:0:
64,192,110186,1,0,0:0:0:0:
192,192,110353,1,2,0:0:0:0:
320,192,110520,1,8,0:0:0:0:
448,192,110520,1,0,0:0:0:88:F#6S_Gb6S.wav
64,192,110853,1,2,0:0:0:0:
448,192,111186,1,0,0:0:0:84:D#7S_Eb7S.wav
192,192,111186,1,8,0:0:0:0:
320,192,111353,1,0,0:0:0:82:C#7S_Db7S.wav
192,192,111686,1,2,0:0:0:0:
320,192,111853,1,8,0:0:0:0:
448,192,111853,1,0,0:0:0:0:
192,192,112186,1,2,0:0:0:0:
320,192,112520,1,8,0:0:0:0:
64,192,112520,1,0,0:0:0:0:
448,192,112853,1,0,0:0:0:0:
320,192,113020,1,2,0:0:0:0:
192,192,113186,1,8,0:0:0:0:
64,192,113186,1,0,0:0:0:76:D#7S_Eb7S.wav
64,192,113520,128,0,114186:0:0:0:74:C#7S_Db7S.wav
320,192,113853,1,8,0:0:0:0:
448,192,114186,1,0,0:0:0:0:
320,192,114353,1,2,0:0:0:0:
192,192,114520,1,8,0:0:0:0:
64,192,114520,1,0,0:0:0:72:B6S.wav
448,192,114853,128,2,115853:0:0:0:0:
192,192,115853,1,2,0:0:0:0:
64,192,116186,128,2,117186:0:0:0:0:
448,192,117186,1,2,0:0:0:0:
192,192,117520,128,4,118853:0:0:0:0:
320,192,117520,1,2,0:0:0:0:
320,192,118853,128,0,120186:0:0:0:70:B6S.wav
448,192,120186,128,0,122853:0:0:0:70:B6S.wav
64,192,120186,128,0,122853:0:0:0:70:B5S.wav
