osu file format v14

[General]
AudioFilename: audio.mp3
AudioLeadIn: 0
PreviewTime: 64181
Countdown: 0
SampleSet: Soft
StackLeniency: 0.7
Mode: 3
LetterboxInBreaks: 0
SpecialStyle: 0
WidescreenStoryboard: 0

[Editor]
DistanceSpacing: 1.4
BeatDivisor: 4
GridSize: 4
TimelineZoom: 3.899998

[Metadata]
Title:Module_410
TitleUnicode:Module_410
Artist:Fractal Dreamers
ArtistUnicode:Fractal Dreamers
Creator:Scotty
Version:Hard
Source:osu!
Tags:_kobii kabi monolithia helblinde mappers' guild instrumental electronic piano featured artist fa drum n bass dnb mg
BeatmapID:2314040
BeatmapSetID:1107159

[Difficulty]
HPDrainRate:7.5
CircleSize:7
OverallDifficulty:7.5
ApproachRate:5
SliderMultiplier:1.4
SliderTickRate:1

[Events]
//Background and Video events
0,0,"a.jpg",0,0
//Break Periods
2,43048,52315
//Storyboard Layer 0 (Background)
//Storyboard Layer 1 (Fail)
//Storyboard Layer 2 (Pass)
//Storyboard Layer 3 (Foreground)
//Storyboard Layer 4 (Overlay)
//Storyboard Sound Samples

[TimingPoints]
182,333.333333333333,4,2,1,40,1,0
53515,-100,4,2,1,30,0,0
62848,-100,4,2,1,40,0,0

[HitObjects]
475,192,182,128,0,1515:0:0:0:0:
36,192,182,1,0,0:0:0:0:
109,192,348,1,0,0:0:0:0:
182,192,515,1,0,0:0:0:0:
256,192,681,1,0,0:0:0:0:
329,192,848,1,0,0:0:0:0:
36,192,1015,1,0,0:0:0:0:
182,192,1181,128,0,1515:0:0:0:0:
36,192,1515,128,0,2848:0:0:0:0:
329,192,1515,1,0,0:0:0:0:
402,192,1681,1,0,0:0:0:0:
182,192,1848,1,0,0:0:0:0:
256,192,2015,128,0,2348:0:0:0:0:
475,192,2348,1,0,0:0:0:0:
329,192,2515,1,0,0:0:0:0:
182,192,2681,1,0,0:0:0:0:
329,192,2848,128,0,4181:0:0:0:0:
402,192,2848,1,0,0:0:0:0:
109,192,3015,1,0,0:0:0:0:
36,192,3181,1,0,0:0:0:0:
182,192,3348,1,0,0:0:0:0:
475,192,3515,1,0,0:0:0:0:
256,192,3681,1,0,0:0:0:0:
36,192,3848,128,0,4181:0:0:0:0:
182,192,4181,128,0,5515:0:0:0:0:
475,192,4181,1,0,0:0:0:0:
402,192,4348,1,0,0:0:0:0:
329,192,4515,128,0,4848:0:0:0:0:
36,192,4848,1,0,0:0:0:0:
475,192,5015,1,0,0:0:0:0:
256,192,5181,128,0,5515:0:0:0:0:
475,192,5515,128,0,6848:0:0:0:0:
36,192,5515,1,0,0:0:0:0:
109,192,5681,1,0,0:0:0:0:
182,192,5848,1,0,0:0:0:0:
256,192,6015,1,0,0:0:0:0:
36,192,6181,1,0,0:0:0:0:
182,192,6348,1,0,0:0:0:0:
329,192,6515,128,0,6848:0:0:0:0:
36,192,6848,128,0,8181:0:0:0:0:
182,192,6848,1,0,0:0:0:0:
256,192,7015,1,0,0:0:0:0:
329,192,7181,1,0,0:0:0:0:
402,192,7348,128,0,7681:0:0:0:0:
329,192,7681,1,0,0:0:0:0:
256,192,7765,1,0,0:0:0:0:
182,192,7848,1,0,0:0:0:0:
475,192,8015,1,0,0:0:0:0:
256,192,8181,128,0,9515:0:0:0:0:
329,192,8181,1,0,0:0:0:0:
109,192,8348,1,0,0:0:0:0:
402,192,8515,1,0,0:0:0:0:
475,192,8681,1,0,0:0:0:0:
36,192,8848,1,0,0:0:0:0:
109,192,9015,1,0,0:0:0:0:
329,192,9181,128,0,9515:0:0:0:0:
475,192,9515,128,0,10348:0:0:0:0:
36,192,9515,1,0,0:0:0:0:
109,192,9681,1,0,0:0:0:0:
182,192,9848,128,0,10181:0:0:0:0:
329,192,10181,1,0,0:0:0:0:
109,192,10348,128,0,10431:0:0:0:0:
402,192,10515,128,0,10598:0:0:0:0:
182,192,10681,128,0,10765:0:0:0:0:
475,192,10848,128,2,11181:0:0:0:0:
36,192,10848,128,0,10931:0:0:0:0:
329,192,10931,128,0,11181:0:0:0:0:
182,192,11015,1,0,0:0:0:0:
109,192,11181,1,8,0:0:0:0:
36,192,11181,1,0,0:0:0:0:
256,192,11181,1,0,0:0:0:0:
475,192,11348,128,0,11681:0:0:0:0:
402,192,11431,128,0,11681:0:0:0:0:
182,192,11515,1,0,0:0:0:0:
109,192,11681,1,2,0:0:0:0:
329,192,11681,1,0,0:0:0:0:
36,192,11848,1,8,0:0:0:0:
402,192,11848,1,0,0:0:0:0:
256,192,11848,1,0,0:0:0:0:
475,192,12015,128,0,12098:0:0:0:0:
329,192,12098,128,0,12181:0:0:0:0:
36,192,12181,128,2,12348:0:0:0:0:
109,192,12181,128,0,12348:0:0:0:0:
182,192,12181,1,0,0:0:0:0:
402,192,12348,1,0,0:0:0:0:
182,192,12515,1,8,0:0:0:0:
36,192,12515,1,0,0:0:0:0:
475,192,12515,1,0,0:0:0:0:
256,192,12681,128,0,12848:0:0:0:0:
402,192,12848,1,0,0:0:0:0:
256,192,13015,1,0,0:0:0:0:
109,192,13015,1,2,0:0:0:0:
36,192,13181,128,8,13431:0:0:0:0:
329,192,13181,128,0,13265:0:0:0:0:
475,192,13181,1,0,0:0:0:0:
182,192,13265,128,0,13431:0:0:0:0:
36,192,13515,128,2,13765:0:0:0:0:
402,192,13515,128,0,13598:0:0:0:0:
109,192,13598,128,0,13765:0:0:0:0:
475,192,13848,1,8,0:0:0:0:
329,192,13848,1,0,0:0:0:0:
402,192,13848,1,0,0:0:0:0:
36,192,14015,128,0,14181:0:0:0:0:
182,192,14098,128,0,14181:0:0:0:0:
256,192,14181,1,0,0:0:0:0:
402,192,14348,1,2,0:0:0:0:
475,192,14348,1,0,0:0:0:0:
182,192,14515,128,8,14598:0:0:0:0:
36,192,14515,1,0,0:0:0:0:
329,192,14515,1,0,0:0:0:0:
256,192,14681,1,0,0:0:0:0:
475,192,14848,128,2,15015:0:0:0:0:
402,192,14848,128,0,15015:0:0:0:0:
109,192,14848,1,0,0:0:0:0:
182,192,15015,1,0,0:0:0:0:
256,192,15181,128,8,15265:0:0:0:0:
36,192,15181,1,0,0:0:0:0:
475,192,15181,1,0,0:0:0:0:
109,192,15348,128,0,15431:0:0:0:0:
329,192,15348,1,0,0:0:0:0:
256,192,15431,1,2,0:0:0:0:
182,192,15515,1,0,0:0:0:70:snare_3.wav
475,192,15515,1,0,0:0:0:0:
36,192,15681,128,2,15765:0:0:0:0:
402,192,15681,1,0,0:0:0:70:snare_3.wav
329,192,15765,1,0,0:0:0:0:
256,192,15848,1,8,0:0:0:0:
109,192,15848,1,0,0:0:0:0:
182,192,15848,1,0,0:0:0:0:
402,192,16015,1,0,0:0:0:70:snare_3.wav
36,192,16181,128,2,16515:0:0:0:0:
475,192,16181,128,0,16265:0:0:0:0:
182,192,16265,128,0,16515:0:0:0:0:
329,192,16348,1,0,0:0:0:0:
256,192,16515,1,8,0:0:0:0:
402,192,16515,1,0,0:0:0:0:
475,192,16515,1,0,0:0:0:0:
36,192,16681,128,0,17015:0:0:0:0:
109,192,16765,128,0,17015:0:0:0:0:
329,192,16848,1,0,0:0:0:0:
182,192,17015,1,2,0:0:0:0:
402,192,17015,1,0,0:0:0:0:
36,192,17181,128,8,17265:0:0:0:0:
256,192,17181,1,0,0:0:0:0:
475,192,17181,1,0,0:0:0:0:
182,192,17348,128,0,17431:0:0:0:0:
475,192,17515,128,2,17681:0:0:0:0:
402,192,17515,128,0,17681:0:0:0:0:
329,192,17515,1,0,0:0:0:0:
182,192,17681,1,0,0:0:0:0:
109,192,17848,1,8,0:0:0:0:
36,192,17848,1,0,0:0:0:0:
475,192,17848,1,0,0:0:0:0:
256,192,18015,128,0,18181:0:0:0:0:
329,192,18181,1,0,0:0:0:0:
402,192,18348,1,2,0:0:0:0:
182,192,18348,1,0,0:0:0:0:
475,192,18515,128,8,18765:0:0:0:0:
36,192,18515,1,0,0:0:0:0:
109,192,18515,128,0,18598:0:0:0:0:
329,192,18598,128,0,18765:0:0:0:0:
475,192,18848,128,2,19098:0:0:0:0:
182,192,18848,128,0,18931:0:0:0:0:
402,192,18931,128,0,19098:0:0:0:0:
256,192,19181,1,8,0:0:0:0:
36,192,19181,1,0,0:0:0:0:
109,192,19181,1,0,0:0:0:0:
475,192,19348,128,0,19515:0:0:0:0:
329,192,19431,128,0,19515:0:0:0:0:
182,192,19515,1,0,0:0:0:0:
109,192,19681,1,2,0:0:0:0:
256,192,19681,1,0,0:0:0:0:
475,192,19848,1,8,0:0:0:0:
329,192,19848,1,0,0:0:0:0:
36,192,19848,1,0,0:0:0:0:
182,192,20015,1,0,0:0:0:0:
109,192,20181,128,0,20348:0:0:0:0:
36,192,20181,128,0,20348:0:0:0:0:
402,192,20181,1,2,0:0:0:0:
329,192,20348,1,0,0:0:0:0:
256,192,20515,1,8,0:0:0:0:
109,192,20515,1,0,0:0:0:0:
475,192,20515,1,0,0:0:0:0:
402,192,20681,128,0,20765:0:0:0:0:
182,192,20765,1,8,0:0:0:0:
36,192,20765,1,0,0:0:0:0:
256,192,20848,1,0,0:0:0:0:
329,192,21015,128,2,21098:0:0:0:0:
182,192,21015,1,0,0:0:0:0:
256,192,21181,1,8,0:0:0:0:
475,192,21181,1,0,0:0:0:0:
36,192,21181,1,0,0:0:0:0:
329,192,21348,1,0,0:0:0:0:
36,192,21515,128,2,21848:0:0:0:0:
475,192,21515,128,0,21598:0:0:0:0:
182,192,21598,128,0,21848:0:0:0:0:
329,192,21848,128,8,21931:0:0:0:0:
256,192,21848,1,0,0:0:0:0:
36,192,22015,128,0,22348:0:0:0:0:
475,192,22015,128,0,22098:0:0:0:0:
109,192,22098,128,0,22348:0:0:0:0:
402,192,22181,1,0,0:0:0:0:
256,192,22348,128,2,22431:0:0:0:0:
182,192,22348,1,0,0:0:0:0:
402,192,22515,1,8,0:0:0:0:
109,192,22515,1,0,0:0:0:0:
329,192,22515,1,0,0:0:0:0:
256,192,22681,1,0,0:0:0:0:
109,192,22848,128,2,23015:0:0:0:0:
36,192,22848,128,0,23015:0:0:0:0:
475,192,22848,128,0,22931:0:0:0:0:
329,192,23181,128,8,23265:0:0:0:0:
36,192,23181,1,0,0:0:0:0:
475,192,23348,128,0,23431:0:0:0:0:
182,192,23515,1,0,0:0:0:0:
256,192,23681,128,2,23765:0:0:0:0:
109,192,23681,1,0,0:0:0:0:
36,192,23848,128,8,24098:0:0:0:0:
475,192,23848,1,0,0:0:0:0:
402,192,23848,1,0,0:0:0:0:
182,192,23931,128,0,24098:0:0:0:0:
329,192,24015,1,0,0:0:0:0:
36,192,24181,128,2,24431:0:0:0:0:
475,192,24181,128,0,24265:0:0:0:0:
109,192,24265,128,0,24431:0:0:0:0:
182,192,24515,1,8,0:0:0:0:
329,192,24515,128,0,24598:0:0:0:0:
36,192,24681,128,0,24848:0:0:0:0:
475,192,24681,128,0,24765:0:0:0:0:
182,192,24765,128,0,24848:0:0:0:0:
329,192,24848,1,0,0:0:0:0:
256,192,25015,1,2,0:0:0:0:
402,192,25015,128,0,25098:0:0:0:0:
109,192,25181,1,8,0:0:0:0:
36,192,25181,1,0,0:0:0:0:
182,192,25181,1,0,0:0:0:0:
329,192,25348,1,0,0:0:0:0:
402,192,25515,128,2,25681:0:0:0:0:
475,192,25515,128,0,25681:0:0:0:0:
256,192,25515,1,0,0:0:0:0:
182,192,25681,1,0,0:0:0:0:
109,192,25848,1,8,0:0:0:0:
36,192,25848,1,0,0:0:0:0:
329,192,25848,1,0,0:0:0:0:
256,192,26015,128,0,26098:0:0:0:0:
475,192,26015,1,0,0:0:0:0:
402,192,26098,1,2,0:0:0:0:
329,192,26181,1,0,0:0:0:70:snare_3.wav
109,192,26181,1,0,0:0:0:0:
36,192,26348,128,2,26431:0:0:0:0:
182,192,26348,1,0,0:0:0:70:snare_3.wav
256,192,26431,1,0,0:0:0:0:
475,192,26515,1,8,0:0:0:0:
402,192,26515,1,0,0:0:0:0:
329,192,26515,1,0,0:0:0:0:
109,192,26681,1,0,0:0:0:70:snare_3.wav
475,192,26848,128,2,27181:0:0:0:0:
36,192,26848,128,0,26931:0:0:0:0:
329,192,26931,128,0,27181:0:0:0:0:
182,192,27015,1,0,0:0:0:0:
36,192,27181,1,8,0:0:0:0:
109,192,27181,1,0,0:0:0:0:
256,192,27181,1,0,0:0:0:0:
475,192,27348,128,0,27681:0:0:0:0:
402,192,27431,128,0,27681:0:0:0:0:
109,192,27515,1,0,0:0:0:0:
36,192,27681,1,2,0:0:0:0:
256,192,27681,1,0,0:0:0:0:
182,192,27848,128,8,27931:0:0:0:0:
329,192,27848,1,0,0:0:0:0:
475,192,27848,1,0,0:0:0:0:
109,192,28015,1,0,0:0:0:0:
182,192,28181,128,2,28265:0:0:0:0:
475,192,28181,128,0,28348:0:0:0:0:
402,192,28181,128,0,28348:0:0:0:0:
256,192,28348,1,0,0:0:0:0:
36,192,28515,1,8,0:0:0:0:
329,192,28515,1,0,0:0:0:0:
475,192,28515,1,0,0:0:0:0:
182,192,28681,1,0,0:0:0:0:
256,192,28848,1,0,0:0:0:0:
329,192,29015,1,2,0:0:0:0:
109,192,29015,1,0,0:0:0:0:
475,192,29181,128,8,29265:0:0:0:0:
36,192,29181,128,0,29431:0:0:0:0:
402,192,29181,1,0,0:0:0:0:
182,192,29265,128,0,29431:0:0:0:0:
329,192,29348,1,0,0:0:0:0:
475,192,29515,128,2,29598:0:0:0:0:
36,192,29515,128,0,29765:0:0:0:0:
109,192,29598,128,0,29765:0:0:0:0:
256,192,29681,1,0,0:0:0:0:
329,192,29848,1,8,0:0:0:0:
475,192,29848,1,0,0:0:0:0:
402,192,29848,1,0,0:0:0:0:
36,192,30015,128,0,30181:0:0:0:0:
182,192,30098,128,0,30181:0:0:0:0:
329,192,30181,1,0,0:0:0:0:
256,192,30348,1,2,0:0:0:0:
475,192,30348,1,0,0:0:0:0:
402,192,30515,1,8,0:0:0:0:
182,192,30515,1,0,0:0:0:0:
36,192,30515,1,0,0:0:0:0:
329,192,30681,1,0,0:0:0:0:
109,192,30848,128,0,31015:0:0:0:0:
36,192,30848,128,0,31015:0:0:0:0:
182,192,30848,1,2,0:0:0:0:
402,192,31015,128,0,31098:0:0:0:0:
329,192,31181,128,8,31265:0:0:0:0:
36,192,31181,1,0,0:0:0:0:
475,192,31181,1,0,0:0:0:0:
109,192,31348,1,0,0:0:0:0:
402,192,31431,1,8,0:0:0:0:
256,192,31431,1,0,0:0:0:0:
36,192,31515,1,0,0:0:0:0:
182,192,31681,128,2,31765:0:0:0:0:
329,192,31681,1,0,0:0:0:0:
109,192,31848,128,8,31931:0:0:0:0:
256,192,31848,1,0,0:0:0:0:
475,192,31848,1,0,0:0:0:0:
36,192,32015,128,0,32098:0:0:0:0:
402,192,32015,1,0,0:0:0:0:
329,192,32181,1,4,0:0:0:0:
182,192,32181,1,2,0:0:0:0:
109,192,32181,1,0,0:0:0:0:
256,192,32348,1,0,0:0:0:0:
182,192,32515,1,0,0:0:0:0:
402,192,32681,1,0,0:0:0:0:
36,192,33015,1,0,0:0:0:0:
182,192,33181,1,0,0:0:0:0:
329,192,33348,1,0,0:0:0:0:
475,192,33681,1,0,0:0:0:0:
329,192,33848,1,0,0:0:0:0:
182,192,34015,1,0,0:0:0:0:
36,192,34015,1,0,0:0:0:0:
182,192,34348,1,0,0:0:0:0:
109,192,34515,1,0,0:0:0:0:
256,192,34681,1,0,0:0:0:0:
475,192,34848,1,0,0:0:0:0:
402,192,35015,1,0,0:0:0:0:
329,192,35181,1,0,0:0:0:0:
256,192,35348,1,0,0:0:0:0:
109,192,35681,1,0,0:0:0:0:
329,192,35848,1,0,0:0:0:0:
36,192,36015,1,0,0:0:0:0:
109,192,36348,1,0,0:0:0:0:
329,192,36515,1,0,0:0:0:0:
182,192,36681,1,0,0:0:0:0:
402,192,36848,1,0,0:0:0:0:
256,192,37015,1,0,0:0:0:0:
475,192,37181,1,0,0:0:0:0:
329,192,37348,1,0,0:0:0:0:
36,192,37515,1,0,0:0:0:0:
182,192,37681,1,0,0:0:0:0:
109,192,37848,1,0,0:0:0:0:
256,192,38015,1,0,0:0:0:0:
36,192,38348,1,0,0:0:0:0:
182,192,38515,1,0,0:0:0:0:
329,192,38681,1,0,0:0:0:0:
475,192,39015,1,0,0:0:0:0:
329,192,39181,1,0,0:0:0:0:
182,192,39348,1,0,0:0:0:0:
36,192,39348,1,0,0:0:0:0:
182,192,39681,1,0,0:0:0:0:
109,192,39848,1,0,0:0:0:0:
36,192,40015,1,0,0:0:0:0:
475,192,40181,128,0,42848:0:0:0:0:
256,192,40181,1,0,0:0:0:0:
329,192,40348,1,0,0:0:0:0:
109,192,40515,1,0,0:0:0:0:
182,192,40681,1,0,0:0:0:0:
256,192,41015,1,0,0:0:0:0:
329,192,41348,1,0,0:0:0:0:
402,192,41515,128,0,42848:0:0:0:0:
182,192,41681,1,0,0:0:0:0:
109,192,41848,1,0,0:0:0:0:
256,192,42015,1,0,0:0:0:0:
182,192,42181,1,0,0:0:0:0:
36,192,42348,1,0,0:0:0:0:
109,192,42515,1,0,0:0:0:0:
182,192,42681,1,0,0:0:0:0:
36,192,42848,1,0,0:0:0:0:
329,192,42848,1,0,0:0:0:0:
256,192,42848,1,0,0:0:0:0:
475,192,53515,5,4,0:0:0:0:
109,192,53515,128,2,53681:0:0:0:0:
182,192,53515,128,0,53681:0:0:0:0:
256,192,53681,1,0,0:0:0:0:
329,192,53848,128,0,54181:0:0:0:70:snare_2.wav
36,192,53848,1,0,0:0:0:0:
475,192,54015,128,0,54515:0:0:0:0:
182,192,54015,128,0,54181:0:0:0:0:
329,192,54348,128,2,54515:0:0:0:0:
109,192,54348,128,0,54515:0:0:0:0:
36,192,54515,1,0,0:0:0:70:snare_2.wav
256,192,54515,1,0,0:0:0:0:
402,192,54681,1,0,0:0:0:0:
182,192,54848,128,2,55015:0:0:0:0:
109,192,54848,128,0,55015:0:0:0:0:
475,192,54848,1,0,0:0:0:0:
256,192,55015,1,0,0:0:0:0:
329,192,55181,128,0,55515:0:0:0:70:snare_2.wav
109,192,55181,1,0,0:0:0:0:
475,192,55348,128,0,55848:0:0:0:0:
182,192,55348,128,0,55515:0:0:0:0:
329,192,55681,128,2,55848:0:0:0:0:
109,192,55681,128,0,55848:0:0:0:0:
36,192,55848,1,0,0:0:0:70:snare_2.wav
256,192,55848,1,0,0:0:0:0:
402,192,56015,1,0,0:0:0:0:
109,192,56181,128,2,56348:0:0:0:0:
182,192,56181,128,0,56348:0:0:0:0:
256,192,56348,1,0,0:0:0:0:
475,192,56515,128,0,56848:0:0:0:70:snare_2.wav
36,192,56515,1,0,0:0:0:0:
329,192,56681,128,0,57181:0:0:0:0:
182,192,56681,128,0,56848:0:0:0:0:
36,192,57015,128,2,57515:0:0:0:0:
475,192,57015,128,0,57515:0:0:0:0:
256,192,57181,1,0,0:0:0:70:snare_2.wav
182,192,57348,128,0,57515:0:0:0:0:
402,192,57348,128,0,57515:0:0:0:0:
109,192,57515,1,2,0:0:0:0:
329,192,57515,1,0,0:0:0:0:
475,192,57681,1,0,0:0:0:0:
402,192,57765,1,0,0:0:0:0:
256,192,57848,1,0,0:0:0:70:snare_2.wav
36,192,57848,1,0,0:0:0:0:
109,192,58015,128,2,58348:0:0:0:0:
182,192,58015,1,0,0:0:0:0:
329,192,58181,1,2,0:0:0:0:
402,192,58181,1,0,0:0:0:0:
475,192,58348,128,2,58848:0:0:0:0:
256,192,58348,1,0,0:0:0:0:
402,192,58515,128,0,58848:0:0:0:70:snare_2.wav
36,192,58515,1,0,0:0:0:0:
182,192,58598,1,0,0:0:0:0:
329,192,58681,128,0,58848:0:0:0:0:
256,192,58765,1,0,0:0:0:0:
182,192,58848,128,2,59015:0:0:0:0:
109,192,58848,128,4,59015:0:0:0:0:
36,192,58848,1,0,0:0:0:0:
256,192,59015,1,0,0:0:0:0:
329,192,59181,128,0,59515:0:0:0:70:snare_2.wav
36,192,59181,1,0,0:0:0:0:
475,192,59348,128,0,59848:0:0:0:0:
182,192,59348,128,0,59515:0:0:0:0:
329,192,59681,128,2,59848:0:0:0:0:
109,192,59681,128,0,59848:0:0:0:0:
36,192,59848,1,0,0:0:0:70:snare_2.wav
256,192,59848,1,0,0:0:0:0:
402,192,60015,1,0,0:0:0:0:
109,192,60181,128,2,60348:0:0:0:0:
182,192,60181,128,0,60348:0:0:0:0:
475,192,60181,1,0,0:0:0:0:
256,192,60348,1,0,0:0:0:0:
329,192,60515,128,0,60848:0:0:0:70:snare_2.wav
36,192,60515,1,0,0:0:0:0:
475,192,60681,128,0,61181:0:0:0:0:
182,192,60681,128,0,60848:0:0:0:0:
329,192,61015,128,2,61181:0:0:0:0:
109,192,61015,128,0,61515:0:0:0:0:
256,192,61181,128,0,61515:0:0:0:70:snare_2.wav
36,192,61181,1,0,0:0:0:0:
402,192,61348,128,0,61515:0:0:0:0:
475,192,61515,128,2,62348:0:0:0:0:
36,192,61515,128,0,62348:0:0:0:0:
329,192,61515,1,0,0:0:0:0:
182,192,61681,1,0,0:0:0:0:
109,192,61848,1,8,0:0:0:0:
402,192,61848,1,0,0:0:0:0:
329,192,62015,1,0,0:0:0:0:
256,192,62181,1,0,0:0:0:0:
182,192,62348,128,2,62681:0:0:0:0:
109,192,62348,1,0,0:0:0:0:
329,192,62515,128,8,62681:0:0:0:0:
402,192,62515,1,0,0:0:0:0:
256,192,62681,128,0,63181:0:0:0:0:
36,192,62681,128,0,63181:0:0:0:0:
475,192,62848,1,2,0:0:0:0:
329,192,62848,1,0,0:0:0:0:
109,192,63015,1,0,0:0:0:0:
182,192,63181,128,8,63515:0:0:0:0:
402,192,63181,1,0,0:0:0:0:
329,192,63348,1,0,0:0:0:0:
256,192,63431,1,8,0:0:0:0:
109,192,63515,128,0,63848:0:0:0:0:
475,192,63515,1,0,0:0:0:0:
329,192,63681,1,2,0:0:0:0:
402,192,63681,1,0,0:0:0:0:
256,192,63848,1,8,0:0:0:0:
36,192,63848,128,0,64181:0:0:0:0:
182,192,64015,1,0,0:0:0:0:
109,192,64181,1,2,0:0:0:0:
402,192,64181,1,4,0:0:0:0:
475,192,64181,128,0,64348:0:0:0:0:
329,192,64348,128,0,64515:0:0:0:0:
182,192,64515,128,8,64681:0:0:0:0:
475,192,64515,1,0,0:0:0:0:
256,192,64515,1,0,0:0:0:0:
36,192,64681,128,0,65015:0:0:0:0:
402,192,64848,1,0,0:0:0:0:
329,192,65015,128,2,65181:0:0:0:0:
182,192,65015,1,0,0:0:0:0:
402,192,65181,128,8,65348:0:0:0:0:
256,192,65181,1,0,0:0:0:0:
109,192,65181,1,0,0:0:0:0:
475,192,65348,128,0,65515:0:0:0:0:
36,192,65348,1,0,0:0:0:0:
329,192,65515,1,2,0:0:0:0:
256,192,65515,1,0,0:0:0:0:
182,192,65681,128,0,65848:0:0:0:0:
109,192,65848,128,8,66015:0:0:0:0:
402,192,65848,1,0,0:0:0:0:
475,192,65848,1,0,0:0:0:0:
36,192,66015,128,0,66181:0:0:0:0:
475,192,66181,128,0,66515:0:0:0:0:
109,192,66348,1,2,0:0:0:0:
36,192,66348,1,0,0:0:0:0:
182,192,66515,128,8,66681:0:0:0:0:
329,192,66515,1,0,0:0:0:0:
109,192,66681,128,0,66848:0:0:0:0:
475,192,66848,128,2,67015:0:0:0:0:
256,192,66848,1,0,0:0:0:0:
329,192,67015,128,0,67181:0:0:0:0:
182,192,67181,128,8,67348:0:0:0:0:
109,192,67181,1,0,0:0:0:0:
402,192,67181,1,0,0:0:0:0:
36,192,67348,128,0,67515:0:0:0:0:
475,192,67515,128,0,68181:0:0:0:0:
256,192,67681,128,2,67848:0:0:0:0:
182,192,67681,1,0,0:0:0:0:
329,192,67848,128,8,68015:0:0:0:0:
36,192,67848,1,0,0:0:0:0:
109,192,68015,128,0,68181:0:0:0:0:
402,192,68181,1,2,0:0:0:0:
256,192,68181,1,0,0:0:0:0:
182,192,68348,128,0,68515:0:0:0:0:
36,192,68515,128,8,68681:0:0:0:0:
475,192,68515,1,0,0:0:0:0:
256,192,68515,1,0,0:0:0:0:
329,192,68681,128,0,68848:0:0:0:0:
109,192,68681,1,0,0:0:0:0:
402,192,68765,1,2,0:0:0:0:
182,192,68848,128,0,69015:0:0:0:70:snare_3.wav
36,192,68848,1,0,0:0:0:0:
475,192,69015,128,2,69181:0:0:0:0:
256,192,69015,1,0,0:0:0:70:snare_3.wav
109,192,69098,1,0,0:0:0:0:
329,192,69181,128,8,69348:0:0:0:0:
36,192,69181,1,0,0:0:0:0:
182,192,69348,128,0,69515:0:0:0:70:snare_3.wav
402,192,69348,1,0,0:0:0:0:
36,192,69515,128,2,69681:0:0:0:0:
475,192,69515,1,0,0:0:0:0:
329,192,69681,128,0,69848:0:0:0:0:
475,192,69848,128,8,70015:0:0:0:0:
36,192,69848,1,0,0:0:0:0:
256,192,69848,1,0,0:0:0:0:
182,192,70015,128,0,70181:0:0:0:0:
36,192,70181,128,0,70515:0:0:0:0:
329,192,70348,128,2,70515:0:0:0:0:
256,192,70348,1,0,0:0:0:0:
402,192,70515,128,8,70681:0:0:0:0:
182,192,70515,1,0,0:0:0:0:
475,192,70681,128,0,70848:0:0:0:0:
329,192,70848,1,2,0:0:0:0:
36,192,70848,1,0,0:0:0:0:
182,192,71015,128,0,71181:0:0:0:0:
109,192,71181,128,8,71348:0:0:0:0:
475,192,71181,1,0,0:0:0:0:
256,192,71181,1,0,0:0:0:0:
36,192,71348,128,0,71515:0:0:0:0:
475,192,71515,128,0,71848:0:0:0:0:
109,192,71681,1,2,0:0:0:0:
36,192,71681,1,0,0:0:0:0:
182,192,71848,128,8,72015:0:0:0:0:
329,192,71848,1,0,0:0:0:0:
109,192,72015,128,0,72181:0:0:0:0:
475,192,72181,128,2,72348:0:0:0:0:
256,192,72181,1,0,0:0:0:0:
329,192,72348,128,0,72515:0:0:0:0:
402,192,72515,128,8,72681:0:0:0:0:
36,192,72515,1,0,0:0:0:0:
182,192,72515,1,0,0:0:0:0:
475,192,72681,128,0,72848:0:0:0:0:
36,192,72848,128,0,73515:0:0:0:0:
329,192,73015,128,2,73181:0:0:0:0:
182,192,73015,1,0,0:0:0:0:
109,192,73181,1,8,0:0:0:0:
475,192,73181,1,0,0:0:0:0:
256,192,73348,128,0,73515:0:0:0:0:
402,192,73515,1,2,0:0:0:0:
329,192,73515,1,0,0:0:0:0:
182,192,73681,128,0,73765:0:0:0:0:
109,192,73765,128,0,73848:0:0:0:0:
36,192,73848,128,8,73931:0:0:0:0:
256,192,73848,1,0,0:0:0:0:
475,192,73848,1,0,0:0:0:0:
402,192,74015,128,0,74181:0:0:0:0:
329,192,74098,1,8,0:0:0:0:
475,192,74181,128,0,74348:0:0:0:0:
109,192,74181,128,0,74265:0:0:0:0:
36,192,74181,128,0,74265:0:0:0:0:
182,192,74348,1,2,0:0:0:0:
329,192,74515,128,8,74681:0:0:0:0:
402,192,74515,1,0,0:0:0:0:
109,192,74515,1,0,0:0:0:0:
256,192,74681,128,0,74848:0:0:0:0:
475,192,74848,128,2,75848:0:0:0:0:
36,192,74848,128,0,75015:0:0:0:0:
182,192,75015,128,0,75181:0:0:0:0:
36,192,75181,128,8,75348:0:0:0:0:
329,192,75181,1,0,0:0:0:0:
402,192,75348,128,0,75848:0:0:0:0:
256,192,75348,128,0,75515:0:0:0:0:
109,192,75515,1,0,0:0:0:0:
36,192,75681,128,2,75848:0:0:0:0:
182,192,75681,1,0,0:0:0:0:
109,192,75848,128,8,76015:0:0:0:0:
256,192,75848,1,0,0:0:0:0:
182,192,76015,128,0,76181:0:0:0:0:
36,192,76181,128,2,77181:0:0:0:0:
329,192,76181,1,0,0:0:0:0:
475,192,76348,128,0,76515:0:0:0:0:
402,192,76515,128,8,76681:0:0:0:0:
182,192,76515,1,0,0:0:0:0:
109,192,76681,128,0,77181:0:0:0:0:
329,192,76681,128,0,76848:0:0:0:0:
475,192,76848,1,0,0:0:0:0:
329,192,77015,128,2,77098:0:0:0:0:
475,192,77098,128,0,77181:0:0:0:0:
256,192,77181,1,8,0:0:0:0:
182,192,77265,128,0,77348:0:0:0:0:
329,192,77348,128,0,77431:0:0:0:0:
109,192,77431,128,0,77515:0:0:0:0:
402,192,77515,128,2,77681:0:0:0:0:
256,192,77515,128,0,78515:0:0:0:0:
475,192,77681,128,0,77848:0:0:0:0:
36,192,77848,128,8,78015:0:0:0:0:
182,192,77848,1,0,0:0:0:0:
329,192,78015,128,0,78348:0:0:0:0:
36,192,78181,1,0,0:0:0:0:
475,192,78348,1,0,0:0:0:0:
182,192,78348,128,2,78515:0:0:0:0:
109,192,78515,128,8,78681:0:0:0:0:
402,192,78515,1,0,0:0:0:0:
36,192,78681,128,0,78848:0:0:0:0:
475,192,78848,128,2,80015:0:0:0:0:
256,192,78848,1,0,0:0:0:0:
182,192,79015,128,0,79098:0:0:0:0:
109,192,79098,128,0,79181:0:0:0:0:
36,192,79181,128,8,79265:0:0:0:0:
329,192,79181,1,0,0:0:0:0:
256,192,79348,128,0,79515:0:0:0:0:
402,192,79515,128,0,80015:0:0:0:0:
109,192,79515,128,0,79681:0:0:0:0:
36,192,79681,128,2,79848:0:0:0:0:
256,192,79681,1,0,0:0:0:0:
182,192,79848,128,8,80015:0:0:0:0:
329,192,79848,1,0,0:0:0:0:
109,192,80015,128,0,80181:0:0:0:0:
36,192,80181,128,2,81348:0:0:0:0:
475,192,80181,128,0,80348:0:0:0:0:
256,192,80181,1,0,0:0:0:0:
329,192,80348,128,0,80515:0:0:0:0:
475,192,80515,128,8,80681:0:0:0:0:
182,192,80515,1,0,0:0:0:0:
256,192,80681,128,0,80848:0:0:0:0:
109,192,80848,128,0,81348:0:0:0:0:
329,192,81015,128,2,81181:0:0:0:0:
475,192,81015,1,0,0:0:0:0:
402,192,81181,128,8,81348:0:0:0:0:
256,192,81181,1,0,0:0:0:0:
475,192,81348,128,0,81515:0:0:0:0:
36,192,81515,128,2,82515:0:0:0:0:
182,192,81515,1,0,0:0:0:0:
329,192,81681,128,0,81848:0:0:0:0:
256,192,81848,128,8,82015:0:0:0:0:
475,192,81848,1,0,0:0:0:0:
182,192,82015,128,0,82348:0:0:0:0:
402,192,82015,128,0,82348:0:0:0:0:
329,192,82348,128,2,82515:0:0:0:0:
182,192,82515,1,8,0:0:0:0:
475,192,82515,1,0,0:0:0:0:
36,192,82681,128,0,82765:0:0:0:0:
109,192,82765,128,0,82848:0:0:0:0:
475,192,82848,128,2,84015:0:0:0:0:
182,192,82848,128,0,82931:0:0:0:0:
256,192,83015,128,0,83181:0:0:0:0:
182,192,83181,128,8,83348:0:0:0:0:
402,192,83181,1,0,0:0:0:0:
329,192,83348,128,0,83681:0:0:0:0:
109,192,83348,128,0,83681:0:0:0:0:
36,192,83681,128,2,83848:0:0:0:0:
256,192,83681,1,0,0:0:0:0:
182,192,83848,128,8,83931:0:0:0:0:
402,192,83848,1,0,0:0:0:0:
109,192,83931,128,0,84015:0:0:0:0:
36,192,84015,128,0,84098:0:0:0:0:
475,192,84181,128,2,85515:0:0:0:0:
329,192,84181,1,0,0:0:0:0:
109,192,84348,128,0,84515:0:0:0:0:
36,192,84515,128,8,84681:0:0:0:0:
256,192,84515,1,0,0:0:0:0:
182,192,84681,128,0,84848:0:0:0:0:
329,192,84765,1,8,0:0:0:0:
109,192,84848,128,0,85015:0:0:0:0:
402,192,84848,128,0,85515:0:0:0:0:
256,192,85015,128,2,85181:0:0:0:0:
36,192,85015,1,0,0:0:0:0:
182,192,85181,128,0,85348:0:0:0:0:
329,192,85348,128,0,85515:0:0:0:0:
109,192,85515,1,4,0:0:0:0:
36,192,85515,1,2,0:0:0:0:
256,192,85515,1,0,0:0:0:0:
182,192,85681,1,0,0:0:0:0:
329,192,85848,1,8,0:0:0:0:
402,192,85848,1,0,0:0:0:0:
475,192,85848,1,0,0:0:0:0:
256,192,86015,1,0,0:0:0:0:
182,192,86181,1,0,0:0:0:0:
475,192,86348,1,2,0:0:0:0:
109,192,86348,1,0,0:0:0:0:
329,192,86515,1,8,0:0:0:0:
402,192,86515,1,0,0:0:0:0:
36,192,86515,1,0,0:0:0:0:
256,192,86681,1,0,0:0:0:0:
109,192,86848,1,2,0:0:0:0:
182,192,86848,1,0,0:0:0:0:
329,192,87015,1,0,0:0:0:0:
475,192,87181,1,8,0:0:0:0:
256,192,87181,1,0,0:0:0:0:
36,192,87181,1,0,0:0:0:0:
402,192,87348,1,0,0:0:0:0:
109,192,87515,1,0,0:0:0:0:
475,192,87681,1,2,0:0:0:0:
182,192,87681,1,0,0:0:0:0:
256,192,87848,1,8,0:0:0:0:
36,192,87848,1,0,0:0:0:0:
402,192,87848,1,0,0:0:0:0:
182,192,88015,1,0,0:0:0:0:
109,192,88181,1,2,0:0:0:0:
329,192,88181,1,0,0:0:0:0:
402,192,88348,1,0,0:0:0:0:
475,192,88515,1,8,0:0:0:0:
182,192,88515,1,0,0:0:0:0:
36,192,88515,1,0,0:0:0:0:
256,192,88681,1,0,0:0:0:0:
109,192,88848,1,0,0:0:0:0:
402,192,89015,1,2,0:0:0:0:
182,192,89015,1,0,0:0:0:0:
256,192,89181,1,8,0:0:0:0:
475,192,89181,1,0,0:0:0:0:
36,192,89181,1,0,0:0:0:0:
109,192,89348,1,0,0:0:0:0:
329,192,89515,1,2,0:0:0:0:
402,192,89515,1,0,0:0:0:0:
475,192,89681,1,0,0:0:0:0:
256,192,89848,1,8,0:0:0:0:
109,192,89848,1,0,0:0:0:0:
36,192,89848,1,0,0:0:0:0:
329,192,90015,1,0,0:0:0:0:
402,192,90098,1,2,0:0:0:0:
475,192,90181,1,0,0:0:0:70:snare_3.wav
182,192,90181,1,0,0:0:0:0:
36,192,90348,1,2,0:0:0:0:
256,192,90348,1,0,0:0:0:70:snare_3.wav
109,192,90431,1,0,0:0:0:0:
402,192,90515,1,0,0:0:0:70:snare_2.wav
182,192,90515,1,0,0:0:0:0:
475,192,90681,1,0,0:0:0:70:snare_3.wav
256,192,90681,1,0,0:0:0:0:
109,192,90848,1,2,0:0:0:0:
36,192,90848,1,0,0:0:0:0:
329,192,91015,1,0,0:0:0:0:
182,192,91181,1,8,0:0:0:0:
475,192,91181,1,0,0:0:0:0:
109,192,91181,1,0,0:0:0:0:
256,192,91348,1,0,0:0:0:0:
329,192,91515,1,0,0:0:0:0:
109,192,91681,1,2,0:0:0:0:
402,192,91681,1,0,0:0:0:0:
256,192,91848,1,8,0:0:0:0:
36,192,91848,1,0,0:0:0:0:
475,192,91848,1,0,0:0:0:0:
182,192,92015,1,0,0:0:0:0:
109,192,92181,1,2,0:0:0:0:
402,192,92181,1,0,0:0:0:0:
256,192,92348,1,0,0:0:0:0:
36,192,92515,1,8,0:0:0:0:
182,192,92515,1,0,0:0:0:0:
475,192,92515,1,0,0:0:0:0:
402,192,92681,1,0,0:0:0:0:
329,192,92848,1,0,0:0:0:0:
256,192,93015,1,2,0:0:0:0:
475,192,93015,1,0,0:0:0:0:
182,192,93098,1,0,0:0:0:0:
109,192,93181,1,8,0:0:0:0:
36,192,93181,1,0,0:0:0:0:
402,192,93181,1,0,0:0:0:0:
329,192,93348,1,0,0:0:0:0:
475,192,93515,1,2,0:0:0:0:
182,192,93515,1,0,0:0:0:0:
109,192,93681,1,0,0:0:0:0:
329,192,93848,1,8,0:0:0:0:
402,192,93848,1,0,0:0:0:0:
36,192,93848,1,0,0:0:0:0:
256,192,94015,1,0,0:0:0:0:
475,192,94181,1,0,0:0:0:0:
402,192,94348,1,2,0:0:0:0:
109,192,94348,1,0,0:0:0:0:
329,192,94515,1,8,0:0:0:0:
36,192,94515,1,0,0:0:0:0:
256,192,94515,1,0,0:0:0:0:
182,192,94681,1,0,0:0:0:0:
402,192,94848,1,2,0:0:0:0:
475,192,94848,1,0,0:0:0:0:
329,192,95015,1,0,0:0:0:0:
182,192,95181,1,8,0:0:0:0:
109,192,95181,1,0,0:0:0:0:
36,192,95181,1,0,0:0:0:0:
329,192,95348,1,0,0:0:0:0:
475,192,95431,1,8,0:0:0:0:
256,192,95431,1,0,0:0:0:0:
402,192,95515,1,0,0:0:0:0:
182,192,95515,1,0,0:0:0:0:
329,192,95681,1,0,0:0:0:0:
109,192,95681,1,0,0:0:0:0:
475,192,95848,1,0,0:0:0:0:
36,192,96015,1,0,0:0:0:0:
182,192,96015,1,0,0:0:0:0:
475,192,96181,128,2,96765:0:0:0:0:
329,192,96181,128,0,96265:0:0:0:0:
182,192,96348,1,0,0:0:0:0:
36,192,96515,1,8,0:0:0:0:
109,192,96515,1,0,0:0:0:0:
256,192,96681,128,0,97265:0:0:0:0:
402,192,96681,128,0,96765:0:0:0:0:
109,192,96848,1,0,0:0:0:0:
475,192,97015,1,2,0:0:0:0:
402,192,97015,1,0,0:0:0:0:
36,192,97181,128,8,97598:0:0:0:0:
182,192,97181,128,0,97265:0:0:0:0:
329,192,97348,1,0,0:0:0:0:
109,192,97515,128,2,97598:0:0:0:0:
475,192,97515,128,0,98098:0:0:0:0:
256,192,97681,1,0,0:0:0:0:
182,192,97848,1,8,0:0:0:0:
109,192,97848,1,0,0:0:0:0:
36,192,98015,128,0,98598:0:0:0:0:
329,192,98015,128,0,98098:0:0:0:0:
256,192,98181,1,0,0:0:0:0:
402,192,98348,1,2,0:0:0:0:
475,192,98348,1,0,0:0:0:0:
182,192,98515,128,8,98598:0:0:0:0:
329,192,98515,128,0,98931:0:0:0:0:
109,192,98681,1,0,0:0:0:0:
256,192,98848,128,2,98931:0:0:0:0:
475,192,98848,128,0,99931:0:0:0:0:
182,192,99015,1,0,0:0:0:0:
402,192,99181,1,8,0:0:0:0:
36,192,99181,1,0,0:0:0:0:
329,192,99348,1,0,0:0:0:0:
256,192,99515,1,0,0:0:0:0:
182,192,99681,1,2,0:0:0:0:
109,192,99681,1,0,0:0:0:0:
402,192,99848,128,8,99931:0:0:0:0:
36,192,99848,128,0,100265:0:0:0:0:
256,192,100015,1,0,0:0:0:0:
182,192,100181,128,2,100265:0:0:0:0:
329,192,100181,128,0,100765:0:0:0:0:
402,192,100348,1,0,0:0:0:0:
36,192,100515,1,8,0:0:0:0:
475,192,100515,1,0,0:0:0:0:
256,192,100681,128,0,100765:0:0:0:0:
109,192,100681,128,0,101265:0:0:0:0:
402,192,100765,1,2,0:0:0:0:
475,192,100848,1,0,0:0:0:70:snare_3.wav
182,192,101015,1,2,0:0:0:0:
256,192,101098,1,0,0:0:0:0:
329,192,101181,128,0,101265:0:0:0:0:
475,192,101181,128,0,101598:0:0:0:70:snare_2.wav
36,192,101348,1,0,0:0:0:70:snare_3.wav
402,192,101515,128,2,101598:0:0:0:0:
182,192,101515,128,0,102098:0:0:0:0:
109,192,101681,1,0,0:0:0:0:
475,192,101848,1,8,0:0:0:0:
329,192,101848,1,0,0:0:0:0:
36,192,102015,128,0,102598:0:0:0:0:
256,192,102015,128,0,102098:0:0:0:0:
402,192,102181,1,0,0:0:0:0:
329,192,102348,1,2,0:0:0:0:
256,192,102348,1,0,0:0:0:0:
475,192,102515,128,8,102598:0:0:0:0:
182,192,102515,128,0,102931:0:0:0:0:
402,192,102681,1,0,0:0:0:0:
329,192,102848,128,2,102931:0:0:0:0:
36,192,102848,128,0,103265:0:0:0:0:
256,192,103015,1,0,0:0:0:0:
475,192,103181,128,8,103431:0:0:0:0:
182,192,103181,128,0,103265:0:0:0:0:
329,192,103348,128,0,103765:0:0:0:0:
109,192,103348,128,0,103431:0:0:0:0:
182,192,103515,1,0,0:0:0:0:
475,192,103681,128,2,104181:0:0:0:0:
36,192,103681,128,0,103765:0:0:0:0:
109,192,103848,1,8,0:0:0:0:
256,192,103848,1,0,0:0:0:0:
36,192,104015,1,0,0:0:0:0:
256,192,104181,128,2,105265:0:0:0:0:
182,192,104181,128,0,104265:0:0:0:0:
402,192,104348,1,0,0:0:0:0:
109,192,104515,1,8,0:0:0:0:
36,192,104515,1,0,0:0:0:0:
329,192,104681,1,0,0:0:0:0:
36,192,104848,1,0,0:0:0:0:
475,192,105015,1,2,0:0:0:0:
182,192,105015,1,0,0:0:0:0:
109,192,105181,128,8,105265:0:0:0:0:
402,192,105181,128,0,105598:0:0:0:0:
329,192,105348,1,0,0:0:0:0:
182,192,105515,128,2,105598:0:0:0:0:
36,192,105515,128,0,105931:0:0:0:0:
256,192,105681,1,0,0:0:0:0:
475,192,105848,128,8,106098:0:0:0:0:
329,192,105848,128,0,105931:0:0:0:0:
256,192,106015,128,0,106431:0:0:0:0:
109,192,106015,128,0,106098:0:0:0:0:
402,192,106098,1,8,0:0:0:0:
36,192,106181,1,0,0:0:0:0:
109,192,106348,128,2,106848:0:0:0:0:
402,192,106348,128,0,106431:0:0:0:0:
329,192,106681,1,0,0:0:0:0:
36,192,106848,128,2,108181:0:0:0:0:
256,192,106848,128,0,106931:0:0:0:0:
182,192,107015,1,0,0:0:0:0:
475,192,107181,1,8,0:0:0:0:
402,192,107181,1,0,0:0:0:0:
329,192,107348,1,0,0:0:0:0:
182,192,107515,1,0,0:0:0:0:
475,192,107681,1,2,0:0:0:0:
109,192,107681,1,0,0:0:0:0:
402,192,107848,1,8,0:0:0:0:
329,192,107848,128,0,107931:0:0:0:0:
256,192,108015,1,0,0:0:0:0:
475,192,108181,128,2,109515:0:0:0:0:
182,192,108181,128,0,108265:0:0:0:0:
109,192,108348,1,0,0:0:0:0:
256,192,108515,128,8,108598:0:0:0:0:
329,192,108515,1,0,0:0:0:0:
36,192,108681,128,0,108765:0:0:0:0:
182,192,108848,1,0,0:0:0:0:
329,192,109015,128,2,109098:0:0:0:0:
109,192,109015,1,0,0:0:0:0:
36,192,109181,1,8,0:0:0:0:
256,192,109181,1,0,0:0:0:0:
182,192,109348,1,0,0:0:0:0:
36,192,109515,128,2,110848:0:0:0:0:
402,192,109515,128,0,109598:0:0:0:0:
329,192,109681,1,0,0:0:0:0:
182,192,109848,1,8,0:0:0:0:
256,192,109848,1,0,0:0:0:0:
402,192,110015,1,0,0:0:0:0:
329,192,110181,1,0,0:0:0:0:
256,192,110348,1,2,0:0:0:0:
475,192,110348,1,0,0:0:0:0:
182,192,110515,128,8,110598:0:0:0:0:
402,192,110515,1,0,0:0:0:0:
329,192,110681,1,0,0:0:0:0:
475,192,110848,128,2,112181:0:0:0:0:
256,192,110848,128,0,110931:0:0:0:0:
109,192,111015,1,0,0:0:0:0:
329,192,111181,128,8,111265:0:0:0:0:
36,192,111181,1,0,0:0:0:0:
182,192,111348,128,0,111431:0:0:0:0:
256,192,111515,1,0,0:0:0:0:
36,192,111681,128,2,111765:0:0:0:0:
109,192,111681,1,0,0:0:0:0:
182,192,111848,1,8,0:0:0:0:
329,192,111848,1,0,0:0:0:0:
36,192,112015,1,0,0:0:0:0:
256,192,112181,128,2,113515:0:0:0:0:
109,192,112181,128,0,112265:0:0:0:0:
329,192,112348,1,0,0:0:0:0:
475,192,112515,1,8,0:0:0:0:
36,192,112515,1,0,0:0:0:0:
402,192,112681,1,0,0:0:0:0:
182,192,112848,1,0,0:0:0:0:
475,192,113015,1,2,0:0:0:0:
109,192,113015,1,0,0:0:0:0:
402,192,113181,128,0,113265:0:0:0:70:snare_2.wav
36,192,113181,1,0,0:0:0:0:
475,192,113515,128,2,113598:0:0:0:0:
109,192,113515,1,0,0:0:0:0:
182,192,113681,1,0,0:0:0:0:
36,192,113848,1,0,0:0:0:70:snare_2.wav
329,192,113848,1,0,0:0:0:0:
402,192,113848,1,0,0:0:0:0:
256,192,114015,1,0,0:0:0:0:
109,192,114181,1,0,0:0:0:0:
36,192,114348,1,2,0:0:0:0:
329,192,114348,1,0,0:0:0:0:
182,192,114515,128,0,114598:0:0:0:70:snare_2.wav
402,192,114515,1,0,0:0:0:0:
475,192,114515,1,0,0:0:0:0:
182,192,114848,128,2,114931:0:0:0:0:
36,192,114848,128,0,116181:0:0:0:0:
402,192,114848,1,0,0:0:0:0:
329,192,115015,1,0,0:0:0:0:
475,192,115181,1,0,0:0:0:0:
256,192,115181,128,0,117515:0:0:0:0:
402,192,115348,1,0,0:0:0:0:
329,192,115681,1,0,0:0:0:0:
475,192,115848,1,2,0:0:0:0:
402,192,115848,1,0,0:0:0:0:
402,192,116181,1,2,0:0:0:0:
475,192,116181,1,0,0:0:0:0:
109,192,116348,1,0,0:0:0:0:
475,192,116515,1,0,0:0:0:0:
36,192,116681,1,0,0:0:0:0:
402,192,117015,1,0,0:0:0:0:
109,192,117181,1,2,0:0:0:0:
36,192,117181,1,0,0:0:0:0:
109,192,117515,1,4,0:0:0:0:
36,192,117515,1,2,0:0:0:0:
475,192,117515,1,0,0:0:0:0:
402,192,117515,1,0,0:0:0:0:
329,192,117681,1,0,0:0:0:0:
182,192,117848,1,0,0:0:0:0:
109,192,118015,1,0,0:0:0:0:
36,192,118348,1,0,0:0:0:0:
256,192,118515,1,0,0:0:0:0:
109,192,118848,1,0,0:0:0:0:
182,192,119015,1,0,0:0:0:0:
329,192,119181,1,0,0:0:0:0:
402,192,119348,1,0,0:0:0:0:
109,192,119681,1,0,0:0:0:0:
256,192,119848,1,0,0:0:0:0:
475,192,120181,1,0,0:0:0:0:
36,192,120181,1,0,0:0:0:0:
329,192,120181,1,0,0:0:0:0:
