osu file format v14

[General]
AudioFilename: audio.mp3
AudioLeadIn: 0
PreviewTime: 50556
Countdown: 0
SampleSet: Soft
StackLeniency: 0.5
Mode: 0
LetterboxInBreaks: 0
WidescreenStoryboard: 0

[Editor]
Bookmarks: 182,5515,10848,16181,21515,26848,32181,37515,42848,48181,53515,58848,64181,69515,74848,80181,85515,90848,96181,101515,106848,112181,117515,122848
DistanceSpacing: 0.5
BeatDivisor: 4
GridSize: 4
TimelineZoom: 2.7

[Metadata]
Title:Module_410
TitleUnicode:Module_410
Artist:Fractal Dreamers
ArtistUnicode:Fractal Dreamers
Creator:Present
Version:Straight_Module_12345
Source:osu!
Tags:monolithia instrumental featured artist [mahua] pata-mon pata mon yugu yeyk angelsnow
BeatmapID:2055609
BeatmapSetID:982205

[Difficulty]
HPDrainRate:5.4
CircleSize:4.1
OverallDifficulty:8.3
ApproachRate:9.2
SliderMultiplier:1.4
SliderTickRate:1

[Events]
//Background and Video events
0,0,"5a1e55614f9eeac711bd7b5284ff5defcab5f516.jpg",0,0
//Break Periods
2,45715,51611
//Storyboard Layer 0 (Background)
//Storyboard Layer 1 (Fail)
//Storyboard Layer 2 (Pass)
//Storyboard Layer 3 (Foreground)
//Storyboard Layer 4 (Overlay)
//Storyboard Sound Samples

[TimingPoints]
182,333.333333333333,4,2,1,35,1,0
192,-200,4,2,1,35,0,0
10348,-100,4,2,1,50,0,0
10358,-100,4,2,1,50,0,0
10848,-90.9090909090909,4,2,1,50,0,1
32181,-111.111111111111,4,2,1,50,0,0
32265,-111.111111111111,4,2,1,35,0,0
32275,-111.111111111111,4,2,1,35,0,0
53431,-111.111111111111,4,2,1,5,0,0
53515,-100,4,2,1,40,0,0
53525,-100,4,2,1,40,0,0
64181,-90.9090909090909,4,2,1,60,0,1
78265,-90.9090909090909,4,2,1,5,0,1
78348,-90.9090909090909,4,2,1,60,0,1
78931,-90.9090909090909,4,2,1,5,0,1
79015,-90.9090909090909,4,2,1,60,0,1
83598,-90.9090909090909,4,2,1,5,0,1
83681,-90.9090909090909,4,2,1,60,0,1
85515,-100,4,2,1,60,0,0
95681,-142.857142857143,4,2,1,60,0,0
96181,-100,4,2,1,60,0,0
106348,-142.857142857143,4,2,1,60,0,0
106848,-111.111111111111,4,2,1,60,0,0
112181,-111.111111111111,4,2,1,50,0,0
112191,-111.111111111111,4,2,1,50,0,0
113515,-111.111111111111,4,2,1,40,0,0
113525,-111.111111111111,4,2,1,40,0,0
116181,-222.222222222222,4,2,1,40,0,0
117181,-222.222222222222,4,2,1,30,0,0
117191,-222.222222222222,4,2,1,30,0,0
117515,-333.333333333333,4,2,1,30,0,0
121515,-333.333333333333,4,2,1,5,0,0

[Colours]
Combo1 : 255,128,64
Combo2 : 255,64,64

[HitObjects]
107,32,182,5,2,2:2:0:0:
104,52,348,1,0,2:2:0:0:
101,72,515,1,0,2:2:0:0:
56,142,848,5,0,0:0:0:0:
59,162,1014,1,0,2:2:0:0:
62,182,1181,1,2,2:2:0:0:
116,280,1515,5,2,2:2:0:0:
138,288,1681,1,0,2:2:0:0:
162,293,1848,1,0,2:2:0:0:
186,294,2014,1,2,2:2:0:0:
280,233,2348,5,0,2:2:0:0:
301,231,2514,1,2,2:2:0:0:
321,235,2681,1,0,2:2:0:0:
412,270,2848,5,2,2:2:0:0:
415,250,3014,1,0,2:2:0:0:
418,230,3181,1,0,2:2:0:0:
363,104,3515,5,0,2:2:0:0:
360,124,3681,1,0,2:2:0:0:
357,144,3848,1,2,2:2:0:0:
288,232,4181,5,2,2:2:0:0:
265,224,4347,1,0,2:2:0:0:
239,224,4515,2,0,L|203:231,1,35
136,176,4848,5,2,2:2:0:0:
115,179,5015,1,0,2:2:0:0:
98,191,5181,1,0,2:2:0:0:
46,62,5515,5,2,2:2:0:0:
66,59,5681,1,0,2:2:0:0:
86,56,5848,1,0,2:2:0:0:
209,108,6181,5,0,0:0:0:0:
229,111,6347,1,0,2:2:0:0:
249,114,6514,1,2,2:2:0:0:
373,50,6848,5,2,2:2:0:0:
393,60,7014,1,0,2:2:0:0:
411,78,7181,1,0,2:2:0:0:
426,97,7347,1,2,2:2:0:0:
411,203,7681,6,0,L|431:203,2,17.5
401,221,8015,1,0,2:2:0:0:
425,319,8181,5,2,2:2:0:0:
405,322,8347,1,0,2:2:0:0:
385,325,8514,1,0,2:2:0:0:
315,370,8847,5,2,2:2:0:0:
295,367,9015,1,0,2:2:0:0:
275,364,9180,1,0,0:0:0:0:
134,363,9515,5,2,2:2:0:0:
126,340,9681,1,0,2:2:0:0:
119,316,9848,1,2,2:2:0:0:
120,293,10014,1,0,0:0:0:0:
126,271,10181,1,0,2:2:0:0:
208,288,10348,5,2,2:2:0:0:
227,204,10515,1,2,2:2:0:0:
144,187,10682,1,0,2:2:0:0:
208,288,10848,6,0,L|283:302,1,77.0000023498536,4|0,1:2|0:0,0:0:0:0:
362,363,11181,1,8,2:2:0:0:
468,300,11348,1,0,2:2:0:0:
464,277,11431,1,0,0:0:0:0:
461,253,11515,1,0,2:2:0:0:
341,224,11681,1,0,3:2:0:0:
423,132,11848,1,8,2:2:0:0:
341,224,12015,1,2,2:2:0:0:
318,228,12098,1,2,2:2:0:0:
294,231,12181,6,0,L|219:217,1,77.0000023498536,2|0,3:2|0:0,0:0:0:0:
86,263,12515,2,0,L|135:205,1,77.0000023498536,8|0,2:2|0:0,0:0:0:0:
164,68,12848,1,0,0:0:0:0:
218,216,13015,1,0,3:2:0:0:
164,68,13181,2,0,L|189:139,1,77.0000023498536,10|0,2:2|0:3,0:3:0:0:
321,95,13515,6,0,L|246:80,1,77.0000023498536,2|0,3:2|0:0,0:0:0:0:
218,216,13848,1,8,0:2:0:0:
321,95,14015,1,0,2:2:0:0:
294,231,14181,1,0,2:2:0:0:
245,80,14348,1,0,3:2:0:0:
218,216,14515,2,0,L|203:290,1,77.0000023498536,10|0,2:2|0:0,0:0:0:0:
369,245,14848,6,0,L|294:231,1,77.0000023498536,2|0,3:2|0:0,0:0:0:0:
203,291,15181,1,10,2:2:0:0:
305,384,15348,1,2,3:3:0:0:
301,361,15431,1,0,3:2:0:0:
298,337,15515,1,2,3:3:0:0:
196,244,15681,5,2,3:3:0:0:
199,268,15764,1,2,3:3:0:0:
202,291,15848,2,0,L|208:331,1,38.5000011749268,10|0,3:2|3:0,0:0:0:0:
298,337,16015,2,0,L|292:298,1,38.5000011749268,2|0,3:3|3:0,0:0:0:0:
367,268,16181,6,0,L|379:343,1,77.0000023498536,6|0,1:2|0:0,3:0:0:0:
497,268,16515,1,8,2:2:0:0:
354,192,16681,1,2,2:2:0:0:
379,343,16848,1,0,2:2:0:0:
497,268,17015,1,0,3:2:0:0:
354,192,17181,2,0,L|284:158,1,77.0000023498536,10|0,2:2|0:0,0:0:0:0:
149,240,17515,6,0,L|213:196,1,77.0000023498536,2|0,3:2|0:0,0:0:0:0:
210,39,17848,2,0,L|215:116,1,77.0000023498536,8|0,2:2|0:0,0:0:0:0:
149,240,18181,1,0,2:2:0:0:
287,154,18348,1,2,3:2:0:0:
306,142,18431,1,0,3:2:0:0:
326,130,18515,1,8,3:2:0:0:
221,282,18681,1,0,2:2:0:0:
215,116,18848,6,0,L|210:39,1,77.0000023498536,2|0,3:2|0:0,0:0:0:0:
326,130,19181,2,0,L|331:207,1,77.0000023498536,8|0,2:2|0:0,0:0:0:0:
222,273,19515,2,0,L|217:196,1,77.0000023498536,2|0,2:2|0:0,0:0:0:0:
333,287,19848,2,0,L|338:364,1,77.0000023498536,10|0,2:2|0:0,0:0:0:0:
441,259,20181,6,0,L|436:182,1,77.0000023498536,2|0,3:2|0:0,0:0:0:0:
501,85,20515,1,8,2:2:0:0:
362,40,20681,1,2,3:2:0:0:
343,52,20764,1,8,3:2:0:0:
323,64,20848,1,0,3:0:0:0:
213,26,21015,1,2,3:2:0:0:
175,136,21181,1,8,2:2:0:0:
285,174,21348,1,2,2:3:0:0:
175,136,21515,6,0,L|97:146,1,77.0000023498536,6|0,3:2|0:0,0:0:0:0:
285,174,21848,1,10,2:2:0:0:
167,216,22015,2,0,L|90:225,1,77.0000023498536,2|0,2:2|0:0,0:0:0:0:
285,174,22348,1,2,3:2:0:0:
179,57,22515,2,0,L|103:67,1,77.0000023498536,8|0,2:2|0:0,0:0:0:0:
90,225,22848,6,0,L|167:216,1,77.0000023498536,2|0,3:2|0:0,0:0:0:0:
285,174,23181,1,8,2:2:0:0:
158,295,23348,2,0,L|82:305,1,77.0000023498536,2|0,2:2|0:0,0:0:0:0:
285,174,23681,1,2,3:2:0:0:
149,374,23848,2,0,L|73:384,1,77.0000023498536,8|0,2:2|0:0,0:0:0:0:
90,225,24181,6,0,L|167:216,1,77.0000023498536,2|0,3:2|0:0,0:0:0:0:
285,174,24515,1,8,2:2:0:0:
327,292,24681,1,2,2:2:0:0:
167,216,24847,1,0,2:2:0:0:
209,334,25014,1,2,3:2:0:0:
285,174,25181,2,0,L|361:183,1,77.0000023498536,8|0,2:2|0:0,0:0:0:0:
299,37,25515,6,0,L|253:98,1,77.0000023498536,2|0,3:2|0:0,0:0:0:0:
314,251,25848,1,8,2:2:0:0:
411,118,26015,1,2,3:3:0:0:
401,96,26098,1,0,3:2:0:0:
392,75,26181,1,2,3:3:0:0:
279,61,26348,5,2,3:3:0:0:
265,79,26431,1,2,3:3:0:0:
252,98,26515,2,0,L|264:134,1,38.5000011749268,8|0,3:2|3:0,3:0:0:0:
230,199,26681,2,0,L|242:235,1,38.5000011749268,2|0,3:3|3:0,3:0:0:0:
314,251,26848,6,0,L|289:324,1,77.0000023498536,6|0,3:2|0:0,0:0:0:0:
264,134,27181,2,0,L|239:60,1,77.0000023498536,8|0,2:2|0:0,0:0:0:0:
242,235,27515,1,0,2:2:0:0:
339,115,27681,1,0,3:2:0:0:
242,235,27848,2,0,L|217:308,1,77.0000023498536,10|0,2:2|0:0,0:0:0:0:
188,148,28181,6,0,L|263:133,1,77.0000023498536,2|0,3:2|0:0,0:0:0:0:
242,235,28515,1,8,2:2:0:0:
88,178,28681,1,2,2:2:0:0:
188,148,28848,1,0,2:2:0:0:
217,307,29015,1,2,3:2:0:0:
139,238,29181,2,0,L|88:179,1,77.0000023498536,8|0,2:2|0:0,0:0:0:0:
217,307,29515,6,0,L|166:366,1,77.0000023498536,6|0,3:2|0:0,0:0:0:0:
298,284,29848,2,0,L|283:360,1,77.0000023498536,8|0,2:2|0:0,0:0:0:0:
356,223,30181,2,0,L|381:296,1,77.0000023498536,2|0,2:2|0:0,0:0:0:0:
375,141,30515,2,0,L|433:191,1,77.0000023498536,10|0,2:2|0:0,0:0:0:0:
283,359,30848,5,2,3:2:0:0:
381,295,31015,1,2,3:2:0:0:
433,191,31181,1,8,3:2:0:0:
426,74,31348,1,2,3:2:0:0:
403,70,31431,1,8,3:2:0:0:
381,65,31515,1,0,3:0:0:0:
433,191,31682,1,2,3:2:0:0:
381,295,31848,1,8,3:2:0:0:
283,359,32015,1,8,3:0:0:0:
166,365,32181,6,0,L|104:352,1,62.9999980773926,4|0,1:0|1:0,1:0:0:0:
155,271,32515,2,0,L|217:284,1,62.9999980773926,0|2,2:2|2:2,0:0:0:0:
283,359,33015,5,2,2:2:0:0:
301,356,33181,1,0,2:2:0:0:
319,353,33348,1,2,2:2:0:0:
381,295,33681,5,0,2:2:0:0:
363,292,33847,1,2,2:2:0:0:
345,289,34014,1,0,2:2:0:0:
433,191,34348,5,2,2:2:0:0:
426,208,34514,1,2,2:2:0:0:
420,225,34681,1,0,2:2:0:0:
416,243,34848,6,0,L|426:306,1,62.9999980773926,2|0,2:2|2:2,0:0:0:0:
506,256,35181,2,0,L|496:193,1,62.9999980773926,2|2,2:2|2:2,0:0:0:0:
420,268,35681,5,2,2:2:0:0:
422,286,35848,1,0,2:2:0:0:
425,305,36015,1,2,2:2:0:0:
332,286,36348,5,0,2:2:0:0:
329,267,36515,1,2,2:2:0:0:
326,248,36681,1,0,2:2:0:0:
323,230,36848,5,2,2:2:0:0:
313,134,37015,1,0,2:2:0:0:
237,188,37181,1,2,2:2:0:0:
323,230,37348,1,2,2:2:0:0:
313,134,37515,6,0,L|305:71,1,62.9999980773926,2|0,2:2|0:0,0:0:0:0:
237,188,37848,2,0,L|186:226,1,62.9999980773926,0|2,2:2|2:2,0:0:0:0:
48,213,38348,5,2,2:2:0:0:
46,195,38515,1,0,2:2:0:0:
45,176,38682,1,2,2:2:0:0:
36,50,39015,5,0,2:2:0:0:
38,68,39182,1,2,2:2:0:0:
39,87,39349,1,0,2:2:0:0:
188,161,39681,5,2,2:2:0:0:
205,170,39848,1,2,2:2:0:0:
221,178,40015,1,0,0:0:0:0:
237,188,40181,6,0,L|186:226,1,62.9999980773926,2|0,2:2|2:2,0:0:0:0:
323,230,40515,2,0,L|381:254,1,62.9999980773926,2|2,2:2|2:2,0:0:0:0:
186,225,41015,5,2,2:2:0:0:
381,254,41348,5,2,2:2:0:0:
306,72,41681,5,2,2:2:0:0:
344,164,41848,1,0,2:2:0:0:
246,151,42015,5,2,3:2:0:0:
285,240,42182,1,0,3:2:0:0:
344,164,42348,5,0,3:2:0:0:
186,225,42515,1,2,3:2:0:0:
381,254,42681,1,0,3:2:0:0:
246,151,42848,5,4,0:1:0:0:
256,192,42931,12,0,45515,0:0:0:0:
256,192,52181,12,0,53431,0:0:0:0:
256,51,53515,5,6,3:2:0:0:
256,51,53681,1,0,0:0:0:0:
82,117,53848,2,0,L|93:187,1,70,8|2,3:2|2:2,0:0:0:0:
255,332,54348,5,2,3:2:0:0:
256,100,54515,1,8,3:2:0:0:
111,296,54848,5,0,1:2:0:0:
177,146,55181,2,0,L|166:76,1,70,8|2,3:2|2:2,0:0:0:0:
401,296,55681,5,0,3:2:0:0:
335,146,55848,2,0,L|346:76,1,70,8|2,3:2|2:2,0:0:0:0:
251,328,56181,5,2,3:2:0:0:
255,332,56348,1,0,3:2:0:0:
256,170,56515,2,0,L|256:101,1,70,8|2,3:2|2:2,0:0:0:0:
148,192,57015,5,0,3:2:0:0:
364,192,57181,1,8,2:2:0:0:
132,289,57515,5,10,2:2:0:0:
316,247,57681,1,0,3:2:0:0:
328,233,57765,1,0,3:0:0:0:
340,219,57848,1,8,0:2:0:0:
352,205,57932,1,0,3:0:0:0:
364,191,58015,2,0,L|356:156,1,35,8|0,3:2|3:0,3:0:0:0:
298,77,58181,2,0,L|306:42,3,35,2|0|8|0,3:2|3:0|3:2|3:0,3:0:0:0:
241,157,58515,2,0,L|249:192,1,35,8|0,3:2|3:0,3:0:0:0:
183,78,58681,2,0,L|191:43,1,35,2|0,3:2|3:0,3:0:0:0:
129,158,58848,6,0,L|145:227,1,70,6|0,3:2|0:0,0:0:0:0:
177,360,59181,1,8,3:2:0:0:
256,84,59681,5,0,3:2:0:0:
256,300,59848,1,10,3:2:0:0:
383,158,60181,6,0,L|367:227,1,70,2|0,3:2|0:0,0:0:0:0:
335,360,60514,1,8,3:2:0:0:
256,84,61015,5,0,3:2:0:0:
256,300,61181,2,0,L|256:369,1,70,10|2,3:2|2:2,0:0:0:0:
191,265,61515,6,0,L|142:313,1,70,2|0,3:2|0:0,0:0:0:0:
321,265,61848,2,0,L|369:313,1,70,8|2,2:2|2:2,0:0:0:0:
176,192,62181,6,0,L|106:192,1,70,0|2,2:2|3:2,0:0:0:0:
336,192,62514,2,0,L|405:192,1,70,10|0,2:2|2:2,0:0:0:0:
256,84,62848,5,6,3:2:0:0:
191,265,63015,1,0,0:0:0:0:
256,84,63181,5,8,2:2:0:0:
321,265,63348,1,0,3:2:0:0:
328,280,63431,1,8,3:2:0:0:
335,295,63514,1,2,3:3:0:0:
256,84,63681,5,8,3:2:0:0:
256,300,63848,1,8,2:2:0:0:
256,84,64015,1,2,1:3:0:0:
256,299,64181,6,0,L|256:376,1,77.0000023498536,6|0,3:2|0:0,0:0:0:0:
151,222,64515,2,0,L|151:299,1,77.0000023498536,8|2,2:2|2:2,0:0:0:0:
256,222,64848,1,0,0:0:0:0:
151,376,65015,1,0,3:2:0:0:
46,222,65182,2,0,L|46:145,1,77.0000023498536,10|2,2:2|2:2,0:0:0:0:
151,121,65515,6,0,L|131:46,1,77.0000023498536,0|2,3:2|2:2,0:0:0:0:
256,222,65848,2,0,L|275:296,1,77.0000023498536,10|2,2:2|2:2,0:0:0:0:
252,121,66181,1,0,2:2:0:0:
151,222,66348,1,0,3:2:0:0:
252,121,66515,2,0,L|326:101,1,77.0000023498536,10|0,2:2|2:2,0:0:0:0:
453,67,66848,5,2,3:2:0:0:
498,238,67015,1,2,2:2:0:0:
326,101,67181,1,8,2:2:0:0:
371,272,67348,2,0,L|390:346,1,77.0000023498536,2|2,2:2|2:2,0:0:0:0:
453,67,67681,5,0,3:2:0:0:
498,238,67848,1,10,2:2:0:0:
326,101,68015,2,0,L|252:121,1,77.0000023498536,2|0,2:2|3:2,0:0:0:0:
151,222,68348,5,2,2:2:0:0:
289,259,68515,2,0,L|326:249,1,38.5000011749268,10|0,3:2|0:0,3:0:0:0:
498,238,68681,1,2,3:3:0:0:
498,238,68765,1,0,0:2:0:0:
498,238,68848,2,0,L|460:248,1,38.5000011749268,2|0,3:3|3:0,3:0:0:0:
307,334,69015,2,0,L|344:324,1,38.5000011749268,2|2,3:3|3:3,3:0:0:0:
512,316,69181,2,0,L|474:326,1,38.5000011749268,8|0,3:2|3:0,3:0:0:0:
411,384,69348,1,0,3:2:0:0:
184,335,69515,6,0,L|110:315,1,77.0000023498536,6|0,3:2|2:2,0:0:0:0:
326,248,69848,2,0,L|252:228,1,77.0000023498536,8|2,2:2|2:2,0:0:0:0:
115,192,70181,1,0,2:2:0:0:
139,379,70348,1,2,3:2:0:0:
251,227,70515,2,0,L|305:172,1,77.0000023498536,8|2,2:2|2:2,0:0:0:0:
405,88,70848,6,0,L|424:162,1,77.0000023498536,0|2,3:2|2:2,0:0:0:0:
305,172,71181,2,0,L|324:246,1,77.0000023498536,10|2,2:2|2:2,0:0:0:0:
356,368,71515,1,0,2:2:0:0:
495,296,71681,1,0,3:2:0:0:
326,248,71848,2,0,L|252:228,1,77.0000023498536,10|0,2:2|2:2,0:0:0:0:
88,315,72181,5,2,3:2:0:0:
251,227,72348,1,2,2:2:0:0:
148,76,72515,1,8,2:2:0:0:
142,261,72681,2,0,L|161:335,1,77.0000023498536,2|0,2:2|2:2,0:0:0:0:
251,227,73015,2,0,L|231:301,1,77.0000023498536,2|8,3:2|2:2,0:0:0:0:
323,261,73348,2,0,L|342:335,1,77.0000023498536,2|0,2:2|3:2,0:0:0:0:
432,227,73682,5,2,2:2:0:0:
426,249,73765,1,2,2:2:0:0:
420,271,73848,2,0,L|410:308,1,38.5000011749268,8|0,3:2|3:0,3:0:0:0:
352,372,74015,2,0,L|342:334,1,38.5000011749268,0|8,3:2|3:2,3:0:0:0:
323,261,74181,5,0,0:0:0:0:
302,254,74264,1,0,0:2:0:0:
280,248,74348,1,2,0:2:0:0:
258,242,74431,1,0,0:0:0:0:
237,236,74515,2,0,L|199:226,1,38.5000011749268,10|0,3:2|3:0,3:0:0:0:
123,175,74682,2,0,L|160:165,1,38.5000011749268,2|0,3:3|3:0,3:0:0:0:
270,138,74848,5,6,3:2:0:0:
390,232,75014,1,2,2:2:0:0:
365,17,75181,1,8,2:2:0:0:
484,111,75348,2,0,L|465:185,1,77.0000023498536,2|0,2:2|2:2,0:0:0:0:
270,138,75681,5,2,3:2:0:0:
365,17,75848,1,8,2:2:0:0:
390,232,76015,2,0,L|316:213,1,77.0000023498536,2|0,2:2|3:2,0:0:0:0:
365,17,76348,5,2,2:2:0:0:
484,111,76515,1,8,2:2:0:0:
270,138,76681,2,0,L|289:64,1,77.0000023498536,2|0,2:2|0:0,0:0:0:0:
499,51,77015,5,2,3:2:0:0:
493,73,77098,1,2,3:2:0:0:
487,95,77181,1,8,3:2:0:0:
481,118,77264,1,0,3:2:0:0:
476,140,77348,1,2,3:2:0:0:
470,162,77431,1,0,3:2:0:0:
464,185,77515,6,0,L|483:259,2,77.0000023498536,6|2|8,3:2|2:2|2:2,0:0:0:0:
390,232,78015,2,0,L|278:203,1,115.50000352478,2|0,2:2|0:0,0:0:0:0:
240,194,78348,1,2,3:2:0:0:
312,307,78515,1,8,2:2:0:0:
351,137,78681,2,0,L|239:108,1,115.50000352478,2|0,2:2|0:0,0:0:0:0:
201,99,79015,6,0,L|197:56,2,38.5000011749268,2|2|8,2:2|2:2|2:2,0:0:0:0:
154,230,79348,1,0,2:2:0:0:
112,101,79515,1,2,2:2:0:0:
154,230,79681,1,0,3:2:0:0:
89,31,79848,1,8,2:2:0:0:
154,230,80015,1,2,2:2:0:0:
351,137,80181,6,0,L|276:116,1,77.0000023498536,6|0,3:2|2:2,0:0:0:0:
154,230,80515,2,0,L|228:250,1,77.0000023498536,8|2,2:2|2:2,0:0:0:0:
210,168,80848,5,0,2:2:0:0:
95,99,81015,1,2,3:2:0:0:
96,290,81181,2,0,L|170:310,1,77.0000023498536,8|2,2:2|2:2,0:0:0:0:
154,230,81515,5,0,3:2:0:0:
34,160,81681,1,2,2:2:0:0:
36,351,81848,2,0,L|110:371,1,77.0000023498536,8|2,2:2|2:2,0:0:0:0:
96,290,82181,5,0,2:2:0:0:
257,328,82348,1,2,3:2:0:0:
210,168,82515,1,10,2:2:0:0:
371,206,82681,1,2,2:2:0:0:
393,200,82764,1,2,2:2:0:0:
415,194,82848,6,0,L|453:184,1,38.5000011749268,6|0,3:2|0:0,0:0:0:0:
415,155,83015,2,0,L|453:145,1,38.5000011749268,2|0,2:2|0:0,0:0:0:0:
309,116,83181,6,0,L|271:106,1,38.5000011749268,8|0,2:2|0:0,0:0:0:0:
309,77,83348,2,0,L|196:47,1,115.50000352478,2|0,2:2|0:0,0:0:0:0:
176,80,83681,1,2,3:2:0:0:
112,203,83848,5,10,2:2:0:0:
118,225,83931,1,2,2:2:0:0:
124,247,84014,2,0,L|134:284,1,38.5000011749268,2|0,2:2|0:0,0:0:0:0:
185,361,84181,5,0,3:2:0:0:
288,306,84348,1,2,2:2:0:0:
349,207,84514,1,10,2:2:0:0:
353,90,84681,1,2,2:2:0:0:
330,84,84764,1,8,2:2:0:0:
309,77,84848,1,0,0:0:0:0:
349,207,85015,1,2,3:2:0:0:
288,306,85181,1,2,2:2:0:0:
185,361,85348,1,2,2:2:0:0:
68,357,85515,6,0,L|48:283,1,70,6|0,3:2|0:0,0:0:0:0:
134,284,85848,2,0,L|114:210,1,70,8|2,2:2|2:2,0:0:0:0:
200,211,86181,2,0,L|220:137,1,70,0|0,2:2|1:2,0:0:0:0:
136,133,86515,2,0,L|116:59,1,70,10|0,2:2|2:2,0:0:0:0:
200,211,86848,5,2,3:2:0:0:
310,189,87015,1,2,2:2:0:0:
283,81,87181,2,0,L|263:7,1,70,8|2,2:2|2:2,0:0:0:0:
200,211,87515,5,0,2:2:0:0:
90,189,87682,1,2,3:2:0:0:
117,81,87848,2,0,L|137:7,1,70,10|0,2:2|2:2,0:0:0:0:
310,189,88181,6,0,L|330:263,1,70,2|2,3:2|2:2,0:0:0:0:
399,209,88515,2,0,L|419:283,1,70,8|0,2:2|2:2,0:0:0:0:
352,349,88848,2,0,L|278:329,1,70,0|0,2:2|1:2,0:0:0:0:
247,248,89181,2,0,L|173:268,1,70,8|0,2:2|2:2,0:0:0:0:
277,328,89515,5,2,3:2:0:0:
324,229,89681,1,2,2:2:0:0:
224,176,89848,1,8,2:2:0:0:
117,212,90015,2,0,L|83:222,1,35,2|0,3:3|3:0,3:0:0:0:
110,185,90181,2,0,L|76:195,1,35,2|0,3:3|3:0,3:0:0:0:
200,128,90348,5,2,2:3:0:0:
219,134,90431,1,2,2:3:0:0:
236,138,90515,2,0,L|270:148,1,35,8|0,3:2|3:0,3:0:0:0:
243,111,90681,2,0,L|277:121,1,35,2|0,3:3|3:0,3:0:0:0:
406,104,90848,6,0,L|386:178,1,70,6|0,3:2|2:2,0:0:0:0:
470,219,91181,2,0,L|415:273,1,70,8|2,2:2|2:2,0:0:0:0:
392,369,91515,1,0,2:2:0:0:
467,350,91681,1,0,1:0:0:0:
312,246,91848,2,0,L|292:172,1,70,10|0,2:2|0:0,0:0:0:0:
155,320,92181,5,2,3:2:0:0:
258,320,92348,1,2,2:2:0:0:
118,178,92515,2,0,L|99:245,1,70,8|0,2:2|0:0,0:0:0:0:
206,372,92848,1,0,2:2:0:0:
312,246,93015,1,2,3:2:0:0:
307,229,93098,1,2,3:2:0:0:
302,212,93181,2,0,L|292:175,1,35,10|0,2:2|0:0,0:0:0:0:
234,114,93348,2,0,L|200:105,1,35,2|0,2:2|3:0,3:0:0:0:
319,95,93515,6,0,L|368:44,1,70,6|0,3:2|0:0,0:0:0:0:
381,192,93848,2,0,L|397:123,1,70,8|0,2:2|0:0,0:0:0:0:
487,240,94181,2,0,L|467:172,1,70,0|0,2:2|1:0,3:0:0:0:
408,276,94515,2,0,L|392:345,1,70,10|0,2:2|0:0,0:0:0:0:
381,192,94848,5,2,3:2:0:0:
325,48,95015,1,0,2:2:0:0:
237,248,95181,1,10,2:2:0:0:
181,104,95348,1,2,2:2:0:0:
173,84,95431,1,8,2:2:0:0:
165,64,95515,1,0,0:0:0:0:
237,248,95681,6,0,L|225:296,2,48.9999985046387,2|2|0,3:2|0:0|1:0,0:0:0:0:
184,148,96181,6,0,L|148:286,1,140,6|8,3:2|0:0,0:0:0:0:
288,348,96681,2,0,L|324:210,1,140,2|0,2:2|0:0,0:0:0:0:
184,148,97181,1,10,2:2:0:0:
148,283,97348,1,0,2:2:0:0:
323,212,97515,6,0,L|460:174,1,140,2|8,3:2|0:0,0:0:0:0:
374,45,98015,2,0,L|236:82,1,140,2|0,2:2|0:0,0:0:0:0:
323,212,98515,1,10,2:2:0:0:
457,174,98681,1,0,2:2:0:0:
239,82,98848,5,2,3:2:0:0:
374,45,99015,1,0,0:0:0:0:
323,212,99181,2,0,L|301:279,1,70,8|0,2:2|0:0,0:0:0:0:
239,82,99515,5,2,2:2:0:0:
104,119,99682,1,0,3:2:0:0:
188,249,99848,2,0,L|166:316,1,70,10|0,2:2|0:0,0:0:0:0:
301,278,100181,6,0,L|279:211,2,70,2|0|8,3:2|0:0|0:0,0:0:0:0:
393,332,100681,1,2,2:3:0:0:
398,315,100764,1,0,3:2:0:0:
403,298,100848,2,0,L|415:265,1,35,2|0,3:3|0:0,3:0:0:0:
449,184,101015,1,2,3:3:0:0:
443,167,101098,1,2,3:3:0:0:
439,150,101182,2,0,L|427:117,1,35,8|0,3:2|3:0,3:0:0:0:
358,92,101348,2,0,L|370:59,1,35,2|0,3:3|3:0,3:0:0:0:
481,38,101515,6,0,L|503:105,1,70,6|0,3:2|0:0,0:0:0:0:
403,183,101848,2,0,L|427:117,1,70,10|0,2:2|0:0,0:0:0:0:
287,69,102181,1,0,0:0:0:0:
334,223,102348,1,0,3:2:0:0:
503,105,102515,6,0,L|481:38,1,70,10|0,2:2|0:0,0:0:0:0:
287,69,102848,2,0,L|149:93,1,140,2|8,3:2|0:0,0:0:0:0:
100,224,103348,2,0,L|238:200,1,140,2|0,2:2|0:0,0:0:0:0:
149,92,103848,1,10,2:2:0:0:
287,69,104015,1,0,2:2:0:0:
237,200,104181,6,0,L|168:212,1,70,2|0,3:2|0:0,0:0:0:0:
75,309,104515,2,0,L|144:297,1,70,8|0,2:2|0:0,0:0:0:0:
297,269,104848,2,0,L|228:281,1,70,0|0,2:2|1:0,0:0:0:0:
135,378,105182,2,0,L|204:366,1,70,10|0,2:2|0:0,0:0:0:0:
330,345,105515,5,2,3:2:0:0:
375,157,105681,1,0,2:2:0:0:
228,280,105848,1,10,2:2:0:0:
419,267,106015,1,2,2:2:0:0:
440,265,106098,1,8,2:2:0:0:
461,263,106181,1,0,0:0:0:0:
257,165,106348,6,0,L|207:173,2,48.9999985046387,2|0|0,3:2|0:0|0:0,0:0:0:0:
282,74,106848,5,6,3:2:0:0:
157,93,107014,1,2,2:2:0:0:
266,227,107181,2,0,L|257:165,1,62.9999980773926,8|0,2:2|0:0,0:0:0:0:
241,318,107515,5,2,2:2:0:0:
365,298,107681,1,0,3:2:0:0:
257,165,107848,2,0,L|266:227,1,62.9999980773926,10|0,2:2|0:0,0:0:0:0:
282,74,108181,6,0,L|153:94,1,125.999996154785,2|8,3:2|0:0,0:0:0:0:
142,247,108681,2,0,L|270:226,1,125.999996154785,2|0,2:2|0:0,0:0:0:0:
407,164,109181,1,8,2:2:0:0:
365,298,109348,1,0,2:2:0:0:
274,150,109515,6,0,L|149:169,2,125.999996154785,2|8|0,3:2|0:0|0:0,0:0:0:0:
407,164,110348,1,0,3:2:0:0:
282,74,110515,2,0,L|217:84,1,62.9999980773926,10|0,2:2|0:0,0:0:0:0:
149,169,110848,6,0,L|228:266,1,125.999996154785,2|8,3:2|0:0,0:0:0:0:
331,251,111348,2,0,L|375:133,1,125.999996154785,2|0,2:2|0:0,0:0:0:0:
282,74,111848,1,8,2:2:0:0:
331,251,112015,1,0,2:2:0:0:
149,169,112181,6,0,L|211:159,1,62.9999980773926,2|0,3:2|0:0,0:0:0:0:
331,251,112515,2,0,L|268:241,1,62.9999980773926,8|2,2:2|2:2,0:0:0:0:
293,143,112848,2,0,L|355:133,1,62.9999980773926,0|0,2:2|1:2,0:0:0:0:
475,225,113182,2,0,L|412:215,1,62.9999980773926,10|0,2:2|2:2,0:0:0:0:
248,326,113515,6,0,L|61:296,2,188.999994232178,2|2|2,3:2|2:2|2:2,0:0:0:0:
268,241,114848,6,0,L|81:211,1,188.999994232178,2|0,3:2|0:0,0:0:0:0:
101,126,115848,5,0,3:2:0:0:
101,126,116181,1,0,0:0:0:0:
101,126,116515,2,0,L|136:131,1,31.4999990386963,0|0,3:2|0:0,0:0:0:0:
203,93,116848,2,0,L|238:98,1,31.4999990386963,0|0,3:2|0:0,0:0:0:0:
288,156,117181,1,0,0:0:0:0:
288,156,117515,5,4,2:1:0:0:
311,164,117681,1,0,0:0:0:0:
330,180,117848,1,2,0:0:0:0:
342,201,118015,1,0,0:0:0:0:
342,201,118348,5,0,0:0:0:0:
462,169,118515,1,2,0:0:0:0:
462,169,118848,5,2,0:0:0:0:
457,145,119014,1,0,0:0:0:0:
461,120,119181,1,0,0:0:0:0:
473,99,119348,1,2,0:0:0:0:
473,99,119681,5,0,0:0:0:0:
386,11,119848,1,2,0:0:0:0:
386,11,120181,6,0,L|220:43,1,167.999994873047,0|2,3:0|0:0,0:0:0:0:
