osu file format v14

[General]
AudioFilename: audio.mp3
AudioLeadIn: 0
PreviewTime: 31309
Countdown: 0
SampleSet: Soft
StackLeniency: 0.7
Mode: 1
LetterboxInBreaks: 0
WidescreenStoryboard: 0

[Editor]
DistanceSpacing: 1.4
BeatDivisor: 4
GridSize: 32
TimelineZoom: 1.5

[Metadata]
Title:Method of Illusion
TitleUnicode:Method of Illusion
Artist:Fractal Dreamers
ArtistUnicode:Fractal Dreamers
Creator:Cynplytholowazy
Version:Oni
Source:osu!
Tags:Electronic Instrumental Featured Artist FA Monolithia artcore drum & bass dnb orchestral
BeatmapID:2346968
BeatmapSetID:1123119

[Difficulty]
HPDrainRate:6
CircleSize:10
OverallDifficulty:6
ApproachRate:10
SliderMultiplier:1.4
SliderTickRate:1

[Events]
//Background and Video events
0,0,"background-651749_1920.jpg",0,0
//Break Periods
2,52293,56634
2,64417,67012
2,77552,85904
//Storyboard Layer 0 (Background)
//Storyboard Layer 1 (Fail)
//Storyboard Layer 2 (Pass)
//Storyboard Layer 3 (Foreground)
//Storyboard Layer 4 (Overlay)
//Storyboard Sound Samples

[TimingPoints]
202,324.324324324324,4,2,0,35,1,0
202,-166.666666666667,4,2,0,35,0,0
232,324.324324324324,4,2,0,35,1,8
232,-166.666666666667,4,2,0,35,0,8
10448,-133.333333333333,4,2,0,50,0,8
10580,324.324324324324,4,2,0,50,1,0
10580,-133.333333333333,4,2,0,50,0,0
11066,-166.666666666667,4,2,0,35,0,0
12688,-133.333333333333,4,2,0,50,0,0
13661,-166.666666666667,4,2,0,35,0,0
15607,-133.333333333333,4,2,0,50,0,0
16255,-166.666666666667,4,2,0,35,0,0
18201,-133.333333333333,4,2,0,50,0,0
18850,-166.666666666667,4,2,0,35,0,0
20796,-114.285714285714,4,2,0,60,0,0
28661,-114.285714285714,4,2,0,70,0,0
31255,-114.285714285714,4,1,0,80,0,0
31336,-100,4,1,0,80,0,1
52093,-100,4,1,0,80,0,0
52255,-166.666666666667,4,2,0,35,0,0
57120,-153.846153846154,4,2,0,50,0,0
62309,-133.333333333333,4,2,0,70,0,0
62634,-153.846153846154,4,2,0,50,0,0
72692,-133.333333333333,4,2,0,70,0,0
73012,-166.666666666667,4,2,0,35,0,0
75444,-176.470588442907,4,2,0,35,0,0
76742,-187.5,4,2,0,35,0,0
77390,-200,4,2,0,10,0,0
86958,-166.666666666667,4,2,0,35,0,0
87119,324.324324324324,4,2,0,35,1,0
87119,-166.666666666667,4,2,0,35,0,0
92145,-166.666666666667,4,2,0,45,0,0
95713,-166.666666666667,4,2,0,50,0,0
97334,-153.846153846154,4,2,0,70,0,0
97659,-153.846153846154,4,2,0,55,0,0
107794,-142.857142857143,4,2,0,70,0,0
108037,-166.666666666667,4,2,0,60,0,0
112902,-153.846153846154,4,2,0,60,0,0
118091,-90.9090909090909,4,1,0,100,0,0
118254,-90.9090909090909,4,1,0,100,0,1
136091,-90.9090909090909,4,1,0,100,0,1
136253,-91.8521621080439,4,1,0,100,0,1
136334,-90.9090909090909,4,1,0,80,0,1
136416,-92.8150048449432,4,1,0,80,0,0
136740,-94.8025452587351,4,1,0,80,0,0
137064,-96.8771645991465,4,1,0,80,0,0
137226,-97.948853067905,4,1,0,80,0,0
137388,-99.0445175392984,4,1,0,80,0,0
137550,-100.164971708404,4,1,0,80,0,0
137713,-101.311066511728,4,1,0,80,0,0
137875,-102.483692282466,4,1,0,80,0,0
138037,-103.683781057181,4,1,0,80,0,0
138199,-104.912419112525,4,1,0,80,0,0
138361,-106.170412004901,4,1,0,80,0,0
138523,-107.458939939049,4,1,0,80,0,0
138686,-108.779128331089,4,1,0,80,0,0
138848,-110.132158590308,4,1,0,80,0,0
138956,-111.05299337791,4,2,0,80,0,0
138988,324.324324324324,4,2,0,80,1,0
138988,-111.111111111111,4,2,0,80,0,0
139225,-133.333333333333,4,2,0,60,0,0
149198,-100,4,1,0,90,0,0
149366,324.324324324324,4,1,0,90,1,8
149366,-100,4,1,0,90,0,8
149390,324.324324324324,4,1,0,90,1,0
149390,-100,4,1,0,90,0,0
170176,324.324324324324,4,1,0,90,1,8
170176,-100,4,1,0,90,0,8
170338,-133.333333333333,4,2,0,50,0,8
180392,-100,4,2,0,80,0,8
180716,-133.333333333333,4,2,0,10,0,8

[HitObjects]
256,192,10580,5,4,0:0:0:0:
256,192,10904,1,4,0:0:0:0:
256,192,11877,1,2,0:0:0:0:
256,192,12850,1,4,0:0:0:0:
256,192,13174,1,4,0:0:0:0:
256,192,13498,1,4,0:0:0:0:
256,192,14471,1,2,0:0:0:0:
256,192,15444,1,0,0:0:0:0:
256,192,15769,1,6,0:0:0:0:
256,192,16093,1,6,0:0:0:0:
256,192,17066,1,2,0:0:0:0:
256,192,18039,1,2,0:0:0:0:
256,192,18363,1,6,0:0:0:0:
256,192,18688,1,6,0:0:0:0:
256,192,19661,1,2,0:0:0:0:
256,192,20634,1,4,0:0:0:0:
256,192,20958,1,2,0:0:0:0:
256,192,21120,1,0,0:0:0:0:
256,192,21282,1,0,0:0:0:0:
256,192,21444,1,0,0:0:0:0:
256,192,21607,1,0,0:0:0:0:
256,192,21769,1,0,0:0:0:0:
256,192,21931,1,0,0:0:0:0:
256,192,22093,1,0,0:0:0:0:
256,192,22255,1,2,0:0:0:0:
256,192,22417,1,0,0:0:0:0:
256,192,22579,1,0,0:0:0:0:
256,192,22742,1,0,0:0:0:0:
256,192,22904,1,0,0:0:0:0:
256,192,23066,1,0,0:0:0:0:
256,192,23228,1,0,0:0:0:0:
256,192,23552,1,2,0:0:0:0:
256,192,23715,1,0,0:0:0:0:
256,192,23877,1,0,0:0:0:0:
256,192,24039,1,0,0:0:0:0:
256,192,24201,1,0,0:0:0:0:
256,192,24363,1,0,0:0:0:0:
256,192,24525,1,0,0:0:0:0:
256,192,24688,1,0,0:0:0:0:
256,192,24850,1,2,0:0:0:0:
256,192,25012,1,0,0:0:0:0:
256,192,25174,1,0,0:0:0:0:
256,192,25336,1,0,0:0:0:0:
256,192,25498,1,0,0:0:0:0:
256,192,25661,1,0,0:0:0:0:
256,192,25823,1,0,0:0:0:0:
256,192,26147,1,2,0:0:0:0:
256,192,26309,1,2,0:0:0:0:
256,192,26471,1,0,0:0:0:0:
256,192,26634,1,0,0:0:0:0:
256,192,26796,1,2,0:0:0:0:
256,192,26958,1,2,0:0:0:0:
256,192,27120,1,0,0:0:0:0:
256,192,27282,1,0,0:0:0:0:
256,192,27444,1,2,0:0:0:0:
256,192,27607,1,2,0:0:0:0:
256,192,27769,1,0,0:0:0:0:
256,192,27931,1,0,0:0:0:0:
256,192,28093,1,2,0:0:0:0:
256,192,28255,1,0,0:0:0:0:
256,192,28417,1,0,0:0:0:0:
256,192,28579,1,0,0:0:0:0:
256,192,28742,1,2,0:0:0:0:
256,192,28823,1,0,0:0:0:0:
256,192,28904,1,2,0:0:0:0:
256,192,28985,1,0,0:0:0:0:
256,192,29066,1,2,0:0:0:0:
256,192,29228,1,0,0:0:0:0:
256,192,29390,1,2,0:0:0:0:
256,192,29471,1,0,0:0:0:0:
256,192,29552,1,2,0:0:0:0:
256,192,29634,1,0,0:0:0:0:
256,192,29715,1,2,0:0:0:0:
256,192,29877,1,0,0:0:0:0:
256,192,30039,1,2,0:0:0:0:
256,192,30120,1,2,0:0:0:0:
256,192,30201,1,2,0:0:0:0:
256,192,30282,1,2,0:0:0:0:
256,192,30363,1,2,0:0:0:0:
256,192,30525,1,2,0:0:0:0:
256,192,30688,1,0,0:0:0:0:
256,192,30769,1,0,0:0:0:0:
256,192,30850,1,0,0:0:0:0:
256,192,30931,1,0,0:0:0:0:
256,192,31012,1,0,0:0:0:0:
256,192,31174,1,2,0:0:0:0:
256,192,31336,1,4,0:0:0:0:
256,192,31661,1,2,0:0:0:0:
256,192,31823,1,0,0:0:0:0:
256,192,31985,1,2,0:0:0:0:
256,192,32147,1,0,0:0:0:0:
256,192,32309,1,2,0:0:0:0:
256,192,32634,1,0,0:0:0:0:
256,192,32796,1,0,0:0:0:0:
256,192,32958,1,2,0:0:0:0:
256,192,33120,1,0,0:0:0:0:
256,192,33282,1,2,0:0:0:0:
256,192,33444,1,2,0:0:0:0:
256,192,33607,1,2,0:0:0:0:
256,192,33931,1,0,0:0:0:0:
256,192,34093,1,0,0:0:0:0:
256,192,34255,1,2,0:0:0:0:
256,192,34417,1,0,0:0:0:0:
256,192,34579,1,2,0:0:0:0:
256,192,34742,1,0,0:0:0:0:
256,192,34904,1,2,0:0:0:0:
256,192,35228,1,0,0:0:0:0:
256,192,35390,1,0,0:0:0:0:
256,192,35552,1,2,0:0:0:0:
256,192,35715,1,0,0:0:0:0:
256,192,35877,1,2,0:0:0:0:
256,192,36039,1,0,0:0:0:0:
256,192,36201,1,0,0:0:0:0:
256,192,36525,1,4,0:0:0:0:
256,192,36850,1,2,0:0:0:0:
256,192,37012,1,0,0:0:0:0:
256,192,37174,1,2,0:0:0:0:
256,192,37336,1,0,0:0:0:0:
256,192,37498,1,2,0:0:0:0:
256,192,37823,1,0,0:0:0:0:
256,192,37985,1,0,0:0:0:0:
256,192,38147,1,2,0:0:0:0:
256,192,38309,1,0,0:0:0:0:
256,192,38471,1,2,0:0:0:0:
256,192,38634,1,2,0:0:0:0:
256,192,38796,1,2,0:0:0:0:
256,192,39120,1,2,0:0:0:0:
256,192,39282,1,2,0:0:0:0:
256,192,39444,1,0,0:0:0:0:
256,192,39607,1,2,0:0:0:0:
256,192,39769,1,2,0:0:0:0:
256,192,39931,1,0,0:0:0:0:
256,192,40093,1,2,0:0:0:0:
256,192,40417,1,2,0:0:0:0:
256,192,40579,1,2,0:0:0:0:
256,192,40742,1,2,0:0:0:0:
256,192,40904,1,0,0:0:0:0:
256,192,41228,1,0,0:0:0:0:
256,192,41390,1,0,0:0:0:0:
256,192,41552,1,2,0:0:0:0:
256,192,41715,1,4,0:0:0:0:
256,192,42039,1,2,0:0:0:0:
256,192,42201,1,2,0:0:0:0:
256,192,42363,1,2,0:0:0:0:
256,192,42525,1,0,0:0:0:0:
256,192,42688,1,2,0:0:0:0:
256,192,43012,1,0,0:0:0:0:
256,192,43174,1,0,0:0:0:0:
256,192,43336,1,2,0:0:0:0:
256,192,43498,1,0,0:0:0:0:
256,192,43661,1,2,0:0:0:0:
256,192,43823,1,2,0:0:0:0:
256,192,43985,1,2,0:0:0:0:
256,192,44309,1,2,0:0:0:0:
256,192,44471,1,0,0:0:0:0:
256,192,44634,1,2,0:0:0:0:
256,192,44796,1,2,0:0:0:0:
256,192,44958,1,2,0:0:0:0:
256,192,45120,1,0,0:0:0:0:
256,192,45282,1,2,0:0:0:0:
256,192,45607,1,0,0:0:0:0:
256,192,45769,1,0,0:0:0:0:
256,192,45931,1,2,0:0:0:0:
256,192,46093,1,0,0:0:0:0:
256,192,46255,1,2,0:0:0:0:
256,192,46417,1,0,0:0:0:0:
256,192,46579,1,0,0:0:0:0:
256,192,46904,1,0,0:0:0:0:
256,192,47066,1,0,0:0:0:0:
256,192,47228,1,2,0:0:0:0:
256,192,47390,1,2,0:0:0:0:
256,192,47552,1,2,0:0:0:0:
256,192,47715,1,0,0:0:0:0:
256,192,47877,1,2,0:0:0:0:
256,192,48201,1,0,0:0:0:0:
256,192,48363,1,0,0:0:0:0:
256,192,48525,1,2,0:0:0:0:
256,192,48688,1,0,0:0:0:0:
256,192,48850,1,2,0:0:0:0:
256,192,49012,1,2,0:0:0:0:
256,192,49174,1,2,0:0:0:0:
256,192,49498,1,2,0:0:0:0:
256,192,49661,1,2,0:0:0:0:
256,192,49823,1,0,0:0:0:0:
256,192,49985,1,2,0:0:0:0:
256,192,50147,1,2,0:0:0:0:
256,192,50309,1,0,0:0:0:0:
256,192,50471,1,2,0:0:0:0:
256,192,50796,1,2,0:0:0:0:
256,192,50958,1,2,0:0:0:0:
256,192,51120,1,2,0:0:0:0:
256,192,51282,1,0,0:0:0:0:
256,192,51444,1,2,0:0:0:0:
256,192,51607,1,0,0:0:0:0:
256,192,51769,1,0,0:0:0:0:
256,192,51931,1,2,0:0:0:0:
256,192,52093,1,4,0:0:0:0:
256,192,57282,5,2,0:0:0:0:
256,192,57931,1,0,0:0:0:0:
256,192,58579,1,2,0:0:0:0:
256,192,59228,1,2,0:0:0:0:
256,192,59877,1,0,0:0:0:0:
256,192,60525,1,2,0:0:0:0:
256,192,61174,1,0,0:0:0:0:
256,192,61823,1,2,0:0:0:0:
256,192,62471,5,4,0:0:0:0:
256,192,67661,5,0,0:0:0:0:
256,192,68958,1,0,0:0:0:0:
256,192,69931,1,2,0:0:0:0:
256,192,70255,1,0,0:0:0:0:
256,192,71552,1,0,0:0:0:0:
256,192,72850,1,4,0:0:0:0:
256,192,87119,5,2,0:0:0:0:
256,192,87605,1,2,0:0:0:0:
256,192,88091,1,0,0:0:0:0:
256,192,88416,1,2,0:0:0:0:
256,192,88902,1,2,0:0:0:0:
256,192,89227,1,2,0:0:0:0:
256,192,89389,1,2,0:0:0:0:
256,192,89551,1,0,0:0:0:0:
256,192,89713,1,0,0:0:0:0:
256,192,90200,1,2,0:0:0:0:
256,192,90686,1,2,0:0:0:0:
256,192,91497,1,0,0:0:0:0:
256,192,91659,1,2,0:0:0:0:
256,192,91983,1,2,0:0:0:0:
256,192,92308,1,0,0:0:0:0:
256,192,92794,1,2,0:0:0:0:
256,192,93281,1,0,0:0:0:0:
256,192,93605,1,2,0:0:0:0:
256,192,94091,1,0,0:0:0:0:
256,192,94578,1,2,0:0:0:0:
256,192,94902,1,0,0:0:0:0:
256,192,95875,1,2,0:0:0:0:
256,192,96200,1,2,0:0:0:0:
256,192,96686,1,2,0:0:0:0:
256,192,97173,1,0,0:0:0:0:
256,192,97497,1,6,0:0:0:0:
256,192,97983,1,2,0:0:0:0:
256,192,98470,1,0,0:0:0:0:
256,192,99118,1,0,0:0:0:0:
256,192,99443,1,2,0:0:0:0:
256,192,99767,1,0,0:0:0:0:
256,192,100091,1,2,0:0:0:0:
256,192,100578,1,2,0:0:0:0:
256,192,101064,1,0,0:0:0:0:
256,192,101713,1,0,0:0:0:0:
256,192,102037,1,0,0:0:0:0:
256,192,102362,1,0,0:0:0:0:
256,192,102686,1,2,0:0:0:0:
256,192,103173,1,2,0:0:0:0:
256,192,103659,1,0,0:0:0:0:
256,192,104308,1,0,0:0:0:0:
256,192,104632,1,2,0:0:0:0:
256,192,104956,1,0,0:0:0:0:
256,192,105281,1,2,0:0:0:0:
256,192,105605,1,0,0:0:0:0:
256,192,105767,1,2,0:0:0:0:
256,192,106091,1,0,0:0:0:0:
256,192,106254,1,2,0:0:0:0:
256,192,106416,1,0,0:0:0:0:
256,192,106578,1,2,0:0:0:0:
256,192,106740,1,2,0:0:0:0:
256,192,106902,1,2,0:0:0:0:
256,192,107064,1,0,0:0:0:0:
256,192,107389,1,0,0:0:0:0:
256,192,107551,1,2,0:0:0:0:
256,192,107713,1,2,0:0:0:0:
256,192,107875,1,4,0:0:0:0:
256,192,108362,1,0,0:0:0:0:
256,192,108848,1,0,0:0:0:0:
256,192,109173,1,0,0:0:0:0:
256,192,109659,1,0,0:0:0:0:
256,192,110146,1,0,0:0:0:0:
256,192,110470,1,0,0:0:0:0:
256,192,110956,1,0,0:0:0:0:
256,192,111443,1,0,0:0:0:0:
256,192,111767,1,2,0:0:0:0:
256,192,112416,1,0,0:0:0:0:
256,192,113064,1,4,0:0:0:0:
256,192,113389,1,2,0:0:0:0:
256,192,113713,1,0,0:0:0:0:
256,192,113875,1,2,0:0:0:0:
256,192,114037,1,0,0:0:0:0:
256,192,114200,1,2,0:0:0:0:
256,192,114524,1,2,0:0:0:0:
256,192,114686,1,0,0:0:0:0:
256,192,114848,1,0,0:0:0:0:
256,192,115010,1,2,0:0:0:0:
256,192,115335,1,2,0:0:0:0:
256,192,115659,1,2,0:0:0:0:
256,192,115821,1,0,0:0:0:0:
256,192,115983,1,0,0:0:0:0:
256,192,116146,1,2,0:0:0:0:
256,192,116308,1,0,0:0:0:0:
256,192,116470,1,0,0:0:0:0:
256,192,116632,1,0,0:0:0:0:
256,192,116794,1,2,0:0:0:0:
256,192,116956,1,2,0:0:0:0:
256,192,117118,1,0,0:0:0:0:
256,192,117281,1,0,0:0:0:0:
256,192,117443,1,0,0:0:0:0:
256,192,117605,1,2,0:0:0:0:
256,192,117767,1,0,0:0:0:0:
256,192,117929,1,2,0:0:0:0:
256,192,118254,1,4,0:0:0:0:
256,192,118578,1,6,0:0:0:0:
256,192,118902,1,4,0:0:0:0:
256,192,119064,1,0,0:0:0:0:
256,192,119227,1,6,0:0:0:0:
256,192,119551,1,6,0:0:0:0:
256,192,119875,1,4,0:0:0:0:
256,192,120037,1,0,0:0:0:0:
256,192,120200,1,6,0:0:0:0:
256,192,120524,1,6,0:0:0:0:
256,192,120686,1,2,0:0:0:0:
256,192,120848,1,4,0:0:0:0:
256,192,121173,1,6,0:0:0:0:
256,192,121497,1,4,0:0:0:0:
256,192,121659,1,0,0:0:0:0:
256,192,121821,1,6,0:0:0:0:
256,192,122146,1,6,0:0:0:0:
256,192,122308,1,2,0:0:0:0:
256,192,122470,1,4,0:0:0:0:
256,192,122794,1,6,0:0:0:0:
256,192,123118,1,4,0:0:0:0:
256,192,123281,1,2,0:0:0:0:
256,192,123443,1,4,0:0:0:0:
256,192,123767,1,6,0:0:0:0:
256,192,124091,1,6,0:0:0:0:
256,192,124254,1,2,0:0:0:0:
256,192,124416,1,4,0:0:0:0:
256,192,124740,1,6,0:0:0:0:
256,192,125064,1,4,0:0:0:0:
256,192,125227,1,0,0:0:0:0:
256,192,125389,1,6,0:0:0:0:
256,192,125713,1,6,0:0:0:0:
256,192,125875,1,2,0:0:0:0:
256,192,126037,1,4,0:0:0:0:
256,192,126362,1,6,0:0:0:0:
256,192,126686,1,6,0:0:0:0:
256,192,126848,1,0,0:0:0:0:
256,192,127010,1,6,0:0:0:0:
256,192,127335,1,6,0:0:0:0:
256,192,127659,1,4,0:0:0:0:
256,192,127821,1,0,0:0:0:0:
256,192,127983,1,6,0:0:0:0:
256,192,128308,1,6,0:0:0:0:
256,192,128470,1,2,0:0:0:0:
256,192,128632,1,4,0:0:0:0:
256,192,128956,1,6,0:0:0:0:
256,192,129281,1,4,0:0:0:0:
256,192,129443,1,0,0:0:0:0:
256,192,129605,1,6,0:0:0:0:
256,192,129929,1,6,0:0:0:0:
256,192,130254,1,4,0:0:0:0:
256,192,130416,1,0,0:0:0:0:
256,192,130578,1,6,0:0:0:0:
256,192,130902,1,6,0:0:0:0:
256,192,131064,1,2,0:0:0:0:
256,192,131227,1,4,0:0:0:0:
256,192,131551,1,6,0:0:0:0:
256,192,131875,1,4,0:0:0:0:
256,192,132037,1,0,0:0:0:0:
256,192,132200,1,6,0:0:0:0:
256,192,132524,1,6,0:0:0:0:
256,192,132686,1,2,0:0:0:0:
256,192,132848,1,4,0:0:0:0:
256,192,133173,1,6,0:0:0:0:
256,192,133497,1,4,0:0:0:0:
256,192,133659,1,2,0:0:0:0:
256,192,133821,1,4,0:0:0:0:
256,192,134146,1,6,0:0:0:0:
256,192,134470,1,6,0:0:0:0:
256,192,134632,1,2,0:0:0:0:
256,192,134794,1,4,0:0:0:0:
256,192,135118,1,6,0:0:0:0:
256,192,135443,1,4,0:0:0:0:
256,192,135605,1,0,0:0:0:0:
256,192,135767,1,6,0:0:0:0:
256,192,136091,1,6,0:0:0:0:
256,192,136254,1,2,0:0:0:0:
256,192,136416,1,0,0:0:0:0:
256,192,136740,1,2,0:0:0:0:
256,192,137064,1,2,0:0:0:0:
256,192,137227,1,0,0:0:0:0:
256,192,137389,1,2,0:0:0:0:
256,192,137551,1,2,0:0:0:0:
256,192,137713,1,0,0:0:0:0:
256,192,137875,1,2,0:0:0:0:
256,192,138037,1,0,0:0:0:0:
256,192,138200,1,0,0:0:0:0:
256,192,138362,1,2,0:0:0:0:
256,192,138524,1,0,0:0:0:0:
256,192,138686,1,2,0:0:0:0:
256,192,138848,1,2,0:0:0:0:
256,192,138956,1,0,0:0:0:0:
256,192,139042,1,2,0:0:0:0:
256,192,141258,1,2,0:0:0:0:
256,192,141582,1,0,0:0:0:0:
256,192,143528,1,2,0:0:0:0:
256,192,144177,1,2,0:0:0:0:
256,192,146771,1,0,0:0:0:0:
256,192,148069,1,2,0:0:0:0:
256,192,149390,1,4,0:0:0:0:
256,192,149552,1,0,0:0:0:0:
256,192,149714,1,2,0:0:0:0:
256,192,149876,1,0,0:0:0:0:
256,192,149957,1,2,0:0:0:0:
256,192,150038,1,0,0:0:0:0:
256,192,150119,1,2,0:0:0:0:
256,192,150200,1,0,0:0:0:0:
256,192,150362,1,2,0:0:0:0:
256,192,150525,1,0,0:0:0:0:
256,192,150687,1,0,0:0:0:0:
256,192,150849,1,0,0:0:0:0:
256,192,151011,1,2,0:0:0:0:
256,192,151173,1,2,0:0:0:0:
256,192,151254,1,0,0:0:0:0:
256,192,151335,1,2,0:0:0:0:
256,192,151417,1,0,0:0:0:0:
256,192,151498,1,2,0:0:0:0:
256,192,151660,1,2,0:0:0:0:
256,192,151984,1,2,0:0:0:0:
256,192,152146,1,0,0:0:0:0:
256,192,152308,1,2,0:0:0:0:
256,192,152471,1,0,0:0:0:0:
256,192,152552,1,2,0:0:0:0:
256,192,152633,1,0,0:0:0:0:
256,192,152714,1,2,0:0:0:0:
256,192,152795,1,0,0:0:0:0:
256,192,152957,1,2,0:0:0:0:
256,192,153119,1,0,0:0:0:0:
256,192,153281,1,0,0:0:0:0:
256,192,153362,1,2,0:0:0:0:
256,192,153444,1,0,0:0:0:0:
256,192,153606,1,2,0:0:0:0:
256,192,153768,1,2,0:0:0:0:
256,192,153849,1,0,0:0:0:0:
256,192,153930,1,2,0:0:0:0:
256,192,154011,1,0,0:0:0:0:
256,192,154092,1,2,0:0:0:0:
256,192,154254,1,2,0:0:0:0:
256,192,154417,1,0,0:0:0:0:
256,192,154579,1,4,0:0:0:0:
256,192,154741,1,0,0:0:0:0:
256,192,154903,1,2,0:0:0:0:
256,192,155065,1,0,0:0:0:0:
256,192,155146,1,2,0:0:0:0:
256,192,155227,1,0,0:0:0:0:
256,192,155308,1,2,0:0:0:0:
256,192,155390,1,0,0:0:0:0:
256,192,155552,1,2,0:0:0:0:
256,192,155876,1,0,0:0:0:0:
256,192,156038,1,2,0:0:0:0:
256,192,156200,1,2,0:0:0:0:
256,192,156362,1,2,0:0:0:0:
256,192,156444,1,0,0:0:0:0:
256,192,156525,1,2,0:0:0:0:
256,192,156606,1,0,0:0:0:0:
256,192,156687,1,2,0:0:0:0:
256,192,156849,1,2,0:0:0:0:
256,192,157011,1,0,0:0:0:0:
256,192,157173,1,2,0:0:0:0:
256,192,157335,1,2,0:0:0:0:
256,192,157498,1,0,0:0:0:0:
256,192,157660,1,2,0:0:0:0:
256,192,157741,1,0,0:0:0:0:
256,192,157822,1,2,0:0:0:0:
256,192,157903,1,0,0:0:0:0:
256,192,157984,1,2,0:0:0:0:
256,192,158146,1,2,0:0:0:0:
256,192,158308,1,0,0:0:0:0:
256,192,158471,1,2,0:0:0:0:
256,192,158552,1,0,0:0:0:0:
256,192,158633,1,2,0:0:0:0:
256,192,158795,1,2,0:0:0:0:
256,192,158957,1,0,0:0:0:0:
256,192,159038,1,2,0:0:0:0:
256,192,159119,1,0,0:0:0:0:
256,192,159200,1,2,0:0:0:0:
256,192,159281,1,2,0:0:0:0:
256,192,159444,1,2,0:0:0:0:
256,192,159606,1,0,0:0:0:0:
256,192,159930,1,0,0:0:0:0:
256,192,160092,1,2,0:0:0:0:
256,192,160254,1,2,0:0:0:0:
256,192,160335,1,2,0:0:0:0:
256,192,160417,1,0,0:0:0:0:
256,192,160498,1,2,0:0:0:0:
256,192,160579,1,0,0:0:0:0:
256,192,160741,1,2,0:0:0:0:
256,192,160903,1,2,0:0:0:0:
256,192,161065,1,0,0:0:0:0:
256,192,161227,1,0,0:0:0:0:
256,192,161390,1,2,0:0:0:0:
256,192,161552,1,2,0:0:0:0:
256,192,161633,1,0,0:0:0:0:
256,192,161714,1,2,0:0:0:0:
256,192,161795,1,0,0:0:0:0:
256,192,161876,1,2,0:0:0:0:
256,192,162038,1,2,0:0:0:0:
256,192,162362,1,2,0:0:0:0:
256,192,162525,1,0,0:0:0:0:
256,192,162687,1,2,0:0:0:0:
256,192,162849,1,2,0:0:0:0:
256,192,162930,1,2,0:0:0:0:
256,192,163011,1,0,0:0:0:0:
256,192,163092,1,2,0:0:0:0:
256,192,163173,1,0,0:0:0:0:
256,192,163335,1,2,0:0:0:0:
256,192,163498,1,2,0:0:0:0:
256,192,163660,1,0,0:0:0:0:
256,192,163741,1,2,0:0:0:0:
256,192,163822,1,0,0:0:0:0:
256,192,163984,1,2,0:0:0:0:
256,192,164146,1,2,0:0:0:0:
256,192,164227,1,0,0:0:0:0:
256,192,164308,1,2,0:0:0:0:
256,192,164390,1,0,0:0:0:0:
256,192,164471,1,2,0:0:0:0:
256,192,164633,1,2,0:0:0:0:
256,192,164795,1,0,0:0:0:0:
256,192,164957,1,4,0:0:0:0:
256,192,165119,1,0,0:0:0:0:
256,192,165281,1,2,0:0:0:0:
256,192,165444,1,2,0:0:0:0:
256,192,165525,1,2,0:0:0:0:
256,192,165606,1,0,0:0:0:0:
256,192,165687,1,2,0:0:0:0:
256,192,165768,1,0,0:0:0:0:
256,192,165930,1,2,0:0:0:0:
256,192,166092,1,2,0:0:0:0:
256,192,166254,1,0,0:0:0:0:
256,192,166417,1,0,0:0:0:0:
256,192,166579,1,2,0:0:0:0:
256,192,166741,1,2,0:0:0:0:
256,192,166822,1,0,0:0:0:0:
256,192,166903,1,2,0:0:0:0:
256,192,166984,1,0,0:0:0:0:
256,192,167065,1,2,0:0:0:0:
256,192,167227,1,2,0:0:0:0:
256,192,167552,1,2,0:0:0:0:
256,192,167714,1,0,0:0:0:0:
256,192,167876,1,2,0:0:0:0:
256,192,168038,1,2,0:0:0:0:
256,192,168119,1,0,0:0:0:0:
256,192,168200,1,2,0:0:0:0:
256,192,168281,1,0,0:0:0:0:
256,192,168362,1,2,0:0:0:0:
256,192,168525,1,2,0:0:0:0:
256,192,168687,1,0,0:0:0:0:
256,192,168849,1,2,0:0:0:0:
256,192,168930,1,0,0:0:0:0:
256,192,169011,1,2,0:0:0:0:
256,192,169173,1,2,0:0:0:0:
256,192,169335,1,0,0:0:0:0:
256,192,169417,1,2,0:0:0:0:
256,192,169498,1,0,0:0:0:0:
256,192,169579,1,2,0:0:0:0:
256,192,169660,1,0,0:0:0:0:
256,192,169822,1,2,0:0:0:0:
256,192,169984,1,2,0:0:0:0:
256,192,170146,1,4,0:0:0:0:
256,192,171473,1,0,0:0:0:0:
256,192,172446,1,0,0:0:0:0:
256,192,172770,1,0,0:0:0:0:
256,192,174067,1,0,0:0:0:0:
256,192,175040,1,0,0:0:0:0:
256,192,175365,1,2,0:0:0:0:
256,192,177959,1,2,0:0:0:0:
256,192,180554,1,4,0:0:0:0:
