osu file format v14

[General]
AudioFilename: audio.mp3
AudioLeadIn: 0
PreviewTime: 31309
Countdown: 0
SampleSet: Normal
StackLeniency: 0.7
Mode: 1
LetterboxInBreaks: 0
WidescreenStoryboard: 0

[Editor]
DistanceSpacing: 1.4
BeatDivisor: 4
GridSize: 32
TimelineZoom: 1.5

[Metadata]
Title:Method of Illusion
TitleUnicode:Method of Illusion
Artist:Fractal Dreamers
ArtistUnicode:Fractal Dreamers
Creator:Cynplytholowazy
Version:Inner Oni
Source:osu!
Tags:Electronic Instrumental Featured Artist FA Monolithia artcore drum & bass dnb orchestral
BeatmapID:2346965
BeatmapSetID:1123119

[Difficulty]
HPDrainRate:6.5
CircleSize:10
OverallDifficulty:6.5
ApproachRate:10
SliderMultiplier:1.4
SliderTickRate:1

[Events]
//Background and Video events
0,0,"background-651749_1920.jpg",0,0
//Break Periods
//Storyboard Layer 0 (Background)
//Storyboard Layer 1 (Fail)
//Storyboard Layer 2 (Pass)
//Storyboard Layer 3 (Foreground)
//Storyboard Layer 4 (Overlay)
//Storyboard Sound Samples

[TimingPoints]
202,324.324324324324,4,2,0,35,1,0
202,-200,4,2,0,35,0,0
232,324.324324324324,4,2,0,35,1,8
232,-200,4,2,0,35,0,8
10446,-100,4,2,0,50,0,8
10580,324.324324324324,4,2,0,50,1,0
11064,-166.666666666667,4,2,0,35,0,0
12767,-100,4,2,0,50,0,0
13659,-166.666666666667,4,2,0,35,0,0
15361,-142.857142857143,4,2,0,35,0,0
15605,-100,4,2,0,50,0,0
16253,-166.666666666667,4,2,0,35,0,0
18199,-100,4,2,0,50,0,0
18848,-166.666666666667,4,2,0,35,0,0
19010,-166.666666666667,4,2,0,35,0,0
19091,-165.418309821878,4,2,0,35,0,0
19172,-164.18824510678,4,2,0,35,0,0
19334,-161.782716105308,4,2,0,35,0,0
19496,-159.446402091937,4,2,0,35,0,0
19577,-158.303493124879,4,2,0,35,0,0
19659,-157.176852250615,4,2,0,35,0,0
19740,-156.065891019188,4,2,0,35,0,0
19821,-154.970764765227,4,2,0,35,0,0
19983,-152.825748082037,4,2,0,35,0,0
20145,-150.739528124981,4,2,0,35,0,0
20226,-149.717408391661,4,2,0,35,0,0
20307,-148.709277823134,4,2,0,35,0,0
20469,-146.733205284156,4,2,0,35,0,0
20550,-145.764520332693,4,2,0,35,0,0
20591,-166.666666666667,4,2,0,50,0,0
20632,-144.808751082445,4,2,0,50,0,0
20713,-166.666666666667,4,2,0,35,0,0
20794,-142.934123092008,4,2,0,35,0,0
20875,-100,4,2,0,60,0,0
20956,-125,4,2,0,60,0,0
21118,-124.513618677043,4,2,0,60,0,0
21280,-124.031007751938,4,2,0,60,0,0
21442,-123.552123552124,4,2,0,60,0,0
21605,-123.076923076923,4,2,0,60,0,0
21767,-122.605363984674,4,2,0,60,0,0
21929,-122.137404580153,4,2,0,60,0,0
22091,-121.673003802281,4,2,0,60,0,0
22253,-121.212121212121,4,2,0,60,0,0
22415,-120.754716981132,4,2,0,60,0,0
22577,-120.300751879699,4,2,0,60,0,0
22740,-119.850187265918,4,2,0,60,0,0
22902,-119.402985074627,4,2,0,60,0,0
23064,-118.959107806691,4,2,0,60,0,0
23226,-118.518518518519,4,2,0,60,0,0
23388,-118.081180811808,4,2,0,60,0,0
23469,-117.863650614423,4,2,0,60,0,0
23550,-117.647058823529,4,2,0,60,0,0
23713,-117.216117216117,4,2,0,60,0,0
23875,-116.788321167883,4,2,0,60,0,0
24037,-116.363636363636,4,2,0,60,0,0
24199,-115.942028985507,4,2,0,60,0,0
24361,-115.523465703971,4,2,0,60,0,0
24523,-115.107913669065,4,2,0,60,0,0
24686,-114.695340501792,4,2,0,60,0,0
24848,-114.285714285714,4,2,0,60,0,0
25010,-113.879003558719,4,2,0,60,0,0
25172,-113.475177304965,4,2,0,60,0,0
25334,-113.074204946996,4,2,0,60,0,0
25496,-112.676056338028,4,2,0,60,0,0
25659,-112.280701754386,4,2,0,60,0,0
25821,-111.888111888112,4,2,0,60,0,0
25983,-111.498257839721,4,2,0,60,0,0
26064,-111.304285882832,4,2,0,60,0,0
26145,-111.111111111111,4,2,0,60,0,0
26307,-110.346775777559,4,2,0,60,0,0
26469,-109.592884353205,4,2,0,60,0,0
26632,-108.849342713244,4,2,0,60,0,0
26794,-108.115705427949,4,2,0,60,0,0
26956,-107.391891267858,4,2,0,60,0,0
27118,-106.677704253133,4,2,0,60,0,0
27280,-105.973065885575,4,2,0,60,0,0
27361,-105.624170190113,4,2,0,60,0,0
27442,-105.277564298272,4,2,0,60,0,0
27605,-104.591132345435,4,2,0,60,0,0
27767,-103.91359376851,4,2,0,60,0,0
27929,-103.244883441689,4,2,0,60,0,0
28091,-102.584619488,4,2,0,60,0,0
28253,-101.932746812308,4,2,0,60,0,0
28415,-101.28910645789,4,2,0,60,0,0
28577,-100.653644769131,4,2,0,60,0,0
28661,-100.653644769131,4,2,0,70,0,0
28740,-100.026006761758,4,2,0,70,0,0
28821,-99.0712074303406,4,2,0,70,0,0
28902,-98.159509202454,4,2,0,70,0,0
28983,-97.2644376899696,4,2,0,70,0,0
29064,-96.3855421686747,4,2,0,70,0,0
29145,-95.5223880597015,4,2,0,70,0,0
29226,-94.6745562130178,4,2,0,70,0,0
29307,-93.841642228739,4,2,0,70,0,0
29388,-93.0232558139535,4,2,0,70,0,0
29469,-92.2190201729107,4,2,0,70,0,0
29550,-91.4285714285714,4,2,0,70,0,0
29632,-90.6515580736544,4,2,0,70,0,0
29713,-89.8876404494382,4,2,0,70,0,0
29794,-89.1364902506964,4,2,0,70,0,0
29875,-88.3977900552486,4,2,0,70,0,0
29956,-87.6712328767123,4,2,0,70,0,0
30037,-86.9565217391304,4,2,0,70,0,0
30118,-86.2533692722372,4,2,0,70,0,0
30199,-85.5614973262032,4,2,0,70,0,0
30280,-84.8806366047745,4,2,0,70,0,0
30361,-84.2105263157895,4,2,0,70,0,0
30442,-83.5509138381201,4,2,0,70,0,0
30523,-82.9015544041451,4,2,0,70,0,0
30605,-82.2622107969152,4,2,0,70,0,0
30686,-81.6326530612245,4,2,0,70,0,0
30740,-81.2182741116751,4,2,0,70,0,0
30794,-80.8080808080808,4,2,0,70,0,0
30848,-80.4020100502513,4,2,0,70,0,0
30902,-80,4,2,0,70,0,0
30956,-79.6019900497512,4,2,0,70,0,0
31010,-79.2079207920792,4,2,0,70,0,0
31064,-78.8177339901478,4,2,0,70,0,0
31118,-78.4313725490196,4,2,0,70,0,0
31172,-78.0487804878049,4,2,0,70,0,0
31226,-77.6699029126214,4,2,0,70,0,0
31280,-77.2946859903382,4,2,0,70,0,0
31307,-100,4,1,0,80,0,0
31336,-76.9230769230769,4,1,0,80,0,1
31496,-77.3184716921611,4,1,0,80,0,1
31659,-77.7179522252204,4,1,0,80,0,1
31821,-78.1216432106433,4,1,0,80,0,1
31983,-78.5294882154724,4,1,0,80,0,1
32145,-78.9416139928747,4,1,0,80,0,1
32307,-79.3580882953962,4,1,0,80,0,1
32632,-80.2044250385382,4,1,0,80,0,1
32794,-80.6343666896206,4,1,0,80,0,1
32956,-81.0689426502086,4,1,0,80,0,1
33118,-81.5082282556424,4,1,0,80,0,1
33280,-81.9523004830269,4,1,0,80,0,1
33442,-82.4013058958958,4,1,0,80,0,1
33605,-82.8551898419537,4,1,0,80,0,1
33767,-83.3141016615331,4,1,0,80,0,1
33929,-76.9230769230769,4,1,0,80,0,1
34091,-77.3196075565999,4,1,0,80,0,1
34253,-77.7201871191225,4,1,0,80,0,1
34415,-78.125,4,1,0,80,0,1
34577,-78.5340519722649,4,1,0,80,0,1
34740,-78.9473476454348,4,1,0,80,0,1
34902,-79.3650793650794,4,1,0,80,0,1
35226,-80.2138822957534,4,1,0,80,0,1
35388,-80.6451612903226,4,1,0,80,0,1
35550,-81.0811029948927,4,1,0,80,0,1
35713,-81.5217169777943,4,1,0,80,0,1
35875,-81.9672131147541,4,1,0,80,0,1
36037,-82.4176050597816,4,1,0,80,0,1
36199,-82.8729052837278,4,1,0,80,0,1
36361,-83.3333333333333,4,1,0,80,0,1
36523,-76.9230769230769,4,1,0,80,0,1
36686,-77.3184716921611,4,1,0,80,0,1
36848,-77.7179522252204,4,1,0,80,0,1
37010,-78.1216432106433,4,1,0,80,0,1
37172,-78.5294882154724,4,1,0,80,0,1
37334,-78.9416139928747,4,1,0,80,0,1
37496,-79.3580882953962,4,1,0,80,0,1
37821,-80.2044250385382,4,1,0,80,0,1
37983,-80.6343666896206,4,1,0,80,0,1
38145,-81.0689426502086,4,1,0,80,0,1
38307,-81.5082282556424,4,1,0,80,0,1
38469,-81.9523004830269,4,1,0,80,0,1
38632,-82.4013058958958,4,1,0,80,0,1
38794,-82.8551898419537,4,1,0,80,0,1
38956,-83.3141016615331,4,1,0,80,0,1
39118,-76.9230769230769,4,1,0,80,0,1
39280,-77.3196075565999,4,1,0,80,0,1
39442,-77.7201871191225,4,1,0,80,0,1
39605,-78.125,4,1,0,80,0,1
39767,-78.5340519722649,4,1,0,80,0,1
39929,-78.9473476454348,4,1,0,80,0,1
40091,-79.3650793650794,4,1,0,80,0,1
40253,-79.7872552625679,4,1,0,80,0,1
40415,-80.2138822957534,4,1,0,80,0,1
40577,-80.6451612903226,4,1,0,80,0,1
40740,-81.0811029948927,4,1,0,80,0,1
40902,-81.5217169777943,4,1,0,80,0,1
41064,-81.9672131147541,4,1,0,80,0,1
41226,-82.4176050597816,4,1,0,80,0,1
41388,-82.8729052837278,4,1,0,80,0,1
41550,-83.3333333333333,4,1,0,80,0,1
41713,-77.2937300872028,4,1,0,80,0,1
42037,-78.0457957120079,4,1,0,80,0,1
42199,-78.4273742907224,4,1,0,80,0,1
42361,-78.8127024008713,4,1,0,80,0,1
42523,-79.2018355817414,4,1,0,80,0,1
42686,-79.5947671216304,4,1,0,80,0,1
43010,-80.3925730125348,4,1,0,80,0,1
43172,-80.7975036803263,4,1,0,80,0,1
43334,-81.2064682576096,4,1,0,80,0,1
43496,-81.6196605438318,4,1,0,80,0,1
43659,-82.0370791190202,4,1,0,80,0,1
43821,-82.4587891586482,4,1,0,80,0,1
43983,-82.8847884863083,4,1,0,80,0,1
44145,-83.3152816889674,4,1,0,80,0,1
44307,-76.9230769230769,4,1,0,80,0,1
44469,-77.3184716921611,4,1,0,80,0,1
44632,-77.7179522252204,4,1,0,80,0,1
44794,-78.1216432106433,4,1,0,80,0,1
44956,-78.5294882154724,4,1,0,80,0,1
45118,-78.9416139928747,4,1,0,80,0,1
45280,-79.3580882953962,4,1,0,80,0,1
45605,-80.2044250385382,4,1,0,80,0,1
45767,-80.6343666896206,4,1,0,80,0,1
45929,-81.0689426502086,4,1,0,80,0,1
46091,-81.5082282556424,4,1,0,80,0,1
46253,-81.9523004830269,4,1,0,80,0,1
46415,-82.4013058958958,4,1,0,80,0,1
46577,-82.8551898419537,4,1,0,80,0,1
46740,-83.3141016615331,4,1,0,80,0,1
46902,-76.9230769230769,4,1,0,80,0,1
47064,-77.3196075565999,4,1,0,80,0,1
47226,-77.7201871191225,4,1,0,80,0,1
47388,-78.125,4,1,0,80,0,1
47550,-78.5340519722649,4,1,0,80,0,1
47713,-78.9473476454348,4,1,0,80,0,1
47875,-79.3650793650794,4,1,0,80,0,1
48199,-80.2138822957534,4,1,0,80,0,1
48361,-80.6451612903226,4,1,0,80,0,1
48523,-81.0811029948927,4,1,0,80,0,1
48686,-81.5217169777943,4,1,0,80,0,1
48848,-81.9672131147541,4,1,0,80,0,1
49010,-82.4176050597816,4,1,0,80,0,1
49172,-82.8729052837278,4,1,0,80,0,1
49334,-83.3333333333333,4,1,0,80,0,1
49496,-76.9230769230769,4,1,0,80,0,1
49659,-78.0457957120079,4,1,0,80,0,1
49821,-79.2018355817414,4,1,0,80,0,1
49983,-80.3925730125348,4,1,0,80,0,1
50145,-81.6196605438318,4,1,0,80,0,1
50307,-82.8847884863083,4,1,0,80,0,1
50469,-84.1898244810539,4,1,0,80,0,1
50632,-85.5365407825396,4,1,0,80,0,1
50794,-86.9270421335373,4,1,0,80,0,1
50956,-88.3635772403701,4,1,0,80,0,1
51118,-89.8483090997469,4,1,0,80,0,1
51280,-91.3837881504469,4,1,0,80,0,1
51442,-92.9727478281566,4,1,0,80,0,1
51605,-94.6178526856804,4,1,0,80,0,1
51767,-96.3222248122198,4,1,0,80,0,1
51929,-98.0891257414312,4,1,0,80,0,1
52093,-100,4,1,0,80,0,0
52253,-200,4,2,0,35,0,0
57118,-166.666666666667,4,2,0,50,0,0
62307,-125,4,2,0,70,0,0
62632,-166.666666666667,4,2,0,50,0,0
72690,-125,4,2,0,70,0,0
73010,-166.666666666667,4,2,0,35,0,0
75442,-200,4,2,0,35,0,0
76740,-250,4,2,0,35,0,0
77388,-333.333333333333,4,2,0,10,0,0
87037,-200,4,2,0,35,0,0
87119,324.324324324324,4,2,0,35,1,0
87119,-200,4,2,0,35,0,0
92145,-200,4,2,0,45,0,0
95713,-200,4,2,0,50,0,0
97334,-166.666666666667,4,2,0,70,0,0
97659,-200,4,2,0,55,0,0
105280,-200,4,2,0,55,0,0
105605,-197.530864197531,4,2,0,55,0,0
105767,-196.319018404908,4,2,0,55,0,0
106091,-193.939393939394,4,2,0,55,0,0
106253,-192.771084337349,4,2,0,55,0,0
106415,-191.616766467066,4,2,0,55,0,0
106577,-190.47619047619,4,2,0,55,0,0
106740,-191.610891929541,4,2,0,55,0,0
106902,-192.759193649741,4,2,0,55,0,0
107064,-193.920965571272,4,2,0,55,0,0
107388,-196.287805031249,4,2,0,55,0,0
107550,-197.493023558943,4,2,0,55,0,0
107713,-198.713133745862,4,2,0,55,0,0
107794,-142.857142857143,4,2,0,70,0,0
108037,-181.818181818182,4,2,0,60,0,0
108361,-160.839194581649,4,2,0,70,0,0
108848,-161.687238673001,4,2,0,70,0,0
109172,-162.257587164776,4,2,0,70,0,0
109659,-163.120694633166,4,2,0,70,0,0
110145,-163.992764639224,4,2,0,70,0,0
110469,-164.579524003101,4,2,0,70,0,0
110956,-165.467578282711,4,2,0,70,0,0
111442,-166.365268255677,4,2,0,70,0,0
111767,-166.969159126618,4,2,0,70,0,0
112415,-168.190189466248,4,2,0,70,0,0
112902,-166.666666666667,4,2,0,60,0,0
113064,-169.429209934651,4,2,0,70,0,0
113388,-170.055591172754,4,2,0,70,0,0
113713,-170.686329731852,4,2,0,70,0,0
113875,-171.003603045916,4,2,0,70,0,0
114037,-171.322058057619,4,2,0,70,0,0
114199,-171.641701381201,4,2,0,70,0,0
114523,-172.284579668697,4,2,0,70,0,0
114686,-172.60782811022,4,2,0,70,0,0
114848,-172.932291819784,4,2,0,70,0,0
115010,-173.257977663582,4,2,0,70,0,0
115334,-173.913043478261,4,2,0,70,0,0
115659,-153.846153846154,4,2,0,60,0,0
115821,-155.339805825243,4,2,0,60,0,0
115983,-156.862745098039,4,2,0,60,0,0
116145,-158.415841584158,4,2,0,60,0,0
116307,-160,4,2,0,60,0,0
116469,-161.616161616162,4,2,0,60,0,0
116632,-163.265306122449,4,2,0,60,0,0
116794,-164.948453608247,4,2,0,60,0,0
116956,-166.666666666667,4,2,0,60,0,0
117118,-163.742766663283,4,2,0,60,0,0
117280,-160.919429250968,4,2,0,60,0,0
117442,-158.192054645863,4,2,0,60,0,0
117605,-155.555590123464,4,2,0,60,0,0
117767,-153.005564812392,4,2,0,60,0,0
117929,-150.53756966126,4,2,0,60,0,0
118091,-148.148148148148,4,2,0,60,0,0
118172,-100,4,1,0,100,0,0
118254,-76.9230769230769,4,1,0,100,0,1
118415,-81.6326530612245,4,1,0,100,0,1
118577,-76.9230769230769,4,1,0,100,0,1
118740,-81.6326530612245,4,1,0,100,0,1
118902,-76.9230769230769,4,1,0,100,0,1
119064,-81.6326530612245,4,1,0,100,0,1
119226,-76.9230769230769,4,1,0,100,0,1
119388,-81.6326530612245,4,1,0,100,0,1
119550,-76.9230769230769,4,1,0,100,0,1
119713,-81.6326530612245,4,1,0,100,0,1
119875,-76.9230769230769,4,1,0,100,0,1
120037,-81.6326530612245,4,1,0,100,0,1
120199,-76.9230769230769,4,1,0,100,0,1
120361,-81.6326530612245,4,1,0,100,0,1
120523,-76.9230769230769,4,1,0,100,0,1
120686,-81.6326530612245,4,1,0,100,0,1
120848,-76.9230769230769,4,1,0,100,0,1
121010,-81.6326530612245,4,1,0,100,0,1
121172,-76.9230769230769,4,1,0,100,0,1
121334,-81.6326530612245,4,1,0,100,0,1
121496,-76.9230769230769,4,1,0,100,0,1
121659,-81.6326530612245,4,1,0,100,0,1
121821,-76.9230769230769,4,1,0,100,0,1
121983,-81.6326530612245,4,1,0,100,0,1
122145,-76.9230769230769,4,1,0,100,0,1
122307,-81.6326530612245,4,1,0,100,0,1
122469,-76.9230769230769,4,1,0,100,0,1
122632,-81.6326530612245,4,1,0,100,0,1
122794,-76.9230769230769,4,1,0,100,0,1
122956,-81.6326530612245,4,1,0,100,0,1
123118,-76.9230769230769,4,1,0,100,0,1
123280,-81.6326530612245,4,1,0,100,0,1
123442,-76.9230769230769,4,1,0,100,0,1
123605,-81.6326530612245,4,1,0,100,0,1
123767,-76.9230769230769,4,1,0,100,0,1
124091,-76.9230769230769,4,1,0,100,0,1
124253,-81.6326530612245,4,1,0,100,0,1
124415,-76.9230769230769,4,1,0,100,0,1
124577,-81.6326530612245,4,1,0,100,0,1
124740,-76.9230769230769,4,1,0,100,0,1
124902,-81.6326530612245,4,1,0,100,0,1
125064,-76.9230769230769,4,1,0,100,0,1
125226,-81.6326530612245,4,1,0,100,0,1
125388,-76.9230769230769,4,1,0,100,0,1
125550,-81.6326530612245,4,1,0,100,0,1
125713,-76.9230769230769,4,1,0,100,0,1
125875,-81.6326530612245,4,1,0,100,0,1
126037,-76.9230769230769,4,1,0,100,0,1
126361,-76.9230769230769,4,1,0,100,0,1
126686,-76.9230769230769,4,1,0,100,0,1
126848,-81.6326530612245,4,1,0,100,0,1
127010,-76.9230769230769,4,1,0,100,0,1
127172,-81.6326530612245,4,1,0,100,0,1
127334,-76.9230769230769,4,1,0,100,0,1
127496,-81.6326530612245,4,1,0,100,0,1
127659,-76.9230769230769,4,1,0,100,0,1
127821,-81.6326530612245,4,1,0,100,0,1
127983,-76.9230769230769,4,1,0,100,0,1
128145,-81.6326530612245,4,1,0,100,0,1
128307,-76.9230769230769,4,1,0,100,0,1
128469,-81.6326530612245,4,1,0,100,0,1
128632,-76.9230769230769,4,1,0,100,0,1
128794,-81.6326530612245,4,1,0,100,0,1
128956,-76.9230769230769,4,1,0,100,0,1
129118,-81.6326530612245,4,1,0,100,0,1
129280,-76.9230769230769,4,1,0,100,0,1
129442,-81.6326530612245,4,1,0,100,0,1
129605,-76.9230769230769,4,1,0,100,0,1
129767,-81.6326530612245,4,1,0,100,0,1
129929,-76.9230769230769,4,1,0,100,0,1
130091,-81.6326530612245,4,1,0,100,0,1
130253,-76.9230769230769,4,1,0,100,0,1
130415,-81.6326530612245,4,1,0,100,0,1
130577,-76.9230769230769,4,1,0,100,0,1
130740,-81.6326530612245,4,1,0,100,0,1
130902,-76.9230769230769,4,1,0,100,0,1
131064,-81.6326530612245,4,1,0,100,0,1
131226,-76.9230769230769,4,1,0,100,0,1
131388,-81.6326530612245,4,1,0,100,0,1
131550,-76.9230769230769,4,1,0,100,0,1
131713,-81.6326530612245,4,1,0,100,0,1
131875,-76.9230769230769,4,1,0,100,0,1
132037,-81.6326530612245,4,1,0,100,0,1
132199,-76.9230769230769,4,1,0,100,0,1
132361,-81.6326530612245,4,1,0,100,0,1
132523,-76.9230769230769,4,1,0,100,0,1
132686,-81.6326530612245,4,1,0,100,0,1
132848,-76.9230769230769,4,1,0,100,0,1
133010,-81.6326530612245,4,1,0,100,0,1
133172,-76.9230769230769,4,1,0,100,0,1
133334,-81.6326530612245,4,1,0,100,0,1
133496,-76.9230769230769,4,1,0,100,0,1
133659,-81.6326530612245,4,1,0,100,0,1
133821,-76.9230769230769,4,1,0,100,0,1
134145,-76.9230769230769,4,1,0,100,0,1
134469,-76.9230769230769,4,1,0,100,0,1
134632,-81.6326530612245,4,1,0,100,0,1
134794,-76.9230769230769,4,1,0,100,0,1
134956,-81.6326530612245,4,1,0,100,0,1
135118,-76.9230769230769,4,1,0,100,0,1
135280,-81.6326530612245,4,1,0,100,0,1
135442,-76.9230769230769,4,1,0,100,0,1
135605,-81.6326530612245,4,1,0,100,0,1
135767,-76.9230769230769,4,1,0,100,0,1
135929,-81.6326530612245,4,1,0,100,0,1
136091,-76.9230769230769,4,1,0,100,0,1
136253,-81.6326530612245,4,1,0,100,0,1
136334,-100,4,1,0,80,0,1
136416,-86.9565217391304,4,1,0,80,0,0
136740,-88.4249917322633,4,1,0,80,0,0
137064,-89.9439109771147,4,1,0,80,0,0
137226,-90.7231085365909,4,1,0,80,0,0
137388,-91.5159246860546,4,1,0,80,0,0
137550,-92.3228048406693,4,1,0,80,0,0
137713,-93.1439530479961,4,1,0,80,0,0
137875,-93.9798394448423,4,1,0,80,0,0
138037,-94.8308644117784,4,1,0,80,0,0
138199,-95.697442964324,4,1,0,80,0,0
138361,-96.5800054277963,4,1,0,80,0,0
138523,-97.4789981498486,4,1,0,80,0,0
138686,-98.3948842531779,4,1,0,80,0,0
138848,-99.3281444310683,4,1,0,80,0,0
138956,-99.960215834098,4,2,0,80,0,0
138988,324.324324324324,4,2,0,80,1,0
139034,-101.010101010101,4,2,0,80,0,0
139150,-103.092783505155,4,2,0,80,0,0
139223,-100,4,2,0,60,0,0
139304,-105.428403044351,4,2,0,60,0,0
139466,-108.269986368809,4,2,0,60,0,0
139628,-111.268989443911,4,2,0,60,0,0
139790,-114.438735223098,4,2,0,60,0,0
139952,-117.794509833486,4,2,0,60,0,0
140277,-125,4,2,0,60,0,0
140439,-129.156414876236,4,2,0,60,0,0
140601,-133.446852122205,4,2,0,60,0,0
140763,-138.032321648437,4,2,0,60,0,0
140925,-142.944134573326,4,2,0,60,0,0
141088,-147.058823529412,4,2,0,60,0,0
141250,-151.515151515152,4,2,0,60,0,0
141412,-156.25,4,2,0,60,0,0
141574,-160,4,2,0,60,0,0
141744,-163.265306122449,4,2,0,60,0,0
141906,-164.948453608247,4,2,0,60,0,0
142069,-165.837479270315,4,2,0,60,0,0
142231,-166.666666666667,4,2,0,60,0,0
149277,-100,4,1,0,90,0,0
149366,324.324324324324,4,1,0,90,1,8
149390,324.324324324324,4,1,0,90,1,0
170176,324.324324324324,4,1,0,90,1,8
170336,-200,4,2,0,50,0,8
180390,-100,4,2,0,80,0,8
180714,-200,4,2,0,10,0,8

[HitObjects]
256,192,202,5,2,0:0:0:0:
256,192,556,1,0,0:0:0:0:
256,192,880,1,2,0:0:0:0:
256,192,1204,1,2,0:0:0:0:
256,192,1529,1,0,0:0:0:0:
256,192,1853,1,2,0:0:0:0:
256,192,2177,1,0,0:0:0:0:
256,192,2502,1,0,0:0:0:0:
256,192,2826,1,2,0:0:0:0:
256,192,3150,1,0,0:0:0:0:
256,192,3475,1,2,0:0:0:0:
256,192,3799,1,2,0:0:0:0:
256,192,4123,1,2,0:0:0:0:
256,192,4448,1,0,0:0:0:0:
256,192,4772,1,2,0:0:0:0:
256,192,5096,1,0,0:0:0:0:
256,192,5421,1,2,0:0:0:0:
256,192,5745,1,0,0:0:0:0:
256,192,6069,1,2,0:0:0:0:
256,192,6394,1,2,0:0:0:0:
256,192,6718,1,0,0:0:0:0:
256,192,7042,1,2,0:0:0:0:
256,192,7367,1,2,0:0:0:0:
256,192,7691,1,0,0:0:0:0:
256,192,8015,1,2,0:0:0:0:
256,192,8340,1,0,0:0:0:0:
256,192,8664,1,2,0:0:0:0:
256,192,8988,1,2,0:0:0:0:
256,192,9313,1,0,0:0:0:0:
256,192,9637,1,2,0:0:0:0:
256,192,9961,1,0,0:0:0:0:
256,192,10286,1,0,0:0:0:0:
256,192,10580,1,4,0:0:0:0:
256,192,10904,1,4,0:0:0:0:
256,192,11228,1,0,0:0:0:0:
256,192,11309,1,0,0:0:0:0:
256,192,11390,1,2,0:0:0:0:
256,192,11552,1,0,0:0:0:0:
256,192,11715,1,2,0:0:0:0:
256,192,11796,1,2,0:0:0:0:
256,192,11877,1,0,0:0:0:0:
256,192,12201,1,2,0:0:0:0:
256,192,12363,1,2,0:0:0:0:
256,192,12444,1,0,0:0:0:0:
256,192,12525,1,2,0:0:0:0:
256,192,12688,1,2,0:0:0:0:
256,192,12850,1,4,0:0:0:0:
256,192,13174,1,4,0:0:0:0:
256,192,13498,1,4,0:0:0:0:
256,192,13823,1,0,0:0:0:0:
256,192,13904,1,0,0:0:0:0:
256,192,13985,1,2,0:0:0:0:
256,192,14147,1,0,0:0:0:0:
256,192,14309,1,2,0:0:0:0:
256,192,14390,1,2,0:0:0:0:
256,192,14471,1,0,0:0:0:0:
256,192,14796,1,2,0:0:0:0:
256,192,14958,1,2,0:0:0:0:
256,192,15120,1,0,0:0:0:0:
256,192,15201,1,0,0:0:0:0:
256,192,15282,1,2,0:0:0:0:
256,192,15444,1,0,0:0:0:0:
256,192,15769,1,6,0:0:0:0:
256,192,16093,1,6,0:0:0:0:
256,192,16417,1,0,0:0:0:0:
256,192,16498,1,0,0:0:0:0:
256,192,16579,1,2,0:0:0:0:
256,192,16742,1,0,0:0:0:0:
256,192,16904,1,2,0:0:0:0:
256,192,16985,1,2,0:0:0:0:
256,192,17066,1,0,0:0:0:0:
256,192,17390,1,2,0:0:0:0:
256,192,17552,1,2,0:0:0:0:
256,192,17634,1,0,0:0:0:0:
256,192,17715,1,2,0:0:0:0:
256,192,17877,1,0,0:0:0:0:
256,192,18039,1,2,0:0:0:0:
256,192,18363,1,6,0:0:0:0:
256,192,18688,1,6,0:0:0:0:
256,192,19012,1,0,0:0:0:0:
256,192,19093,1,0,0:0:0:0:
256,192,19174,1,2,0:0:0:0:
256,192,19336,1,0,0:0:0:0:
256,192,19498,1,2,0:0:0:0:
256,192,19579,1,2,0:0:0:0:
256,192,19661,1,0,0:0:0:0:
256,192,19742,1,2,0:0:0:0:
256,192,19823,1,0,0:0:0:0:
256,192,19985,1,2,0:0:0:0:
256,192,20147,1,2,0:0:0:0:
256,192,20228,1,2,0:0:0:0:
256,192,20309,1,0,0:0:0:0:
256,192,20471,1,0,0:0:0:0:
256,192,20552,1,2,0:0:0:0:
256,192,20634,1,4,0:0:0:0:
256,192,20796,1,0,0:0:0:0:
256,192,20958,1,2,0:0:0:0:
256,192,21120,1,0,0:0:0:0:
256,192,21282,1,0,0:0:0:0:
256,192,21444,1,0,0:0:0:0:
256,192,21607,1,0,0:0:0:0:
256,192,21769,1,0,0:0:0:0:
256,192,21931,1,0,0:0:0:0:
256,192,22093,1,0,0:0:0:0:
256,192,22255,1,2,0:0:0:0:
256,192,22417,1,0,0:0:0:0:
256,192,22579,1,0,0:0:0:0:
256,192,22742,1,0,0:0:0:0:
256,192,22904,1,0,0:0:0:0:
256,192,23066,1,0,0:0:0:0:
256,192,23228,1,0,0:0:0:0:
256,192,23390,1,0,0:0:0:0:
256,192,23471,1,0,0:0:0:0:
256,192,23552,1,2,0:0:0:0:
256,192,23715,1,0,0:0:0:0:
256,192,23877,1,0,0:0:0:0:
256,192,24039,1,0,0:0:0:0:
256,192,24201,1,0,0:0:0:0:
256,192,24363,1,0,0:0:0:0:
256,192,24525,1,0,0:0:0:0:
256,192,24688,1,0,0:0:0:0:
256,192,24850,1,2,0:0:0:0:
256,192,25012,1,0,0:0:0:0:
256,192,25174,1,0,0:0:0:0:
256,192,25336,1,0,0:0:0:0:
256,192,25498,1,0,0:0:0:0:
256,192,25661,1,0,0:0:0:0:
256,192,25823,1,0,0:0:0:0:
256,192,25985,1,0,0:0:0:0:
256,192,26066,1,0,0:0:0:0:
256,192,26147,1,2,0:0:0:0:
256,192,26309,1,2,0:0:0:0:
256,192,26471,1,0,0:0:0:0:
256,192,26634,1,0,0:0:0:0:
256,192,26796,1,2,0:0:0:0:
256,192,26958,1,2,0:0:0:0:
256,192,27120,1,0,0:0:0:0:
256,192,27282,1,0,0:0:0:0:
256,192,27363,1,0,0:0:0:0:
256,192,27444,1,2,0:0:0:0:
256,192,27607,1,2,0:0:0:0:
256,192,27769,1,0,0:0:0:0:
256,192,27931,1,0,0:0:0:0:
256,192,28093,1,2,0:0:0:0:
256,192,28255,1,0,0:0:0:0:
256,192,28417,1,0,0:0:0:0:
256,192,28579,1,0,0:0:0:0:
256,192,28742,1,2,0:0:0:0:
256,192,28823,1,0,0:0:0:0:
256,192,28904,1,2,0:0:0:0:
256,192,28985,1,0,0:0:0:0:
256,192,29066,1,2,0:0:0:0:
256,192,29147,1,0,0:0:0:0:
256,192,29228,1,2,0:0:0:0:
256,192,29309,1,0,0:0:0:0:
256,192,29390,1,2,0:0:0:0:
256,192,29471,1,0,0:0:0:0:
256,192,29552,1,2,0:0:0:0:
256,192,29634,1,0,0:0:0:0:
256,192,29715,1,2,0:0:0:0:
256,192,29796,1,0,0:0:0:0:
256,192,29877,1,2,0:0:0:0:
256,192,29958,1,0,0:0:0:0:
256,192,30039,1,2,0:0:0:0:
256,192,30120,1,2,0:0:0:0:
256,192,30201,1,0,0:0:0:0:
256,192,30282,1,0,0:0:0:0:
256,192,30363,1,2,0:0:0:0:
256,192,30444,1,2,0:0:0:0:
256,192,30525,1,0,0:0:0:0:
256,192,30607,1,0,0:0:0:0:
256,192,30688,1,2,0:0:0:0:
256,192,30742,1,0,0:0:0:0:
256,192,30796,1,2,0:0:0:0:
256,192,30850,1,0,0:0:0:0:
256,192,30904,1,2,0:0:0:0:
256,192,30958,1,0,0:0:0:0:
256,192,31012,1,2,0:0:0:0:
256,192,31066,1,0,0:0:0:0:
256,192,31120,1,2,0:0:0:0:
256,192,31174,1,0,0:0:0:0:
256,192,31228,1,2,0:0:0:0:
256,192,31282,1,2,0:0:0:0:
256,192,31336,1,4,0:0:0:0:
256,192,31498,1,0,0:0:0:0:
256,192,31661,1,2,0:0:0:0:
256,192,31823,1,0,0:0:0:0:
256,192,31985,1,2,0:0:0:0:
256,192,32147,1,0,0:0:0:0:
256,192,32309,1,2,0:0:0:0:
256,192,32634,1,0,0:0:0:0:
256,192,32796,1,0,0:0:0:0:
256,192,32958,1,2,0:0:0:0:
256,192,33120,1,0,0:0:0:0:
256,192,33282,1,2,0:0:0:0:
256,192,33444,1,2,0:0:0:0:
256,192,33607,1,2,0:0:0:0:
256,192,33769,1,0,0:0:0:0:
256,192,33931,1,0,0:0:0:0:
256,192,34093,1,0,0:0:0:0:
256,192,34255,1,2,0:0:0:0:
256,192,34417,1,0,0:0:0:0:
256,192,34579,1,2,0:0:0:0:
256,192,34742,1,0,0:0:0:0:
256,192,34904,1,2,0:0:0:0:
256,192,35228,1,0,0:0:0:0:
256,192,35390,1,0,0:0:0:0:
256,192,35552,1,2,0:0:0:0:
256,192,35715,1,0,0:0:0:0:
256,192,35877,1,2,0:0:0:0:
256,192,36039,1,0,0:0:0:0:
256,192,36201,1,0,0:0:0:0:
256,192,36363,1,0,0:0:0:0:
256,192,36525,1,4,0:0:0:0:
256,192,36688,1,0,0:0:0:0:
256,192,36850,1,2,0:0:0:0:
256,192,37012,1,0,0:0:0:0:
256,192,37174,1,2,0:0:0:0:
256,192,37336,1,0,0:0:0:0:
256,192,37498,1,2,0:0:0:0:
256,192,37823,1,0,0:0:0:0:
256,192,37985,1,0,0:0:0:0:
256,192,38147,1,2,0:0:0:0:
256,192,38309,1,0,0:0:0:0:
256,192,38471,1,2,0:0:0:0:
256,192,38634,1,2,0:0:0:0:
256,192,38796,1,2,0:0:0:0:
256,192,38958,1,0,0:0:0:0:
256,192,39120,1,2,0:0:0:0:
256,192,39282,1,2,0:0:0:0:
256,192,39444,1,0,0:0:0:0:
256,192,39607,1,2,0:0:0:0:
256,192,39769,1,2,0:0:0:0:
256,192,39931,1,0,0:0:0:0:
256,192,40093,1,2,0:0:0:0:
256,192,40255,1,0,0:0:0:0:
256,192,40417,1,2,0:0:0:0:
256,192,40579,1,2,0:0:0:0:
256,192,40742,1,2,0:0:0:0:
256,192,40904,1,0,0:0:0:0:
256,192,41066,1,2,0:0:0:0:
256,192,41228,1,0,0:0:0:0:
256,192,41390,1,0,0:0:0:0:
256,192,41552,1,2,0:0:0:0:
256,192,41715,1,4,0:0:0:0:
256,192,42039,1,2,0:0:0:0:
256,192,42201,1,2,0:0:0:0:
256,192,42363,1,2,0:0:0:0:
256,192,42525,1,0,0:0:0:0:
256,192,42688,1,2,0:0:0:0:
256,192,43012,1,0,0:0:0:0:
256,192,43174,1,0,0:0:0:0:
256,192,43336,1,2,0:0:0:0:
256,192,43498,1,0,0:0:0:0:
256,192,43661,1,2,0:0:0:0:
256,192,43823,1,2,0:0:0:0:
256,192,43985,1,2,0:0:0:0:
256,192,44147,1,0,0:0:0:0:
256,192,44309,1,2,0:0:0:0:
256,192,44471,1,0,0:0:0:0:
256,192,44634,1,2,0:0:0:0:
256,192,44796,1,2,0:0:0:0:
256,192,44958,1,2,0:0:0:0:
256,192,45120,1,0,0:0:0:0:
256,192,45282,1,2,0:0:0:0:
256,192,45607,1,0,0:0:0:0:
256,192,45769,1,0,0:0:0:0:
256,192,45931,1,2,0:0:0:0:
256,192,46093,1,0,0:0:0:0:
256,192,46255,1,2,0:0:0:0:
256,192,46417,1,0,0:0:0:0:
256,192,46579,1,0,0:0:0:0:
256,192,46742,1,0,0:0:0:0:
256,192,46904,1,0,0:0:0:0:
256,192,47066,1,0,0:0:0:0:
256,192,47228,1,2,0:0:0:0:
256,192,47390,1,2,0:0:0:0:
256,192,47552,1,2,0:0:0:0:
256,192,47715,1,0,0:0:0:0:
256,192,47877,1,2,0:0:0:0:
256,192,48201,1,0,0:0:0:0:
256,192,48363,1,0,0:0:0:0:
256,192,48525,1,2,0:0:0:0:
256,192,48688,1,0,0:0:0:0:
256,192,48850,1,2,0:0:0:0:
256,192,49012,1,2,0:0:0:0:
256,192,49174,1,2,0:0:0:0:
256,192,49336,1,0,0:0:0:0:
256,192,49498,1,2,0:0:0:0:
256,192,49661,1,2,0:0:0:0:
256,192,49823,1,0,0:0:0:0:
256,192,49985,1,2,0:0:0:0:
256,192,50147,1,2,0:0:0:0:
256,192,50309,1,0,0:0:0:0:
256,192,50471,1,2,0:0:0:0:
256,192,50634,1,0,0:0:0:0:
256,192,50796,1,2,0:0:0:0:
256,192,50958,1,2,0:0:0:0:
256,192,51120,1,2,0:0:0:0:
256,192,51282,1,0,0:0:0:0:
256,192,51444,1,2,0:0:0:0:
256,192,51607,1,0,0:0:0:0:
256,192,51769,1,0,0:0:0:0:
256,192,51931,1,2,0:0:0:0:
256,192,52093,1,4,0:0:0:0:
256,192,54688,1,0,0:0:0:0:
256,192,55012,1,0,0:0:0:0:
256,192,55336,1,2,0:0:0:0:
256,192,55661,1,0,0:0:0:0:
256,192,55985,1,2,0:0:0:0:
256,192,56309,1,2,0:0:0:0:
256,192,56634,1,0,0:0:0:0:
256,192,56958,1,2,0:0:0:0:
256,192,57282,1,0,0:0:0:0:
256,192,57607,1,0,0:0:0:0:
256,192,57931,1,2,0:0:0:0:
256,192,58255,1,0,0:0:0:0:
256,192,58579,1,2,0:0:0:0:
256,192,58904,1,0,0:0:0:0:
256,192,59228,1,2,0:0:0:0:
256,192,59552,1,2,0:0:0:0:
256,192,59877,1,0,0:0:0:0:
256,192,60201,1,0,0:0:0:0:
256,192,60525,1,2,0:0:0:0:
256,192,60850,1,0,0:0:0:0:
256,192,61174,1,2,0:0:0:0:
256,192,61498,1,0,0:0:0:0:
256,192,61823,1,2,0:0:0:0:
256,192,62147,1,2,0:0:0:0:
256,192,62471,1,4,0:0:0:0:
256,192,65066,1,0,0:0:0:0:
256,192,67661,1,0,0:0:0:0:
256,192,67985,1,2,0:0:0:0:
256,192,68309,1,0,0:0:0:0:
256,192,68634,1,2,0:0:0:0:
256,192,68958,1,0,0:0:0:0:
256,192,69282,1,2,0:0:0:0:
256,192,69607,1,2,0:0:0:0:
256,192,69931,1,2,0:0:0:0:
256,192,70255,1,0,0:0:0:0:
256,192,70579,1,2,0:0:0:0:
256,192,70904,1,0,0:0:0:0:
256,192,71228,1,2,0:0:0:0:
256,192,71552,1,0,0:0:0:0:
256,192,71877,1,2,0:0:0:0:
256,192,72201,1,2,0:0:0:0:
256,192,72525,1,2,0:0:0:0:
256,192,72850,1,4,0:0:0:0:
256,192,77552,12,6,79661,0:0:0:0:
256,192,79823,12,6,80634,0:0:0:0:
256,192,80796,12,6,81931,0:0:0:0:
256,192,82093,12,6,84525,0:0:0:0:
256,192,84688,12,6,85823,0:0:0:0:
256,192,85985,12,6,86958,0:0:0:0:
256,192,87120,5,2,0:0:0:0:
256,192,87605,1,2,0:0:0:0:
256,192,88091,1,0,0:0:0:0:
256,192,88416,1,2,0:0:0:0:
256,192,88902,1,2,0:0:0:0:
256,192,89227,1,2,0:0:0:0:
256,192,89389,1,2,0:0:0:0:
256,192,89551,1,0,0:0:0:0:
256,192,89713,1,0,0:0:0:0:
256,192,90200,1,2,0:0:0:0:
256,192,90686,1,2,0:0:0:0:
256,192,91497,1,0,0:0:0:0:
256,192,91659,1,2,0:0:0:0:
256,192,91983,1,2,0:0:0:0:
256,192,92308,1,0,0:0:0:0:
256,192,92794,1,2,0:0:0:0:
256,192,93281,1,0,0:0:0:0:
256,192,93605,1,2,0:0:0:0:
256,192,94091,1,0,0:0:0:0:
256,192,94578,1,2,0:0:0:0:
256,192,94902,1,0,0:0:0:0:
256,192,95875,1,2,0:0:0:0:
256,192,96200,1,2,0:0:0:0:
256,192,96686,1,2,0:0:0:0:
256,192,97173,1,0,0:0:0:0:
256,192,97497,1,6,0:0:0:0:
256,192,97983,1,2,0:0:0:0:
256,192,98470,1,0,0:0:0:0:
256,192,99118,1,0,0:0:0:0:
256,192,99443,1,2,0:0:0:0:
256,192,99767,1,0,0:0:0:0:
256,192,100091,1,2,0:0:0:0:
256,192,100578,1,2,0:0:0:0:
256,192,101064,1,0,0:0:0:0:
256,192,101713,1,0,0:0:0:0:
256,192,102037,1,0,0:0:0:0:
256,192,102362,1,0,0:0:0:0:
256,192,102686,1,2,0:0:0:0:
256,192,103173,1,2,0:0:0:0:
256,192,103659,1,0,0:0:0:0:
256,192,104308,1,0,0:0:0:0:
256,192,104632,1,2,0:0:0:0:
256,192,104956,1,0,0:0:0:0:
256,192,105281,1,2,0:0:0:0:
256,192,105605,1,0,0:0:0:0:
256,192,105767,1,2,0:0:0:0:
256,192,106091,1,0,0:0:0:0:
256,192,106254,1,2,0:0:0:0:
256,192,106416,1,0,0:0:0:0:
256,192,106578,1,2,0:0:0:0:
256,192,106740,1,2,0:0:0:0:
256,192,106902,1,2,0:0:0:0:
256,192,107064,1,0,0:0:0:0:
256,192,107389,1,0,0:0:0:0:
256,192,107551,1,2,0:0:0:0:
256,192,107713,1,2,0:0:0:0:
256,192,107875,1,4,0:0:0:0:
256,192,108362,1,0,0:0:0:0:
256,192,108848,1,0,0:0:0:0:
256,192,109173,1,0,0:0:0:0:
256,192,109659,1,0,0:0:0:0:
256,192,110146,1,0,0:0:0:0:
256,192,110470,1,0,0:0:0:0:
256,192,110956,1,0,0:0:0:0:
256,192,111443,1,0,0:0:0:0:
256,192,111767,1,2,0:0:0:0:
256,192,112416,1,0,0:0:0:0:
256,192,113064,1,4,0:0:0:0:
256,192,113389,1,2,0:0:0:0:
256,192,113713,1,0,0:0:0:0:
256,192,113875,1,2,0:0:0:0:
256,192,114037,1,0,0:0:0:0:
256,192,114200,1,2,0:0:0:0:
256,192,114524,1,2,0:0:0:0:
256,192,114686,1,0,0:0:0:0:
256,192,114848,1,0,0:0:0:0:
256,192,115010,1,2,0:0:0:0:
256,192,115335,1,2,0:0:0:0:
256,192,115659,1,2,0:0:0:0:
256,192,115821,1,0,0:0:0:0:
256,192,115983,1,0,0:0:0:0:
256,192,116146,1,2,0:0:0:0:
256,192,116308,1,0,0:0:0:0:
256,192,116470,1,0,0:0:0:0:
256,192,116632,1,0,0:0:0:0:
256,192,116794,1,2,0:0:0:0:
256,192,116956,1,2,0:0:0:0:
256,192,117118,1,0,0:0:0:0:
256,192,117281,1,0,0:0:0:0:
256,192,117443,1,0,0:0:0:0:
256,192,117605,1,2,0:0:0:0:
256,192,117767,1,0,0:0:0:0:
256,192,117929,1,2,0:0:0:0:
256,192,118091,1,0,0:0:0:0:
256,192,118254,1,4,0:0:0:0:
256,192,118416,1,0,0:0:0:0:
256,192,118578,1,6,0:0:0:0:
256,192,118740,1,2,0:0:0:0:
256,192,118902,1,4,0:0:0:0:
256,192,119064,1,0,0:0:0:0:
256,192,119227,1,6,0:0:0:0:
256,192,119389,1,0,0:0:0:0:
256,192,119551,1,6,0:0:0:0:
256,192,119713,1,0,0:0:0:0:
256,192,119875,1,4,0:0:0:0:
256,192,120037,1,0,0:0:0:0:
256,192,120200,1,6,0:0:0:0:
256,192,120362,1,0,0:0:0:0:
256,192,120524,1,6,0:0:0:0:
256,192,120686,1,2,0:0:0:0:
256,192,120848,1,4,0:0:0:0:
256,192,121010,1,0,0:0:0:0:
256,192,121173,1,6,0:0:0:0:
256,192,121335,1,0,0:0:0:0:
256,192,121497,1,4,0:0:0:0:
256,192,121659,1,0,0:0:0:0:
256,192,121821,1,6,0:0:0:0:
256,192,121983,1,0,0:0:0:0:
256,192,122146,1,6,0:0:0:0:
256,192,122308,1,2,0:0:0:0:
256,192,122470,1,4,0:0:0:0:
256,192,122632,1,0,0:0:0:0:
256,192,122794,1,6,0:0:0:0:
256,192,122956,1,0,0:0:0:0:
256,192,123118,1,4,0:0:0:0:
256,192,123281,1,2,0:0:0:0:
256,192,123443,1,4,0:0:0:0:
256,192,123605,1,0,0:0:0:0:
256,192,123767,1,6,0:0:0:0:
256,192,124091,1,6,0:0:0:0:
256,192,124254,1,2,0:0:0:0:
256,192,124416,1,4,0:0:0:0:
256,192,124578,1,0,0:0:0:0:
256,192,124740,1,6,0:0:0:0:
256,192,124902,1,0,0:0:0:0:
256,192,125064,1,4,0:0:0:0:
256,192,125227,1,0,0:0:0:0:
256,192,125389,1,6,0:0:0:0:
256,192,125551,1,0,0:0:0:0:
256,192,125713,1,6,0:0:0:0:
256,192,125875,1,2,0:0:0:0:
256,192,126037,1,4,0:0:0:0:
256,192,126362,1,6,0:0:0:0:
256,192,126686,1,6,0:0:0:0:
256,192,126848,1,0,0:0:0:0:
256,192,127010,1,6,0:0:0:0:
256,192,127173,1,2,0:0:0:0:
256,192,127335,1,6,0:0:0:0:
256,192,127497,1,0,0:0:0:0:
256,192,127659,1,4,0:0:0:0:
256,192,127821,1,0,0:0:0:0:
256,192,127983,1,6,0:0:0:0:
256,192,128146,1,0,0:0:0:0:
256,192,128308,1,6,0:0:0:0:
256,192,128470,1,2,0:0:0:0:
256,192,128632,1,4,0:0:0:0:
256,192,128794,1,0,0:0:0:0:
256,192,128956,1,6,0:0:0:0:
256,192,129118,1,2,0:0:0:0:
256,192,129281,1,4,0:0:0:0:
256,192,129443,1,0,0:0:0:0:
256,192,129605,1,6,0:0:0:0:
256,192,129767,1,0,0:0:0:0:
256,192,129929,1,6,0:0:0:0:
256,192,130091,1,2,0:0:0:0:
256,192,130254,1,4,0:0:0:0:
256,192,130416,1,0,0:0:0:0:
256,192,130578,1,6,0:0:0:0:
256,192,130740,1,0,0:0:0:0:
256,192,130902,1,6,0:0:0:0:
256,192,131064,1,2,0:0:0:0:
256,192,131227,1,4,0:0:0:0:
256,192,131389,1,0,0:0:0:0:
256,192,131551,1,6,0:0:0:0:
256,192,131713,1,2,0:0:0:0:
256,192,131875,1,4,0:0:0:0:
256,192,132037,1,0,0:0:0:0:
256,192,132200,1,6,0:0:0:0:
256,192,132362,1,0,0:0:0:0:
256,192,132524,1,6,0:0:0:0:
256,192,132686,1,2,0:0:0:0:
256,192,132848,1,4,0:0:0:0:
256,192,133010,1,0,0:0:0:0:
256,192,133173,1,6,0:0:0:0:
256,192,133335,1,0,0:0:0:0:
256,192,133497,1,4,0:0:0:0:
256,192,133659,1,2,0:0:0:0:
256,192,133821,1,4,0:0:0:0:
256,192,134146,1,6,0:0:0:0:
256,192,134470,1,6,0:0:0:0:
256,192,134632,1,2,0:0:0:0:
256,192,134794,1,4,0:0:0:0:
256,192,134956,1,0,0:0:0:0:
256,192,135118,1,6,0:0:0:0:
256,192,135281,1,0,0:0:0:0:
256,192,135443,1,4,0:0:0:0:
256,192,135605,1,0,0:0:0:0:
256,192,135767,1,6,0:0:0:0:
256,192,135929,1,0,0:0:0:0:
256,192,136091,1,6,0:0:0:0:
256,192,136254,1,2,0:0:0:0:
256,192,136416,1,0,0:0:0:0:
256,192,136740,1,2,0:0:0:0:
256,192,137064,1,2,0:0:0:0:
256,192,137227,1,0,0:0:0:0:
256,192,137389,1,2,0:0:0:0:
256,192,137551,1,2,0:0:0:0:
256,192,137713,1,0,0:0:0:0:
256,192,137875,1,2,0:0:0:0:
256,192,138037,1,0,0:0:0:0:
256,192,138200,1,0,0:0:0:0:
256,192,138362,1,2,0:0:0:0:
256,192,138524,1,0,0:0:0:0:
256,192,138686,1,2,0:0:0:0:
256,192,138848,1,2,0:0:0:0:
256,192,138956,1,0,0:0:0:0:
256,192,139042,1,2,0:0:0:0:
256,192,139150,1,0,0:0:0:0:
256,192,139312,1,2,0:0:0:0:
256,192,139474,1,0,0:0:0:0:
256,192,139636,1,2,0:0:0:0:
256,192,139798,1,2,0:0:0:0:
256,192,139960,1,2,0:0:0:0:
256,192,140447,1,0,0:0:0:0:
256,192,140609,1,2,0:0:0:0:
256,192,140771,1,0,0:0:0:0:
256,192,140933,1,2,0:0:0:0:
256,192,141096,1,2,0:0:0:0:
256,192,141258,1,2,0:0:0:0:
256,192,141420,1,0,0:0:0:0:
256,192,141582,1,0,0:0:0:0:
256,192,141744,1,0,0:0:0:0:
256,192,141906,1,2,0:0:0:0:
256,192,142069,1,0,0:0:0:0:
256,192,142231,1,2,0:0:0:0:
256,192,142393,1,2,0:0:0:0:
256,192,142555,1,2,0:0:0:0:
256,192,143042,1,0,0:0:0:0:
256,192,143204,1,2,0:0:0:0:
256,192,143366,1,0,0:0:0:0:
256,192,143528,1,2,0:0:0:0:
256,192,143690,1,0,0:0:0:0:
256,192,143852,1,0,0:0:0:0:
256,192,144015,1,0,0:0:0:0:
256,192,144177,1,2,0:0:0:0:
256,192,144339,1,0,0:0:0:0:
256,192,144501,1,2,0:0:0:0:
256,192,144663,1,0,0:0:0:0:
256,192,144825,1,2,0:0:0:0:
256,192,144988,1,2,0:0:0:0:
256,192,145150,1,2,0:0:0:0:
256,192,145636,1,0,0:0:0:0:
256,192,145798,1,2,0:0:0:0:
256,192,145960,1,0,0:0:0:0:
256,192,146123,1,2,0:0:0:0:
256,192,146285,1,0,0:0:0:0:
256,192,146447,1,2,0:0:0:0:
256,192,146609,1,2,0:0:0:0:
256,192,146771,1,0,0:0:0:0:
256,192,147096,1,0,0:0:0:0:
256,192,147258,1,2,0:0:0:0:
256,192,147582,1,0,0:0:0:0:
256,192,147744,1,2,0:0:0:0:
256,192,147906,1,0,0:0:0:0:
256,192,148069,1,2,0:0:0:0:
256,192,148231,1,2,0:0:0:0:
256,192,148393,1,2,0:0:0:0:
256,192,148555,1,0,0:0:0:0:
256,192,148879,1,0,0:0:0:0:
256,192,149042,1,2,0:0:0:0:
256,192,149204,1,2,0:0:0:0:
256,192,149390,1,4,0:0:0:0:
256,192,149552,1,0,0:0:0:0:
256,192,149714,1,2,0:0:0:0:
256,192,149876,1,0,0:0:0:0:
256,192,149957,1,2,0:0:0:0:
256,192,150038,1,0,0:0:0:0:
256,192,150119,1,2,0:0:0:0:
256,192,150200,1,0,0:0:0:0:
256,192,150362,1,2,0:0:0:0:
256,192,150525,1,0,0:0:0:0:
256,192,150606,1,2,0:0:0:0:
256,192,150687,1,0,0:0:0:0:
256,192,150849,1,0,0:0:0:0:
256,192,151011,1,2,0:0:0:0:
256,192,151173,1,2,0:0:0:0:
256,192,151254,1,0,0:0:0:0:
256,192,151335,1,2,0:0:0:0:
256,192,151417,1,0,0:0:0:0:
256,192,151498,1,2,0:0:0:0:
256,192,151660,1,2,0:0:0:0:
256,192,151822,1,0,0:0:0:0:
256,192,151903,1,0,0:0:0:0:
256,192,151984,1,2,0:0:0:0:
256,192,152146,1,0,0:0:0:0:
256,192,152308,1,2,0:0:0:0:
256,192,152471,1,0,0:0:0:0:
256,192,152552,1,2,0:0:0:0:
256,192,152633,1,0,0:0:0:0:
256,192,152714,1,2,0:0:0:0:
256,192,152795,1,0,0:0:0:0:
256,192,152957,1,2,0:0:0:0:
256,192,153119,1,0,0:0:0:0:
256,192,153281,1,0,0:0:0:0:
256,192,153362,1,2,0:0:0:0:
256,192,153444,1,0,0:0:0:0:
256,192,153525,1,0,0:0:0:0:
256,192,153606,1,2,0:0:0:0:
256,192,153768,1,2,0:0:0:0:
256,192,153849,1,0,0:0:0:0:
256,192,153930,1,2,0:0:0:0:
256,192,154011,1,0,0:0:0:0:
256,192,154092,1,2,0:0:0:0:
256,192,154254,1,2,0:0:0:0:
256,192,154417,1,0,0:0:0:0:
256,192,154579,1,4,0:0:0:0:
256,192,154741,1,0,0:0:0:0:
256,192,154903,1,2,0:0:0:0:
256,192,155065,1,0,0:0:0:0:
256,192,155146,1,2,0:0:0:0:
256,192,155227,1,0,0:0:0:0:
256,192,155308,1,2,0:0:0:0:
256,192,155390,1,0,0:0:0:0:
256,192,155552,1,2,0:0:0:0:
256,192,155714,1,0,0:0:0:0:
256,192,155795,1,2,0:0:0:0:
256,192,155876,1,0,0:0:0:0:
256,192,156038,1,2,0:0:0:0:
256,192,156200,1,2,0:0:0:0:
256,192,156362,1,2,0:0:0:0:
256,192,156444,1,0,0:0:0:0:
256,192,156525,1,2,0:0:0:0:
256,192,156606,1,0,0:0:0:0:
256,192,156687,1,2,0:0:0:0:
256,192,156849,1,2,0:0:0:0:
256,192,157011,1,0,0:0:0:0:
256,192,157092,1,0,0:0:0:0:
256,192,157173,1,2,0:0:0:0:
256,192,157335,1,2,0:0:0:0:
256,192,157498,1,0,0:0:0:0:
256,192,157660,1,2,0:0:0:0:
256,192,157741,1,0,0:0:0:0:
256,192,157822,1,2,0:0:0:0:
256,192,157903,1,0,0:0:0:0:
256,192,157984,1,2,0:0:0:0:
256,192,158146,1,2,0:0:0:0:
256,192,158308,1,0,0:0:0:0:
256,192,158471,1,2,0:0:0:0:
256,192,158552,1,0,0:0:0:0:
256,192,158633,1,2,0:0:0:0:
256,192,158714,1,0,0:0:0:0:
256,192,158795,1,2,0:0:0:0:
256,192,158957,1,0,0:0:0:0:
256,192,159038,1,2,0:0:0:0:
256,192,159119,1,0,0:0:0:0:
256,192,159200,1,2,0:0:0:0:
256,192,159281,1,2,0:0:0:0:
256,192,159444,1,2,0:0:0:0:
256,192,159606,1,0,0:0:0:0:
256,192,159768,1,0,0:0:0:0:
256,192,159930,1,0,0:0:0:0:
256,192,160092,1,2,0:0:0:0:
256,192,160254,1,2,0:0:0:0:
256,192,160335,1,2,0:0:0:0:
256,192,160417,1,0,0:0:0:0:
256,192,160498,1,2,0:0:0:0:
256,192,160579,1,0,0:0:0:0:
256,192,160741,1,2,0:0:0:0:
256,192,160903,1,2,0:0:0:0:
256,192,160984,1,2,0:0:0:0:
256,192,161065,1,0,0:0:0:0:
256,192,161227,1,0,0:0:0:0:
256,192,161390,1,2,0:0:0:0:
256,192,161552,1,2,0:0:0:0:
256,192,161633,1,0,0:0:0:0:
256,192,161714,1,2,0:0:0:0:
256,192,161795,1,0,0:0:0:0:
256,192,161876,1,2,0:0:0:0:
256,192,162038,1,2,0:0:0:0:
256,192,162200,1,0,0:0:0:0:
256,192,162281,1,0,0:0:0:0:
256,192,162362,1,2,0:0:0:0:
256,192,162525,1,0,0:0:0:0:
256,192,162687,1,2,0:0:0:0:
256,192,162849,1,2,0:0:0:0:
256,192,162930,1,2,0:0:0:0:
256,192,163011,1,0,0:0:0:0:
256,192,163092,1,2,0:0:0:0:
256,192,163173,1,0,0:0:0:0:
256,192,163335,1,2,0:0:0:0:
256,192,163498,1,2,0:0:0:0:
256,192,163660,1,0,0:0:0:0:
256,192,163741,1,2,0:0:0:0:
256,192,163822,1,0,0:0:0:0:
256,192,163903,1,0,0:0:0:0:
256,192,163984,1,2,0:0:0:0:
256,192,164146,1,2,0:0:0:0:
256,192,164227,1,0,0:0:0:0:
256,192,164308,1,2,0:0:0:0:
256,192,164390,1,0,0:0:0:0:
256,192,164471,1,2,0:0:0:0:
256,192,164633,1,2,0:0:0:0:
256,192,164795,1,0,0:0:0:0:
256,192,164957,1,4,0:0:0:0:
256,192,165119,1,0,0:0:0:0:
256,192,165281,1,2,0:0:0:0:
256,192,165444,1,2,0:0:0:0:
256,192,165525,1,2,0:0:0:0:
256,192,165606,1,0,0:0:0:0:
256,192,165687,1,2,0:0:0:0:
256,192,165768,1,0,0:0:0:0:
256,192,165930,1,2,0:0:0:0:
256,192,166092,1,2,0:0:0:0:
256,192,166173,1,2,0:0:0:0:
256,192,166254,1,0,0:0:0:0:
256,192,166417,1,0,0:0:0:0:
256,192,166579,1,2,0:0:0:0:
256,192,166741,1,2,0:0:0:0:
256,192,166822,1,0,0:0:0:0:
256,192,166903,1,2,0:0:0:0:
256,192,166984,1,0,0:0:0:0:
256,192,167065,1,2,0:0:0:0:
256,192,167227,1,2,0:0:0:0:
256,192,167389,1,0,0:0:0:0:
256,192,167471,1,0,0:0:0:0:
256,192,167552,1,2,0:0:0:0:
256,192,167714,1,0,0:0:0:0:
256,192,167876,1,2,0:0:0:0:
256,192,168038,1,2,0:0:0:0:
256,192,168119,1,0,0:0:0:0:
256,192,168200,1,2,0:0:0:0:
256,192,168281,1,0,0:0:0:0:
256,192,168362,1,2,0:0:0:0:
256,192,168525,1,2,0:0:0:0:
256,192,168687,1,0,0:0:0:0:
256,192,168849,1,2,0:0:0:0:
256,192,168930,1,0,0:0:0:0:
256,192,169011,1,2,0:0:0:0:
256,192,169092,1,0,0:0:0:0:
256,192,169173,1,2,0:0:0:0:
256,192,169335,1,0,0:0:0:0:
256,192,169417,1,2,0:0:0:0:
256,192,169498,1,0,0:0:0:0:
256,192,169579,1,2,0:0:0:0:
256,192,169660,1,0,0:0:0:0:
256,192,169822,1,2,0:0:0:0:
256,192,169984,1,2,0:0:0:0:
256,192,170146,1,4,0:0:0:0:
256,192,171473,1,0,0:0:0:0:
256,192,172446,1,0,0:0:0:0:
256,192,172770,1,0,0:0:0:0:
256,192,174067,1,0,0:0:0:0:
256,192,175040,1,0,0:0:0:0:
256,192,175365,1,2,0:0:0:0:
256,192,177959,1,2,0:0:0:0:
256,192,180554,1,4,0:0:0:0:
