osu file format v14

[General]
AudioFilename: audio.mp3
AudioLeadIn: 0
PreviewTime: 54165
Countdown: 0
SampleSet: Soft
StackLeniency: 0.7
Mode: 2
LetterboxInBreaks: 0
WidescreenStoryboard: 1

[Editor]
Bookmarks: 165,10450,15593,20736,31022,41307,43879,54165,61879,69593,77307,85022,87593,96593,105593,117165,124450
DistanceSpacing: 1
BeatDivisor: 12
GridSize: 4
TimelineZoom: 3.399999

[Metadata]
Title:Kingdom of Silence
TitleUnicode:Kingdom of Silence
Artist:Fractal Dreamers
ArtistUnicode:Fractal Dreamers
Creator:JBHyperion
Version:Dream
Source:
Tags:Helblinde skymuted EP electronic instrumental classical piano melodic epic orchestral featured artist fa mappers guild mpg zirox absolute zero halfsmashed 0K
BeatmapID:3595623
BeatmapSetID:1756405

[Difficulty]
HPDrainRate:7
CircleSize:6.5
OverallDifficulty:8.9
ApproachRate:8.9
SliderMultiplier:2
SliderTickRate:2

[Events]
//Background and Video events
0,0,"fantasy-3077928_1920.jpg",0,0
//Break Periods
//Storyboard Layer 0 (Background)
//Storyboard Layer 1 (Fail)
//Storyboard Layer 2 (Pass)
//Storyboard Layer 3 (Foreground)
//Storyboard Layer 4 (Overlay)
//Storyboard Sound Samples

[TimingPoints]
165,428.571428571429,3,2,1,60,1,0
15593,-100,3,2,1,70,0,0
20736,-100,3,2,1,60,0,0
30379,-100,3,2,1,50,0,0
31022,-100,3,2,1,60,0,0
54165,-100,3,2,1,60,0,0
54593,-100,3,2,1,60,0,0
67022,-100,3,2,1,70,0,0
68307,-100,3,2,1,80,0,0
69165,-50,3,2,1,80,0,0
69593,-80,3,2,1,80,0,0
70022,-100,3,2,1,70,0,0
77307,-100,3,2,1,60,0,0
86307,-100,3,2,1,65,0,0
87165,-66.6666666666667,3,2,1,65,0,0
87593,-100,3,2,1,70,0,0
106879,-100,3,2,1,80,0,0
109022,-66.6666666666667,3,2,1,80,0,0
109450,-100,3,2,1,80,0,0
117165,-100,3,2,1,70,0,0

[Colours]
Combo1 : 100,150,150
Combo2 : 100,125,150
Combo3 : 150,150,150
Combo4 : 150,140,210

[HitObjects]
112,192,165,6,0,L|108:84,1,100,8|0,0:0|0:0,0:0:0:0:
308,92,593,1,2,0:0:0:0:
396,144,807,1,0,0:0:0:0:
308,192,1022,1,0,0:0:0:0:
128,192,1236,1,0,0:0:0:0:
408,264,1450,6,0,L|508:264,1,100,2|0,0:0|0:0,0:0:0:0:
228,344,1879,2,0,L|116:344,1,100,2|0,0:0|0:0,0:0:0:0:
328,344,2307,1,0,0:0:0:0:
148,344,2522,1,0,0:0:0:0:
448,344,2736,6,0,L|452:240,1,100,2|0,0:0|0:0,0:0:0:0:
256,192,3165,2,0,L|252:80,1,100,0|0,0:0|0:0,0:0:0:0:
52,92,3593,1,2,0:0:0:0:
160,92,3807,1,0,0:0:0:0:
440,92,4022,5,2,0:0:0:0:
468,200,4236,1,0,0:0:0:0:
388,276,4450,1,0,0:0:0:0:
268,276,4665,1,0,0:0:0:0:
464,299,4879,2,0,L|468:200,1,100,2|0,0:0|0:0,0:0:0:0:
168,276,5307,6,0,L|164:176,1,100,8|0,0:0|0:0,0:0:0:0:
364,192,5736,2,0,L|443:125,1,100,2|0,0:0|0:0,0:0:0:0:
240,276,6165,2,0,L|136:276,1,100,0|0,0:0|0:0,0:0:0:0:
464,192,6593,6,0,L|352:192,1,100,2|0,0:0|0:0,0:0:0:0:
164,176,7022,2,0,L|240:112,1,100,2|0,0:0|0:0,0:0:0:0:
440,192,7450,2,0,P|472:128|420:76,1,150
172,316,7879,5,2,0:0:0:0:
78,288,8093,1,0,0:0:0:0:
23,206,8307,1,0,0:0:0:0:
24,108,8521,1,0,0:0:0:0:
94,39,8736,1,0,0:0:0:0:
191,31,8950,1,0,0:0:0:0:
392,112,9165,5,2,0:0:0:0:
492,112,9379,1,0,0:0:0:0:
380,112,9593,1,0,0:0:0:0:
192,112,9807,1,0,0:0:0:0:
392,112,10022,2,0,L|396:212,1,100,2|0,0:0|0:0,0:0:0:0:
96,348,10450,6,0,L|92:248,1,100,8|0,0:0|0:0,0:0:0:0:
292,248,10879,2,0,L|344:160,1,100,2|0,0:0|0:0,0:0:0:0:
140,248,11307,2,0,L|46:194,1,100,0|0,0:0|0:0,0:0:0:0:
364,192,11736,6,0,L|468:192,1,100,2|0,0:0|0:0,0:0:0:0:
264,192,12165,1,2,0:0:0:0:
364,192,12379,1,0,0:0:0:0:
464,192,12593,1,0,0:0:0:0:
364,192,12807,1,0,0:0:0:0:
156,192,13022,6,0,L|160:88,1,100,2|0,0:0|0:0,0:0:0:0:
360,92,13450,2,0,L|364:196,1,100,0|0,0:0|0:0,0:0:0:0:
156,192,13879,1,2,0:0:0:0:
336,192,14093,1,0,0:0:0:0:
36,192,14307,5,2,0:0:0:0:
16,292,14522,1,0,0:0:0:0:
80,368,14736,1,0,0:0:0:0:
180,368,14950,1,0,0:0:0:0:
384,368,15165,2,0,P|384:312|320:248,1,150,2|0,0:0|0:0,0:0:0:0:
72,248,15593,6,0,L|68:120,1,100,4|0,0:0|0:0,0:0:0:0:
392,136,16022,2,0,L|396:36,1,100,2|0,0:0|0:0,0:0:0:0:
208,48,16450,1,0,0:0:0:0:
412,136,16665,1,0,0:0:0:0:
112,292,16879,6,0,L|108:184,1,100,2|0,0:0|0:0,0:0:0:0:
312,136,17307,2,0,L|420:136,1,100,2|0,0:0|0:0,0:0:0:0:
208,192,17736,2,0,L|108:192,1,100,0|0,0:0|0:0,0:0:0:0:
408,52,18165,6,0,L|208:52,1,200,8|0,0:0|0:0,0:0:0:0:
308,52,18807,1,0,0:0:0:0:
108,52,19022,2,0,P|60:100|100:160,1,150,0|0,0:0|0:0,0:0:0:0:
348,192,19450,5,2,0:0:0:0:
448,192,19665,1,0,0:0:0:0:
448,292,19879,1,0,0:0:0:0:
348,292,20093,1,0,0:0:0:0:
148,292,20307,2,0,P|84:264|80:192,1,150,2|0,0:0|0:0,0:0:0:0:
348,292,20736,5,8,0:0:0:0:
392,192,20950,1,0,0:0:0:0:
320,108,21165,1,0,0:0:0:0:
212,108,21379,1,0,0:0:0:0:
412,148,21593,2,0,L|320:108,1,100,2|0,0:0|0:0,0:0:0:0:
16,192,22022,6,0,L|124:192,1,100,2|0,0:0|0:0,0:0:0:0:
316,192,22450,2,0,L|240:124,1,100,2|0,0:0|0:0,0:0:0:0:
60,192,22879,2,0,L|56:292,1,100,0|0,0:0|0:0,0:0:0:0:
356,332,23307,5,8,0:0:0:0:
456,332,23522,1,0,0:0:0:0:
356,332,23736,1,0,0:0:0:0:
456,332,23950,1,0,0:0:0:0:
256,332,24165,2,0,L|156:332,1,100,2|0,0:0|0:0,0:0:0:0:
456,244,24593,6,0,L|356:244,1,100,2|0,0:0|0:0,0:0:0:0:
156,240,25022,2,0,L|77:173,1,100,2|0,0:0|0:0,0:0:0:0:
280,244,25450,2,0,L|272:144,1,100,0|0,0:0|0:0,0:0:0:0:
68,8,25879,5,8,0:0:0:0:
32,112,26093,1,0,0:0:0:0:
108,192,26307,1,0,0:0:0:0:
220,192,26522,1,0,0:0:0:0:
20,192,26736,2,0,L|16:296,1,100,0|0,0:0|0:0,0:0:0:0:
320,192,27165,6,0,L|420:192,2,100,2|0|0,0:0|0:0|0:0,0:0:0:0:
440,192,27807,1,0,0:0:0:0:
232,192,28022,2,0,L|128:192,1,100,2|0,0:0|0:0,0:0:0:0:
432,368,28450,6,0,L|436:264,1,100,8|0,0:0|0:0,0:0:0:0:
276,192,28879,2,0,L|272:88,1,100,0|0,0:0|0:0,0:0:0:0:
112,192,29307,2,0,L|108:304,1,100,0|0,0:0|0:0,0:0:0:0:
460,192,29736,5,2,0:0:0:0:
460,192,30379,1,0,0:0:0:0:
340,192,30593,1,0,0:0:0:0:
452,192,30807,1,0,0:0:0:0:
152,192,31022,6,0,L|144:84,1,100,8|0,0:0|0:0,0:0:0:0:
340,192,31450,2,0,L|216:192,1,100,0|0,0:0|0:0,0:0:0:0:
40,192,31879,2,0,P|16:244|76:300,1,150,2|0,0:0|0:0,0:0:0:0:
328,300,32307,6,0,L|432:300,1,100,2|0,0:0|0:0,0:0:0:0:
128,300,32736,1,0,0:0:0:0:
24,268,32950,1,0,0:0:0:0:
24,156,33165,1,0,0:0:0:0:
128,124,33379,1,0,0:0:0:0:
432,92,33593,6,0,L|436:200,1,100,2|0,0:0|0:0,0:0:0:0:
232,192,34022,2,0,L|161:121,1,100,0|0,0:0|0:0,0:0:0:0:
364,192,34450,2,0,P|412:244|364:288,1,150,2|0,0:0|0:0,0:0:0:0:
112,304,34879,5,2,0:0:0:0:
120,192,35094,1,0,0:0:0:0:
200,120,35308,1,0,0:0:0:0:
308,120,35522,1,0,0:0:0:0:
108,120,35736,2,0,L|0:120,1,100,2|0,0:0|0:0,0:0:0:0:
316,272,36165,5,8,0:0:0:0:
424,272,36379,1,0,0:0:0:0:
424,164,36593,1,0,0:0:0:0:
316,164,36807,1,0,0:0:0:0:
112,192,37022,2,0,L|208:164,1,100,2|0,0:0|0:0,0:0:0:0:
488,192,37450,6,0,L|492:84,1,100,2|0,0:0|0:0,0:0:0:0:
300,132,37879,2,0,L|296:32,1,100,0|0,0:0|0:0,0:0:0:0:
116,32,38307,1,2,0:0:0:0:
316,132,38522,1,0,0:0:0:0:
32,32,38736,6,0,L|28:136,1,100,2|0,0:0|0:0,0:0:0:0:
236,70,39165,2,0,L|316:132,1,100,0|0,0:0|0:0,0:0:0:0:
112,152,39593,2,0,P|68:208|108:280,1,150,2|0,0:0|0:0,0:0:0:0:
352,272,40022,6,0,L|456:272,1,100,2|0,0:0|0:0,0:0:0:0:
252,336,40450,2,0,L|172:269,1,100,0|0,0:0|0:0,0:0:0:0:
376,272,40879,2,0,P|404:206|360:150,1,150,2|0,0:0|0:0,0:0:0:0:
112,272,41307,5,4,0:0:0:0:
12,224,41521,1,0,0:0:0:0:
12,116,41735,1,0,0:0:0:0:
112,164,41949,1,0,0:0:0:0:
212,164,42164,1,0,0:0:0:0:
112,164,42378,1,0,0:0:0:0:
316,192,42593,5,2,0:0:0:0:
424,192,42807,1,0,0:0:0:0:
424,84,43021,1,0,0:0:0:0:
316,84,43235,1,0,0:0:0:0:
136,84,43450,1,2,0:0:0:0:
328,84,43665,1,0,0:0:0:0:
48,192,43879,5,2,0:0:0:0:
8,100,44094,1,0,0:0:0:0:
68,20,44308,1,0,0:0:0:0:
176,20,44522,1,0,0:0:0:0:
376,20,44736,2,0,P|432:52|428:132,1,150,2|0,0:0|0:0,0:0:0:0:
176,20,45165,5,8,0:0:0:0:
68,20,45379,1,0,0:0:0:0:
8,100,45593,1,0,0:0:0:0:
48,192,45807,1,0,0:0:0:0:
248,192,46022,2,0,P|240:252|168:300,1,150,2|0,0:0|0:0,0:0:0:0:
392,296,46450,5,2,0:0:0:0:
504,296,46665,1,0,0:0:0:0:
504,296,46879,1,0,0:0:0:0:
392,296,47093,1,0,0:0:0:0:
188,296,47307,2,0,P|132:272|136:192,1,150,2|0,0:0|0:0,0:0:0:0:
388,92,47736,6,0,L|396:208,1,100,8|0,0:0|0:0,0:0:0:0:
284,192,48165,2,0,L|384:192,1,100,0|0,0:0|0:0,0:0:0:0:
184,192,48593,2,0,L|76:192,1,100,2|0,0:0|0:0,0:0:0:0:
384,192,49022,6,0,L|484:192,2,100,2|0|0,0:0|0:0|0:0,0:0:0:0:
272,192,49665,1,0,0:0:0:0:
472,92,49879,2,0,L|372:92,1,100,2|0,0:0|0:0,0:0:0:0:
60,192,50307,6,0,L|56:88,1,100,8|0,0:0|0:0,0:0:0:0:
176,136,50736,2,0,L|84:92,1,100,0|0,0:0|0:0,0:0:0:0:
388,192,51129,1,0,0:0:0:0:
404,192,51165,2,0,L|408:92,1,100,2|0,0:0|0:0,0:0:0:0:
108,192,51593,5,2,0:0:0:0:
228,192,51807,1,0,0:0:0:0:
348,192,52022,1,0,0:0:0:0:
156,192,52236,1,0,0:0:0:0:
360,192,52450,2,0,L|364:92,1,100,2|0,0:0|0:0,0:0:0:0:
64,8,52879,5,8,0:0:0:0:
16,108,53093,1,0,0:0:0:0:
84,192,53307,1,0,0:0:0:0:
196,192,53522,1,0,0:0:0:0:
488,192,53736,2,0,L|388:192,1,100,2|0,0:0|0:0,0:0:0:0:
96,348,54165,5,2,0:0:0:0:
8,268,54379,1,0,0:0:0:0:
96,191,54593,1,0,0:0:0:0:
296,191,54807,1,0,0:0:0:0:
104,192,55022,2,0,L|200:164,1,100,2|0,0:0|0:0,0:0:0:0:
496,191,55450,6,0,L|296:191,1,200,8|0,0:0|0:0,0:0:0:0:
184,192,56093,1,0,0:0:0:0:
392,219,56307,2,0,L|296:191,1,100,2|0,0:0|0:0,0:0:0:0:
16,192,56736,5,2,0:0:0:0:
124,192,56950,1,0,0:0:0:0:
232,192,57164,1,0,0:0:0:0:
48,192,57379,1,0,0:0:0:0:
248,192,57593,2,0,L|348:192,1,100,2|0,0:0|0:0,0:0:0:0:
48,40,58022,6,0,P|38:138|120:192,1,200,8|0,0:0|0:0,0:0:0:0:
224,192,58665,1,0,0:0:0:0:
24,264,58879,2,0,L|124:264,1,100,2|0,0:0|0:0,0:0:0:0:
404,332,59307,6,0,L|508:332,1,100,2|0,0:0|0:0,0:0:0:0:
300,332,59736,2,0,L|224:260,1,100,0|0,0:0|0:0,0:0:0:0:
440,264,60165,2,0,L|444:160,1,100,2|0,0:0|0:0,0:0:0:0:
124,192,60593,6,0,L|120:80,1,100,2|0,0:0|0:0,0:0:0:0:
324,92,61022,2,0,L|248:164,1,100,0|0,0:0|0:0,0:0:0:0:
52,192,61450,2,0,P|24:240|72:320,1,150,2|0,0:0|0:0,0:0:0:0:
320,320,61879,5,4,0:0:0:0:
440,320,62093,1,0,0:0:0:0:
340,320,62200,1,0,0:0:0:0:
240,320,62307,2,0,L|236:220,1,100,2|0,0:0|0:0,0:0:0:0:
436,192,62736,2,0,L|332:192,1,100,2|0,0:0|0:0,0:0:0:0:
36,220,63165,5,8,0:0:0:0:
156,224,63379,1,0,0:0:0:0:
256,224,63486,1,0,0:0:0:0:
356,224,63593,2,0,L|456:224,1,100,2|0,0:0|0:0,0:0:0:0:
256,120,64022,2,0,L|360:120,1,100,2|0,0:0|0:0,0:0:0:0:
56,64,64450,5,8,0:0:0:0:
168,64,64665,1,0,0:0:0:0:
112,64,64772,1,0,0:0:0:0:
56,64,64879,1,2,0:0:0:0:
236,64,65093,1,0,0:0:0:0:
36,64,65307,2,0,L|32:172,1,100,2|0,0:0|0:0,0:0:0:0:
336,192,65736,5,8,0:0:0:0:
224,192,65951,1,0,0:0:0:0:
312,192,66058,1,0,0:0:0:0:
400,192,66165,2,0,L|404:84,1,100,2|0,0:0|0:0,0:0:0:0:
204,192,66593,2,0,L|104:192,1,100,2|0,0:0|0:0,0:0:0:0:
404,192,67022,5,8,0:0:0:0:
284,192,67236,1,0,0:0:0:0:
184,192,67343,1,0,0:0:0:0:
84,192,67450,2,0,L|80:92,1,100,2|0,0:0|0:0,0:0:0:0:
280,64,67879,2,0,L|176:64,1,100,2|0,0:0|0:0,0:0:0:0:
480,64,68307,5,8,0:0:0:0:
360,64,68522,1,0,0:0:0:0:
192,64,68629,1,0,0:0:0:0:
24,64,68736,2,0,L|16:168,1,100,2|0,0:0|0:0,0:0:0:0:
320,240,69165,2,0,L|120:240,1,200,2|0,0:0|0:0,0:0:0:0:
428,164,69593,6,0,P|504:232|432:336,1,250,4|0,0:0|0:0,0:0:0:0:
324,336,70236,1,0,0:0:0:0:
124,340,70450,2,0,L|128:236,1,100,2|0,0:0|0:0,0:0:0:0:
404,192,70879,6,0,L|504:192,2,100,2|0|0,0:0|0:0|0:0,0:0:0:0:
212,192,71522,1,0,0:0:0:0:
412,192,71736,2,0,L|416:64,1,100,2|0,0:0|0:0,0:0:0:0:
124,192,72165,5,8,0:0:0:0:
24,144,72379,1,0,0:0:0:0:
124,96,72593,1,0,0:0:0:0:
244,96,72807,1,0,0:0:0:0:
33,52,73022,2,0,L|124:96,1,100,2|0,0:0|0:0,0:0:0:0:
412,96,73450,5,2,0:0:0:0:
504,172,73665,1,0,0:0:0:0:
504,280,73879,1,0,0:0:0:0:
412,204,74093,1,0,0:0:0:0:
304,204,74307,1,0,0:0:0:0:
436,204,74522,1,0,0:0:0:0:
156,304,74736,6,0,L|152:200,1,100,8|0,0:0|0:0,0:0:0:0:
352,204,75165,2,0,L|356:96,1,100,2|0,0:0|0:0,0:0:0:0:
156,104,75593,1,2,0:0:0:0:
340,104,75807,1,0,0:0:0:0:
64,104,76022,6,0,L|60:204,1,100,2|0,0:0|0:0,0:0:0:0:
264,224,76450,2,0,L|332:308,1,100,2|0,0:0|0:0,0:0:0:0:
112,288,76879,2,0,L|8:288,1,100,2|0,0:0|0:0,0:0:0:0:
72,288,77200,1,0,0:0:0:0:
324,292,77307,5,4,0:0:0:0:
432,276,77522,1,0,0:0:0:0:
464,172,77736,1,0,0:0:0:0:
432,68,77950,1,0,0:0:0:0:
324,52,78165,2,0,L|216:52,1,100,0|0,0:0|0:0,0:0:0:0:
344,52,78593,6,0,L|448:52,2,100,2|0|0,0:0|0:0|0:0,0:0:0:0:
164,52,79236,1,0,0:0:0:0:
364,52,79450,1,2,0:0:0:0:
64,52,79665,1,0,0:0:0:0:
396,52,79879,5,8,0:0:0:0:
496,120,80093,1,0,0:0:0:0:
496,240,80307,1,0,0:0:0:0:
396,176,80522,1,0,0:0:0:0:
276,176,80736,2,0,L|376:176,1,100,0|0,0:0|0:0,0:0:0:0:
176,176,81165,5,2,0:0:0:0:
148,280,81379,1,0,0:0:0:0:
256,312,81593,1,0,0:0:0:0:
76,312,81807,1,0,0:0:0:0:
280,312,82022,2,0,L|384:268,1,100,2|0,0:0|0:0,0:0:0:0:
76,312,82450,6,0,L|72:212,1,100,8|0,0:0|0:0,0:0:0:0:
280,212,82879,2,0,L|284:100,1,100,2|0,0:0|0:0,0:0:0:0:
488,64,83307,1,2,0:0:0:0:
368,64,83522,1,0,0:0:0:0:
428,64,83629,1,0,0:0:0:0:
204,64,83736,6,0,L|100:64,1,100,2|0,0:0|0:0,0:0:0:0:
308,64,84165,2,0,L|380:136,1,100,2|0,0:0|0:0,0:0:0:0:
180,132,84593,2,0,B|128:132|128:132|184:132,1,100,2|0,0:0|0:0,0:0:0:0:
240,132,84915,1,0,0:0:0:0:
16,132,85022,6,0,L|120:132,3,100,8|0|0|0,0:0|0:0|0:0|0:0,0:0:0:0:
296,192,85879,1,2,0:0:0:0:
96,192,86093,1,0,0:0:0:0:
396,192,86307,6,0,L|400:300,1,100,2|0,0:0|0:0,0:0:0:0:
48,192,86736,2,0,L|44:84,1,100,2|0,0:0|0:0,0:0:0:0:
344,192,87165,2,0,L|192:192,1,150.000005722046,2|0,0:0|0:0,0:0:0:0:
492,52,87593,6,0,P|488:128|384:192,1,200,4|0,0:0|0:0,0:0:0:0:
272,192,88236,1,0,0:0:0:0:
485,226,88450,2,0,L|375:186,1,100,2|0,0:0|0:0,0:0:0:0:
92,192,88879,6,0,L|200:192,2,100,8|0|0,0:0|0:0|0:0,0:0:0:0:
304,192,89522,1,0,0:0:0:0:
16,192,89736,2,0,L|120:192,1,100,2|0,0:0|0:0,0:0:0:0:
416,272,90165,6,0,L|312:272,3,100,2|0|0|0,0:0|0:0|0:0|0:0,0:0:0:0:
116,272,91022,2,0,L|12:272,1,100,2|0,0:0|0:0,0:0:0:0:
316,192,91450,6,0,L|416:192,2,100,8|0|0,0:0|0:0|0:0,0:0:0:0:
124,192,92093,1,0,0:0:0:0:
340,192,92307,2,0,L|344:88,1,100,2|0,0:0|0:0,0:0:0:0:
64,24,92736,6,0,P|4:80|68:156,1,200,2|0,0:0|0:0,0:0:0:0:
260,156,93379,1,0,0:0:0:0:
44,156,93593,2,0,L|40:260,1,100,2|0,0:0|0:0,0:0:0:0:
340,304,94022,5,8,0:0:0:0:
232,304,94236,1,0,0:0:0:0:
124,304,94450,1,0,0:0:0:0:
12,304,94665,1,0,0:0:0:0:
216,192,94879,2,0,L|112:192,1,100,2|0,0:0|0:0,0:0:0:0:
416,192,95307,6,0,L|495:118,1,100,2|0,0:0|0:0,0:0:0:0:
168,192,95736,2,0,L|64:192,1,100,2|0,0:0|0:0,0:0:0:0:
280,192,96165,1,2,0:0:0:0:
88,192,96379,1,0,0:0:0:0:
416,192,96593,6,0,L|312:192,1,100,8|0,0:0|0:0,0:0:0:0:
24,192,97022,2,0,L|100:115,1,100,2|0,0:0|0:0,0:0:0:0:
304,192,97450,2,0,L|196:192,1,100,2|0,0:0|0:0,0:0:0:0:
496,192,97879,6,0,L|500:88,1,100,2|0,0:0|0:0,0:0:0:0:
288,192,98307,2,0,L|284:88,1,100,2|0,0:0|0:0,0:0:0:0:
72,16,98736,2,0,L|68:124,1,100,2|0,0:0|0:0,0:0:0:0:
368,192,99165,6,0,L|260:192,1,100,8|0,0:0|0:0,0:0:0:0:
56,196,99593,2,0,L|60:300,1,100,2|0,0:0|0:0,0:0:0:0:
272,332,100022,1,2,0:0:0:0:
72,296,100236,1,0,0:0:0:0:
372,332,100450,6,0,L|476:332,1,100,2|0,0:0|0:0,0:0:0:0:
256,332,100879,2,0,L|176:265,1,100,2|0,0:0|0:0,0:0:0:0:
388,92,101307,2,0,L|396:204,1,100,2|0,0:0|0:0,0:0:0:0:
92,192,101736,6,0,L|192:192,1,100,8|0,0:0|0:0,0:0:0:0:
404,192,102165,1,2,0:0:0:0:
432,140,102272,1,0,0:0:0:0:
404,88,102379,1,0,0:0:0:0:
344,80,102486,1,0,0:0:0:0:
144,80,102593,2,0,L|44:80,1,100,2|0,0:0|0:0,0:0:0:0:
400,291,103022,6,0,L|404:191,1,100,2|0,0:0|0:0,0:0:0:0:
92,80,103450,2,0,L|88:180,1,100,2|0,0:0|0:0,0:0:0:0:
464,292,103879,2,0,L|460:192,1,100,2|0,0:0|0:0,0:0:0:0:
160,192,104307,5,8,0:0:0:0:
372,192,104522,1,0,0:0:0:0:
172,192,104736,1,0,0:0:0:0:
292,192,104950,1,0,0:0:0:0:
80,192,105165,2,0,B|28:192|28:192|84:192,1,100,2|0,0:0|0:0,0:0:0:0:
136,192,105486,1,0,0:0:0:0:
360,264,105593,6,0,L|464:264,2,100,4|0|0,0:0|0:0|0:0,0:0:0:0:
240,264,106236,1,0,0:0:0:0:
448,192,106450,2,0,L|452:128,1,50,2|0,0:0|0:0,0:0:0:0:
204,72,106665,2,0,L|148:72,1,50,0|0,0:0|0:0,0:0:0:0:
416,76,106879,6,0,P|496:120|444:192,1,200,4|0,0:0|0:0,0:0:0:0:
256,192,107522,1,0,0:0:0:0:
468,192,107736,2,0,L|472:304,1,100,2|0,0:0|0:0,0:0:0:0:
168,340,108165,6,0,L|376:340,1,200,8|0,0:0|0:0,0:0:0:0:
468,340,108807,1,0,0:0:0:0:
168,272,109022,2,0,L|320:272,1,150.000005722046,2|0,0:0|0:0,0:0:0:0:
20,60,109450,6,0,P|20:136|120:192,1,200,2|0,0:0|0:0,0:0:0:0:
320,192,110093,1,0,0:0:0:0:
18,192,110307,2,0,L|118:192,1,100,2|0,0:0|0:0,0:0:0:0:
400,192,110736,6,0,L|504:192,3,100,8|0|0|0,0:0|0:0|0:0|0:0,0:0:0:0:
288,192,111593,2,0,L|184:192,1,100,2|0,0:0|0:0,0:0:0:0:
480,192,112022,6,0,P|508:124|420:48,1,200,2|0,0:0|0:0,0:0:0:0:
236,48,112665,1,0,0:0:0:0:
448,48,112879,2,0,L|456:168,1,100,2|0,0:0|0:0,0:0:0:0:
156,120,113307,5,8,0:0:0:0:
44,120,113522,1,0,0:0:0:0:
164,120,113736,1,0,0:0:0:0:
52,120,113950,1,0,0:0:0:0:
336,192,114165,1,2,0:0:0:0:
36,192,114379,1,0,0:0:0:0:
356,192,114593,6,0,L|456:192,1,100,2|0,0:0|0:0,0:0:0:0:
136,192,115022,2,0,L|32:192,1,100,2|0,0:0|0:0,0:0:0:0:
336,192,115450,1,2,0:0:0:0:
136,192,115665,1,0,0:0:0:0:
436,192,115879,6,0,L|440:292,1,100,8|0,0:0|0:0,0:0:0:0:
320,92,116307,2,0,L|316:196,1,100,0|0,0:0|0:0,0:0:0:0:
32,192,116736,2,0,L|132:192,1,100,2|0,0:0|0:0,0:0:0:0:
432,192,117165,5,8,0:0:0:0:
316,191,117379,1,0,0:0:0:0:
96,192,117593,1,2,0:0:0:0:
216,192,117807,1,0,0:0:0:0:
88,192,118022,1,0,0:0:0:0:
208,192,118236,1,0,0:0:0:0:
420,192,118450,5,8,0:0:0:0:
300,192,118665,1,0,0:0:0:0:
80,192,118879,1,2,0:0:0:0:
200,192,119093,1,0,0:0:0:0:
400,192,119307,1,0,0:0:0:0:
188,192,119522,1,0,0:0:0:0:
488,192,119736,6,0,L|492:72,1,100,8|0,0:0|0:0,0:0:0:0:
272,96,120165,1,2,0:0:0:0:
152,96,120379,1,0,0:0:0:0:
280,96,120593,1,0,0:0:0:0:
160,96,120807,1,0,0:0:0:0:
376,192,121022,5,8,0:0:0:0:
256,192,121236,1,0,0:0:0:0:
476,192,121450,1,2,0:0:0:0:
356,192,121665,1,0,0:0:0:0:
36,192,121879,6,0,L|32:308,1,100,8|0,0:0|0:0,0:0:0:0:
252,92,122307,2,0,L|148:92,1,100,2|0,0:0|0:0,0:0:0:0:
372,192,122736,2,0,L|476:192,1,100,2|0,0:0|0:0,0:0:0:0:
412,192,123057,1,0,0:0:0:0:
160,192,123165,6,0,L|60:192,1,100,2|0,0:0|0:0,0:0:0:0:
372,192,123593,2,0,L|295:127,1,100,2|0,0:0|0:0,0:0:0:0:
16,192,124022,2,0,L|33:93,1,100,2|0,0:0|0:0,0:0:0:0:
432,192,124450,5,4,0:0:0:0:
